<?xml version="1.0" standalone="no"?>
<!DOCTYPE svg PUBLIC "-//W3C//DTD SVG 1.1//EN" "http://www.w3.org/Graphics/SVG/1.1/DTD/svg11.dtd" >
<svg xmlns="http://www.w3.org/2000/svg" xmlns:xlink="http://www.w3.org/1999/xlink" version="1.1">
<metadata>
Created by FontForge 20150318 at Mon May 11 12:14:56 2015
 By uniteet7
Copyright (c) Mark Simonson, 2005. All rights reserved.
</metadata>
<defs>
<font id="ProximaNovaAltExtraCondensedBold" horiz-adv-x="423" >
  <font-face 
    font-family="ProximaNovaAltExtraCondensedBold"
    font-weight="700"
    font-stretch="normal"
    units-per-em="1000"
    panose-1="2 0 5 6 3 0 0 2 0 4"
    ascent="790"
    descent="-210"
    x-height="483"
    cap-height="667"
    bbox="-98 -199 846 872"
    underline-thickness="20"
    underline-position="-113"
    unicode-range="U+000D-FB02"
  />
<missing-glyph horiz-adv-x="455" 
d="M403 -90h-351v842h351v-842zM371 -60v782h-288v-782h288z" />
    <glyph glyph-name="fi" unicode="fi" horiz-adv-x="454" 
d="M174 0h-113v385h-44v98h44v50q0 68 32 106t87 38q40 0 69 -13l-19 -91q-6 6 -19 6q-37 0 -37 -46v-50h61v-98h-61v-385zM351 540q-29 0 -49 20t-20 48t20 48.5t49 20.5t49 -20.5t20 -48.5t-20 -48t-49 -20zM407 0h-112v483h112v-483z" />
    <glyph glyph-name="fl" unicode="fl" horiz-adv-x="482" 
d="M174 0h-113v385h-44v98h44v50q0 68 32 106t87 38q40 0 69 -13l-19 -91q-6 6 -19 6q-37 0 -37 -46v-50h61v-98h-61v-385zM404 -12q-58 0 -83.5 30t-25.5 93v556h112v-534q0 -45 27 -45q17 0 27 13l24 -89q-31 -24 -81 -24z" />
    <glyph glyph-name=".notdef" horiz-adv-x="455" 
d="M403 -90h-351v842h351v-842zM371 -60v782h-288v-782h288z" />
    <glyph glyph-name=".null" horiz-adv-x="0" 
 />
    <glyph glyph-name="nonmarkingreturn" horiz-adv-x="333" 
 />
    <glyph glyph-name="NUL" horiz-adv-x="0" 
 />
    <glyph glyph-name="NUL" horiz-adv-x="0" 
 />
    <glyph glyph-name="CR" unicode="&#xd;" horiz-adv-x="0" 
 />
    <glyph glyph-name="space" unicode=" " horiz-adv-x="161" 
 />
    <glyph glyph-name="exclam" unicode="!" horiz-adv-x="249" 
d="M174 209h-99l-20 458h138zM124 -11q-30 0 -52 22t-22 52t22 52t52 22q31 0 52.5 -22t21.5 -52t-21.5 -52t-52.5 -22z" />
    <glyph glyph-name="quotedbl" unicode="&#x22;" horiz-adv-x="389" 
d="M134 386h-50q-37 211 -37 229q0 25 18.5 43.5t43.5 18.5t43.5 -18.5t18.5 -43.5zM305 386h-50q-37 211 -37 229q0 25 18 43.5t44 18.5t44 -18t18 -44z" />
    <glyph glyph-name="numbersign" unicode="#" horiz-adv-x="455" 
d="M265 0h-85l42 173h-63l-40 -173h-85l41 173h-60l17 73h60l40 175h-60l16 72h61l40 174h85l-40 -174h62l40 174h84l-40 -174h59l-15 -72h-61l-41 -175h63l-17 -73h-63zM238 246l40 175h-62l-39 -175h61z" />
    <glyph glyph-name="dollar" unicode="$" horiz-adv-x="389" 
d="M160 -100v89q-89 6 -148 65l54 99q42 -53 110 -53q30 0 48.5 20.5t18.5 52.5t-22 58t-53 47.5t-62 47t-53 68t-22 98.5q0 64 34 113t95 66v97h85v-92q70 -8 116 -52l-48 -97q-38 39 -92 39q-27 0 -44.5 -18.5t-17.5 -48.5q0 -28 22 -53t53 -47t62 -48.5t53 -70.5t22 -99
q0 -68 -33.5 -117.5t-92.5 -66.5v-97h-85z" />
    <glyph glyph-name="percent" unicode="%" horiz-adv-x="587" 
d="M150 345q-58 0 -93.5 47t-35.5 118q0 72 35.5 119.5t93.5 47.5q59 0 94.5 -47.5t35.5 -119.5q0 -71 -35.5 -118t-94.5 -47zM179 0h-50l279 667h51zM437 -12q-59 0 -94.5 47t-35.5 118q0 72 35.5 119.5t94.5 47.5q58 0 93.5 -47.5t35.5 -119.5q0 -71 -35.5 -118t-93.5 -47
zM150 416q25 0 39.5 25.5t14.5 68.5q0 44 -14.5 70t-39.5 26t-39.5 -26t-14.5 -70q0 -42 14.5 -68t39.5 -26zM437 59q25 0 39.5 25.5t14.5 68.5q0 44 -14.5 70t-39.5 26t-39.5 -26t-14.5 -70q0 -43 14.5 -68.5t39.5 -25.5z" />
    <glyph glyph-name="ampersand" unicode="&#x26;" horiz-adv-x="447" 
d="M450 0h-119l-27 42q-56 -54 -127 -54q-66 0 -108 49.5t-42 135.5q0 68 27 113.5t74 84.5q-36 85 -36 140q0 73 37.5 119.5t96.5 46.5q54 0 91 -41t37 -101q0 -44 -19 -81.5t-37 -55.5t-57 -50q24 -48 35 -67q20 -39 31 -58q12 38 31 115l90 -42q-27 -103 -63 -169
q38 -59 85 -127zM201 78q30 0 58 39q-30 49 -50 89q-23 40 -38 72q-32 -44 -32 -98q0 -44 18 -73t44 -29zM191 511q0 -30 15 -77q52 47 52 98q0 31 -9 47t-23 16q-35 0 -35 -84z" />
    <glyph glyph-name="quotesingle" unicode="'" horiz-adv-x="218" 
d="M134 386h-50q-37 211 -37 229q0 25 18.5 43.5t43.5 18.5t43.5 -18.5t18.5 -43.5z" />
    <glyph glyph-name="parenleft" unicode="(" horiz-adv-x="258" 
d="M237 -162l-82 -37q-108 207 -108 442t108 442l82 -36q-67 -201 -67 -406q0 -206 67 -405z" />
    <glyph glyph-name="parenright" unicode=")" horiz-adv-x="258" 
d="M103 -199l-83 37q67 195 67 405t-67 406l83 36q108 -207 108 -442t-108 -442z" />
    <glyph glyph-name="asterisk" unicode="*" horiz-adv-x="321" 
d="M189 373h-58l5 111l-93 -60l-29 50l98 51l-98 50l29 51l93 -60l-5 111h58l-5 -111l93 60l30 -51l-99 -50l99 -51l-30 -50l-93 60z" />
    <glyph glyph-name="plus" unicode="+" horiz-adv-x="383" 
d="M354 302h-123v-146h-79v146h-123v71h123v139h79v-139h123v-71z" />
    <glyph glyph-name="comma" unicode="," horiz-adv-x="251" 
d="M203 41q0 -52 -26 -97.5t-70 -77.5l-51 41q25 14 47 41.5t27 52.5q-6 -3 -17 -3q-27 0 -44.5 18.5t-17.5 47.5q0 30 21 51.5t50 21.5q34 0 57.5 -26t23.5 -70z" />
    <glyph glyph-name="hyphen" unicode="-" horiz-adv-x="241" 
d="M211 194h-181v96h181v-96z" />
    <glyph glyph-name="period" unicode="." horiz-adv-x="248" 
d="M124 -11q-30 0 -51.5 22t-21.5 52t21.5 52t51.5 22q31 0 52.5 -22t21.5 -52t-21.5 -52t-52.5 -22z" />
    <glyph glyph-name="slash" unicode="/" horiz-adv-x="227" 
d="M80 -20h-80l147 707h80z" />
    <glyph glyph-name="zero" unicode="0" horiz-adv-x="454" 
d="M227 -12q-67 0 -113 52t-65 127t-19 166t19 166t65 126.5t113 51.5q51 0 90 -29t61.5 -79t33.5 -109.5t11 -126.5t-11 -126.5t-33.5 -109.5t-61.5 -79.5t-90 -29.5zM227 100q41 0 54.5 58.5t13.5 174.5t-13.5 174t-54.5 58t-54.5 -58t-13.5 -174q0 -117 13.5 -175
t54.5 -58z" />
    <glyph glyph-name="one" unicode="1" horiz-adv-x="348" 
d="M296 0h-126v505l-92 -97l-73 76l182 183h109v-667z" />
    <glyph glyph-name="two" unicode="2" horiz-adv-x="441" 
d="M408 0h-367v105q159 202 198 264.5t39 114.5q0 34 -19 57.5t-50 23.5q-64 0 -105 -73l-81 74q72 111 192 111q86 0 138 -52.5t52 -138.5q0 -65 -39 -138.5t-158 -236.5h200v-111z" />
    <glyph glyph-name="three" unicode="3" horiz-adv-x="440" 
d="M214 -12q-64 0 -114.5 30t-78.5 79l85 74q39 -71 103 -71q76 0 76 93q0 49 -24 70t-57 21q-31 0 -41 -1v113q8 -1 36 -1q37 0 58 21.5t21 62.5q0 86 -70 86q-64 0 -98 -64l-82 67q64 109 187 109q84 0 135 -45.5t51 -134.5q0 -53 -30 -97.5t-76 -55.5q50 -10 82 -55
t32 -106q0 -88 -52.5 -141.5t-142.5 -53.5z" />
    <glyph glyph-name="four" unicode="4" horiz-adv-x="430" 
d="M365 0h-126v146h-224v112l203 409h147v-410h50v-111h-50v-146zM239 257v263l-121 -263h121z" />
    <glyph glyph-name="five" unicode="5" horiz-adv-x="445" 
d="M218 -12q-126 0 -190 109l82 74q38 -71 100 -71q36 0 57 32.5t21 78.5q0 111 -69 111q-47 0 -81 -56l-94 25v376h341v-111h-215v-179q34 54 96 54q68 0 109.5 -57t41.5 -160q0 -98 -54 -162t-145 -64z" />
    <glyph glyph-name="six" unicode="6" horiz-adv-x="442" 
d="M234 -12q-72 0 -119 49.5t-66 123.5t-19 171q0 154 58.5 249.5t165.5 95.5q45 0 83 -20t61 -55l-65 -90q-28 53 -76 53q-47 0 -73 -61.5t-26 -147.5v-9q15 37 44.5 60t67.5 23q63 0 104.5 -57t41.5 -159q0 -98 -50.5 -162t-131.5 -64zM227 100q31 0 46 32t15 77
q0 60 -17.5 86.5t-44.5 26.5q-42 0 -68 -73q5 -149 69 -149z" />
    <glyph glyph-name="seven" unicode="7" horiz-adv-x="390" 
d="M206 0h-134l162 556h-217v111h356v-87z" />
    <glyph glyph-name="eight" unicode="8" horiz-adv-x="441" 
d="M220 -12q-93 0 -142.5 47t-49.5 132q0 58 33.5 108t78.5 69q-43 17 -73.5 60.5t-30.5 101.5q0 83 53.5 127t130.5 44t131 -44t54 -127q0 -58 -31 -101.5t-74 -60.5q45 -19 79 -69t34 -107q0 -85 -50 -132.5t-143 -47.5zM220 384q9 4 21 13t25.5 33t13.5 52q0 83 -60 83
t-60 -83q0 -28 14 -52t25 -32.5t21 -13.5zM220 100q29 0 48 22.5t19 63.5q0 46 -25 77.5t-42 35.5q-17 -4 -41.5 -35.5t-24.5 -77.5q0 -42 18.5 -64t47.5 -22z" />
    <glyph glyph-name="nine" unicode="9" horiz-adv-x="442" 
d="M188 -11q-94 0 -145 75l66 90q28 -53 76 -53q44 0 71.5 60.5t27.5 147.5v10q-15 -37 -44.5 -60t-67.5 -23q-63 0 -104.5 57t-41.5 159q0 97 50 161.5t131 64.5q72 0 119.5 -49.5t66 -123.5t18.5 -171q0 -153 -58 -249t-165 -96zM215 344q43 0 69 73q-5 149 -68 149
q-32 0 -47 -31.5t-15 -77.5q0 -59 17.5 -86t43.5 -27z" />
    <glyph glyph-name="colon" unicode=":" horiz-adv-x="247" 
d="M124 343q-30 0 -51.5 22t-21.5 51q0 30 21.5 52t51.5 22q31 0 52.5 -22t21.5 -52t-22 -51.5t-52 -21.5zM124 -11q-30 0 -51.5 22t-21.5 52t21.5 52t51.5 22q31 0 52.5 -22t21.5 -52t-21.5 -52t-52.5 -22z" />
    <glyph glyph-name="semicolon" unicode=";" horiz-adv-x="249" 
d="M124 343q-30 0 -51.5 22t-21.5 52t21.5 51.5t51.5 21.5q31 0 52.5 -21.5t21.5 -51.5t-21.5 -52t-52.5 -22zM203 44q0 -52 -26 -97.5t-70 -77.5l-51 41q25 14 47 41.5t27 52.5q-6 -3 -17 -3q-26 0 -44 19t-18 48t21 50.5t50 21.5q34 0 57.5 -26t23.5 -70z" />
    <glyph glyph-name="less" unicode="&#x3c;" horiz-adv-x="383" 
d="M354 156l-325 138v81l325 139v-85l-241 -95l241 -93v-85z" />
    <glyph glyph-name="equal" unicode="=" horiz-adv-x="383" 
d="M354 393h-325v72h325v-72zM354 203h-325v72h325v-72z" />
    <glyph glyph-name="greater" unicode="&#x3e;" horiz-adv-x="383" 
d="M354 294l-325 -138v85l241 93l-241 95v85l325 -139v-81z" />
    <glyph glyph-name="question" unicode="?" horiz-adv-x="325" 
d="M119 199q-25 34 -25 88q0 37 14.5 69t31.5 51.5t31.5 46t14.5 54.5q0 24 -15 42.5t-39 18.5q-31 0 -55 -30l-52 78q57 60 137 60q68 0 108 -40t40 -103q0 -40 -17.5 -77t-38.5 -61t-38.5 -55t-17.5 -61q0 -23 16 -45zM165 -11q-30 0 -52 22t-22 52t22 52t52 22t52 -22
t22 -52t-22 -52t-52 -22z" />
    <glyph glyph-name="at" unicode="@" horiz-adv-x="635" 
d="M271 -70q-112 0 -174 76.5t-62 208.5q0 108 47 205.5t128 157.5t174 60q96 0 156 -65t60 -176q0 -127 -50 -219.5t-118 -92.5q-34 0 -57 18t-28 49l-1 8q-48 -75 -113 -75q-40 0 -67.5 30t-27.5 98q0 69 23 133.5t67.5 108t99.5 43.5q56 0 73 -65l10 51h101l-54 -254
q-3 -15 -3 -24q0 -24 6 -34t22 -10q14 0 31 26.5t31 83t14 124.5q0 98 -47.5 151.5t-129.5 53.5t-154 -56.5t-112.5 -145t-40.5 -182.5q0 -112 51 -181t149 -69q74 0 148 55l20 -29q-85 -63 -172 -63zM284 166q37 0 72 62l29 138q-10 52 -42 52q-30 0 -54 -32.5t-35 -74.5
t-11 -81q0 -64 41 -64z" />
    <glyph glyph-name="A" unicode="A" horiz-adv-x="424" 
d="M423 0h-129l-20 123h-125l-20 -123h-129l139 667h145zM259 234l-47 292l-48 -292h95z" />
    <glyph glyph-name="B" unicode="B" horiz-adv-x="452" 
d="M260 0h-208v667h201q79 0 119.5 -48t40.5 -122q0 -61 -26.5 -100.5t-71.5 -52.5q47 -7 77 -54t30 -109q0 -82 -40 -131.5t-122 -49.5zM220 395q64 0 64 80q0 81 -64 81h-42v-161h42zM224 111q69 0 69 87q0 39 -17.5 62.5t-51.5 23.5h-46v-173h46z" />
    <glyph glyph-name="C" unicode="C" horiz-adv-x="429" 
d="M239 -12q-105 0 -157 94t-52 251t52 251t157 94q31 0 57 -10t43 -24.5t31 -37t22 -41.5t15 -44l-101 -37q-11 42 -25.5 62t-41.5 20q-80 0 -80 -233t80 -233q53 0 69 97l100 -37q-41 -172 -169 -172z" />
    <glyph glyph-name="D" unicode="D" horiz-adv-x="475" 
d="M219 0h-167v667h166q115 0 171 -91t56 -243q0 -153 -55.5 -243t-170.5 -90zM219 111q97 0 97 222q0 223 -97 223h-41v-445h41z" />
    <glyph glyph-name="E" unicode="E" horiz-adv-x="379" 
d="M344 0h-292v667h292v-111h-166v-161h159v-111h-159v-173h166v-111z" />
    <glyph glyph-name="F" unicode="F" horiz-adv-x="375" 
d="M178 0h-126v667h292v-111h-166v-161h159v-111h-159v-284z" />
    <glyph glyph-name="G" unicode="G" horiz-adv-x="453" 
d="M236 -12q-102 0 -154 93t-52 252q0 160 52.5 252.5t156.5 92.5q66 0 108 -43.5t60 -113.5l-101 -37q-18 82 -67 82q-80 0 -80 -233t80 -233q36 0 53 44t18 108h-85v111h204q0 -188 -44 -281.5t-149 -93.5z" />
    <glyph glyph-name="H" unicode="H" horiz-adv-x="484" 
d="M432 0h-126v288h-128v-288h-126v667h126v-269h128v269h126v-667z" />
    <glyph glyph-name="I" unicode="I" horiz-adv-x="230" 
d="M178 0h-126v667h126v-667z" />
    <glyph glyph-name="J" unicode="J" horiz-adv-x="348" 
d="M117 -12q-68 0 -109 36l34 103q24 -27 60 -27q69 0 69 73v494h126v-500q0 -90 -48 -134.5t-132 -44.5z" />
    <glyph glyph-name="K" unicode="K" horiz-adv-x="471" 
d="M468 0h-143l-106 254l-41 -84v-170h-126v667h126v-308l139 308h139l-163 -314z" />
    <glyph glyph-name="L" unicode="L" horiz-adv-x="365" 
d="M344 0h-292v667h126v-556h166v-111z" />
    <glyph glyph-name="M" unicode="M" horiz-adv-x="616" 
d="M564 0h-124v422l-111 -422h-42l-109 422v-422h-126v667h160l96 -369l99 369h157v-667z" />
    <glyph glyph-name="N" unicode="N" horiz-adv-x="484" 
d="M432 0h-118l-136 382v-382h-126v667h126l128 -369v369h126v-667z" />
    <glyph glyph-name="O" unicode="O" horiz-adv-x="478" 
d="M239 -12q-105 0 -157 94.5t-52 250.5t52 250.5t157 94.5t156.5 -94.5t51.5 -250.5t-51.5 -250.5t-156.5 -94.5zM239 100q79 0 79 233t-79 233q-80 0 -80 -233t80 -233z" />
    <glyph glyph-name="P" unicode="P" horiz-adv-x="441" 
d="M178 0h-126v667h180q92 0 140 -60.5t48 -150.5t-48 -150.5t-140 -60.5h-54v-245zM218 356q35 0 54 27t19 73t-19 73t-54 27h-40v-200h40z" />
    <glyph glyph-name="Q" unicode="Q" horiz-adv-x="478" 
d="M239 -12q-105 0 -157 94.5t-52 250.5t52 250.5t157 94.5t156.5 -94.5t51.5 -250.5q0 -210 -87 -297l15 -37l-88 -35l-11 28q-16 -4 -37 -4zM189 219l88 34l27 -71q14 56 14 151q0 233 -79 233q-80 0 -80 -233q0 -226 75 -233z" />
    <glyph glyph-name="R" unicode="R" horiz-adv-x="460" 
d="M426 0h-135l-72 245h-41v-245h-126v667h186q80 0 131 -58t51 -149q0 -137 -86 -185zM218 356q35 0 54 27t19 73t-19 73t-54 27h-40v-200h40z" />
    <glyph glyph-name="S" unicode="S" horiz-adv-x="396" 
d="M184 -12q-106 0 -172 66l54 99q42 -53 110 -53q30 0 48.5 20.5t18.5 52.5t-22 58t-53 47.5t-62 47t-53 68t-22 98.5q0 78 50 132t135 54q89 0 145 -54l-48 -97q-38 39 -92 39q-27 0 -44.5 -18.5t-17.5 -48.5q0 -28 22 -53t53 -47t62 -48.5t53 -70.5t22 -99
q0 -85 -51.5 -139t-135.5 -54z" />
    <glyph glyph-name="T" unicode="T" horiz-adv-x="364" 
d="M245 0h-126v556h-101v111h328v-111h-101v-556z" />
    <glyph glyph-name="U" unicode="U" horiz-adv-x="484" 
d="M242 -12q-81 0 -135.5 52t-54.5 153v474h126v-480q0 -88 64 -88t64 88v480h126v-474q0 -101 -54.5 -153t-135.5 -52z" />
    <glyph glyph-name="V" unicode="V" horiz-adv-x="424" 
d="M284 0h-145l-139 667h129l83 -505l82 505h129z" />
    <glyph glyph-name="W" unicode="W" horiz-adv-x="616" 
d="M491 0h-128l-55 430l-55 -430h-128l-114 667h128l55 -447l64 447h99l65 -447l55 447h128z" />
    <glyph glyph-name="X" unicode="X" horiz-adv-x="438" 
d="M440 0h-139l-82 230l-82 -230h-138l147 340l-139 327h139l73 -219l73 219h140l-140 -326z" />
    <glyph glyph-name="Y" unicode="Y" horiz-adv-x="430" 
d="M278 0h-126v276l-156 391h134l85 -269l86 269h133l-156 -391v-276z" />
    <glyph glyph-name="Z" unicode="Z" horiz-adv-x="376" 
d="M346 0h-317v107l169 449h-169v111h310v-102l-171 -454h178v-111z" />
    <glyph glyph-name="bracketleft" unicode="[" horiz-adv-x="205" 
d="M187 -190h-152v868h152v-76h-69v-716h69v-76z" />
    <glyph glyph-name="backslash" unicode="\" horiz-adv-x="227" 
d="M147 -20l-147 707h81l147 -707h-81z" />
    <glyph glyph-name="bracketright" unicode="]" horiz-adv-x="205" 
d="M169 -190h-151v76h69v716h-69v76h151v-868z" />
    <glyph glyph-name="asciicircum" unicode="^" horiz-adv-x="337" 
d="M318 333h-82l-68 243l-67 -243h-82l108 334h83z" />
    <glyph glyph-name="underscore" unicode="_" horiz-adv-x="279" 
d="M282 -116h-285v76h285v-76z" />
    <glyph glyph-name="grave" unicode="`" horiz-adv-x="178" 
d="M178 556h-72l-106 144h98z" />
    <glyph glyph-name="a" unicode="a" 
d="M377 0h-113v60q-15 -34 -41 -53t-53 -19q-70 0 -106.5 67.5t-36.5 186.5q0 116 36.5 184.5t106.5 68.5q28 0 54 -18t40 -54v60h113v-483zM207 88q18 0 33.5 16.5t23.5 41.5v191q-8 24 -24 41t-33 17q-64 0 -64 -153q0 -154 64 -154z" />
    <glyph glyph-name="b" unicode="b" 
d="M158 146q9 -25 25 -41.5t33 -16.5q64 0 64 154q0 153 -64 153q-17 0 -33 -16.5t-25 -41.5v-191zM158 0h-112v667h112v-244q14 36 40 54t55 18q70 0 106.5 -68.5t36.5 -184.5q0 -119 -36.5 -186.5t-106.5 -67.5q-27 0 -53 18.5t-42 53.5v-60z" />
    <glyph glyph-name="c" unicode="c" horiz-adv-x="344" 
d="M211 -12q-85 0 -134.5 70.5t-49.5 183.5t49.5 183t134.5 70q74 0 117 -43l-37 -88q-28 31 -59 31q-43 0 -66 -43t-23 -110t23 -110.5t66 -43.5q32 0 59 31l37 -88q-40 -43 -117 -43z" />
    <glyph glyph-name="d" unicode="d" 
d="M377 0h-113v60q-15 -34 -41 -53t-53 -19q-70 0 -106.5 67.5t-36.5 186.5q0 116 36.5 184.5t106.5 68.5q28 0 54 -18t40 -54v244h113v-667zM207 88q18 0 33.5 16.5t23.5 41.5v191q-8 25 -23.5 41.5t-33.5 16.5q-64 0 -64 -153q0 -154 64 -154z" />
    <glyph glyph-name="e" unicode="e" horiz-adv-x="404" 
d="M219 -12q-92 0 -142 69.5t-50 184.5q0 110 47 181.5t134 71.5t130 -69t43 -182v-40h-245q1 -56 24.5 -90t70.5 -34q43 0 80 48l55 -63q-59 -77 -147 -77zM273 284q0 119 -68 119q-37 0 -53 -36t-16 -83h137z" />
    <glyph glyph-name="f" unicode="f" horiz-adv-x="249" 
d="M174 0h-113v385h-44v98h44v50q0 68 32 106t87 38q40 0 69 -13l-19 -91q-6 6 -19 6q-37 0 -37 -46v-50h61v-98h-61v-385z" />
    <glyph glyph-name="g" unicode="g" 
d="M193 -196q-94 0 -148 53l38 90q45 -45 99 -45q38 0 60 27t22 80v68q-15 -35 -41 -54t-53 -19q-70 0 -106.5 63.5t-36.5 181.5q0 116 36.5 181t106.5 65q28 0 54 -18t40 -54v60h113v-474q0 -110 -51.5 -157.5t-132.5 -47.5zM207 104q18 0 33.5 16.5t23.5 41.5v175
q-8 25 -23.5 41.5t-33.5 16.5q-64 0 -64 -146q0 -145 64 -145z" />
    <glyph glyph-name="h" unicode="h" horiz-adv-x="420" 
d="M374 0h-113v345q0 50 -37 50q-20 0 -38 -18.5t-28 -44.5v-332h-112v667h112v-247q16 30 49 52.5t66 22.5q101 0 101 -109v-386z" />
    <glyph glyph-name="i" unicode="i" horiz-adv-x="204" 
d="M102 540q-29 0 -49 20t-20 48t20.5 48.5t48.5 20.5t48.5 -20.5t20.5 -48.5t-20 -48t-49 -20zM158 0h-112v483h112v-483z" />
    <glyph glyph-name="j" unicode="j" horiz-adv-x="204" 
d="M102 540q-29 0 -49 20t-20 48t20.5 48.5t48.5 20.5t48.5 -20.5t20.5 -48.5t-20 -48t-49 -20zM22 -196q-39 0 -60 24l26 87q8 -13 25 -13q33 0 33 56v525h112v-525q0 -79 -32 -116.5t-104 -37.5z" />
    <glyph glyph-name="k" unicode="k" horiz-adv-x="403" 
d="M398 0h-124l-71 193l-45 -80v-113h-112v667h112v-407l112 223h123l-114 -215z" />
    <glyph glyph-name="l" unicode="l" horiz-adv-x="233" 
d="M155 -12q-58 0 -83.5 30t-25.5 93v556h112v-534q0 -45 27 -45q17 0 27 13l24 -89q-31 -24 -81 -24z" />
    <glyph glyph-name="m" unicode="m" horiz-adv-x="636" 
d="M590 0h-113v344q0 51 -38 51q-21 0 -38 -19t-27 -44v-332h-113v344q0 51 -37 51q-21 0 -39 -19t-27 -44v-332h-112v483h112v-63q14 29 47.5 52t67.5 23q86 0 98 -80q14 31 48 55.5t69 24.5q102 0 102 -110v-385z" />
    <glyph glyph-name="n" unicode="n" horiz-adv-x="420" 
d="M374 0h-113v344q0 51 -37 51q-20 0 -38 -18.5t-28 -44.5v-332h-112v483h112v-63q16 30 49 52.5t66 22.5q101 0 101 -110v-385z" />
    <glyph glyph-name="o" unicode="o" horiz-adv-x="417" 
d="M208 -12q-89 0 -135 72.5t-46 181.5t46 181t135 72q90 0 136 -72t46 -181t-46 -181.5t-136 -72.5zM208 88q65 0 65 154q0 153 -65 153t-65 -153q0 -154 65 -154z" />
    <glyph glyph-name="p" unicode="p" 
d="M253 -12q-29 0 -55 18t-40 54v-244h-112v667h112v-60q16 35 42 53.5t53 18.5q70 0 106.5 -67.5t36.5 -186.5q0 -116 -36.5 -184.5t-106.5 -68.5zM216 88q64 0 64 153q0 154 -64 154q-18 0 -34 -16t-24 -40v-193q8 -25 24 -41.5t34 -16.5z" />
    <glyph glyph-name="q" unicode="q" 
d="M207 88q18 0 33.5 16.5t23.5 41.5v193q-8 24 -23.5 40t-33.5 16q-64 0 -64 -154q0 -153 64 -153zM170 -12q-70 0 -106.5 68.5t-36.5 184.5q0 119 36.5 186.5t106.5 67.5q27 0 53 -19t41 -53v60h113v-667h-113v244q-14 -36 -40 -54t-54 -18z" />
    <glyph glyph-name="r" unicode="r" horiz-adv-x="281" 
d="M158 0h-112v483h112v-67q15 34 46 56.5t63 22.5v-111q-11 3 -22 3q-24 0 -48 -17.5t-39 -44.5v-325z" />
    <glyph glyph-name="s" unicode="s" horiz-adv-x="345" 
d="M169 -12q-105 0 -156 63l46 78q47 -52 100 -52q27 0 43.5 14t16.5 38q0 18 -14 32.5t-35 24.5t-46 24.5t-46 31t-35 47t-14 69.5q0 58 41 97.5t113 39.5q82 0 141 -57l-45 -76q-36 44 -93 44q-23 0 -37.5 -13t-14.5 -32q0 -20 20 -35t48 -29t56.5 -32t48.5 -52t20 -81
q0 -64 -44.5 -104t-113.5 -40z" />
    <glyph glyph-name="t" unicode="t" horiz-adv-x="257" 
d="M171 -12q-58 0 -84 30t-26 93v274h-45v98h45v132h113v-132h61v-98h-61v-252q0 -45 27 -45q17 0 27 13l23 -89q-29 -24 -80 -24z" />
    <glyph glyph-name="u" unicode="u" horiz-adv-x="420" 
d="M374 0h-113v61q-15 -30 -47.5 -51.5t-66.5 -21.5q-101 0 -101 109v386h112v-345q0 -50 38 -50q21 0 38.5 18t26.5 43v334h113v-483z" />
    <glyph glyph-name="v" unicode="v" horiz-adv-x="381" 
d="M250 0h-121l-127 483h119l69 -342l69 342h120z" />
    <glyph glyph-name="w" unicode="w" horiz-adv-x="608" 
d="M492 0h-119l-69 329l-70 -329h-118l-111 483h117l62 -330l63 330h107l70 -330l61 330h118z" />
    <glyph glyph-name="x" unicode="x" horiz-adv-x="372" 
d="M368 0h-120l-62 160l-63 -160h-120l113 243l-108 240h119l59 -156l58 156h119l-108 -240z" />
    <glyph glyph-name="y" unicode="y" horiz-adv-x="420" 
d="M196 -196q-99 0 -149 53l39 90q41 -45 98 -45q77 0 77 107v68q-15 -29 -47.5 -50.5t-66.5 -21.5q-101 0 -101 108v370h112v-329q0 -50 38 -50q20 0 38 18.5t27 43.5v317h113v-474q0 -98 -45 -151.5t-133 -53.5z" />
    <glyph glyph-name="z" unicode="z" horiz-adv-x="335" 
d="M309 0h-282v85l143 300h-143v98h278v-82l-144 -303h148v-98z" />
    <glyph glyph-name="braceleft" unicode="{" horiz-adv-x="220" 
d="M203 -190h-29q-47 0 -82.5 33.5t-35.5 84.5v216q0 29 -13.5 48t-38.5 19v66q25 0 38.5 19t13.5 48v216q0 50 35.5 84t82.5 34h29v-76h-29q-14 0 -24.5 -12t-10.5 -30v-227q0 -69 -46 -89q46 -20 46 -89v-227q0 -18 10.5 -30t24.5 -12h29v-76z" />
    <glyph glyph-name="bar" unicode="|" horiz-adv-x="181" 
d="M128 -20h-76v707h76v-707z" />
    <glyph glyph-name="braceright" unicode="}" horiz-adv-x="220" 
d="M17 -190v76h28q15 0 25.5 12t10.5 30v227q0 70 45 89q-45 19 -45 89v227q0 18 -10.5 30t-25.5 12h-28v76h28q47 0 82.5 -34t35.5 -84v-216q0 -29 13.5 -48t38.5 -19v-66q-25 0 -38.5 -19t-13.5 -48v-216q0 -51 -35.5 -84.5t-82.5 -33.5h-28z" />
    <glyph glyph-name="asciitilde" unicode="~" horiz-adv-x="416" 
d="M312 667l77 -6q-2 -47 -6.5 -81.5t-16 -76.5t-36.5 -65t-61 -23t-57 28t-26.5 62t-14.5 62t-23 28q-20 0 -28 -37t-15 -144l-79 7q2 46 7 81t17 76.5t37 64.5t61 23t57 -28.5t26.5 -62t14.5 -62t23 -28.5q19 0 27.5 37.5t15.5 144.5z" />
    <glyph glyph-name="uni00A0" unicode="&#xa0;" horiz-adv-x="161" 
 />
    <glyph glyph-name="exclamdown" unicode="&#xa1;" horiz-adv-x="249" 
d="M56 -184l19 458h99l19 -458h-137zM51 420q0 30 21.5 52t52.5 22q30 0 52 -22t22 -52t-22 -52t-52 -22q-31 0 -52.5 22t-21.5 52z" />
    <glyph glyph-name="cent" unicode="&#xa2;" horiz-adv-x="344" 
d="M155 -100v98q-61 21 -94.5 86t-33.5 158q0 92 33.5 156.5t94.5 86.5v80h83v-72q56 -7 90 -41l-37 -88q-28 31 -59 31q-43 0 -66 -43t-23 -110t23 -110.5t66 -43.5q32 0 59 31l37 -88q-30 -34 -90 -41v-90h-83z" />
    <glyph glyph-name="sterling" unicode="&#xa3;" horiz-adv-x="424" 
d="M30 276v73h47q-31 64 -31 129q0 83 56.5 141t132.5 58q64 0 108 -34t56 -97l-100 -43q-8 35 -21 53t-37 18q-25 0 -42 -26.5t-17 -71.5q0 -12 1 -23t3 -22t3.5 -18t5.5 -17.5t6 -15.5t7 -16t6 -15h72v-73h-53q2 -20 2 -31q0 -33 -15.5 -70t-39.5 -58q21 9 36 9
q23 0 50.5 -13t45.5 -13q46 0 68 29l34 -99q-14 -17 -46 -29.5t-67 -12.5q-38 0 -76 20.5t-59 20.5q-38 0 -85 -36l-36 86q35 24 56.5 60.5t21.5 72.5q0 30 -12 64h-81z" />
    <glyph glyph-name="yen" unicode="&#xa5;" horiz-adv-x="430" 
d="M278 0h-126v117h-127v71h127v88h-127v71h98l-127 320h134l85 -269l86 269h133l-128 -320h98v-71h-126v-88h126v-71h-126v-117z" />
    <glyph glyph-name="brokenbar" unicode="&#xa6;" horiz-adv-x="181" 
d="M128 -20h-76v316h76v-316zM128 371h-76v316h76v-316z" />
    <glyph glyph-name="section" unicode="&#xa7;" horiz-adv-x="347" 
d="M327 314q0 -81 -71 -121q71 -51 71 -130q0 -61 -45 -102.5t-113 -41.5q-101 0 -156 63l46 75q16 -20 43.5 -37t56.5 -17q28 0 44 17t16 41q0 21 -14 37.5t-35 27.5t-46 26t-46 31t-35 45t-14 67q0 40 22 71.5t58 44.5q-80 52 -80 135q0 58 41.5 94.5t104.5 36.5
q92 0 148 -59l-45 -68q-43 46 -91 46q-24 0 -38.5 -13.5t-14.5 -35.5q0 -23 20 -40.5t48 -32.5t56.5 -33t48.5 -50.5t20 -76.5zM228 288q0 57 -48 87q-52 -11 -52 -61q0 -53 61 -87q39 20 39 61z" />
    <glyph glyph-name="dieresis" unicode="&#xa8;" horiz-adv-x="277" 
d="M282 609q0 -25 -18 -43.5t-44 -18.5t-44 18.5t-18 43.5t18 43.5t44 18.5t44 -18.5t18 -43.5zM119 609q0 -26 -18 -44t-44 -18q-25 0 -43 18.5t-18 43.5t18 43.5t43 18.5q26 0 44 -18t18 -44z" />
    <glyph glyph-name="copyright" unicode="&#xa9;" horiz-adv-x="778" 
d="M734 334q0 -142 -101 -243.5t-244 -101.5t-244 101.5t-101 243.5t101 243.5t244 101.5t244 -101.5t101 -243.5zM699 334q0 128 -91.5 219t-218.5 91t-218.5 -91t-91.5 -219t91.5 -219t218.5 -91t218.5 91t91.5 219zM512 219l30 -29q-58 -68 -148 -68q-88 0 -148.5 61
t-60.5 152t60.5 151t148.5 60q91 0 147 -66l-30 -29q-42 57 -117 57q-68 0 -116.5 -48.5t-48.5 -124.5q0 -75 48.5 -125t116.5 -50q74 0 118 59z" />
    <glyph glyph-name="ordfeminine" unicode="&#xaa;" horiz-adv-x="301" 
d="M264 326h-83v31q-24 -39 -72 -39q-39 0 -64.5 27.5t-25.5 75.5t26 75.5t64 27.5q49 0 72 -37v40q0 58 -51 58q-36 0 -67 -36l-31 55q43 44 116 44q54 0 85 -28.5t31 -85.5v-208zM140 373q29 0 41 28v44q-12 30 -41 30q-18 0 -28.5 -14.5t-10.5 -36.5q0 -51 39 -51z" />
    <glyph glyph-name="guillemotleft" unicode="&#xab;" horiz-adv-x="385" 
d="M355 63h-88l-90 180l90 177h88l-90 -177zM208 63h-88l-90 180l90 177h88l-90 -177z" />
    <glyph glyph-name="logicalnot" unicode="&#xac;" horiz-adv-x="383" 
d="M354 465v-262h-74v190h-251v72h325z" />
    <glyph glyph-name="registered" unicode="&#xae;" horiz-adv-x="494" 
d="M459 465q0 -88 -62 -150t-150 -62t-150 62t-62 150t62 150t150 62q89 0 150.5 -61.5t61.5 -150.5zM428 465q0 76 -53 128.5t-128 52.5t-128 -52.5t-53 -128.5q0 -74 53 -127.5t128 -53.5t128 53.5t53 127.5zM346 343h-41l-63 96h-43v-96h-33v243h99q32 0 55 -20.5
t23 -53.5q0 -35 -22.5 -53.5t-39.5 -18.5zM309 512q0 19 -13.5 32t-30.5 13h-66v-88h66q17 0 30.5 12.5t13.5 30.5z" />
    <glyph glyph-name="macron" unicode="&#xaf;" horiz-adv-x="258" 
d="M258 591h-258v66h258v-66z" />
    <glyph glyph-name="degree" unicode="&#xb0;" horiz-adv-x="305" 
d="M284 545q0 -55 -38.5 -93t-93.5 -38t-93 38t-38 93t38 93.5t93 38.5t93.5 -38.5t38.5 -93.5zM221 545q0 28 -20.5 48.5t-48.5 20.5t-47.5 -20.5t-19.5 -48.5t19.5 -47.5t47.5 -19.5t48.5 19.5t20.5 47.5z" />
    <glyph glyph-name="plusminus" unicode="&#xb1;" horiz-adv-x="383" 
d="M354 302h-123v-146h-79v146h-123v71h123v139h79v-139h123v-71zM354 27h-325v71h325v-71z" />
    <glyph glyph-name="twosuperior" unicode="&#xb2;" horiz-adv-x="293" 
d="M276 421h-248v63q103 111 132 151t29 73q0 23 -13 36.5t-35 13.5q-44 0 -72 -48l-52 51q49 66 129 66q58 0 93 -31t35 -85q0 -41 -29 -85.5t-110 -135.5h141v-69z" />
    <glyph glyph-name="threesuperior" unicode="&#xb3;" horiz-adv-x="293" 
d="M276 531q0 -53 -36 -85t-95 -32q-89 0 -130 65l54 51q29 -47 72 -47q51 0 51 54t-56 54q-22 0 -28 -1v69q5 -1 25 -1q54 0 54 49q0 51 -47 51q-45 0 -68 -42l-53 46q44 65 126 65q57 0 91 -27.5t34 -80.5q0 -33 -20 -59t-50 -33q32 -5 54 -32t22 -64z" />
    <glyph glyph-name="acute" unicode="&#xb4;" horiz-adv-x="178" 
d="M178 700l-107 -144h-71l79 144h99z" />
    <glyph glyph-name="mu" unicode="&#xb5;" horiz-adv-x="420" 
d="M158 -184h-112v667h112v-345q0 -51 38 -51q20 0 38 18.5t27 43.5v334h113v-483h-113v61q-14 -28 -42.5 -48.5t-60.5 -24.5v-172z" />
    <glyph glyph-name="paragraph" unicode="&#xb6;" horiz-adv-x="449" 
d="M396 -100h-58v709h-81v-709h-58v423q-71 0 -121.5 50.5t-50.5 121.5t50.5 121.5t121.5 50.5h197v-767z" />
    <glyph glyph-name="periodcentered" unicode="&#xb7;" horiz-adv-x="248" 
d="M198 244q0 -30 -21.5 -51.5t-52.5 -21.5q-30 0 -52 21.5t-22 51.5q0 31 22 52.5t52 21.5q31 0 52.5 -21.5t21.5 -52.5z" />
    <glyph glyph-name="cedilla" unicode="&#xb8;" horiz-adv-x="182" 
d="M86 -194q-48 0 -86 31l22 46q33 -28 61 -28q18 0 29.5 10t11.5 26q0 27 -23 27q-15 0 -26 -13l-42 24l31 82h57l-26 -63q13 9 29 9q25 0 41.5 -19t16.5 -49q0 -38 -27 -60.5t-69 -22.5z" />
    <glyph glyph-name="onesuperior" unicode="&#xb9;" horiz-adv-x="244" 
d="M201 421h-87v290l-56 -58l-49 51l117 117h75v-400z" />
    <glyph glyph-name="ordmasculine" unicode="&#xba;" horiz-adv-x="308" 
d="M154 318q-63 0 -96.5 47.5t-33.5 117.5t33.5 117.5t96.5 47.5t96.5 -47.5t33.5 -117.5t-33.5 -117.5t-96.5 -47.5zM154 385q45 0 45 98q0 97 -45 97t-45 -97q0 -98 45 -98z" />
    <glyph glyph-name="guillemotright" unicode="&#xbb;" horiz-adv-x="385" 
d="M208 243l-90 -180h-88l90 180l-90 177h88zM355 243l-90 -180h-88l90 180l-90 177h88z" />
    <glyph glyph-name="onequarter" unicode="&#xbc;" horiz-adv-x="648" 
d="M488 667l-279 -667h-50l278 667h51zM636 90h-34v-90h-86v90h-148v67l130 243h104v-242h34v-68zM516 158v148l-75 -148h75zM201 267h-87v290l-56 -58l-49 51l117 117h75v-400z" />
    <glyph glyph-name="onehalf" unicode="&#xbd;" horiz-adv-x="683" 
d="M488 667l-279 -667h-50l278 667h51zM666 0h-248v63q103 111 132 151t29 73q0 23 -13 36.5t-35 13.5q-44 0 -72 -48l-52 51q49 66 129 66q58 0 93 -31t35 -85q0 -41 -29 -85.5t-110 -135.5h141v-69zM201 267h-87v290l-56 -58l-49 51l117 117h75v-400z" />
    <glyph glyph-name="threequarters" unicode="&#xbe;" horiz-adv-x="684" 
d="M524 667l-279 -667h-50l278 667h51zM672 90h-34v-90h-86v90h-148v67l130 243h104v-242h34v-68zM552 158v148l-75 -148h75zM276 377q0 -53 -36 -85t-95 -32q-89 0 -130 65l54 51q29 -47 72 -47q51 0 51 54t-56 54q-22 0 -28 -1v69q5 -1 25 -1q54 0 54 49q0 51 -47 51
q-45 0 -68 -42l-53 46q44 65 126 65q57 0 91 -27.5t34 -80.5q0 -33 -20 -59t-50 -33q32 -5 54 -32t22 -64z" />
    <glyph glyph-name="questiondown" unicode="&#xbf;" horiz-adv-x="287" 
d="M206 282q25 -32 25 -87q0 -37 -14.5 -69t-31.5 -51.5t-31.5 -46t-14.5 -54.5q0 -24 15 -42.5t39 -18.5q32 0 55 30l52 -78q-57 -61 -137 -61q-67 0 -107.5 40.5t-40.5 103.5q0 40 17.5 77t38.5 60.5t38.5 54.5t17.5 61q0 25 -15 46zM160 494q30 0 52 -22t22 -52t-22 -52
t-52 -22t-52 22t-22 52t22 52t52 22z" />
    <glyph glyph-name="Agrave" unicode="&#xc0;" horiz-adv-x="424" 
d="M277 728h-72l-106 144h98zM423 0h-129l-20 123h-125l-20 -123h-129l139 667h145zM259 234l-47 292l-48 -292h95z" />
    <glyph glyph-name="Aacute" unicode="&#xc1;" horiz-adv-x="424" 
d="M327 872l-107 -144h-71l79 144h99zM423 0h-129l-20 123h-125l-20 -123h-129l139 667h145zM259 234l-47 292l-48 -292h95z" />
    <glyph glyph-name="Acircumflex" unicode="&#xc2;" horiz-adv-x="424" 
d="M328 728h-63l-53 92l-51 -92h-63l62 144h103zM423 0h-129l-20 123h-125l-20 -123h-129l139 667h145zM259 234l-47 292l-48 -292h95z" />
    <glyph glyph-name="Atilde" unicode="&#xc3;" horiz-adv-x="424" 
d="M256 726q-18 0 -31 11.5t-19 25.5t-14.5 25.5t-18.5 11.5q-29 0 -29 -68h-59q0 60 22.5 97t62.5 37q23 0 37 -18.5t24 -37t22 -18.5q29 0 29 68h59q0 -60 -22.5 -97t-62.5 -37zM423 0h-129l-20 123h-125l-20 -123h-129l139 667h145zM259 234l-47 292l-48 -292h95z" />
    <glyph glyph-name="Adieresis" unicode="&#xc4;" horiz-adv-x="424" 
d="M355 781q0 -25 -18.5 -43.5t-43.5 -18.5t-43.5 18.5t-18.5 43.5t18.5 43.5t43.5 18.5t43.5 -18.5t18.5 -43.5zM192 781q0 -26 -18 -44t-44 -18q-25 0 -43 18.5t-18 43.5t18 43.5t43 18.5q26 0 44 -18t18 -44zM423 0h-129l-20 123h-125l-20 -123h-129l139 667h145z
M259 234l-47 292l-48 -292h95z" />
    <glyph glyph-name="Aring" unicode="&#xc5;" horiz-adv-x="424" 
d="M213 693q-37 0 -63 26t-26 63t26 62.5t63 25.5t62.5 -25.5t25.5 -62.5t-25.5 -63t-62.5 -26zM213 742q16 0 27.5 11.5t11.5 28.5q0 16 -11.5 27.5t-27.5 11.5t-27.5 -11.5t-11.5 -27.5q0 -17 11.5 -28.5t27.5 -11.5zM423 0h-129l-20 123h-125l-20 -123h-129l139 667h145z
M259 234l-47 292l-48 -292h95z" />
    <glyph glyph-name="AE" unicode="&#xc6;" horiz-adv-x="606" 
d="M576 0h-292v123h-114l-37 -123h-128l225 667h346v-111h-166v-161h159v-111h-159v-173h166v-111zM284 234v292l-84 -292h84z" />
    <glyph glyph-name="Ccedilla" unicode="&#xc7;" horiz-adv-x="429" 
d="M235 -190q-48 0 -86 31l22 46q33 -28 61 -28q18 0 29.5 10t11.5 26q0 27 -23 27q-15 0 -26 -13l-42 24l22 58q-87 16 -130.5 107.5t-43.5 234.5q0 157 52 251t157 94q31 0 57 -10t43 -24.5t31 -37t22 -41.5t15 -44l-101 -37q-11 42 -25.5 62t-41.5 20q-80 0 -80 -233
t80 -233q53 0 69 97l100 -37q-38 -158 -149 -171l-15 -37q14 9 29 9q25 0 41.5 -19t16.5 -49q0 -38 -27 -60.5t-69 -22.5z" />
    <glyph glyph-name="Egrave" unicode="&#xc8;" horiz-adv-x="379" 
d="M265 728h-72l-106 144h98zM344 0h-292v667h292v-111h-166v-161h159v-111h-159v-173h166v-111z" />
    <glyph glyph-name="Eacute" unicode="&#xc9;" horiz-adv-x="379" 
d="M316 872l-107 -144h-71l79 144h99zM344 0h-292v667h292v-111h-166v-161h159v-111h-159v-173h166v-111z" />
    <glyph glyph-name="Ecircumflex" unicode="&#xca;" horiz-adv-x="379" 
d="M314 728h-63l-53 92l-51 -92h-63l62 144h103zM344 0h-292v667h292v-111h-166v-161h159v-111h-159v-173h166v-111z" />
    <glyph glyph-name="Edieresis" unicode="&#xcb;" horiz-adv-x="379" 
d="M343 781q0 -25 -18.5 -43.5t-43.5 -18.5t-43.5 18.5t-18.5 43.5t18.5 43.5t43.5 18.5t43.5 -18.5t18.5 -43.5zM180 781q0 -26 -18 -44t-44 -18q-25 0 -43 18.5t-18 43.5t18 43.5t43 18.5q26 0 44 -18t18 -44zM344 0h-292v667h292v-111h-166v-161h159v-111h-159v-173h166
v-111z" />
    <glyph glyph-name="Igrave" unicode="&#xcc;" horiz-adv-x="230" 
d="M179 728h-72l-106 144h98zM178 0h-126v667h126v-667z" />
    <glyph glyph-name="Iacute" unicode="&#xcd;" horiz-adv-x="230" 
d="M231 872l-107 -144h-71l79 144h99zM178 0h-126v667h126v-667z" />
    <glyph glyph-name="Icircumflex" unicode="&#xce;" horiz-adv-x="230" 
d="M230 728h-63l-53 92l-51 -92h-63l62 144h103zM178 0h-126v667h126v-667z" />
    <glyph glyph-name="Idieresis" unicode="&#xcf;" horiz-adv-x="230" 
d="M260 781q0 -25 -18 -43.5t-44 -18.5t-44 18.5t-18 43.5t18 43.5t44 18.5t44 -18.5t18 -43.5zM97 781q0 -26 -18 -44t-44 -18q-25 0 -43 18.5t-18 43.5t18 43.5t43 18.5q26 0 44 -18t18 -44zM178 0h-126v667h126v-667z" />
    <glyph glyph-name="Eth" unicode="&#xd0;" horiz-adv-x="498" 
d="M242 0h-167v283h-59v93h59v291h166q115 0 171 -91t56 -243q0 -153 -55.5 -243t-170.5 -90zM269 283h-68v-172h41q97 0 97 222q0 223 -97 223h-41v-180h68v-93z" />
    <glyph glyph-name="Ntilde" unicode="&#xd1;" horiz-adv-x="484" 
d="M284 726q-18 0 -31 11.5t-19 25.5t-14.5 25.5t-18.5 11.5q-29 0 -29 -68h-59q0 60 22.5 97t62.5 37q23 0 37 -18.5t24 -37t22 -18.5q29 0 29 68h59q0 -60 -22.5 -97t-62.5 -37zM432 0h-118l-136 382v-382h-126v667h126l128 -369v369h126v-667z" />
    <glyph glyph-name="Ograve" unicode="&#xd2;" horiz-adv-x="478" 
d="M303 728h-72l-106 144h98zM239 -12q-105 0 -157 94.5t-52 250.5t52 250.5t157 94.5t156.5 -94.5t51.5 -250.5t-51.5 -250.5t-156.5 -94.5zM239 100q79 0 79 233t-79 233q-80 0 -80 -233t80 -233z" />
    <glyph glyph-name="Oacute" unicode="&#xd3;" horiz-adv-x="478" 
d="M354 872l-107 -144h-71l79 144h99zM239 -12q-105 0 -157 94.5t-52 250.5t52 250.5t157 94.5t156.5 -94.5t51.5 -250.5t-51.5 -250.5t-156.5 -94.5zM239 100q79 0 79 233t-79 233q-80 0 -80 -233t80 -233z" />
    <glyph glyph-name="Ocircumflex" unicode="&#xd4;" horiz-adv-x="478" 
d="M355 728h-63l-53 92l-51 -92h-63l62 144h103zM239 -12q-105 0 -157 94.5t-52 250.5t52 250.5t157 94.5t156.5 -94.5t51.5 -250.5t-51.5 -250.5t-156.5 -94.5zM239 100q79 0 79 233t-79 233q-80 0 -80 -233t80 -233z" />
    <glyph glyph-name="Otilde" unicode="&#xd5;" horiz-adv-x="478" 
d="M283 726q-18 0 -31 11.5t-19 25.5t-14.5 25.5t-18.5 11.5q-29 0 -29 -68h-59q0 60 22.5 97t62.5 37q23 0 37 -18.5t24 -37t22 -18.5q29 0 29 68h59q0 -60 -22.5 -97t-62.5 -37zM239 -12q-105 0 -157 94.5t-52 250.5t52 250.5t157 94.5t156.5 -94.5t51.5 -250.5
t-51.5 -250.5t-156.5 -94.5zM239 100q79 0 79 233t-79 233q-80 0 -80 -233t80 -233z" />
    <glyph glyph-name="Odieresis" unicode="&#xd6;" horiz-adv-x="478" 
d="M382 781q0 -25 -18 -43.5t-44 -18.5t-44 18.5t-18 43.5t18 43.5t44 18.5t44 -18.5t18 -43.5zM219 781q0 -26 -18 -44t-44 -18q-25 0 -43 18.5t-18 43.5t18 43.5t43 18.5q26 0 44 -18t18 -44zM239 -12q-105 0 -157 94.5t-52 250.5t52 250.5t157 94.5t156.5 -94.5
t51.5 -250.5t-51.5 -250.5t-156.5 -94.5zM239 100q79 0 79 233t-79 233q-80 0 -80 -233t80 -233z" />
    <glyph glyph-name="multiply" unicode="&#xd7;" horiz-adv-x="383" 
d="M292 183l-101 101l-100 -101l-51 51l101 100l-101 100l51 51l100 -101l101 101l51 -51l-101 -100l101 -100z" />
    <glyph glyph-name="Oslash" unicode="&#xd8;" horiz-adv-x="478" 
d="M239 -12q-65 0 -111 38l-12 -26h-73l39 82q-52 90 -52 251q0 156 52 250.5t157 94.5q64 0 111 -39l13 28h73l-41 -84q52 -90 52 -250q0 -156 -51.5 -250.5t-156.5 -94.5zM159 333q0 -46 3 -85l131 273q-21 45 -54 45q-80 0 -80 -233zM239 100q79 0 79 233q0 43 -3 82
l-130 -271q19 -44 54 -44z" />
    <glyph glyph-name="Ugrave" unicode="&#xd9;" horiz-adv-x="484" 
d="M307 728h-72l-106 144h98zM242 -12q-81 0 -135.5 52t-54.5 153v474h126v-480q0 -88 64 -88t64 88v480h126v-474q0 -101 -54.5 -153t-135.5 -52z" />
    <glyph glyph-name="Uacute" unicode="&#xda;" horiz-adv-x="484" 
d="M358 872l-107 -144h-71l79 144h99zM242 -12q-81 0 -135.5 52t-54.5 153v474h126v-480q0 -88 64 -88t64 88v480h126v-474q0 -101 -54.5 -153t-135.5 -52z" />
    <glyph glyph-name="Ucircumflex" unicode="&#xdb;" horiz-adv-x="484" 
d="M358 728h-63l-53 92l-51 -92h-63l62 144h103zM242 -12q-81 0 -135.5 52t-54.5 153v474h126v-480q0 -88 64 -88t64 88v480h126v-474q0 -101 -54.5 -153t-135.5 -52z" />
    <glyph glyph-name="Udieresis" unicode="&#xdc;" horiz-adv-x="484" 
d="M385 781q0 -25 -18.5 -43.5t-43.5 -18.5t-43.5 18.5t-18.5 43.5t18.5 43.5t43.5 18.5t43.5 -18.5t18.5 -43.5zM222 781q0 -26 -18 -44t-44 -18q-25 0 -43 18.5t-18 43.5t18 43.5t43 18.5q26 0 44 -18t18 -44zM242 -12q-81 0 -135.5 52t-54.5 153v474h126v-480
q0 -88 64 -88t64 88v480h126v-474q0 -101 -54.5 -153t-135.5 -52z" />
    <glyph glyph-name="Yacute" unicode="&#xdd;" horiz-adv-x="430" 
d="M332 872l-107 -144h-71l79 144h99zM278 0h-126v276l-156 391h134l85 -269l86 269h133l-156 -391v-276z" />
    <glyph glyph-name="Thorn" unicode="&#xde;" horiz-adv-x="441" 
d="M178 0h-126v667h126v-111h54q92 0 140 -60.5t48 -150.5t-48 -150t-140 -60h-54v-135zM218 245q35 0 54 26.5t19 73.5q0 46 -19 73.5t-54 27.5h-40v-201h40z" />
    <glyph glyph-name="germandbls" unicode="&#xdf;" horiz-adv-x="516" 
d="M503 132q0 -58 -42.5 -101t-108.5 -43q-90 0 -147 63l40 79q42 -52 85 -52q23 0 38.5 14.5t15.5 37.5q0 21 -17.5 38.5t-42 32t-49 32t-42 48t-17.5 70.5q0 31 14.5 56.5t32 39.5t32 33.5t14.5 40.5q0 24 -19.5 40t-49.5 16q-34 0 -55 -21.5t-21 -65.5v-490h-112v490
q0 80 51 133.5t137 53.5q75 0 128.5 -42t53.5 -102q0 -36 -15 -64t-33 -42.5t-33 -32t-15 -34.5t13 -31t33 -23.5t42.5 -24t42.5 -31.5t33 -48t13 -70z" />
    <glyph glyph-name="agrave" unicode="&#xe0;" 
d="M275 556h-72l-106 144h98zM377 0h-113v60q-15 -34 -41 -53t-53 -19q-70 0 -106.5 67.5t-36.5 186.5q0 116 36.5 184.5t106.5 68.5q28 0 54 -18t40 -54v60h113v-483zM207 88q18 0 33.5 16.5t23.5 41.5v191q-8 24 -24 41t-33 17q-64 0 -64 -153q0 -154 64 -154z" />
    <glyph glyph-name="aacute" unicode="&#xe1;" 
d="M326 700l-107 -144h-71l79 144h99zM377 0h-113v60q-15 -34 -41 -53t-53 -19q-70 0 -106.5 67.5t-36.5 186.5q0 116 36.5 184.5t106.5 68.5q28 0 54 -18t40 -54v60h113v-483zM207 88q18 0 33.5 16.5t23.5 41.5v191q-8 24 -24 41t-33 17q-64 0 -64 -153q0 -154 64 -154z
" />
    <glyph glyph-name="acircumflex" unicode="&#xe2;" 
d="M328 556h-63l-53 92l-51 -92h-63l62 144h103zM377 0h-113v60q-15 -34 -41 -53t-53 -19q-70 0 -106.5 67.5t-36.5 186.5q0 116 36.5 184.5t106.5 68.5q28 0 54 -18t40 -54v60h113v-483zM207 88q18 0 33.5 16.5t23.5 41.5v191q-8 24 -24 41t-33 17q-64 0 -64 -153
q0 -154 64 -154z" />
    <glyph glyph-name="atilde" unicode="&#xe3;" 
d="M255 554q-18 0 -31 11.5t-19 25.5t-14.5 25.5t-18.5 11.5q-29 0 -29 -68h-59q0 60 22.5 97t62.5 37q23 0 37 -18.5t24 -37t22 -18.5q29 0 29 68h59q0 -60 -22.5 -97t-62.5 -37zM377 0h-113v60q-15 -34 -41 -53t-53 -19q-70 0 -106.5 67.5t-36.5 186.5q0 116 36.5 184.5
t106.5 68.5q28 0 54 -18t40 -54v60h113v-483zM207 88q18 0 33.5 16.5t23.5 41.5v191q-8 24 -24 41t-33 17q-64 0 -64 -153q0 -154 64 -154z" />
    <glyph glyph-name="adieresis" unicode="&#xe4;" 
d="M355 609q0 -25 -18.5 -43.5t-43.5 -18.5t-43.5 18.5t-18.5 43.5t18.5 43.5t43.5 18.5t43.5 -18.5t18.5 -43.5zM192 609q0 -26 -18 -44t-44 -18q-25 0 -43 18.5t-18 43.5t18 43.5t43 18.5q26 0 44 -18t18 -44zM377 0h-113v60q-15 -34 -41 -53t-53 -19q-70 0 -106.5 67.5
t-36.5 186.5q0 116 36.5 184.5t106.5 68.5q28 0 54 -18t40 -54v60h113v-483zM207 88q18 0 33.5 16.5t23.5 41.5v191q-8 24 -24 41t-33 17q-64 0 -64 -153q0 -154 64 -154z" />
    <glyph glyph-name="aring" unicode="&#xe5;" 
d="M213 550q-37 0 -63 26t-26 63t26 62.5t63 25.5t62.5 -25.5t25.5 -62.5t-25.5 -63t-62.5 -26zM213 599q16 0 27.5 11.5t11.5 28.5q0 16 -11.5 27.5t-27.5 11.5t-27.5 -11.5t-11.5 -27.5q0 -17 11.5 -28.5t27.5 -11.5zM377 0h-113v60q-15 -34 -41 -53t-53 -19
q-70 0 -106.5 67.5t-36.5 186.5q0 116 36.5 184.5t106.5 68.5q28 0 54 -18t40 -54v60h113v-483zM207 88q18 0 33.5 16.5t23.5 41.5v191q-8 24 -24 41t-33 17q-64 0 -64 -153q0 -154 64 -154z" />
    <glyph glyph-name="ae" unicode="&#xe6;" horiz-adv-x="645" 
d="M377 0h-113v60q-15 -34 -41 -53t-53 -19q-70 0 -106.5 67.5t-36.5 186.5q0 116 36.5 184.5t106.5 68.5q28 0 54 -18t40 -54v60h113v-58q26 70 96 70q76 0 112.5 -68.5t36.5 -182.5v-40h-245q1 -56 24.5 -89t69.5 -33q45 0 80 48l55 -71q-46 -71 -116 -71q-85 0 -113 80
v-68zM207 88q18 0 33.5 16.5t23.5 41.5v191q-8 24 -24 41t-33 17q-64 0 -64 -153q0 -154 64 -154zM513 284q0 119 -68 119q-34 0 -50 -32t-18 -76v-11h136z" />
    <glyph glyph-name="ccedilla" unicode="&#xe7;" horiz-adv-x="344" 
d="M210 -192q-48 0 -86 31l22 46q33 -28 61 -28q18 0 29.5 10t11.5 26q0 27 -23 27q-15 0 -26 -13l-42 24l22 60q-72 13 -112 81t-40 170q0 113 49.5 183t134.5 70q74 0 117 -43l-37 -88q-28 31 -59 31q-43 0 -66 -43t-23 -110t23 -110.5t66 -43.5q32 0 59 31l37 -88
q-33 -35 -93 -42l-16 -39q13 9 29 9q25 0 41.5 -19t16.5 -49q0 -38 -27 -60.5t-69 -22.5z" />
    <glyph glyph-name="egrave" unicode="&#xe8;" horiz-adv-x="404" 
d="M219 -12q-92 0 -142 69.5t-50 184.5q0 110 47 181.5t134 71.5t130 -69t43 -182v-40h-245q1 -56 24.5 -90t70.5 -34q43 0 80 48l55 -63q-59 -77 -147 -77zM273 284q0 119 -68 119q-37 0 -53 -36t-16 -83h137zM273 556h-72l-106 144h98z" />
    <glyph glyph-name="eacute" unicode="&#xe9;" horiz-adv-x="404" 
d="M219 -12q-92 0 -142 69.5t-50 184.5q0 110 47 181.5t134 71.5t130 -69t43 -182v-40h-245q1 -56 24.5 -90t70.5 -34q43 0 80 48l55 -63q-59 -77 -147 -77zM273 284q0 119 -68 119q-37 0 -53 -36t-16 -83h137zM325 700l-107 -144h-71l79 144h99z" />
    <glyph glyph-name="ecircumflex" unicode="&#xea;" horiz-adv-x="404" 
d="M219 -12q-92 0 -142 69.5t-50 184.5q0 110 47 181.5t134 71.5t130 -69t43 -182v-40h-245q1 -56 24.5 -90t70.5 -34q43 0 80 48l55 -63q-59 -77 -147 -77zM273 284q0 119 -68 119q-37 0 -53 -36t-16 -83h137zM321 556h-63l-53 92l-51 -92h-63l62 144h103z" />
    <glyph glyph-name="edieresis" unicode="&#xeb;" horiz-adv-x="404" 
d="M219 -12q-92 0 -142 69.5t-50 184.5q0 110 47 181.5t134 71.5t130 -69t43 -182v-40h-245q1 -56 24.5 -90t70.5 -34q43 0 80 48l55 -63q-59 -77 -147 -77zM273 284q0 119 -68 119q-37 0 -53 -36t-16 -83h137zM348 609q0 -25 -18 -43.5t-44 -18.5t-44 18.5t-18 43.5
t18 43.5t44 18.5t44 -18.5t18 -43.5zM185 609q0 -26 -18 -44t-44 -18q-25 0 -43 18.5t-18 43.5t18 43.5t43 18.5q26 0 44 -18t18 -44z" />
    <glyph glyph-name="igrave" unicode="&#xec;" horiz-adv-x="204" 
d="M166 556h-72l-106 144h98zM158 0h-112v483h112v-483z" />
    <glyph glyph-name="iacute" unicode="&#xed;" horiz-adv-x="204" 
d="M217 700l-107 -144h-71l79 144h99zM158 0h-112v483h112v-483z" />
    <glyph glyph-name="icircumflex" unicode="&#xee;" horiz-adv-x="204" 
d="M218 556h-63l-53 92l-51 -92h-63l62 144h103zM158 0h-112v483h112v-483z" />
    <glyph glyph-name="idieresis" unicode="&#xef;" horiz-adv-x="204" 
d="M245 609q0 -25 -18.5 -43.5t-43.5 -18.5t-43.5 18.5t-18.5 43.5t18.5 43.5t43.5 18.5t43.5 -18.5t18.5 -43.5zM82 609q0 -26 -18 -44t-44 -18q-25 0 -43 18.5t-18 43.5t18 43.5t43 18.5q26 0 44 -18t18 -44zM158 0h-112v483h112v-483z" />
    <glyph glyph-name="eth" unicode="&#xf0;" horiz-adv-x="417" 
d="M136 498l-25 54l94 41q-18 38 -34 63l100 46q20 -35 35 -65l64 28l23 -52l-64 -29q61 -152 61 -314q0 -132 -45 -207t-137 -75q-89 0 -135 69t-46 171q0 101 39 169.5t110 68.5q62 0 93 -69q-13 74 -41 142zM208 88q65 0 65 139t-65 139t-65 -139t65 -139z" />
    <glyph glyph-name="ntilde" unicode="&#xf1;" horiz-adv-x="420" 
d="M374 0h-113v344q0 51 -37 51q-20 0 -38 -18.5t-28 -44.5v-332h-112v483h112v-63q16 30 49 52.5t66 22.5q101 0 101 -110v-385zM254 554q-18 0 -31 11.5t-19 25.5t-14.5 25.5t-18.5 11.5q-29 0 -29 -68h-59q0 60 22.5 97t62.5 37q23 0 37 -18.5t24 -37t22 -18.5
q29 0 29 68h59q0 -60 -22.5 -97t-62.5 -37z" />
    <glyph glyph-name="ograve" unicode="&#xf2;" horiz-adv-x="417" 
d="M208 -12q-89 0 -135 72.5t-46 181.5t46 181t135 72q90 0 136 -72t46 -181t-46 -181.5t-136 -72.5zM208 88q65 0 65 154q0 153 -65 153t-65 -153q0 -154 65 -154zM273 556h-72l-106 144h98z" />
    <glyph glyph-name="oacute" unicode="&#xf3;" horiz-adv-x="417" 
d="M208 -12q-89 0 -135 72.5t-46 181.5t46 181t135 72q90 0 136 -72t46 -181t-46 -181.5t-136 -72.5zM208 88q65 0 65 154q0 153 -65 153t-65 -153q0 -154 65 -154zM324 700l-107 -144h-71l79 144h99z" />
    <glyph glyph-name="ocircumflex" unicode="&#xf4;" horiz-adv-x="417" 
d="M208 -12q-89 0 -135 72.5t-46 181.5t46 181t135 72q90 0 136 -72t46 -181t-46 -181.5t-136 -72.5zM208 88q65 0 65 154q0 153 -65 153t-65 -153q0 -154 65 -154zM324 556h-63l-53 92l-51 -92h-63l62 144h103z" />
    <glyph glyph-name="otilde" unicode="&#xf5;" horiz-adv-x="417" 
d="M208 -12q-89 0 -135 72.5t-46 181.5t46 181t135 72q90 0 136 -72t46 -181t-46 -181.5t-136 -72.5zM208 88q65 0 65 154q0 153 -65 153t-65 -153q0 -154 65 -154zM251 554q-18 0 -31 11.5t-19 25.5t-14.5 25.5t-18.5 11.5q-29 0 -29 -68h-59q0 60 22.5 97t62.5 37
q23 0 37 -18.5t24 -37t22 -18.5q29 0 29 68h59q0 -60 -22.5 -97t-62.5 -37z" />
    <glyph glyph-name="odieresis" unicode="&#xf6;" horiz-adv-x="417" 
d="M208 -12q-89 0 -135 72.5t-46 181.5t46 181t135 72q90 0 136 -72t46 -181t-46 -181.5t-136 -72.5zM208 88q65 0 65 154q0 153 -65 153t-65 -153q0 -154 65 -154zM352 609q0 -25 -18 -43.5t-44 -18.5t-44 18.5t-18 43.5t18 43.5t44 18.5t44 -18.5t18 -43.5zM189 609
q0 -26 -18 -44t-44 -18q-25 0 -43 18.5t-18 43.5t18 43.5t43 18.5q26 0 44 -18t18 -44z" />
    <glyph glyph-name="divide" unicode="&#xf7;" horiz-adv-x="374" 
d="M245 482q0 -24 -17 -41t-40 -17t-40 17t-17 41q0 23 17 39.5t40 16.5t40 -16.5t17 -39.5zM345 302h-316v71h316v-71zM245 191q0 -23 -17 -40t-40 -17t-40 17t-17 40t17 40t40 17t40 -17t17 -40z" />
    <glyph glyph-name="oslash" unicode="&#xf8;" horiz-adv-x="417" 
d="M97 0h-63l37 63q-44 69 -44 179q0 109 46 181t135 72q58 0 100 -33l12 21h63l-38 -63q45 -71 45 -178q0 -109 -46 -181.5t-136 -72.5q-57 0 -99 32zM143 242q0 -20 2 -54l107 180q-16 27 -44 27q-65 0 -65 -153zM208 88q65 0 65 154q0 27 -3 51l-105 -178q16 -27 43 -27z
" />
    <glyph glyph-name="ugrave" unicode="&#xf9;" horiz-adv-x="420" 
d="M374 0h-113v61q-15 -30 -47.5 -51.5t-66.5 -21.5q-101 0 -101 109v386h112v-345q0 -50 38 -50q21 0 38.5 18t26.5 43v334h113v-483zM274 556h-72l-106 144h98z" />
    <glyph glyph-name="uacute" unicode="&#xfa;" horiz-adv-x="420" 
d="M374 0h-113v61q-15 -30 -47.5 -51.5t-66.5 -21.5q-101 0 -101 109v386h112v-345q0 -50 38 -50q21 0 38.5 18t26.5 43v334h113v-483zM325 700l-107 -144h-71l79 144h99z" />
    <glyph glyph-name="ucircumflex" unicode="&#xfb;" horiz-adv-x="420" 
d="M374 0h-113v61q-15 -30 -47.5 -51.5t-66.5 -21.5q-101 0 -101 109v386h112v-345q0 -50 38 -50q21 0 38.5 18t26.5 43v334h113v-483zM326 556h-63l-53 92l-51 -92h-63l62 144h103z" />
    <glyph glyph-name="udieresis" unicode="&#xfc;" horiz-adv-x="420" 
d="M374 0h-113v61q-15 -30 -47.5 -51.5t-66.5 -21.5q-101 0 -101 109v386h112v-345q0 -50 38 -50q21 0 38.5 18t26.5 43v334h113v-483zM354 609q0 -25 -18 -43.5t-44 -18.5t-44 18.5t-18 43.5t18 43.5t44 18.5t44 -18.5t18 -43.5zM191 609q0 -26 -18 -44t-44 -18
q-25 0 -43 18.5t-18 43.5t18 43.5t43 18.5q26 0 44 -18t18 -44z" />
    <glyph glyph-name="yacute" unicode="&#xfd;" horiz-adv-x="420" 
d="M325 700l-107 -144h-71l79 144h99zM196 -196q-99 0 -149 53l39 90q41 -45 98 -45q77 0 77 107v68q-15 -29 -47.5 -50.5t-66.5 -21.5q-101 0 -101 108v370h112v-329q0 -50 38 -50q20 0 38 18.5t27 43.5v317h113v-474q0 -98 -45 -151.5t-133 -53.5z" />
    <glyph glyph-name="thorn" unicode="&#xfe;" 
d="M253 -12q-29 0 -55 17t-40 53v-242h-112v851h112v-241q32 69 95 69q70 0 106.5 -67.5t36.5 -186.5q0 -116 -36.5 -184.5t-106.5 -68.5zM216 88q64 0 64 153q0 154 -64 154q-18 0 -34 -16t-24 -40v-193q8 -25 24 -41.5t34 -16.5z" />
    <glyph glyph-name="ydieresis" unicode="&#xff;" horiz-adv-x="420" 
d="M353 609q0 -25 -18.5 -43.5t-43.5 -18.5t-43.5 18.5t-18.5 43.5t18.5 43.5t43.5 18.5t43.5 -18.5t18.5 -43.5zM190 609q0 -26 -18 -44t-44 -18q-25 0 -43 18.5t-18 43.5t18 43.5t43 18.5q26 0 44 -18t18 -44zM196 -196q-99 0 -149 53l39 90q41 -45 98 -45q77 0 77 107v68
q-15 -29 -47.5 -50.5t-66.5 -21.5q-101 0 -101 108v370h112v-329q0 -50 38 -50q20 0 38 18.5t27 43.5v317h113v-474q0 -98 -45 -151.5t-133 -53.5z" />
    <glyph glyph-name="dotlessi" unicode="&#x131;" horiz-adv-x="204" 
d="M158 0h-112v483h112v-483z" />
    <glyph glyph-name="Lslash" unicode="&#x141;" horiz-adv-x="374" 
d="M16 219v104l45 26v318h126v-245l59 34v-104l-59 -34v-207h166v-111h-292v245z" />
    <glyph glyph-name="lslash" unicode="&#x142;" horiz-adv-x="260" 
d="M16 234v84l49 28v321h112v-257l48 28v-84l-48 -28v-193q0 -45 27 -45q17 0 27 13l24 -89q-31 -24 -81 -24q-58 0 -83.5 30t-25.5 93v151z" />
    <glyph glyph-name="OE" unicode="&#x152;" horiz-adv-x="632" 
d="M602 0h-292v50q-15 -32 -42 -47t-55 -15q-92 0 -137.5 94.5t-45.5 250.5t45.5 250t137.5 94q28 0 55 -14.5t42 -45.5v50h292v-111h-166v-161h159v-111h-159v-173h166v-111zM310 191v285q-20 89 -71 89q-80 0 -80 -232q0 -233 80 -233q24 0 42.5 23.5t28.5 67.5z" />
    <glyph glyph-name="oe" unicode="&#x153;" horiz-adv-x="650" 
d="M628 204h-245q1 -56 24.5 -90t69.5 -34q45 0 80 48l55 -63q-57 -77 -147 -77t-132 89q-42 -89 -125 -89q-89 0 -135 72.5t-46 181.5t46 181t135 72q83 0 124 -86q41 86 123 86q87 0 130 -69.5t43 -183.5v-38zM383 284h136q0 119 -68 119q-37 0 -52.5 -36t-15.5 -83z
M273 242q0 153 -65 153t-65 -153q0 -155 65 -155t65 155z" />
    <glyph glyph-name="Scaron" unicode="&#x160;" horiz-adv-x="389" 
d="M269 728h-103l-65 144h63l54 -92l50 92h63zM184 -12q-106 0 -172 66l54 99q42 -53 110 -53q30 0 48.5 20.5t18.5 52.5t-22 58t-53 47.5t-62 47t-53 68t-22 98.5q0 78 50 132t135 54q89 0 145 -54l-48 -97q-38 39 -92 39q-27 0 -44.5 -18.5t-17.5 -48.5q0 -28 22 -53
t53 -47t62 -48.5t53 -70.5t22 -99q0 -85 -51.5 -139t-135.5 -54z" />
    <glyph glyph-name="scaron" unicode="&#x161;" horiz-adv-x="345" 
d="M169 -12q-105 0 -156 63l46 78q47 -52 100 -52q27 0 43.5 14t16.5 38q0 18 -14 32.5t-35 24.5t-46 24.5t-46 31t-35 47t-14 69.5q0 58 41 97.5t113 39.5q82 0 141 -57l-45 -76q-36 44 -93 44q-23 0 -37.5 -13t-14.5 -32q0 -20 20 -35t48 -29t56.5 -32t48.5 -52t20 -81
q0 -64 -44.5 -104t-113.5 -40zM231 556h-103l-65 144h63l54 -92l50 92h63z" />
    <glyph glyph-name="Ydieresis" unicode="&#x178;" horiz-adv-x="430" 
d="M360 781q0 -25 -18 -43.5t-44 -18.5t-44 18.5t-18 43.5t18 43.5t44 18.5t44 -18.5t18 -43.5zM197 781q0 -26 -18 -44t-44 -18q-25 0 -43 18.5t-18 43.5t18 43.5t43 18.5q26 0 44 -18t18 -44zM278 0h-126v276l-156 391h134l85 -269l86 269h133l-156 -391v-276z" />
    <glyph glyph-name="Zcaron" unicode="&#x17d;" horiz-adv-x="376" 
d="M241 728h-103l-65 144h63l54 -92l50 92h63zM346 0h-317v107l169 449h-169v111h310v-102l-171 -454h178v-111z" />
    <glyph glyph-name="zcaron" unicode="&#x17e;" horiz-adv-x="335" 
d="M309 0h-282v85l143 300h-143v98h278v-82l-144 -303h148v-98zM218 556h-103l-65 144h63l54 -92l50 92h63z" />
    <glyph glyph-name="florin" unicode="&#x192;" horiz-adv-x="397" 
d="M141 -161h-128l89 404h-42v99h64l46 205q13 58 57 94t100 36q52 0 80 -23l-35 -100q-11 12 -30 12q-40 0 -51 -50l-38 -174h79v-99h-101z" />
    <glyph glyph-name="circumflex" unicode="&#x2c6;" horiz-adv-x="230" 
d="M230 556h-63l-53 92l-51 -92h-63l62 144h103z" />
    <glyph glyph-name="caron" unicode="&#x2c7;" horiz-adv-x="230" 
d="M168 556h-103l-65 144h63l54 -92l50 92h63z" />
    <glyph glyph-name="breve" unicode="&#x2d8;" horiz-adv-x="248" 
d="M248 620q-46 -62 -124 -62q-77 0 -124 62l53 40q26 -36 71 -36q46 0 71 36z" />
    <glyph glyph-name="dotaccent" unicode="&#x2d9;" horiz-adv-x="157" 
d="M78 558q-25 0 -43 18t-18 43q0 26 18 44t43 18q26 0 44 -18t18 -44q0 -25 -18 -43t-44 -18z" />
    <glyph glyph-name="ring" unicode="&#x2da;" horiz-adv-x="177" 
d="M89 550q-37 0 -63 26t-26 63t26 62.5t63 25.5t62.5 -25.5t25.5 -62.5t-25.5 -63t-62.5 -26zM89 599q16 0 27.5 11.5t11.5 28.5q0 16 -11.5 27.5t-27.5 11.5t-27.5 -11.5t-11.5 -27.5q0 -17 11.5 -28.5t27.5 -11.5z" />
    <glyph glyph-name="ogonek" unicode="&#x2db;" horiz-adv-x="155" 
d="M108 -108l47 -25q-21 -53 -75 -53q-37 0 -58.5 20.5t-21.5 61.5q0 74 73 132l42 -28q-57 -41 -57 -100q0 -36 23 -36q21 0 27 28z" />
    <glyph glyph-name="tilde" unicode="&#x2dc;" horiz-adv-x="256" 
d="M171 554q-18 0 -31 11.5t-19 25.5t-14.5 25.5t-18.5 11.5q-29 0 -29 -68h-59q0 60 22.5 97t62.5 37q23 0 37 -18.5t24 -37t22 -18.5q29 0 29 68h59q0 -60 -22.5 -97t-62.5 -37z" />
    <glyph glyph-name="hungarumlaut" unicode="&#x2dd;" horiz-adv-x="267" 
d="M139 700l-80 -144h-59l54 144h85zM267 700l-80 -144h-59l54 144h85z" />
    <glyph glyph-name="pi" unicode="&#x3c0;" horiz-adv-x="428" 
d="M373 0h-114v400h-91v-400h-113v400h-37v100h392v-100h-37v-400z" />
    <glyph glyph-name="endash" unicode="&#x2013;" horiz-adv-x="460" 
d="M430 194h-400v96h400v-96z" />
    <glyph glyph-name="emdash" unicode="&#x2014;" horiz-adv-x="640" 
d="M610 194h-580v96h580v-96z" />
    <glyph glyph-name="quoteleft" unicode="&#x2018;" horiz-adv-x="251" 
d="M46 502q0 52 26 98t71 78l50 -41q-25 -15 -47 -42t-27 -52q6 2 17 2q27 0 45 -18.5t18 -47.5t-21.5 -50.5t-50.5 -21.5q-34 0 -57.5 26t-23.5 69z" />
    <glyph glyph-name="quoteright" unicode="&#x2019;" horiz-adv-x="251" 
d="M203 581q0 -51 -26 -97t-70 -78l-51 41q25 15 47 42t27 52q-4 -2 -17 -2q-27 0 -44.5 18.5t-17.5 47.5t21 50.5t50 21.5q34 0 57.5 -26t23.5 -70z" />
    <glyph glyph-name="quotesinglbase" unicode="&#x201a;" horiz-adv-x="251" 
d="M203 41q0 -52 -26 -97.5t-70 -77.5l-51 41q25 14 47 41.5t27 52.5q-6 -3 -17 -3q-27 0 -44.5 18.5t-17.5 47.5q0 30 21 51.5t50 21.5q34 0 57.5 -26t23.5 -70z" />
    <glyph glyph-name="quotedblleft" unicode="&#x201c;" horiz-adv-x="442" 
d="M47 502q0 52 26.5 98t70.5 78l50 -41q-25 -15 -47 -42t-27 -52q6 2 18 2q27 0 44.5 -18.5t17.5 -47.5t-21 -50.5t-51 -21.5q-34 0 -57.5 26t-23.5 69zM239 502q0 52 26 98t70 78l51 -41q-25 -15 -47 -42t-27 -52q4 2 17 2q27 0 44.5 -18.5t17.5 -47.5t-21 -50.5
t-50 -21.5q-34 0 -57.5 26t-23.5 69z" />
    <glyph glyph-name="quotedblright" unicode="&#x201d;" horiz-adv-x="442" 
d="M395 581q0 -51 -26.5 -97t-70.5 -78l-50 41q25 15 47 42t27 52q-6 -2 -18 -2q-27 0 -44.5 18.5t-17.5 47.5t21 50.5t51 21.5q34 0 57.5 -26t23.5 -70zM203 581q0 -51 -26 -97t-70 -78l-51 41q25 15 47 42t27 52q-4 -2 -17 -2q-27 0 -44.5 18.5t-17.5 47.5t21 50.5
t50 21.5q34 0 57.5 -26t23.5 -70z" />
    <glyph glyph-name="quotedblbase" unicode="&#x201e;" horiz-adv-x="442" 
d="M203 41q0 -52 -26 -97.5t-70 -77.5l-51 41q25 14 47 41.5t27 52.5q-6 -3 -17 -3q-27 0 -44.5 18.5t-17.5 47.5q0 30 21 51.5t50 21.5q34 0 57.5 -26t23.5 -70zM395 41q0 -105 -97 -175l-50 41q25 14 47 41.5t27 52.5q-9 -3 -18 -3q-27 0 -44.5 18.5t-17.5 47.5
q0 30 21 51.5t51 21.5q34 0 57.5 -26t23.5 -70z" />
    <glyph glyph-name="dagger" unicode="&#x2020;" horiz-adv-x="273" 
d="M252 525l-89 4l4 -202h-62l5 202l-89 -4v56l89 -3l-5 99h62l-4 -99l89 3v-56z" />
    <glyph glyph-name="daggerdbl" unicode="&#x2021;" horiz-adv-x="273" 
d="M252 581v-56l-89 4v-200l89 4v-56l-89 3l4 -100h-62l4 100l-88 -3v56l88 -4v200l-88 -4v56l88 -3l-4 99h62l-4 -99z" />
    <glyph glyph-name="bullet" unicode="&#x2022;" horiz-adv-x="358" 
d="M296 242q0 -47 -34 -81t-82 -34t-82 34t-34 81q0 48 34 82t82 34t82 -34t34 -82z" />
    <glyph glyph-name="ellipsis" unicode="&#x2026;" horiz-adv-x="745" 
d="M198 63q0 -30 -21.5 -52t-52.5 -22q-30 0 -52 22t-22 52t22 52t52 22q31 0 52.5 -22t21.5 -52zM447 63q0 -30 -22 -52t-53 -22q-30 0 -52 22t-22 52t22 52t52 22q31 0 53 -22t22 -52zM695 63q0 -30 -22 -52t-53 -22q-30 0 -51.5 22t-21.5 52t21.5 52t51.5 22q31 0 53 -22
t22 -52z" />
    <glyph glyph-name="perthousand" unicode="&#x2030;" horiz-adv-x="867" 
d="M280 510q0 -71 -35.5 -118t-94.5 -47q-58 0 -93.5 47t-35.5 118q0 72 35.5 119.5t93.5 47.5q59 0 94.5 -47.5t35.5 -119.5zM459 667l-280 -667h-50l279 667h51zM566 153q0 -71 -35.5 -118t-93.5 -47q-59 0 -94.5 47t-35.5 118q0 72 35.5 119.5t94.5 47.5q58 0 93.5 -47.5
t35.5 -119.5zM204 510q0 44 -14.5 70t-39.5 26t-39.5 -26t-14.5 -70q0 -42 14.5 -68t39.5 -26t39.5 25.5t14.5 68.5zM491 153q0 44 -14.5 69.5t-39.5 25.5t-39.5 -25.5t-14.5 -69.5q0 -43 14.5 -68.5t39.5 -25.5t39.5 25.5t14.5 68.5zM846 153q0 -71 -35.5 -118t-93.5 -47
q-59 0 -94.5 47t-35.5 118q0 72 35.5 119.5t94.5 47.5q58 0 93.5 -47.5t35.5 -119.5zM771 153q0 44 -14.5 69.5t-39.5 25.5t-39.5 -25.5t-14.5 -69.5q0 -43 14.5 -68.5t39.5 -25.5t39.5 26t14.5 68z" />
    <glyph glyph-name="guilsinglleft" unicode="&#x2039;" horiz-adv-x="238" 
d="M208 63h-88l-90 180l90 177h88l-90 -177z" />
    <glyph glyph-name="guilsinglright" unicode="&#x203a;" horiz-adv-x="238" 
d="M208 243l-90 -180h-88l90 180l-90 177h88z" />
    <glyph glyph-name="fraction" unicode="&#x2044;" horiz-adv-x="133" 
d="M231 667l-279 -667h-50l278 667h51z" />
    <glyph glyph-name="Euro" unicode="&#x20ac;" horiz-adv-x="445" 
d="M256 -12q-86 0 -136.5 64t-66.5 176h-38v72h32v33v36h-32v71h39q16 112 66 175t136 63q31 0 57 -10t43 -24.5t31 -37t22 -41.5t15 -44l-101 -37q-11 42 -25.5 62t-41.5 20q-59 0 -75 -126h100v-71h-105v-36v-33h105v-72h-100q16 -128 75 -128q53 0 69 97l100 -37
q-41 -172 -169 -172z" />
    <glyph glyph-name="trademark" unicode="&#x2122;" horiz-adv-x="374" 
d="M339 447h-28v182l-55 -182h-8l-55 182v-182h-28v220h43l44 -157l44 157h43v-220zM129 641h-42v-194h-28v194h-42v26h112v-26z" />
    <glyph glyph-name="Omega" unicode="&#x2126;" horiz-adv-x="469" 
d="M37 0v111h83q-94 89 -94 250q0 146 52.5 231.5t155.5 85.5q104 0 156.5 -85t52.5 -232q0 -161 -96 -250h85v-111h-169v111q20 12 35.5 78.5t15.5 143.5q0 232 -80 232q-79 0 -79 -232q0 -79 15.5 -145.5t35.5 -76.5v-111h-169z" />
    <glyph glyph-name="partialdiff" unicode="&#x2202;" horiz-adv-x="417" 
d="M208 -12q-89 0 -135 69t-46 171q0 101 39 169.5t110 68.5q62 0 93 -69q-23 140 -96 241l95 44q122 -186 122 -440q0 -112 -45.5 -183t-136.5 -71zM208 88q65 0 65 139t-65 139t-65 -139t65 -139z" />
    <glyph glyph-name="Delta" unicode="&#x2206;" horiz-adv-x="441" 
d="M441 0h-441l148 667h145zM295 111l-74 415l-75 -415h149z" />
    <glyph glyph-name="product" unicode="&#x220f;" horiz-adv-x="516" 
d="M447 -90h-126v646h-127v-646h-125v646h-51v111h480v-111h-51v-646z" />
    <glyph glyph-name="summation" unicode="&#x2211;" horiz-adv-x="362" 
d="M166 556l111 -259l-115 -276h171v-111h-298v115l112 273l-112 258v111h298v-111h-167z" />
    <glyph glyph-name="minus" unicode="&#x2212;" horiz-adv-x="383" 
d="M354 299h-325v71h325v-71z" />
    <glyph glyph-name="radical" unicode="&#x221a;" horiz-adv-x="465" 
d="M288 0h-77l-66 302l-93 -18l-13 70l159 31l54 -272l122 554h73z" />
    <glyph glyph-name="infinity" unicode="&#x221e;" horiz-adv-x="494" 
d="M143 162q-57 0 -85.5 51.5t-28.5 122.5t28.5 122t85.5 51q69 0 104 -101q15 45 42.5 73t61.5 28q56 0 85 -51.5t29 -122.5t-28.5 -122t-85.5 -51q-34 0 -61.5 28t-42.5 73q-35 -101 -104 -101zM339 233q26 0 41.5 28t15.5 75q0 46 -15.5 74t-41.5 28q-41 0 -62 -102
q21 -103 62 -103zM155 233q41 0 62 103q-21 102 -62 102q-26 0 -41.5 -28t-15.5 -74q0 -47 15.5 -75t41.5 -28z" />
    <glyph glyph-name="integral" unicode="&#x222b;" horiz-adv-x="244" 
d="M45 -100h-28v76h28q15 0 25.5 12t10.5 30v632q0 50 35.5 84t82.5 34h28v-76h-28q-15 0 -25.5 -12t-10.5 -30v-632q0 -51 -35.5 -84.5t-82.5 -33.5z" />
    <glyph glyph-name="approxequal" unicode="&#x2248;" horiz-adv-x="383" 
d="M29 203v75q37 -19 81 -19q34 0 78 17t85 17q47 0 81 -15v-75q-37 19 -81 19q-34 0 -78 -17.5t-85 -17.5q-44 0 -81 16zM29 390v75q38 -20 81 -20q34 0 78 17.5t85 17.5q47 0 81 -15v-75q-37 19 -81 19q-34 0 -78 -17.5t-85 -17.5q-44 0 -81 16z" />
    <glyph glyph-name="notequal" unicode="&#x2260;" horiz-adv-x="383" 
d="M115 93h-50l46 110h-82v72h112l49 118h-161v72h191l46 109h52l-46 -109h82v-72h-113l-49 -118h162v-72h-193z" />
    <glyph glyph-name="lessequal" unicode="&#x2264;" horiz-adv-x="383" 
d="M354 156l-325 138v81l325 139v-85l-241 -95l241 -93v-85zM354 27h-325v71h325v-71z" />
    <glyph glyph-name="greaterequal" unicode="&#x2265;" horiz-adv-x="383" 
d="M354 294l-325 -138v85l241 93l-241 95v85l325 -139v-81zM354 27h-325v71h325v-71z" />
    <glyph glyph-name="lozenge" unicode="&#x25ca;" horiz-adv-x="375" 
d="M198 0h-21l-158 334l158 333h21l158 -333zM188 41l132 293l-133 292l-132 -292z" />
    <glyph glyph-name="apple" unicode="&#xf8ff;" horiz-adv-x="667" 
d="M221 154v68h-68q-28 0 -47.5 -20t-19.5 -48q0 -29 19.5 -49t47.5 -20t48 20t20 49zM221 445v69q0 28 -19.5 48t-47.5 20t-48 -20t-20 -48q0 -29 20 -49t48 -20h67zM265 265h137v137h-137v-137zM581 154q0 28 -19.5 48t-47.5 20h-68v-68q0 -29 20 -49t48 -20t47.5 20
t19.5 49zM581 514q0 28 -19.5 48t-47.5 20t-48 -20t-20 -48v-69h68q28 0 47.5 20t19.5 49zM625 154q0 -46 -32.5 -79t-78.5 -33t-79 33t-33 79v68h-137v-68q0 -46 -33 -79t-79 -33t-78.5 33t-32.5 79t32.5 78.5t78.5 32.5h68v137h-67q-46 0 -79 33t-33 79t33 78.5t79 32.5
t78.5 -32.5t32.5 -78.5v-69h137v69q0 46 33 78.5t79 32.5t78.5 -32.5t32.5 -78.5t-32.5 -79t-78.5 -33h-68v-137h68q46 0 78.5 -32.5t32.5 -78.5z" />
    </font>
</defs>
</svg>
