<?xml version="1.0" standalone="no"?>
<!DOCTYPE svg PUBLIC "-//W3C//DTD SVG 1.1//EN" "http://www.w3.org/Graphics/SVG/1.1/DTD/svg11.dtd" >
<!--
2013-9-30: Created.
-->
<svg>
<metadata>
Created by iconfont
</metadata>
<defs>

<font id="iconfont" horiz-adv-x="1024" >
  <font-face
    font-family="iconfont"
    font-weight="500"
    font-stretch="normal"
    units-per-em="1024"
    ascent="896"
    descent="-128"
  />
    <missing-glyph />
    
    <glyph glyph-name="hezuohuobanguanli" unicode="&#58880;" d="M535.03678534 449.9524834C575.98385506 468.40116329 604.61305633 509.40447862 604.61305633 557.1010658299999c0 64.90785498-52.8149707 117.72282569-117.72282567 117.72282568S369.16740585 622.0651664100001 369.16740585 557.1010658299999c0-47.69658633 28.62920127-88.69990254 69.52002538-107.14858244 15.52388906 3.99346435 31.4977456 6.7495166 48.20280029 6.74951661C503.65153182 456.702 519.56914276 453.94594775 535.03678534 449.9524834zM407.92088202 557.1010658299999c0 43.59063076 35.43496435 78.91310302 79.02559511 78.91310302 43.53438428 0 78.96934863-35.37871787 78.96934863-78.91310303S530.48086141 478.0754707 486.94647713 478.0754707C443.35584637 478.0754707 407.92088202 513.62292715 407.92088202 557.1010658299999zM522.83140897 281.38329638000005L332.10130838 281.38329638000005c9.61806182 76.88824805 75.36960615 136.56522745 154.84516875 136.56522745 40.77833203 0 77.7319374-15.86136533 105.51744931-41.56577578C600.90082176 382.34482176999995 609.28147235 388.47563319 617.99959833 393.08780273l8.15566641 4.21844854c-24.57949131 25.31068857-55.90849922 43.59063076-91.1184794 52.70247861C520.35658563 443.31545799 504.10149931 439.37824013 486.94647713 439.37824013s-33.46635498 3.93721787-48.2028003 10.57424326C354.76843593 428.410275 292.22291219 352.64694697000004 292.22291219 262.03468153999995c0-10.74298096 8.71812598-19.40486133 19.34861574-19.40486133l186.00543895-3.48725039C497.57696601 239.14256981999995 520.5253242 276.43365058999996 522.83140897 281.38329638000005zM535.3742616 449.67125362C522.38144149 463.56400957 506.68881386 463.56400957 489.98375917 463.56400957s-38.92221474 0-50.95885342-13.89275595C453.81759756 442.35927655 470.07268475 438.02833682 487.22770692 438.02833682 504.43897469 438.02833682 520.63781542 442.35927655 535.3742616 449.67125362zM761.25809677 207.08236377000003c-27.44803565 13.33029638-60.57691523 1.91236289-73.96345724-25.59191836-13.33029638-27.44803565-1.91236289-60.57691523 25.59191836-73.96345723 5.00589141-2.47482246 10.236767-3.2060206 15.52388908-4.04970995 23.45457129-3.71223457 47.52784863 7.14323849 58.49581377 29.58538271 10.236767 21.31722422 5.45585977 45.67173135-9.89929162 61.98306416C772.56353729 199.77038672000003 767.4451538 204.04508085999998 761.25809677 207.08236377000003zM912.61601513 135.87495966999995c18.1674501 4.55592393 33.12887959 8.94311015 44.94053408 13.1053122 0.28122979 12.14913076-0.11249209 24.52324482-1.9123629 36.89735977-0.0562456 1.06867354-0.22498418 2.13734707-0.33747627 3.20602061-12.26162286 2.92479082-27.44803565 5.62459747-46.00920762 8.1556664-2.41857685 10.57424326-5.79333516 20.69851904-9.89929159 30.42907207 13.38654201 12.99282012 24.12952295 24.18576943 32.22894375 33.74758477-6.41204121 11.92414658-13.78026386 23.17334151-21.99217588 33.57884707-12.03663867-3.59974247-26.71683838-8.88686367-43.98435265-15.97385654-7.19948497 7.87443662-15.24265927 14.96142949-23.79204754 21.37347071 5.11838349 17.94246592 8.77437247 33.0726331 11.08045722 45.44674804-11.36168701 7.03074727-23.39832569 13.16155781-35.77243975 18.1674501-1.29365771-1.46239541-2.92479082-3.31851269-4.33093975-4.83715372-7.64945244-8.4931418-16.08634863-18.44867988-25.81690252-30.93528602-3.26226621 0.95618145-6.7495166 1.29365771-10.0680293 2.08110145-7.03074727 1.74362519-13.94900156 3.59974247-21.14848654 4.49967832-4.61216953 18.05495799-8.94311015 33.0163875-13.16155781 44.77179639-12.14913076 0.39372187-24.46699922-0.11249209-36.78486768-1.7998708-1.29365771-0.11249209-2.30608477-0.28122979-3.37475829-0.44996748-2.75605312-12.14913076-5.68084307-27.44803565-8.09942081-46.00920762-9.78679951-2.19359268-19.17987714-5.45585977-28.17923379-9.22433994-0.78744375-0.28122979-1.51864102-0.33747627-2.19359266-0.67495166-12.99282012 13.44278761-24.18576943 24.18576943-33.74758477 32.22894375C623.11798182 349.94714033 616.87467919 345.05374013000005 610.2376538 340.61030830000004 605.79422196 337.51677979 600.90082176 335.09820292999996 596.6823741 331.72344375c3.59974247-12.03663867 8.88686367-26.60434628 15.97385656-43.92810615-7.42446826-7.03074727-14.28647783-14.68019971-20.41728926-22.77961963L587.51427978 265.01571796999997c-16.14259511 4.49967833-30.20408877 7.93068222-41.56577579 10.01178369-1.96860937-3.149775-3.26226621-6.7495166-5.06213789-10.01178369-4.72466162-8.43689619-9.50556972-16.87379239-13.10531221-25.81690254 4.61216953-4.33093974 9.84304599-8.94311015 15.80511886-13.94900156s12.59909825-10.34925908 19.96732088-16.03010303c-2.92479082-10.18052138-5.28712208-20.64227255-6.4682868-31.38525439-18.11120362-4.49967833-33.0726331-8.94311015-44.88428761-13.1053122-0.44996748-12.09288427 0.16873769-24.41075273 1.7436252-36.8411133 0.16873769-1.06867354 0.33747627-2.19359268 0.50621396-3.26226621 12.14913076-2.92479082 27.44803565-5.56835185 46.00920763-8.1556664 1.23741123-5.28712208 3.3747583-10.18052138 5.00589139-15.29890488 1.6311331-5.00589141 2.81229873-10.236767 4.83715373-15.07392159-7.76194453-7.59320683-14.45521552-14.45521552-20.52978047-20.86725674-4.33093974-4.55592393-8.38065059-8.94311015-11.7554089-12.88032802 6.35579472-11.98039307 13.66777178-23.17334151 21.99217588-33.74758477 11.92414658 3.59974247 26.71683838 8.99935575 43.98435263 16.08634864 7.19948497-7.87443662 15.29890489-14.96142949 23.79204758-21.3734707-5.17462998-17.88622031-8.88686367-33.0726331-11.08045724-45.39050156 11.24919492-7.08699287 23.28583359-13.16155781 35.77243974-18.11120362 8.66188037 8.99935575 18.56117198 20.92350234 30.0353502 35.71619414 10.18052138-3.149775 20.58602695-5.28712208 31.32900791-6.58077891 4.55592393-18.11120362 8.94311015-33.0163875 13.10531221-44.82804199 12.09288427-0.39372187 24.41075273 0.16873769 36.89735976 1.7998708 1.06867354 0.11249209 2.13734707 0.22498418 3.26226621 0.39372188 2.86854434 12.20537637 5.56835185 27.50428213 8.04317433 46.06545322 10.57424326 2.41857685 20.69851904 5.73708955 30.37282646 9.89929159 12.99282012-13.44278761 24.29826153-24.18576943 33.80383125-32.28518935 11.98039307 6.35579472 23.17334151 13.72401826 33.57884706 21.99217589-3.48725039 11.98039307-8.77437247 26.6605919-15.97385654 43.98435263 7.81819013 7.25573057 14.905183 15.29890489 21.31722422 23.73580107 17.94246592-5.11838349 33.12887959-8.77437247 45.44674806-11.08045722 7.08699287 11.30544052 13.2178043 23.28583359 18.16745009 35.88493183-9.16809433 8.54938828-21.03599443 18.56117198-35.82868623 30.0353502C909.24125682 114.72647314999995 911.4348495 125.13197871 912.61601513 135.87495966999995zM751.58378846 29.28883682000003c-40.72208555-5.34336768-79.13808633 9.33683203-106.41738428 35.99742393-10.57424326 10.34925908-19.23612364 22.32965215-25.76065693 35.88493183-5.84958164 12.03663867-10.34925908 24.9169667-12.20537637 38.97846035-4.10595644 30.93528604 3.76848018 60.52066875 19.23612364 85.10016006 12.71159033 20.13605859 30.82279395 36.44739141 52.75872421 47.07788115 12.09288427 5.79333516 24.9169667 10.34925908 38.92221474 12.14913076 20.64227255 2.75605312 40.55334785-0.11249209 58.94578215-6.52453329 12.88032802-4.55592393 25.08570441-10.57424326 35.82868621-18.72990968 26.32311651-20.07981299 44.99677969-50.22765527 49.66519572-85.60637402C871.78143748 103.13980194999999 822.0037497 38.513176759999965 751.58378846 29.28883682000003zM415.57033446 159.04830116999995L219.77809597 159.04830116999995C176.29995731 159.04830116999995 141.03373153 194.31452782999997 141.03373153 237.79266651L141.03373153 699.00966006C141.03373153 742.48779873 176.29995731 777.75402539 219.77809597 777.75402539l461.21699445 0C724.47322909 777.75402539 759.73945487 742.48779873 759.73945487 699.00966006l0-207.60389297c0-2.08110146 40.94706973-5.34336768 56.24597461-9.78679951L815.98543036 721.5080499000001c0 62.15180185-50.34014737 112.4919501-112.49195009 112.4919501L197.27970613 834C135.12790428 834 84.78775604 783.65985263 84.78775604 721.5080499000001l0-506.21377412c0-62.15180185 50.34014737-112.4919501 112.49195009-112.49195009l226.84001661 0C420.18250487 118.15747705000001 417.14522196 159.04830116999995 415.57033446 159.04830116999995zM374.39828143 486.62485898c0 0-194.77981143 10.51799766-194.66731934-213.90344296l38.69723057 0c0 0-12.31786846 160.5260127 156.02633437 175.14996591L374.39828143 486.62485898zM374.45452703 665.59955156c0 0-103.26761017 0-103.26761014-103.21136367 0 0 0-96.23686289 103.26761014-103.21136367L374.45452703 494.33055791c0 0-60.12694687 5.11838349-65.41406895 68.05762998 0 0-2.75605312 65.52656105 65.41406895 70.81368222L374.45452703 665.59955156z"  horiz-adv-x="1024" />

    
    <glyph glyph-name="shaixuantiaojianx" unicode="&#59012;" d="M588.8-92.16c-15.36 0-30.72 5.12-40.96 15.36l-128 128c-25.6 25.6-35.84 56.32-35.84 87.04V435.2L40.96 742.4C25.6 752.64 15.36 773.12 15.36 798.72c0 20.48 5.12 40.96 20.48 61.44 15.36 15.36 35.84 25.6 61.44 25.6h834.56c46.08 0 81.92-35.84 81.92-81.92 0-25.6-10.24-46.08-25.6-61.44l-332.8-307.2v-465.92c-5.12-35.84-30.72-61.44-66.56-61.44zM97.28 803.84c-5.12 0-5.12 0 0 0l-5.12-5.12 353.28-317.44 15.36-30.72v-307.2c0-15.36 5.12-25.6 15.36-35.84l97.28-102.4V450.56l10.24 30.72 348.16 317.44c0 5.12 0 10.24-5.12 10.24H97.28v-5.12z"  horiz-adv-x="1024" />

    
    <glyph glyph-name="shanchu" unicode="&#59015;" d="M0 733.0304h604.16v-76.8H0zM153.6 773.9904h256v-76.8H153.6zM660.48 579.4304h358.4v-76.8h-358.4zM660.48 359.2704h307.2v-76.8h-307.2zM660.48 158.72h204.8v-76.8h-204.8zM465.92-81.92H138.24C66.56-81.92 5.12-25.6 5.12 51.2V624.64h588.8v-573.44c0-71.68-56.32-133.12-128-133.12zM87.04 547.84v-496.64c0-30.72 25.6-56.32 56.32-56.32h327.68c30.72 0 51.2 25.6 51.2 56.32V547.84H87.04z"  horiz-adv-x="1024" />

    
    <glyph glyph-name="shuaxin" unicode="&#59018;" d="M855.04 168.96L691.2 332.8l56.32 56.32 112.64-112.64L972.8 389.12l51.2-56.32-168.96-163.84zM276.48 332.8L163.84 445.44 51.2 332.8l-51.2 51.2 163.84 168.96L327.68 384l-51.2-51.2zM512-25.6c-102.4 0-199.68 35.84-271.36 112.64-102.4 102.4-138.24 261.12-92.16 399.36l71.68-25.6c-35.84-107.52-10.24-235.52 76.8-317.44 92.16-97.28 240.64-117.76 363.52-56.32l35.84-66.56c-61.44-30.72-122.88-46.08-184.32-46.08z m358.4 256l-71.68 25.6c40.96 112.64 10.24 235.52-71.68 322.56-92.16 97.28-240.64 117.76-363.52 51.2l-35.84 71.68c148.48 81.92 332.8 51.2 450.56-66.56C885.76 527.36 921.6 368.64 870.4 230.4z"  horiz-adv-x="1024" />

    
    <glyph glyph-name="canshuliebiao" unicode="&#59019;" d="M409.6 332.8h460.8V435.2H409.6v-102.4z m0 358.4v-102.4h460.8V691.2H409.6z m0-614.4h460.8v102.4H409.6v-102.4z m-204.8 256h102.4V435.2H204.8v-102.4z m0 358.4v-102.4h102.4V691.2H204.8z m0-614.4h102.4v102.4H204.8v-102.4z"  horiz-adv-x="1024" />

    
    <glyph glyph-name="bianji-icon" unicode="&#59020;" d="M941.123013 807.11807L864.177826 886.257511A33.645234 33.645234 0 0 1 840.333595 895.985372a29.47615 29.47615 0 0 1-22.747103-9.727861L363.522121 425.683519a38.911444 38.911444 0 0 1-7.533607-10.824988L305.008671 285.982657a31.743547 31.743547 0 0 1 7.606749-34.669219 31.158412 31.158412 0 0 1 22.747103-9.727861c4.388509 0 7.606748 1.097127 11.922116 2.194255l127.851888 50.906701c4.388509 2.194254 7.606748 4.315367 10.824988 7.533607l454.06437 460.573992a29.403009 29.403009 0 0 1 1.097128 44.39708z m-495.170069-455.088356l-52.076971-20.625991 20.625991 53.100956 425.831631 432.414394 32.474965-32.548107-426.928758-432.341252z m331.551835 38.984586v-437.753747c0-23.844231-21.723118-43.299953-45.56735-43.299952H116.522221A43.446236 43.446236 0 0 0 73.149126-46.812588V778.958472c0 23.844231 19.528864 41.17884 43.373095 41.17884h450.772989c23.771089 0 43.299953-19.528864 43.299953-43.373094a43.446236 43.446236 0 0 0-43.299953-43.299953h-407.399894v-736.830617h530.863273V391.0143c0 23.844231 19.528864 43.373095 43.373095 43.373094 23.844231 0 43.373095-19.528864 43.373095-43.373094z"  horiz-adv-x="1024" />

    
    <glyph glyph-name="jibenxinxi-iconx" unicode="&#59021;" d="M389.12-102.4c-81.92 0-148.48 66.56-148.48 148.48V721.92c0 46.08-20.48 97.28-76.8 97.28-15.36 0-25.6 10.24-25.6 25.6s10.24 25.6 25.6 25.6H665.6c81.92 0 148.48-66.56 148.48-148.48v-552.96c0-15.36-10.24-25.6-25.6-25.6s-25.6 10.24-25.6 25.6V721.92c0 51.2-46.08 97.28-97.28 97.28H261.12c20.48-25.6 30.72-56.32 30.72-97.28v-675.84c0-51.2 46.08-97.28 97.28-97.28 15.36 0 25.6-10.24 25.6-25.6s-10.24-25.6-25.6-25.6zM849.92-102.4h-460.8c-15.36 0-25.6 10.24-25.6 25.6s10.24 25.6 25.6 25.6c51.2 0 97.28 46.08 97.28 97.28 0 51.2-46.08 97.28-97.28 97.28-15.36 0-25.6 10.24-25.6 25.6s10.24 25.6 25.6 25.6h460.8c81.92 0 148.48-66.56 148.48-148.48 0-81.92-66.56-148.48-148.48-148.48z m-348.16 51.2h348.16c51.2 0 97.28 46.08 97.28 97.28 0 51.2-46.08 97.28-97.28 97.28H501.76c20.48-25.6 35.84-61.44 35.84-97.28s-15.36-71.68-35.84-97.28zM266.24 696.32H51.2c-15.36 0-25.6 10.24-25.6 25.6C25.6 808.96 81.92 870.4 163.84 870.4c5.12 0 15.36-5.12 20.48-10.24l102.4-122.88c5.12-5.12 10.24-20.48 5.12-25.6-5.12-10.24-15.36-15.36-25.6-15.36z m-184.32 51.2h133.12L148.48 819.2c-40.96-5.12-61.44-35.84-66.56-71.68zM634.88 327.68H419.84c-15.36 0-25.6 10.24-25.6 25.6s10.24 25.6 25.6 25.6h215.04c15.36 0 25.6-10.24 25.6-25.6s-10.24-25.6-25.6-25.6z m0 153.6H419.84c-15.36 0-25.6 10.24-25.6 25.6s10.24 25.6 25.6 25.6h215.04c15.36 0 25.6-10.24 25.6-25.6s-10.24-25.6-25.6-25.6z m0 153.6H419.84c-15.36 0-25.6 10.24-25.6 25.6s10.24 25.6 25.6 25.6h215.04c15.36 0 25.6-10.24 25.6-25.6s-10.24-25.6-25.6-25.6z"  horiz-adv-x="1024" />

    
    <glyph glyph-name="bujushezhi-iconx" unicode="&#59853;" d="M863.085714 815.542857H160.914286c-43.885714 0-80.457143-36.571429-80.457143-80.457143v-702.171428c0-43.885714 36.571429-80.457143 80.457143-80.457143h702.171428c43.885714 0 80.457143 36.571429 80.457143 80.457143V735.085714c0 43.885714-36.571429 80.457143-80.457143 80.457143z m0-329.142857H490.057143V735.085714h373.028571v-248.685714zM160.914286 735.085714h248.685714v-702.171428H160.914286V735.085714z m329.142857-702.171428V405.942857h373.028571v-373.028571H490.057143z"  horiz-adv-x="1024" />

    
    <glyph glyph-name="dingshirenwu-iconx" unicode="&#59854;" d="M885.028571 537.6c14.628571 7.314286 58.514286 51.2 58.514286 117.028571 0 43.885714-21.942857 87.771429-65.828571 124.342858-51.2 36.571429-95.085714 43.885714-124.342857 36.571428-51.2-14.628571-87.771429-51.2-102.4-65.828571-43.885714 14.628571-87.771429 21.942857-138.971429 21.942857s-95.085714-7.314286-138.971429-21.942857c-14.628571 21.942857-51.2 58.514286-102.4 65.828571-29.257143 7.314286-73.142857 0-124.342857-36.571428-43.885714-43.885714-65.828571-80.457143-65.828571-124.342858 0-65.828571 43.885714-102.4 58.514286-117.028571-21.942857-51.2-36.571429-109.714286-36.571429-175.542857 0-102.4 36.571429-197.485714 102.4-270.628572l-65.828571-87.771428c-14.628571-21.942857-7.314286-43.885714 14.628571-58.514286 7.314286-7.314286 14.628571-7.314286 21.942857-7.314286 14.628571 0 29.257143 7.314286 36.571429 21.942858l51.2 80.457142c65.828571-51.2 153.6-87.771429 248.685714-87.771428s182.857143 29.257143 248.685714 87.771428l51.2-80.457142c7.314286-14.628571 21.942857-21.942857 36.571429-21.942858 7.314286 0 14.628571 0 21.942857 7.314286 21.942857 14.628571 21.942857 36.571429 14.628571 58.514286l-58.514285 87.771428c65.828571 73.142857 102.4 168.228571 102.4 270.628572-7.314286 65.828571-21.942857 124.342857-43.885715 175.542857z m-117.028571 197.485714c14.628571 0 36.571429-7.314286 58.514286-21.942857 21.942857-21.942857 36.571429-36.571429 36.571428-58.514286 0-14.628571-7.314286-36.571429-21.942857-43.885714-29.257143 43.885714-65.828571 73.142857-109.714286 102.4 7.314286 7.314286 21.942857 14.628571 36.571429 21.942857zM168.228571 654.628571c0 21.942857 14.628571 36.571429 36.571429 58.514286 14.628571 14.628571 36.571429 21.942857 51.2 21.942857s29.257143-14.628571 36.571429-21.942857c-36.571429-29.257143-80.457143-65.828571-109.714286-102.4-7.314286 7.314286-14.628571 21.942857-14.628572 43.885714zM512 32.914286c-182.857143 0-329.142857 146.285714-329.142857 329.142857s146.285714 329.142857 329.142857 329.142857 329.142857-146.285714 329.142857-329.142857-146.285714-329.142857-329.142857-329.142857z m146.285714 241.371428c14.628571-14.628571 14.628571-43.885714 0-58.514285-7.314286-7.314286-14.628571-14.628571-29.257143-14.628572-7.314286 0-21.942857 7.314286-29.257142 14.628572L482.742857 332.8c-7.314286 7.314286-14.628571 21.942857-14.628571 29.257143v219.428571c0 21.942857 21.942857 43.885714 43.885714 43.885715s43.885714-21.942857 43.885714-43.885715v-204.8L658.285714 274.285714z"  horiz-adv-x="1024" />

    
    <glyph glyph-name="chuangjianzhishi-iconx" unicode="&#59855;" d="M863.085714 852.114286H321.828571c-65.828571 0-117.028571-51.2-117.028571-117.028572v-51.2h-51.2c-65.828571 0-117.028571-51.2-117.028571-117.028571v-541.257143c0-65.828571 51.2-117.028571 117.028571-117.028571h541.257143c65.828571 0 117.028571 51.2 117.028571 117.028571v51.2h51.2c65.828571 0 117.028571 51.2 117.028572 117.028571V735.085714c-7.314286 73.142857-58.514286 117.028571-117.028572 117.028572z m-124.342857-819.2c0-21.942857-21.942857-43.885714-43.885714-43.885715H153.6c-21.942857 0-43.885714 21.942857-43.885714 43.885715V574.171429c0 21.942857 21.942857 43.885714 43.885714 43.885714h541.257143c21.942857 0 43.885714-21.942857 43.885714-43.885714v-541.257143z m160.914286 175.542857c0-21.942857-21.942857-43.885714-43.885714-43.885714H804.571429V574.171429c0 65.828571-51.2 117.028571-117.028572 117.028571H277.942857v43.885714c0 21.942857 21.942857 43.885714 43.885714 43.885715h541.257143c21.942857 0 43.885714-21.942857 43.885715-43.885715l-7.314286-526.628571zM614.4 325.485714c0 14.628571-7.314286 21.942857-21.942857 21.942857H490.057143c-14.628571 0-21.942857 7.314286-21.942857 21.942858V471.771429c0 14.628571-7.314286 21.942857-21.942857 21.942857h-51.2c-14.628571 0-21.942857-7.314286-21.942858-21.942857v-109.714286c0-14.628571-7.314286-21.942857-21.942857-21.942857H241.371429c-14.628571 0-21.942857-7.314286-21.942858-21.942857v-43.885715c0-14.628571 7.314286-21.942857 21.942858-21.942857h109.714285c14.628571 0 21.942857-7.314286 21.942857-21.942857v-109.714286c0-14.628571 7.314286-21.942857 21.942858-21.942857H438.857143c14.628571 0 21.942857 7.314286 21.942857 21.942857V230.4c0 14.628571 7.314286 21.942857 21.942857 21.942857h109.714286c14.628571 0 21.942857 7.314286 21.942857 21.942857 7.314286 7.314286 7.314286 51.2 0 51.2z"  horiz-adv-x="1024" />

    
    <glyph glyph-name="fenleipeizhix" unicode="&#59856;" d="M885.028571 135.314286v219.428571c0 58.514286-43.885714 109.714286-102.4 109.714286H555.885714V625.371429c36.571429 14.628571 65.828571 58.514286 65.828572 102.4C621.714286 778.971429 577.828571 830.171429 512 830.171429s-102.4-51.2-102.4-102.4c0-43.885714 29.257143-87.771429 65.828571-102.4v-160.914286H248.685714c-58.514286 0-102.4-51.2-102.4-109.714286v-212.114286c-36.571429-14.628571-65.828571-51.2-65.828571-95.085714 0-58.514286 43.885714-102.4 102.4-102.4S292.571429-18.285714 292.571429 40.228571c0 43.885714-36.571429 80.457143-65.828572 95.085715v219.428571c0 14.628571 7.314286 29.257143 21.942857 29.257143h226.742857v-248.685714c-36.571429-14.628571-65.828571-51.2-65.828571-95.085715 0-58.514286 43.885714-102.4 102.4-102.4s102.4 51.2 102.4 102.4c0 43.885714-29.257143 80.457143-65.828571 95.085715V384h226.742857c14.628571 0 21.942857-14.628571 21.942857-29.257143v-212.114286c-29.257143-14.628571-65.828571-51.2-65.828572-95.085714 0-58.514286 51.2-102.4 109.714286-102.4s102.4 51.2 102.4 102.4c7.314286 36.571429-21.942857 73.142857-58.514286 87.771429zM512 771.657143c21.942857 0 43.885714-21.942857 43.885714-43.885714S541.257143 676.571429 512 676.571429s-43.885714 21.942857-43.885714 51.2 21.942857 43.885714 43.885714 43.885714zM182.857143-10.971429c-21.942857 0-43.885714 21.942857-43.885714 43.885715s21.942857 43.885714 43.885714 43.885714 43.885714-21.942857 43.885714-43.885714-21.942857-43.885714-43.885714-43.885715z m329.142857 0c-21.942857 0-43.885714 21.942857-43.885714 43.885715s21.942857 43.885714 43.885714 43.885714 43.885714-21.942857 43.885714-43.885714-14.628571-43.885714-43.885714-43.885715z m336.457143 0c-21.942857 0-43.885714 21.942857-43.885714 43.885715s21.942857 43.885714 43.885714 43.885714 43.885714-21.942857 43.885714-43.885714-14.628571-43.885714-43.885714-43.885715z"  horiz-adv-x="1031" />

    
    <glyph glyph-name="fuwuzuguanlix" unicode="&#59857;" d="M643.657143-54.857143c-117.028571 0-307.2 36.571429-351.085714 73.142857-7.314286 7.314286-14.628571 21.942857-14.628572 29.257143V420.571429c0 14.628571 7.314286 21.942857 14.628572 29.257142 0 0 73.142857 51.2 138.971428 95.085715 87.771429 51.2 146.285714 117.028571 160.914286 153.6C607.085714 749.714286 636.342857 822.857143 709.485714 822.857143c36.571429 0 65.828571-21.942857 80.457143-58.514286 29.257143-73.142857 0-175.542857-58.514286-256 36.571429-7.314286 87.771429-21.942857 117.028572-29.257143 51.2-14.628571 87.771429-51.2 95.085714-102.4 7.314286-51.2-14.628571-95.085714-65.828571-131.657143-36.571429-102.4-102.4-256-146.285715-285.257142-21.942857-7.314286-51.2-14.628571-87.771428-14.628572z m-292.571429 124.342857c73.142857-29.257143 292.571429-58.514286 336.457143-43.885714 21.942857 21.942857 80.457143 146.285714 117.028572 256 0 7.314286 7.314286 14.628571 14.628571 21.942857 29.257143 21.942857 51.2 43.885714 43.885714 65.828572 0 14.628571-14.628571 29.257143-43.885714 36.571428-36.571429 14.628571-160.914286 43.885714-160.914286 43.885714-14.628571 0-21.942857 7.314286-29.257143 21.942858-7.314286 14.628571 0 29.257143 7.314286 36.571428C724.114286 603.428571 738.742857 698.514286 724.114286 735.085714 716.8 749.714286 716.8 749.714286 709.485714 749.714286c-14.628571 0-21.942857-14.628571-43.885714-73.142857-21.942857-65.828571-102.4-146.285714-197.485714-197.485715-43.885714-21.942857-95.085714-58.514286-117.028572-73.142857v-336.457143z m-146.285714-21.942857V427.885714c0 36.571429-29.257143 58.514286-58.514286 58.514286s-65.828571-29.257143-65.828571-58.514286v-380.342857c0-36.571429 29.257143-58.514286 58.514286-58.514286s65.828571 21.942857 65.828571 58.514286z"  horiz-adv-x="1024" />

    
    <glyph glyph-name="fuwumuluguanlix" unicode="&#59858;" d="M193.59117884 702.40882116m-77.09899134 0a77.09899134 77.09899134 0 1 1 154.19798269 0 77.09899134 77.09899134 0 1 1-154.19798269 0ZM1032.66851231 652.34454077H397.85344115a50.06428039 50.06428039 0 0 0-50.06427961 50.06428039 50.06428039 50.06428039 0 0 0 50.06427961 50.06428037h634.81507116a50.06428039 50.06428039 0 0 0 50.06428037-50.06428037 50.06428039 50.06428039 0 0 0-50.06428037-50.06428039zM193.59117884 384m-77.09899134 0a77.09899134 77.09899134 0 1 1 154.19798269 0 77.09899134 77.09899134 0 1 1-154.19798269 0ZM1032.66851231 333.93571961H397.85344115a50.06428039 50.06428039 0 0 0-50.06427961 50.06428039 50.06428039 50.06428039 0 0 0 50.06427961 50.06428039h634.81507116a50.06428039 50.06428039 0 0 0 50.06428037-50.06428039 50.06428039 50.06428039 0 0 0-50.06428037-50.06428039zM193.59117884 65.59117884m-77.09899134 0a77.09899134 77.09899134 0 1 1 154.19798269 0 77.09899134 77.09899134 0 1 1-154.19798269 0ZM1032.66851231 15.526898469999992H397.85344115a50.06428039 50.06428039 0 0 0-50.06427961 50.06428037 50.06428039 50.06428039 0 0 0 50.06427961 50.06428039h634.81507116a50.06428039 50.06428039 0 0 0 50.06428037-50.06428039 50.06428039 50.06428039 0 0 0-50.06428037-50.06428038z"  horiz-adv-x="1031" />

    
    <glyph glyph-name="gongzuoliu-iconx" unicode="&#59859;" d="M490.057143 713.142857v-58.514286c0-14.628571-14.628571-29.257143-29.257143-29.257142H109.714286c-14.628571 0-29.257143 14.628571-29.257143 29.257142V837.485714c0 14.628571 14.628571 29.257143 29.257143 29.257143h351.085714c14.628571 0 29.257143-14.628571 29.257143-29.257143v-58.514285H804.571429c14.628571 0 29.257143-14.628571 29.257142-29.257143v-131.657143l21.942858 21.942857c14.628571 14.628571 29.257143 14.628571 43.885714 0 14.628571-14.628571 14.628571-29.257143 0-43.885714l-73.142857-73.142857c-14.628571-14.628571-29.257143-14.628571-43.885715 0l-73.142857 73.142857c-14.628571 14.628571-14.628571 29.257143 0 43.885714 14.628571 14.628571 29.257143 14.628571 43.885715 0l29.257142-21.942857V713.142857h-292.571428z m-358.4-21.942857h292.571428V808.228571h-292.571428v-117.028571z m650.971428-468.114286h-146.285714c-21.942857 0-36.571429 14.628571-36.571428 21.942857V427.885714c0 14.628571 14.628571 29.257143 29.257142 29.257143h351.085715c14.628571 0 29.257143-14.628571 29.257143-29.257143v-175.542857c0-14.628571-14.628571-29.257143-29.257143-29.257143h-146.285715v-168.228571c0-14.628571-14.628571-29.257143-29.257142-29.257143H585.142857l21.942857-21.942857c14.628571-14.628571 14.628571-29.257143 0-43.885714-14.628571-14.628571-21.942857-14.628571-36.571428 0l-73.142857 73.142857c-14.628571 14.628571-14.628571 29.257143 0 43.885714l73.142857 73.142857c14.628571 14.628571 29.257143 14.628571 43.885714 0s14.628571-29.257143 0-43.885714l-29.257143-29.257143h190.171429v146.285714zM665.6 398.628571v-117.028571h292.571429V398.628571h-292.571429zM51.2 164.571429h351.085714c14.628571 0 29.257143-14.628571 29.257143-29.257143v-175.542857c0-14.628571-14.628571-29.257143-29.257143-29.257143H51.2c-14.628571 0-29.257143 14.628571-29.257143 29.257143v175.542857c0 14.628571 14.628571 29.257143 29.257143 29.257143z m29.257143-175.542858h292.571428v117.028572h-292.571428v-117.028572z"  horiz-adv-x="1024" />

    
    <glyph glyph-name="gongsiguanli-iconx" unicode="&#59860;" d="M914.285714 544.914286H526.628571V778.971429c0 14.628571-14.628571 29.257143-29.257142 29.257142H109.714286c-14.628571 0-29.257143-14.628571-29.257143-29.257142v-789.942858c0-14.628571 14.628571-29.257143 29.257143-29.257142h804.571428c14.628571 0 29.257143 14.628571 29.257143 29.257142V515.657143c-7.314286 14.628571-14.628571 29.257143-29.257143 29.257143zM351.085714 18.285714H263.314286V237.714286h87.771428v-219.428572z m124.342857 0h-73.142857V266.971429c0 14.628571-14.628571 29.257143-29.257143 29.257142H234.057143c-14.628571-7.314286-29.257143-14.628571-29.257143-29.257142V18.285714h-65.828571V749.714286h336.457142v-731.428572z m190.171429 0V179.2h87.771429V18.285714H665.6z m219.428571 0H804.571429V208.457143c0 14.628571-14.628571 29.257143-29.257143 29.257143H636.342857c-14.628571 0-29.257143-14.628571-29.257143-29.257143V18.285714H526.628571V486.4H877.714286l7.314285-468.114286zM212.114286 603.428571c-7.314286 0-14.628571 0-21.942857 7.314286-7.314286 7.314286-7.314286 14.628571-7.314286 14.628572 0 7.314286 0 14.628571 7.314286 21.942857 14.628571 14.628571 29.257143 14.628571 36.571428 0 7.314286-7.314286 7.314286-14.628571 7.314286-21.942857s0-14.628571-7.314286-21.942858h-14.628571zM409.6 603.428571c-7.314286 0-14.628571 0-21.942857 7.314286-7.314286 7.314286-7.314286 14.628571-7.314286 14.628572 0 7.314286 0 14.628571 7.314286 21.942857 14.628571 14.628571 29.257143 14.628571 36.571428 0 7.314286-7.314286 14.628571-7.314286 14.628572-21.942857 0-7.314286 0-14.628571-7.314286-21.942858h-21.942857zM212.114286 486.4c-7.314286 0-14.628571 0-21.942857 7.314286s-7.314286 14.628571-7.314286 21.942857 0 14.628571 7.314286 21.942857c14.628571 14.628571 29.257143 14.628571 36.571428 0 7.314286-7.314286 7.314286-14.628571 7.314286-21.942857s0-14.628571-7.314286-21.942857c0-7.314286-14.628571-7.314286-14.628571-7.314286zM409.6 486.4c-7.314286 0-14.628571 0-21.942857 7.314286-7.314286 7.314286-7.314286 14.628571-7.314286 21.942857s0 14.628571 7.314286 21.942857c14.628571 14.628571 29.257143 14.628571 36.571428 0 7.314286-7.314286 14.628571-14.628571 14.628572-21.942857s0-14.628571-7.314286-21.942857-21.942857-7.314286-21.942857-7.314286zM212.114286 376.685714c-14.628571 0-14.628571 0-21.942857 7.314286s-7.314286 14.628571-7.314286 14.628571c0 7.314286 0 14.628571 7.314286 21.942858 14.628571 14.628571 29.257143 14.628571 36.571428 0 7.314286-7.314286 7.314286-14.628571 7.314286-21.942858 0-7.314286 0-14.628571-7.314286-21.942857h-14.628571zM409.6 376.685714c-7.314286 0-14.628571 0-21.942857 7.314286-7.314286 7.314286-7.314286 7.314286-7.314286 14.628571s0 14.628571 7.314286 21.942858c14.628571 14.628571 29.257143 14.628571 36.571428 0 7.314286-7.314286 14.628571-7.314286 14.628572-21.942858 0-7.314286 0-14.628571-7.314286-21.942857s-21.942857 0-21.942857 0zM307.2 603.428571c-7.314286 0-14.628571 0-21.942857 7.314286 0 7.314286-7.314286 14.628571-7.314286 14.628572 0 7.314286 0 14.628571 7.314286 21.942857 14.628571 14.628571 29.257143 14.628571 36.571428 0 7.314286-7.314286 7.314286-14.628571 7.314286-21.942857s0-14.628571-7.314286-21.942858h-14.628571zM307.2 486.4c-7.314286 0-14.628571 0-21.942857 7.314286 0 7.314286-7.314286 14.628571-7.314286 21.942857s0 14.628571 7.314286 21.942857c14.628571 14.628571 29.257143 14.628571 36.571428 0 14.628571-7.314286 14.628571-14.628571 14.628572-21.942857s0-14.628571-7.314286-21.942857-14.628571-7.314286-21.942857-7.314286zM307.2 376.685714c-7.314286 0-14.628571 0-21.942857 7.314286 0 7.314286-7.314286 7.314286-7.314286 14.628571s0 14.628571 7.314286 21.942858c14.628571 14.628571 29.257143 14.628571 36.571428 0 7.314286-7.314286 7.314286-14.628571 7.314286-21.942858 0-7.314286 0-14.628571-7.314286-21.942857s-7.314286 0-14.628571 0z"  horiz-adv-x="1024" />

    
    <glyph glyph-name="kuaimaweihu-iconx" unicode="&#59861;" d="M197.485714-54.857143c-65.828571 0-124.342857 58.514286-124.342857 124.342857 0 36.571429 14.628571 73.142857 43.885714 95.085715l409.6 365.714285c-7.314286 21.942857-14.628571 43.885714-14.628571 73.142857 0 124.342857 95.085714 219.428571 219.428571 219.428572 29.257143 0 65.828571-7.314286 95.085715-21.942857 7.314286-7.314286 14.628571-14.628571 14.628571-21.942857 0-7.314286 0-21.942857-7.314286-29.257143L702.171429 618.057143l43.885714-43.885714L877.714286 705.828571c7.314286 7.314286 14.628571 7.314286 29.257143 7.314286 7.314286 0 21.942857-7.314286 21.942857-14.628571 14.628571-29.257143 21.942857-65.828571 21.942857-95.085715 0-124.342857-95.085714-219.428571-219.428572-219.428571-29.257143 0-51.2 7.314286-73.142857 14.628571l-365.714285-409.6c-21.942857-29.257143-58.514286-43.885714-95.085715-43.885714zM731.428571 757.028571c-87.771429 0-153.6-73.142857-153.6-153.6 0-21.942857 7.314286-51.2 14.628572-65.828571 7.314286-14.628571 0-29.257143-7.314286-43.885714l-424.228571-380.342857c-14.628571-7.314286-21.942857-21.942857-21.942857-43.885715 0-36.571429 29.257143-65.828571 65.828571-65.828571 21.942857 0 36.571429 7.314286 43.885714 21.942857L621.714286 457.142857c7.314286 7.314286 21.942857 14.628571 36.571428 7.314286 21.942857-14.628571 51.2-14.628571 73.142857-14.628572 87.771429 0 153.6 73.142857 153.6 153.6v21.942858L789.942857 530.285714c-7.314286-14.628571-29.257143-14.628571-43.885714-21.942857-14.628571 0-36.571429 7.314286-43.885714 21.942857L658.285714 574.171429c-14.628571 7.314286-21.942857 29.257143-21.942857 43.885714s7.314286 29.257143 21.942857 43.885714l95.085715 95.085714H731.428571zM797.257143-54.857143c-7.314286 0-14.628571 0-21.942857 7.314286l-292.571429 292.571428c-14.628571 14.628571-14.628571 29.257143 0 43.885715s29.257143 14.628571 43.885714 0l270.628572-270.628572 80.457143 80.457143L599.771429 384c-14.628571 7.314286-14.628571 29.257143 0 43.885714s29.257143 14.628571 43.885714 0l299.885714-299.885714c14.628571-14.628571 14.628571-29.257143 0-43.885714l-124.342857-124.342857c-7.314286-14.628571-14.628571-14.628571-21.942857-14.628572zM460.8 398.628571c-7.314286 0-14.628571 0-21.942857 7.314286L241.371429 610.742857c-14.628571 14.628571-14.628571 29.257143 0 43.885714 14.628571 14.628571 29.257143 14.628571 43.885714 0L490.057143 457.142857c14.628571-14.628571 14.628571-29.257143 0-43.885714-7.314286-7.314286-14.628571-14.628571-29.257143-14.628572zM197.485714 537.6c-14.628571 0-21.942857 7.314286-29.257143 14.628571L80.457143 713.142857c-7.314286 14.628571-7.314286 29.257143 0 36.571429l65.828571 65.828571c7.314286 7.314286 21.942857 7.314286 36.571429 0l153.6-95.085714c7.314286-7.314286 14.628571-14.628571 14.628571-21.942857s0-21.942857-7.314285-29.257143L219.428571 552.228571c-7.314286-7.314286-14.628571-14.628571-21.942857-14.628571zM146.285714 720.457143l58.514286-102.4 65.828571 65.828571L175.542857 749.714286l-29.257143-29.257143z"  horiz-adv-x="1024" />

    
    <glyph glyph-name="gongzuorili-iconx" unicode="&#59862;" d="M804.571429 749.714286h-36.571429V786.285714C768 808.228571 753.371429 822.857143 731.428571 822.857143s-36.571429-14.628571-36.571428-36.571429V749.714286h-146.285714V786.285714C548.571429 808.228571 533.942857 822.857143 512 822.857143s-36.571429-14.628571-36.571429-36.571429V749.714286h-146.285714V786.285714C329.142857 808.228571 314.514286 822.857143 292.571429 822.857143s-36.571429-14.628571-36.571429-36.571429V749.714286H219.428571C138.971429 749.714286 73.142857 683.885714 73.142857 603.428571v-512c0-80.457143 65.828571-146.285714 146.285714-146.285714h585.142858c80.457143 0 146.285714 65.828571 146.285714 146.285714V603.428571c0 80.457143-65.828571 146.285714-146.285714 146.285715zM219.428571 676.571429h36.571429v-36.571429c0-21.942857 14.628571-36.571429 36.571429-36.571429s36.571429 14.628571 36.571428 36.571429V676.571429h146.285714v-36.571429c0-21.942857 14.628571-36.571429 36.571429-36.571429s36.571429 14.628571 36.571429 36.571429V676.571429h146.285714v-36.571429c0-21.942857 14.628571-36.571429 36.571428-36.571429s36.571429 14.628571 36.571429 36.571429V676.571429h36.571429c43.885714 0 73.142857-29.257143 73.142857-73.142858v-73.142857H146.285714V603.428571c0 43.885714 29.257143 73.142857 73.142857 73.142858z m585.142858-658.285715H219.428571c-43.885714 0-73.142857 29.257143-73.142857 73.142857V457.142857h731.428572v-365.714286c0-43.885714-29.257143-73.142857-73.142857-73.142857zM292.571429 310.857143m-73.142858 0a73.142857 73.142857 0 1 1 146.285715 0 73.142857 73.142857 0 1 1-146.285715 0ZM292.571429 164.571429m-73.142858 0a73.142857 73.142857 0 1 1 146.285715 0 73.142857 73.142857 0 1 1-146.285715 0ZM438.857143 310.857143m-73.142857 0a73.142857 73.142857 0 1 1 146.285714 0 73.142857 73.142857 0 1 1-146.285714 0ZM438.857143 164.571429m-73.142857 0a73.142857 73.142857 0 1 1 146.285714 0 73.142857 73.142857 0 1 1-146.285714 0ZM585.142857 310.857143m-73.142857 0a73.142857 73.142857 0 1 1 146.285714 0 73.142857 73.142857 0 1 1-146.285714 0ZM585.142857 164.571429m-73.142857 0a73.142857 73.142857 0 1 1 146.285714 0 73.142857 73.142857 0 1 1-146.285714 0ZM731.428571 310.857143m-73.142857 0a73.142857 73.142857 0 1 1 146.285715 0 73.142857 73.142857 0 1 1-146.285715 0ZM731.428571 164.571429m-73.142857 0a73.142857 73.142857 0 1 1 146.285715 0 73.142857 73.142857 0 1 1-146.285715 0Z"  horiz-adv-x="1024" />

    
    <glyph glyph-name="leixingpeizhix" unicode="&#59863;" d="M197.485714 771.657143h219.428572c43.885714 0 73.142857-29.257143 73.142857-73.142857v-219.428572c0-43.885714-29.257143-73.142857-73.142857-73.142857h-219.428572c-43.885714 0-73.142857 29.257143-73.142857 73.142857v219.428572c0 43.885714 29.257143 73.142857 73.142857 73.142857z m234.057143-270.628572V676.571429c0 21.942857-14.628571 36.571429-36.571428 36.571428H219.428571c-21.942857 0-36.571429-14.628571-36.571428-36.571428v-175.542858c0-21.942857 14.628571-36.571429 36.571428-36.571428h175.542858c21.942857 0 36.571429 14.628571 36.571428 36.571428zM197.485714 362.057143h219.428572c43.885714 0 73.142857-29.257143 73.142857-73.142857v-219.428572c0-43.885714-29.257143-73.142857-73.142857-73.142857h-219.428572c-43.885714 0-73.142857 29.257143-73.142857 73.142857v219.428572c0 36.571429 29.257143 73.142857 73.142857 73.142857zM431.542857 91.428571V266.971429c0 21.942857-14.628571 36.571429-36.571428 36.571428H219.428571c-21.942857 0-36.571429-14.628571-36.571428-36.571428V91.428571c0-21.942857 14.628571-36.571429 36.571428-36.571428h175.542858c21.942857 0 36.571429 14.628571 36.571428 36.571428zM607.085714 362.057143h219.428572c43.885714 0 73.142857-29.257143 73.142857-73.142857v-219.428572c0-43.885714-29.257143-73.142857-73.142857-73.142857h-219.428572c-43.885714 0-73.142857 29.257143-73.142857 73.142857v219.428572c0 36.571429 36.571429 73.142857 73.142857 73.142857z m234.057143-270.628572V266.971429c0 21.942857-14.628571 36.571429-36.571428 36.571428H629.028571c-21.942857 0-36.571429-14.628571-36.571428-36.571428V91.428571c0-21.942857 14.628571-36.571429 36.571428-36.571428H804.571429c21.942857 0 36.571429 14.628571 36.571428 36.571428zM899.657143 588.8c0-102.4-80.457143-182.857143-182.857143-182.857143S533.942857 486.4 533.942857 588.8s80.457143 182.857143 182.857143 182.857143 182.857143-80.457143 182.857143-182.857143zM716.8 720.457143c-73.142857 0-131.657143-58.514286-131.657143-131.657143S643.657143 457.142857 716.8 457.142857s131.657143 58.514286 131.657143 131.657143-58.514286 131.657143-131.657143 131.657143z"  horiz-adv-x="1024" />

    
    <glyph glyph-name="liuchengguanli-iconx" unicode="&#59865;" d="M1009.371429 274.285714l-138.971429-138.971428c-7.314286-7.314286-21.942857-14.628571-29.257143-14.628572s-21.942857 7.314286-29.257143 14.628572l-146.285714 138.971428c-14.628571 14.628571-14.628571 43.885714 0 58.514286s43.885714 14.628571 58.514286 0l58.514285-65.828571v292.571428H402.285714c-21.942857 0-43.885714 21.942857-43.885714 43.885714s21.942857 43.885714 43.885714 43.885715h431.542857c21.942857 0 36.571429-21.942857 36.571429-43.885715v-336.457142l65.828571 65.828571c14.628571 14.628571 43.885714 14.628571 65.828572 0 21.942857-14.628571 21.942857-43.885714 7.314286-58.514286z m-387.657143-65.828571H241.371429v292.571428l58.514285-58.514285c7.314286-7.314286 21.942857-14.628571 29.257143-14.628572 14.628571 0 21.942857 7.314286 29.257143 14.628572 14.628571 14.628571 14.628571 43.885714 0 58.514285L219.428571 640c-14.628571 14.628571-43.885714 14.628571-65.828571 0L21.942857 501.028571c-14.628571-14.628571-14.628571-43.885714 0-58.514285 14.628571-14.628571 43.885714-14.628571 65.828572 0l65.828571 58.514285V164.571429c0-21.942857 14.628571-43.885714 36.571429-43.885715h431.542857c21.942857 0 43.885714 21.942857 43.885714 43.885715s-14.628571 43.885714-43.885714 43.885714z"  horiz-adv-x="1024" />

    
    <glyph glyph-name="shijiandanziduanguanlix" unicode="&#59866;" d="M841.142857-54.857143h-658.285714c-65.828571 0-109.714286 43.885714-109.714286 109.714286v658.285714C73.142857 778.971429 117.028571 822.857143 182.857143 822.857143h658.285714c65.828571 0 109.714286-43.885714 109.714286-109.714286v-658.285714c0-65.828571-43.885714-109.714286-109.714286-109.714286z m-658.285714 804.571429c-21.942857 0-36.571429-14.628571-36.571429-36.571429v-658.285714c0-21.942857 14.628571-36.571429 36.571429-36.571429h658.285714c21.942857 0 36.571429 14.628571 36.571429 36.571429v658.285714c0 21.942857-14.628571 36.571429-36.571429 36.571429h-658.285714zM746.057143 347.428571H277.942857c-14.628571 0-29.257143 14.628571-29.257143 29.257143s14.628571 29.257143 29.257143 29.257143h468.114286c14.628571 0 29.257143-14.628571 29.257143-29.257143s-14.628571-29.257143-29.257143-29.257143zM533.942857 274.285714c-14.628571 0-29.257143 14.628571-29.257143 29.257143v146.285714c0 14.628571 14.628571 29.257143 29.257143 29.257143s29.257143-14.628571 29.257143-29.257143v-146.285714c0-14.628571-14.628571-29.257143-29.257143-29.257143zM746.057143 164.571429H277.942857c-14.628571 0-29.257143 14.628571-29.257143 29.257142s14.628571 29.257143 29.257143 29.257143h468.114286c14.628571 0 29.257143-14.628571 29.257143-29.257143s-14.628571-29.257143-29.257143-29.257142zM680.228571 91.428571c-14.628571 0-29.257143 14.628571-29.257142 29.257143v146.285715c0 14.628571 14.628571 29.257143 29.257142 29.257142s29.257143-14.628571 29.257143-29.257142v-146.285715c0-14.628571-14.628571-29.257143-29.257143-29.257143zM760.685714 537.6H277.942857c-14.628571 0-29.257143 14.628571-29.257143 29.257143s14.628571 29.257143 29.257143 29.257143h482.742857c14.628571 0 29.257143-14.628571 29.257143-29.257143s-14.628571-29.257143-29.257143-29.257143zM277.942857 464.457143c-14.628571 0-29.257143 14.628571-29.257143 29.257143v146.285714c0 14.628571 14.628571 29.257143 29.257143 29.257143s29.257143-14.628571 29.257143-29.257143v-146.285714c0-14.628571-14.628571-29.257143-29.257143-29.257143z"  horiz-adv-x="1024" />

    
    <glyph glyph-name="shijiandanx" unicode="&#59867;" d="M292.571429 654.628571V786.285714c0 29.257143 21.942857 51.2 51.2 51.2 36.571429 0 51.2-29.257143 51.2-51.2v-138.971428c0-29.257143-21.942857-51.2-51.2-51.2-29.257143 7.314286-51.2 29.257143-51.2 58.514285z m387.657142-51.2c29.257143 0 51.2 21.942857 51.2 58.514286V793.6c-7.314286 21.942857-21.942857 51.2-51.2 51.2-36.571429 0-51.2-29.257143-51.2-51.2v-138.971429c-7.314286-29.257143 14.628571-51.2 51.2-51.2zM321.828571 420.571429h373.028572c21.942857 0 43.885714 21.942857 43.885714 43.885714s-21.942857 43.885714-43.885714 43.885714H321.828571c-21.942857 0-43.885714-21.942857-43.885714-43.885714s21.942857-43.885714 43.885714-43.885714z m585.142858 351.085714h-87.771429c-21.942857 0-43.885714-21.942857-43.885714-43.885714s21.942857-43.885714 43.885714-43.885715h51.2v-716.8H153.6V683.885714h51.2c21.942857 0 36.571429 21.942857 36.571429 43.885715s-21.942857 43.885714-43.885715 43.885714H117.028571c-21.942857 0-43.885714-21.942857-43.885714-51.2v-789.942857c0-21.942857 21.942857-43.885714 43.885714-43.885715h797.257143c21.942857 0 43.885714 21.942857 43.885715 43.885715V720.457143c-7.314286 29.257143-29.257143 51.2-51.2 51.2zM475.428571 683.885714h65.828572c21.942857 0 43.885714 21.942857 43.885714 43.885715s-21.942857 43.885714-43.885714 43.885714h-65.828572c-21.942857 0-43.885714-21.942857-43.885714-43.885714s21.942857-43.885714 43.885714-43.885715zM321.828571 237.714286h373.028572c21.942857 0 43.885714 21.942857 43.885714 43.885714s-21.942857 43.885714-43.885714 43.885714H321.828571c-29.257143 0-51.2-21.942857-51.2-43.885714 7.314286-29.257143 29.257143-43.885714 51.2-43.885714z"  horiz-adv-x="1024" />

    
    <glyph glyph-name="wochuangjiandezhishi-iconx" unicode="&#59868;" d="M610.042553 329.531915c-14.524823-7.262411-14.524823-14.524823-14.524823-29.049645v-87.148937c0-21.787234 21.787234-43.574468 43.574469-43.574468s43.574468 21.787234 43.574468 43.574468v72.624114c50.836879 58.099291 87.148936 130.723404 87.148936 210.609929V685.390071C755.29078 801.588652 639.092199 896 508.368794 896S261.446809 801.588652 254.184397 685.390071v-188.822695c0-79.886525 29.049645-152.510638 87.148936-210.609929v-36.312057L116.198582 169.758865c-72.624113-21.787234-116.198582-87.148936-116.198582-159.773049v-87.148937c0-21.787234 21.787234-43.574468 43.574468-43.574468h595.517731c21.787234 0 43.574468 21.787234 43.574468 43.574468s-21.787234 43.574468-43.574468 43.574469H87.148936v43.574468c0 36.312057 21.787234 65.361702 58.099291 79.886524l254.184397 87.148937c14.524823 7.262411 29.049645 21.787234 29.049646 43.574468V300.48227c0 14.524823-7.262411 21.787234-14.524823 29.049645-43.574468 43.574468-72.624113 101.673759-72.624114 167.035461V685.390071C341.333333 750.751773 421.219858 808.851064 508.368794 808.851064s167.035461-58.099291 167.035461-123.460993v-188.822695c0-65.361702-21.787234-123.460993-65.361702-167.035461zM973.163121 89.87234h-87.148937V177.021277c0 21.787234-21.787234 43.574468-43.574468 43.574468s-43.574468-21.787234-43.574468-43.574468v-87.148937H718.978723c-21.787234 0-43.574468-21.787234-43.574468-43.574468s21.787234-43.574468 43.574468-43.574468h87.148937v-87.148936c0-21.787234 21.787234-43.574468 43.574468-43.574468s43.574468 21.787234 43.574468 43.574468v87.148936h87.148936c21.787234 0 43.574468 21.787234 43.574468 43.574468-7.262411 29.049645-29.049645 43.574468-50.836879 43.574468z"  horiz-adv-x="1031" />

    
    <glyph glyph-name="miaoshuweihu-iconx" unicode="&#59869;" d="M950.857143 566.857143H541.257143V669.257143c0 14.628571-21.942857 43.885714-43.885714 43.885714h-438.857143c-14.628571-7.314286-29.257143-29.257143-29.257143-43.885714v-270.628572c0-14.628571 14.628571-36.571429 29.257143-36.571428h65.828571l87.771429-95.085714c0-7.314286 7.314286-7.314286 14.628571-7.314286h7.314286c14.628571 7.314286 21.942857 14.628571 21.942857 29.257143v73.142857h65.828571V164.571429c0-21.942857 21.942857-43.885714 51.2-43.885715H658.285714v-131.657143c0-14.628571 7.314286-36.571429 29.257143-36.571428h14.628572c14.628571 0 21.942857 0 29.257142 7.314286l153.6 153.6h65.828572c21.942857 0 43.885714 21.942857 43.885714 43.885714V515.657143c0 21.942857-21.942857 51.2-43.885714 51.2zM226.742857 427.885714c-14.628571 0-36.571429-7.314286-36.571428-29.257143v-21.942857l-29.257143 43.885715c-7.314286 7.314286-14.628571 7.314286-21.942857 7.314285h-51.2V640h380.342857v-73.142857H365.714286c-21.942857 0-51.2-29.257143-51.2-51.2v-95.085714c0 7.314286-87.771429 7.314286-87.771429 7.314285z m680.228572-226.742857h-43.885715c-14.628571 0-21.942857 0-29.257143-7.314286L731.428571 91.428571v73.142858c0 21.942857-21.942857 36.571429-43.885714 36.571428h-292.571428V479.085714h497.371428l14.628572-277.942857z m-438.857143 190.171429c0 14.628571 14.628571 29.257143 29.257143 29.257143h197.485714c14.628571 0 29.257143-14.628571 29.257143-29.257143s-14.628571-29.257143-29.257143-29.257143H497.371429c-14.628571 0-29.257143 14.628571-29.257143 29.257143z m307.2-21.942857c-7.314286 7.314286-7.314286 14.628571-7.314286 21.942857 0 7.314286 0 14.628571 7.314286 21.942857 14.628571 14.628571 36.571429 14.628571 43.885714 0 7.314286-7.314286 7.314286-14.628571 7.314286-21.942857 0-7.314286 0-14.628571-7.314286-21.942857-7.314286-7.314286-14.628571-7.314286-21.942857-7.314286-7.314286 0-21.942857 0-21.942857 7.314286z"  horiz-adv-x="1024" />

    
    <glyph glyph-name="wodeshoucang-iconx" unicode="&#59870;" d="M833.828571 237.714286c14.628571-58.514286 29.257143-117.028571 29.257143-168.228572 7.314286-51.2 7.314286-117.028571-43.885714-153.6s-109.714286-14.628571-160.914286 7.314286c-43.885714 21.942857-95.085714 51.2-146.285714 80.457143-51.2-29.257143-102.4-58.514286-153.6-80.457143-51.2-21.942857-109.714286-43.885714-160.914286-7.314286-51.2 29.257143-43.885714 95.085714-36.571428 153.6 0 51.2 14.628571 109.714286 29.257143 168.228572C146.285714 274.285714 102.4 318.171429 65.828571 354.742857s-73.142857 95.085714-58.514285 153.6 80.457143 73.142857 131.657143 87.771429c58.514286 7.314286 117.028571 14.628571 175.542857 14.628571 21.942857 51.2 51.2 109.714286 73.142857 160.914286C416.914286 822.857143 453.485714 874.057143 512 874.057143s95.085714-51.2 124.342857-102.4c29.257143-51.2 51.2-102.4 73.142857-160.914286 58.514286-7.314286 117.028571-7.314286 175.542857-21.942857 51.2-7.314286 117.028571-29.257143 138.971429-87.771429 21.942857-58.514286-21.942857-109.714286-58.514286-153.6-43.885714-29.257143-87.771429-73.142857-131.657143-109.714285zM658.285714 544.914286c365.714286-36.571429 373.028571-36.571429 95.085715-285.257143 80.457143-358.4 73.142857-358.4-241.371429-175.542857-314.514286-190.171429-321.828571-182.857143-241.371429 175.542857C-7.314286 508.342857-7.314286 508.342857 365.714286 544.914286c146.285714 343.771429 146.285714 343.771429 292.571428 0z"  horiz-adv-x="1029" />

    
    <glyph glyph-name="xiaoxiguanli-iconx" unicode="&#59871;" d="M936.228571 149.942857c-73.142857 73.142857-87.771429 182.857143-102.4 292.571429-21.942857 153.6-43.885714 336.457143-270.628571 358.4V822.857143c0 29.257143-21.942857 51.2-51.2 51.2-29.257143 0-51.2-21.942857-51.2-51.2v-29.257143c-219.428571-21.942857-248.685714-197.485714-270.628571-358.4-14.628571-102.4-29.257143-212.114286-102.4-292.571429-14.628571-7.314286-14.628571-29.257143-7.314286-51.2s29.257143-29.257143 43.885714-29.257142h219.428572c0-95.085714 73.142857-168.228571 168.228571-168.228572s168.228571 73.142857 168.228571 168.228572h219.428572c21.942857 0 36.571429 14.628571 43.885714 29.257142 14.628571 21.942857 7.314286 43.885714-7.314286 58.514286zM512-3.657143c-36.571429 0-65.828571 29.257143-65.828571 65.828572h131.657142c0-36.571429-29.257143-65.828571-65.828571-65.828572zM512 164.571429H226.742857c43.885714 80.457143 58.514286 175.542857 65.828572 256 29.257143 182.857143 43.885714 270.628571 219.428571 270.628571S709.485714 603.428571 731.428571 420.571429c14.628571-87.771429 21.942857-175.542857 65.828572-256H512z"  horiz-adv-x="1024" />

    
    <glyph glyph-name="xiaoximobanguanli-iconx" unicode="&#59872;" d="M819.2 735.085714h-36.571429c-14.628571 0-21.942857-7.314286-21.942857-21.942857 0-14.628571 7.314286-21.942857 21.942857-21.942857h36.571429c14.628571 0 21.942857 7.314286 21.942857 21.942857 7.314286 7.314286-7.314286 21.942857-21.942857 21.942857zM680.228571 735.085714h-36.571428c-14.628571 0-21.942857-7.314286-21.942857-21.942857 0-14.628571 7.314286-21.942857 21.942857-21.942857h36.571428c14.628571 0 21.942857 7.314286 21.942858 21.942857 0 7.314286-7.314286 21.942857-21.942858 21.942857zM533.942857 735.085714h-43.885714c-14.628571 0-21.942857-7.314286-21.942857-21.942857 0-14.628571 7.314286-21.942857 21.942857-21.942857h36.571428c14.628571 0 21.942857 7.314286 21.942858 21.942857 7.314286 7.314286-7.314286 21.942857-14.628572 21.942857zM877.714286 822.857143H146.285714c-43.885714 0-73.142857-29.257143-73.142857-73.142857v-731.428572c0-43.885714 29.257143-73.142857 73.142857-73.142857h731.428572c43.885714 0 73.142857 29.257143 73.142857 73.142857V749.714286c0 43.885714-29.257143 73.142857-73.142857 73.142857z m21.942857-804.571429c0-14.628571-7.314286-21.942857-21.942857-21.942857H146.285714c-14.628571 0-21.942857 7.314286-21.942857 21.942857V369.371429h58.514286c14.628571 0 21.942857 7.314286 21.942857 21.942857 0 14.628571-7.314286 21.942857-21.942857 21.942857h-58.514286v65.828571h102.4c14.628571 0 21.942857 7.314286 21.942857 21.942857 0 14.628571-7.314286 29.257143-21.942857 29.257143H124.342857v51.2H585.142857V237.714286c0-7.314286 7.314286-21.942857 14.628572-21.942857s21.942857 0 29.257142 7.314285l65.828572 58.514286 65.828571-58.514286c14.628571-7.314286 21.942857-7.314286 29.257143-7.314285 7.314286 7.314286 14.628571 14.628571 14.628572 21.942857V581.485714h109.714285l-14.628571-563.2zM629.028571 296.228571v292.571429h117.028572v-292.571429l-43.885714 36.571429s-7.314286 7.314286-14.628572 7.314286-14.628571 0-14.628571-7.314286l-43.885715-36.571429z m270.628572 336.457143H124.342857V749.714286c0 14.628571 7.314286 21.942857 21.942857 21.942857h731.428572c14.628571 0 21.942857-7.314286 21.942857-21.942857v-117.028572z"  horiz-adv-x="1024" />

    
    <glyph glyph-name="xiaoxijiankongguanli-iconx" unicode="&#59873;" d="M138.971429 757.028571c-36.571429 0-65.828571-29.257143-65.828572-65.828571v-475.428571c0-36.571429 29.257143-65.828571 65.828572-65.828572h248.685714c0-14.628571 0-36.571429-7.314286-43.885714-7.314286-14.628571-14.628571-29.257143-29.257143-36.571429h-21.942857c-14.628571 0-29.257143-14.628571-29.257143-29.257143s14.628571-29.257143 29.257143-29.257142h373.028572c14.628571 0 29.257143 14.628571 29.257142 29.257142s-14.628571 29.257143-29.257142 29.257143h-36.571429c-14.628571 7.314286-21.942857 14.628571-29.257143 36.571429 0 7.314286-7.314286 21.942857-7.314286 43.885714H877.714286c36.571429 0 65.828571 29.257143 65.828571 65.828572V691.2c7.314286 36.571429-21.942857 65.828571-58.514286 65.828571H138.971429z m0-58.514285H877.714286c7.314286 0 7.314286-7.314286 7.314285-7.314286v-475.428571s0-7.314286-7.314285-7.314286H138.971429c-7.314286 0-7.314286 7.314286-7.314286 7.314286V691.2s0 7.314286 7.314286 7.314286z m204.8-43.885715c-21.942857 0-29.257143-21.942857-29.257143-29.257142 0-14.628571 14.628571-29.257143 29.257143-29.257143 175.542857 0 321.828571-146.285714 321.828571-321.828572 0-14.628571 14.628571-29.257143 29.257143-29.257143s29.257143 14.628571 29.257143 29.257143c0 212.114286-168.228571 380.342857-380.342857 380.342857z m0-87.771428c-14.628571 0-29.257143-14.628571-29.257143-29.257143s14.628571-29.257143 29.257143-29.257143c131.657143 0 234.057143-102.4 234.057142-234.057143 0-14.628571 14.628571-29.257143 29.257143-29.257143s29.257143 14.628571 29.257143 29.257143c0 160.914286-131.657143 292.571429-292.571428 292.571429z m0-87.771429c-21.942857 0-29.257143-14.628571-29.257143-29.257143s14.628571-29.257143 29.257143-29.257142c80.457143 0 146.285714-65.828571 146.285714-146.285715 0-14.628571 14.628571-29.257143 29.257143-29.257143s29.257143 14.628571 29.257143 29.257143c0 117.028571-87.771429 204.8-204.8 204.8z m29.257142-117.028571c-29.257143 0-58.514286-29.257143-58.514285-58.514286s29.257143-58.514286 58.514285-58.514286 58.514286 29.257143 58.514286 58.514286c0 36.571429-21.942857 58.514286-58.514286 58.514286z m80.457143-212.114286h117.028572c0-21.942857 7.314286-43.885714 14.628571-65.828571 0-7.314286 0-7.314286 7.314286-14.628572H431.542857c7.314286 7.314286 7.314286 7.314286 7.314286 14.628572 7.314286 21.942857 14.628571 43.885714 14.628571 65.828571z"  horiz-adv-x="1024" />

    
    <glyph glyph-name="xieyiduixiangguanlix" unicode="&#59874;" d="M526.628571 288.914286c138.971429 0 256 117.028571 256 256 0 146.285714-117.028571 263.314286-256 263.314285S270.628571 691.2 270.628571 552.228571c0-146.285714 117.028571-263.314286 256-263.314285z m0 446.171428c102.4 0 182.857143-80.457143 182.857143-182.857143S629.028571 369.371429 526.628571 369.371429 343.771429 449.828571 343.771429 552.228571s80.457143 182.857143 182.857142 182.857143z m117.028572-468.114285c-14.628571 7.314286-29.257143 0-36.571429-7.314286l-80.457143-73.142857-80.457142 73.142857c-14.628571 7.314286-29.257143 14.628571-36.571429 7.314286-58.514286-14.628571-321.828571-109.714286-321.828571-241.371429 0-21.942857 14.628571-36.571429 36.571428-36.571429h804.571429c21.942857 0 36.571429 14.628571 36.571428 36.571429 0 131.657143-263.314286 226.742857-321.828571 241.371429z m-460.8-204.8c43.885714 43.885714 146.285714 95.085714 226.742857 124.342857l87.771429-80.457143c14.628571-14.628571 36.571429-14.628571 51.2 0l87.771428 80.457143c80.457143-29.257143 182.857143-80.457143 226.742857-124.342857H182.857143z"  horiz-adv-x="1024" />

    
    <glyph glyph-name="yewucanshuliebiao-iconx" unicode="&#59875;" d="M409.6 713.142857c0 29.257143 21.942857 51.2 51.2 51.2h438.857143c29.257143 0 51.2-21.942857 51.2-51.2s-21.942857-51.2-51.2-51.2h-438.857143c-29.257143 0-51.2 21.942857-51.2 51.2z m490.057143-270.628571h-438.857143c-29.257143 0-51.2-21.942857-51.2-51.2 0-29.257143 21.942857-51.2 51.2-51.2h438.857143c29.257143 0 51.2 21.942857 51.2 51.2s-21.942857 51.2-51.2 51.2z m0-329.142857h-438.857143c-29.257143 0-51.2-21.942857-51.2-51.2s21.942857-43.885714 51.2-43.885715h438.857143c29.257143 0 51.2 21.942857 51.2 51.2s-21.942857 43.885714-51.2 43.885715zM292.571429 786.285714c0 21.942857-14.628571 36.571429-29.257143 36.571429H109.714286c-21.942857 0-36.571429-14.628571-36.571429-36.571429v-153.6c0-14.628571 14.628571-29.257143 36.571429-29.257143h153.6c14.628571 0 29.257143 14.628571 29.257143 29.257143V786.285714zM292.571429 310.857143c0-21.942857-14.628571-36.571429-36.571429-36.571429h-146.285714C87.771429 281.6 73.142857 296.228571 73.142857 310.857143V464.457143c0 21.942857 14.628571 36.571429 36.571429 36.571428h153.6c14.628571 0 29.257143-14.628571 29.257143-36.571428V310.857143z m-58.514286 117.028571H146.285714v-80.457143h87.771429V427.885714z m58.514286-438.857143c0-21.942857-14.628571-36.571429-36.571429-36.571428h-146.285714c-21.942857 0-36.571429 14.628571-36.571429 36.571428v153.6c0 21.942857 14.628571 36.571429 36.571429 36.571429h153.6c14.628571 0 29.257143-14.628571 29.257143-36.571429v-153.6z m-58.514286 117.028572H146.285714V18.285714h87.771429v87.771429z"  horiz-adv-x="1024" />

    
    <glyph glyph-name="youxianjipeizhix" unicode="&#59876;" d="M314.514286 808.228571C307.2 815.542857 292.571429 822.857143 285.257143 822.857143c-14.628571 0-29.257143-7.314286-36.571429-14.628572l-168.228571-219.428571c-7.314286-14.628571-7.314286-36.571429-7.314286-51.2 7.314286-14.628571 14.628571-29.257143 29.257143-29.257143s29.257143 7.314286 36.571429 14.628572l95.085714 124.342857v-658.285715c0-21.942857 21.942857-43.885714 43.885714-43.885714s43.885714 21.942857 43.885714 43.885714V640L402.285714 530.285714c7.314286-14.628571 21.942857-21.942857 36.571429-14.628571 14.628571 0 29.257143 14.628571 36.571428 29.257143 7.314286 14.628571 0 36.571429-7.314285 43.885714l-153.6 219.428571zM709.485714-40.228571c7.314286-7.314286 21.942857-14.628571 29.257143-14.628572 14.628571 0 21.942857 7.314286 36.571429 14.628572l168.228571 219.428571c7.314286 14.628571 7.314286 36.571429 7.314286 51.2-7.314286 14.628571-14.628571 29.257143-29.257143 29.257143s-29.257143-7.314286-36.571429-14.628572l-95.085714-124.342857v658.285715c0 21.942857-21.942857 43.885714-43.885714 43.885714s-43.885714-21.942857-43.885714-43.885714v-650.971429L621.714286 237.714286c-14.628571 14.628571-29.257143 21.942857-43.885715 21.942857-14.628571 0-29.257143-14.628571-36.571428-29.257143s0-29.257143 7.314286-43.885714l160.914285-226.742857z"  horiz-adv-x="1024" />

    
    <glyph glyph-name="yingxiangdupeizhix" unicode="&#59878;" d="M512 201.142857C409.6 201.142857 329.142857 281.6 329.142857 384S409.6 566.857143 512 566.857143 694.857143 486.4 694.857143 384 614.4 201.142857 512 201.142857z m0 299.885714c-65.828571 0-117.028571-51.2-117.028571-117.028571S446.171429 266.971429 512 266.971429 629.028571 318.171429 629.028571 384 577.828571 501.028571 512 501.028571zM512-54.857143c-36.571429 0-65.828571 7.314286-65.828571 7.314286-14.628571 0-29.257143 14.628571-29.257143 29.257143l-7.314286 65.828571c-21.942857 7.314286-43.885714 14.628571-58.514286 29.257143l-58.514285-43.885714c-14.628571-7.314286-29.257143-7.314286-43.885715 0 0 0-21.942857 21.942857-51.2 43.885714l-7.314285 7.314286c-21.942857 21.942857-43.885714 43.885714-43.885715 51.2 0 0 0 14.628571 7.314286 29.257143l43.885714 58.514285c-7.314286 14.628571-14.628571 36.571429-21.942857 58.514286l-65.828571 7.314286c-14.628571 0-29.257143 14.628571-29.257143 29.257143 0 7.314286-7.314286 29.257143-7.314286 65.828571v7.314286c0 36.571429 7.314286 58.514286 7.314286 65.828571 0 14.628571 14.628571 29.257143 29.257143 29.257143l65.828571 7.314286c7.314286 21.942857 14.628571 36.571429 21.942857 58.514285L160.914286 603.428571c-14.628571 14.628571-7.314286 29.257143 0 43.885715 0 0 21.942857 21.942857 43.885714 51.2l7.314286 7.314285c21.942857 21.942857 43.885714 43.885714 51.2 43.885715 0 0 14.628571 0 29.257143-7.314286l58.514285-43.885714c14.628571 7.314286 36.571429 14.628571 58.514286 21.942857l7.314286 65.828571c0 14.628571 14.628571 29.257143 29.257143 29.257143 7.314286 0 29.257143 7.314286 65.828571 7.314286h7.314286c36.571429 0 58.514286-7.314286 65.828571-7.314286 14.628571 0 29.257143-14.628571 29.257143-29.257143l7.314286-65.828571c21.942857-7.314286 36.571429-14.628571 58.514285-21.942857l51.2 36.571428c14.628571 7.314286 29.257143 7.314286 43.885715 0 0 0 21.942857-21.942857 51.2-43.885714l7.314285-7.314286c21.942857-21.942857 43.885714-43.885714 43.885715-51.2 0 0 0-14.628571-7.314286-29.257143l-43.885714-58.514285c7.314286-21.942857 14.628571-36.571429 21.942857-58.514286l65.828571-7.314286c14.628571 0 29.257143-14.628571 29.257143-29.257143 0 0 7.314286-29.257143 7.314286-65.828571v-7.314286c0-36.571429-7.314286-58.514286-7.314286-65.828571 0-14.628571-14.628571-29.257143-29.257143-29.257143l-65.828571-7.314286c-7.314286-21.942857-14.628571-43.885714-29.257143-58.514285l43.885714-51.2c7.314286-14.628571 7.314286-29.257143 0-43.885715 0 0-21.942857-21.942857-43.885714-51.2l-7.314286-7.314285c-21.942857-21.942857-43.885714-43.885714-51.2-43.885715-14.628571-7.314286-29.257143-7.314286-43.885714 0l-58.514286 43.885715c-21.942857-7.314286-36.571429-14.628571-58.514285-21.942858l-7.314286-65.828571c0-14.628571-14.628571-29.257143-29.257143-29.257143 7.314286 7.314286-14.628571 0-51.2 0z m-36.571429 65.828572h65.828572l7.314286 65.828571c0 14.628571 14.628571 21.942857 29.257142 29.257143 29.257143 7.314286 58.514286 14.628571 80.457143 36.571428 7.314286 7.314286 14.628571 7.314286 29.257143 7.314286 7.314286 0 7.314286-7.314286 14.628572-7.314286l51.2-36.571428 21.942857 21.942857 7.314285 7.314286 21.942858 21.942857-36.571429 51.2c-7.314286 14.628571-7.314286 29.257143 0 36.571428 14.628571 21.942857 29.257143 51.2 36.571429 80.457143 0 14.628571 14.628571 29.257143 29.257142 29.257143l65.828572 7.314286v29.257143V413.257143l-65.828572 7.314286c-14.628571 0-21.942857 14.628571-29.257142 29.257142-7.314286 29.257143-14.628571 58.514286-36.571429 80.457143 0 0 0 7.314286-7.314286 7.314286-7.314286 7.314286 0 21.942857 7.314286 29.257143l36.571429 51.2-21.942858 21.942857-7.314285 7.314286-21.942857 21.942857-51.2-36.571429c-14.628571-14.628571-29.257143-14.628571-43.885715 0-21.942857 14.628571-51.2 21.942857-80.457143 29.257143-14.628571 7.314286-21.942857 14.628571-21.942857 29.257143l-7.314285 65.828571h-65.828572l-7.314286-65.828571c0-14.628571-14.628571-29.257143-29.257142-29.257143-29.257143-7.314286-58.514286-14.628571-80.457143-29.257143-7.314286-7.314286-21.942857-7.314286-29.257143-7.314285s-7.314286 7.314286-14.628572 7.314285l-43.885714 36.571429-21.942857-21.942857h-7.314286l-21.942857-21.942857 36.571429-51.2c7.314286-14.628571 7.314286-29.257143 0-36.571429-7.314286-29.257143-21.942857-58.514286-29.257143-87.771429 0-14.628571-14.628571-21.942857-29.257143-29.257142h-65.828571v-65.828572l65.828571-7.314286c14.628571 0 29.257143-14.628571 29.257143-29.257142 7.314286-29.257143 14.628571-58.514286 29.257143-80.457143 7.314286-7.314286 7.314286-21.942857 0-29.257143 0-7.314286-7.314286-7.314286-7.314286-14.628572l-36.571429-51.2 21.942858-21.942857 7.314285-7.314285 21.942857-21.942858 51.2 36.571429c14.628571 7.314286 29.257143 7.314286 43.885715 0 21.942857-14.628571 51.2-29.257143 80.457143-36.571429 14.628571 0 21.942857-14.628571 29.257142-29.257142v-51.2z"  horiz-adv-x="1024" />

    
    <glyph glyph-name="yuangongguanli-iconx" unicode="&#59879;" d="M877.714286-98.742857H146.285714c-21.942857 0-36.571429 14.628571-36.571428 36.571428V764.342857c0 21.942857 14.628571 36.571429 36.571428 36.571429h307.2c21.942857 0 36.571429-14.628571 36.571429-36.571429s-14.628571-36.571429-36.571429-36.571428H182.857143v-753.371429h658.285714V727.771429H570.514286c-21.942857 0-36.571429 14.628571-36.571429 36.571428s14.628571 36.571429 36.571429 36.571429H877.714286c21.942857 0 36.571429-14.628571 36.571428-36.571429v-826.514286c0-21.942857-14.628571-36.571429-36.571428-36.571428zM570.514286 661.942857H453.485714c-21.942857 0-36.571429 14.628571-36.571428 36.571429V852.114286c0 21.942857 14.628571 36.571429 36.571428 36.571428h117.028572c21.942857 0 36.571429-14.628571 36.571428-36.571428v-153.6c0-21.942857-14.628571-36.571429-36.571428-36.571429z m-80.457143 73.142857h43.885714V815.542857h-43.885714v-80.457143zM512 296.228571c-65.828571 0-124.342857 58.514286-124.342857 124.342858 0 65.828571 58.514286 124.342857 124.342857 124.342857 65.828571 0 124.342857-58.514286 124.342857-124.342857 0-65.828571-58.514286-124.342857-124.342857-124.342858z m0 175.542858c-29.257143 0-51.2-21.942857-51.2-51.2 0-29.257143 21.942857-51.2 51.2-51.2s51.2 21.942857 51.2 51.2c0 29.257143-21.942857 51.2-51.2 51.2zM665.6 142.628571H358.4c-21.942857 0-36.571429 14.628571-36.571429 36.571429 0 102.4 87.771429 190.171429 190.171429 190.171429 109.714286 0 190.171429-80.457143 190.171429-190.171429 0-21.942857-14.628571-36.571429-36.571429-36.571429z m-263.314286 73.142858h219.428572c-14.628571 51.2-51.2 80.457143-109.714286 80.457142s-95.085714-36.571429-109.714286-80.457142z"  horiz-adv-x="1024" />

    
    <glyph glyph-name="zhishifenlei-iconx" unicode="&#59880;" d="M541.257143 654.628571v-153.6h270.628571c14.628571 0 29.257143-14.628571 29.257143-29.257142v-138.971429l21.942857 21.942857c14.628571 14.628571 29.257143 14.628571 43.885715 0 14.628571-14.628571 14.628571-29.257143 0-43.885714l-73.142858-73.142857c-14.628571-14.628571-29.257143-14.628571-43.885714 0l-73.142857 73.142857c-14.628571 14.628571-14.628571 29.257143 0 43.885714 14.628571 14.628571 29.257143 14.628571 43.885714 0l21.942857-21.942857V442.514286H241.371429v-109.714286l21.942857 21.942857c14.628571 14.628571 29.257143 14.628571 43.885714 0 14.628571-14.628571 14.628571-29.257143 0-43.885714l-73.142857-73.142857c-14.628571-7.314286-29.257143-7.314286-43.885714 7.314285l-73.142858 73.142858c-14.628571 14.628571-14.628571 29.257143 0 43.885714s29.257143 14.628571 43.885715 0l21.942857-21.942857V471.771429c0 14.628571 14.628571 29.257143 29.257143 29.257142h270.628571V654.628571H329.142857c-14.628571 0-29.257143 14.628571-29.257143 29.257143V866.742857c0 14.628571 14.628571 29.257143 29.257143 29.257143h358.4c14.628571 0 29.257143-14.628571 29.257143-29.257143v-182.857143c0-14.628571-14.628571-29.257143-29.257143-29.257143h-146.285714z m-182.857143 58.514286H658.285714V837.485714H358.4v-124.342857zM29.257143 171.885714h358.4c14.628571 0 29.257143-14.628571 29.257143-29.257143v-182.857142c0-14.628571-14.628571-29.257143-29.257143-29.257143H29.257143c-14.628571 0-29.257143 14.628571-29.257143 29.257143v182.857142c0 14.628571 14.628571 29.257143 29.257143 29.257143z m29.257143-182.857143h299.885714v117.028572H58.514286v-117.028572z m570.514285 182.857143h358.4c14.628571 0 29.257143-14.628571 29.257143-29.257143v-182.857142c0-14.628571-14.628571-29.257143-29.257143-29.257143H629.028571c-14.628571 0-29.257143 14.628571-29.257142 29.257143v182.857142c0 14.628571 14.628571 29.257143 29.257142 29.257143z m36.571429-182.857143h299.885714v117.028572H665.6v-117.028572z"  horiz-adv-x="1024" />

    
    <glyph glyph-name="zhishiku-iconx" unicode="&#59881;" d="M980.114286 625.371429h-58.514286v58.514285c0 7.314286-7.314286 21.942857-14.628571 21.942857-7.314286 7.314286-14.628571 7.314286-29.257143 7.314286l-365.714286-65.828571-373.028571 73.142857c-7.314286 0-21.942857 0-29.257143-7.314286-7.314286-7.314286-7.314286-14.628571-7.314286-29.257143v-65.828571H43.885714c-14.628571 0-29.257143-14.628571-29.257143-29.257143v-512c0-14.628571 14.628571-29.257143 29.257143-29.257143h936.228572c14.628571 0 29.257143 14.628571 29.257143 29.257143v512c0 21.942857-14.628571 36.571429-29.257143 36.571429zM73.142857 113.37142900000003V559.542857h21.942857v-402.285714c0-14.628571 14.628571-29.257143 29.257143-29.257143l58.514286-14.628571H73.142857z m409.6 7.314285l-321.828571 58.514286V647.314286l314.514285-65.828572v-460.8z m351.085714-7.314285l58.514286 14.628571c14.628571 0 29.257143 14.628571 29.257143 29.257143V559.542857h29.257143v-446.171428h-117.028572z m-292.571428 475.428571l314.514286 65.828571v-468.114285l-314.514286-65.828572V588.8z"  horiz-adv-x="1024" />

    
    <glyph glyph-name="zhishimoban-iconx" unicode="&#59882;" d="M928.914286 859.428571H95.085714C65.828571 859.428571 43.885714 837.485714 43.885714 808.228571v-855.771428c0-29.257143 21.942857-51.2 51.2-51.2h833.828572c29.257143 0 51.2 21.942857 51.2 51.2V815.542857c0 21.942857-21.942857 43.885714-51.2 43.885714z m-365.714286-95.085714h321.828571v-329.142857H563.2V764.342857z m321.828571-760.685714H563.2V332.79999999999995h321.828571v-329.142857z m-424.228571 0H138.971429V552.228571h321.828571v-548.571428z m0 643.657143H138.971429V764.342857h321.828571v-117.028571z"  horiz-adv-x="1024" />

    
    <glyph glyph-name="zhishishenhe-iconx" unicode="&#59884;" d="M804.571429 793.6c0 7.314286-7.314286 14.628571-14.628572 14.628571H153.6c-7.314286 0-14.628571-7.314286-14.628571-14.628571v-636.342857c0-7.314286 7.314286-14.628571 14.628571-14.628572h307.2v-36.571428H138.971429c-21.942857-7.314286-43.885714 14.628571-43.885715 36.571428V808.228571c0 21.942857 21.942857 43.885714 43.885715 43.885715h658.285714c29.257143 0 43.885714-21.942857 43.885714-43.885715v-416.914285H804.571429v58.514285M373.028571 310.857143c0 14.628571 7.314286 21.942857 21.942858 21.942857h73.142857c14.628571 0 21.942857-7.314286 21.942857-21.942857 0-14.628571-7.314286-21.942857-21.942857-21.942857h-65.828572c-14.628571 0-29.257143 7.314286-29.257143 21.942857z m0 95.085714c0 14.628571 7.314286 21.942857 21.942858 21.942857h138.971428c14.628571 0 21.942857-7.314286 21.942857-21.942857 0-14.628571-7.314286-21.942857-21.942857-21.942857H402.285714c-14.628571 0-29.257143 7.314286-29.257143 21.942857z m0 95.085714c0 14.628571 7.314286 21.942857 21.942858 21.942858h234.057142c14.628571 0 21.942857-7.314286 21.942858-21.942858 0-14.628571-7.314286-21.942857-21.942858-21.942857H402.285714c-14.628571 0-29.257143 7.314286-29.257143 21.942857z m-65.828571-212.114285c-14.628571 0-21.942857 7.314286-21.942857 21.942857 0 14.628571 7.314286 21.942857 21.942857 21.942857 14.628571 0 21.942857-7.314286 21.942857-21.942857 0-14.628571-7.314286-21.942857-21.942857-21.942857z m0 95.085714c-14.628571 0-21.942857 7.314286-21.942857 21.942857s7.314286 21.942857 21.942857 21.942857c14.628571 0 21.942857-7.314286 21.942857-21.942857s-7.314286-21.942857-21.942857-21.942857z m0 95.085714c-14.628571 0-21.942857 7.314286-21.942857 21.942857s7.314286 21.942857 21.942857 21.942858c14.628571 0 21.942857-7.314286 21.942857-21.942858s-7.314286-21.942857-21.942857-21.942857z m-21.942857 160.914286c0 14.628571 7.314286 21.942857 21.942857 21.942857h365.714286c14.628571 0 21.942857-7.314286 21.942857-21.942857s-7.314286-21.942857-21.942857-21.942857h-365.714286c-14.628571 0-21.942857 7.314286-21.942857 21.942857zM672.914286 464.457143c-138.971429 0-248.685714-109.714286-248.685715-248.685714s109.714286-248.685714 248.685715-248.685715 248.685714 109.714286 248.685714 248.685715-109.714286 248.685714-248.685714 248.685714zM877.714286 215.771429c0-109.714286-87.771429-204.8-204.8-204.8-109.714286 0-204.8 87.771429-204.8 204.8 0 109.714286 87.771429 204.8 204.8 204.8 117.028571 0 204.8-87.771429 204.8-204.8zM921.6-76.8c-14.628571-14.628571-29.257143-14.628571-43.885714 0l-73.142857 73.142857c-14.628571 14.628571-14.628571 29.257143 0 43.885714 14.628571 14.628571 29.257143 14.628571 43.885714 0l73.142857-73.142857c14.628571-7.314286 14.628571-29.257143 0-43.885714z"  horiz-adv-x="1024" />

    
    <glyph glyph-name="zhuangtaiguizejipeizhix" unicode="&#59885;" d="M512-84.114286C256-84.114286 43.885714 128 43.885714 384 43.885714 640 256 852.114286 512 852.114286c256 0 468.114286-212.114286 468.114286-468.114286 0-256-212.114286-468.114286-468.114286-468.114286zM512 778.971429C292.571429 778.971429 117.028571 603.428571 117.028571 384S292.571429-10.971429 512-10.971429 906.971429 164.571429 906.971429 384 731.428571 778.971429 512 778.971429zM512 230.4c-87.771429 0-153.6 65.828571-153.6 153.6S424.228571 537.6 512 537.6s153.6-65.828571 153.6-153.6S599.771429 230.4 512 230.4z m0 234.057143c-43.885714 0-80.457143-36.571429-80.457143-80.457143S468.114286 303.542857 512 303.542857 592.457143 340.114286 592.457143 384 555.885714 464.457143 512 464.457143z"  horiz-adv-x="1024" />

    
    <glyph glyph-name="zhijiweihu-iconx" unicode="&#59886;" d="M1009.371429 420.571429L804.571429 625.371429c-21.942857 21.942857-51.2 21.942857-73.142858 0s-21.942857-51.2 0-73.142858L899.657143 384 731.428571 215.771429c-21.942857-21.942857-21.942857-51.2 0-73.142858 14.628571-14.628571 51.2-14.628571 73.142858 0l204.8 204.8c14.628571 21.942857 14.628571 51.2 0 73.142858zM292.571429 625.371429c-21.942857 21.942857-51.2 21.942857-73.142858 0L14.628571 420.571429c-21.942857-21.942857-21.942857-51.2 0-73.142858L219.428571 142.628571c14.628571-14.628571 58.514286-14.628571 73.142858 0 21.942857 21.942857 21.942857 51.2 0 73.142858L124.342857 384 292.571429 552.228571c21.942857 21.942857 21.942857 51.2 0 73.142858zM658.285714 844.8c-29.257143 7.314286-58.514286-7.314286-65.828571-36.571429L336.457143-10.971429c-7.314286-29.257143 7.314286-58.514286 36.571428-65.828571 29.257143-7.314286 58.514286 14.628571 65.828572 36.571429L687.542857 778.971429c7.314286 21.942857-7.314286 51.2-29.257143 65.828571z"  horiz-adv-x="1024" />

    
    <glyph glyph-name="zuzhiguanli-iconx" unicode="&#59887;" d="M526.545455 565.81818187h-14.545455c-58.18181812-7.2727275-94.54545469-50.90909062-94.54545469-101.81818218 7.2727275-43.63636406 43.63636406-79.99999969 87.27272719-87.27272719 58.18181812-7.2727275 101.81818219 36.36363656 109.09090969 87.27272719 0 50.90909062-36.36363656 94.54545469-87.27272719 101.81818218zM519.2727275 427.63636406c-29.09090906 0-43.63636406 21.81818156-43.63636406 43.63636313s21.81818156 43.63636406 43.63636406 43.63636406 43.63636406-21.81818156 43.63636313-43.63636406-21.81818156-43.63636406-43.63636313-43.63636313zM970.18181844 471.27272719L882.90909125 500.36363625c-7.2727275 21.81818156-14.545455 43.63636406-29.09090906 65.45454562l43.63636312 79.99999969c7.2727275 14.545455 7.2727275 29.09090906-7.2727275 36.36363656l-72.72727218 72.72727313c-7.2727275 14.545455-29.09090906 14.545455-43.63636407 7.27272656L693.81818187 718.54545469c-21.81818156 14.545455-43.63636406 21.81818156-65.45454562 29.09090906L599.27272719 842.18181844C591.99999969 856.7272725 577.45454562 864 562.90909062 864H461.09090938c-14.545455 0-29.09090906-7.2727275-29.09090907-21.81818156l-29.09090906-94.54545469c-21.81818156-7.2727275-43.63636406-14.545455-65.45454562-29.09090906L250.18181844 762.18181781c-14.545455 7.2727275-29.09090906 7.2727275-43.63636406-7.27272656l-72.72727219-72.72727312c-7.2727275-7.2727275-7.2727275-21.81818156 0-36.36363657L177.45454531 558.54545437c-14.545455-14.545455-21.81818156-36.36363656-29.09090906-65.45454562l-87.27272719-21.81818156c-14.545455-7.2727275-29.09090906-21.81818156-29.09090906-36.36363656v-101.81818125c0-14.545455 7.2727275-29.09090906 21.81818156-36.36363657l87.27272719-29.09090906c14.545455-21.81818156 21.81818156-43.63636406 36.36363656-65.45454562l-43.63636312-79.99999969c-7.2727275-14.545455-7.2727275-29.09090906 7.27272656-43.63636406l72.72727313-72.72727219c14.545455-7.2727275 29.09090906-14.545455 43.63636312-7.2727275l80.00000063 43.63636312c21.81818156-14.545455 43.63636406-21.81818156 65.45454562-29.09090906l29.09090906-87.27272719c7.2727275-14.545455 21.81818156-21.81818156 36.36363563-21.81818156h101.81818219c14.545455 0 29.09090906 7.2727275 36.36363656 21.81818156l29.09090906 87.27272719c21.81818156 7.2727275 43.63636406 14.545455 65.45454562 29.09090906l79.99999969-43.63636312c14.545455-7.2727275 29.09090906-7.2727275 43.63636406 7.2727275l72.72727219 72.72727219c7.2727275 7.2727275 14.545455 29.09090906 7.2727275 43.63636406L853.81818219 209.45454562999998c14.545455 21.81818156 21.81818156 43.63636406 29.09090906 65.45454562l87.27272719 29.09090906c14.545455 7.2727275 21.81818156 21.81818156 21.81818156 36.36363563V434.90909062c0 14.545455-7.2727275 29.09090906-21.81818156 36.36363657z m-152.72727281-167.27272688c-7.2727275-29.09090906-21.81818156-58.18181812-36.36363657-87.27272718-7.2727275-14.545455-7.2727275-21.81818156 0-36.36363657l43.63636407-80.00000062-36.36363657-36.36363563-80.00000062 43.63636313c-7.2727275 7.2727275-21.81818156 7.2727275-36.36363563 0-29.09090906-14.545455-58.18181812-29.09090906-87.27272718-36.36363656-14.545455 0-21.81818156-14.545455-21.8181825-21.81818157l-21.81818157-72.72727218h-58.18181812l-21.81818156 79.99999968c0 14.545455-14.545455 21.81818156-21.8181825 21.81818157-29.09090906 7.2727275-58.18181812 21.81818156-87.27272719 36.36363656-14.545455 7.2727275-21.81818156 7.2727275-36.36363563 0l-80.00000062-43.63636406-36.36363656 36.36363656 43.63636406 80.00000062c7.2727275 7.2727275 7.2727275 21.81818156 0 36.36363563-14.545455 21.81818156-29.09090906 50.90909062-36.36363656 80.00000062 0 14.545455-14.545455 21.81818156-21.81818157 21.81818157L104.72727313 354.90909094000006v58.18181812l79.99999968 21.81818157c14.545455 0 21.81818156 14.545455 21.81818156 21.8181825 7.2727275 29.09090906 21.81818156 58.18181812 36.36363657 87.27272718 7.2727275 7.2727275 7.2727275 21.81818156 0 36.36363563l-36.36363657 72.72727312 36.36363657 36.36363657L322.90909063 645.81818156c7.2727275 0 14.545455 0 29.09090906 7.2727275 29.09090906 14.545455 58.18181812 29.09090906 87.27272718 36.36363656 14.545455 0 21.81818156 14.545455 21.8181825 21.81818157L482.90909094 791.27272687H541.09090906l21.81818156-79.99999968c0-14.545455 14.545455-21.81818156 21.8181825-21.81818156 29.09090906-7.2727275 58.18181812-21.81818156 87.27272719-36.36363657 14.545455-7.2727275 21.81818156-7.2727275 36.36363563 0l80.00000062 36.36363657 36.36363657-36.36363657-43.63636407-79.99999968c-7.2727275-14.545455-7.2727275-21.81818156 0-36.36363657 14.545455-29.09090906 29.09090906-58.18181812 36.36363657-87.27272718 0-14.545455 14.545455-21.81818156 21.81818156-21.81818157l79.99999969-29.09090906V354.90909094000006l-79.99999969-21.81818156c-14.545455-7.2727275-21.81818156-14.545455-21.81818156-29.09090907zM512 653.0909090600001c-145.45454531 0-269.09090906-123.63636375-269.09090906-269.09090906s123.63636375-269.09090906 269.09090906-269.09090906 269.09090906 123.63636375 269.09090906 269.09090906-123.63636375 269.09090906-269.09090906 269.09090906z m0-487.2727275c-43.63636406 0-94.54545469 14.545455-130.90909125 43.63636407 0 43.63636406 36.36363656 79.99999969 80.00000062 79.99999968h101.81818125c43.63636406 0 79.99999969-36.36363656 80.00000063-79.99999968-36.36363656-29.09090906-87.27272719-43.63636406-130.90909125-43.63636407zM686.54545437 253.09090875000004c-21.81818156 50.90909062-65.45454562 87.27272719-123.63636374 87.27272719H461.09090938c-58.18181812 0-101.81818219-36.36363656-123.63636375-87.27272719-72.72727312 101.81818219-50.90909062 240 43.63636312 312.72727313S613.81818219 616.7272725 686.54545437 522.18181781c58.18181812-79.99999969 58.18181812-189.09090937 1e-8-269.09090906z"  horiz-adv-x="1024" />

    
    <glyph glyph-name="youjianzhanghupeizhiyoujianzhanghupeizhi-icon" unicode="&#59877;" d="M885.028571 727.771429H138.971429C80.457143 727.771429 29.257143 676.571429 29.257143 618.057143v-475.428572c0-65.828571 58.514286-102.4 109.714286-102.4h746.057142c58.514286 0 109.714286 43.885714 109.714286 102.4V618.057143c0 58.514286-43.885714 109.714286-109.714286 109.714286zM138.971429 647.314286h746.057142c14.628571 0 29.257143-14.628571 29.257143-29.257143v-7.314286l-380.342857-219.428571c-14.628571-7.314286-29.257143-7.314286-43.885714 0L109.714286 625.371429c0 14.628571 14.628571 21.942857 29.257143 21.942857z m577.828571-248.685715l204.8 124.342858v-307.2L716.8 398.628571zM109.714286 537.6l204.8-131.657143-204.8-190.171428V537.6z m775.314285-416.914286H138.971429c-7.314286 0-14.628571 0-14.628572 7.314286l263.314286 241.371429 65.828571-43.885715c36.571429-21.942857 87.771429-21.942857 124.342857 0l73.142858 36.571429 256-241.371429h-21.942858z"  horiz-adv-x="1024" />

    
    <glyph glyph-name="yanqianyungongzuotai-yiji" unicode="&#59888;" d="M460.8 782.222222C216.177778 782.222222 22.755556 577.422222 22.755556 332.8s193.422222-438.044444 438.044444-438.044444 438.044444 193.422222 438.044444 438.044444H460.8V782.222222zM563.2 867.555556v-438.044445h438.044444C1001.244444 668.444444 802.133333 867.555556 563.2 867.555556z"  horiz-adv-x="1024" />

    
    <glyph glyph-name="itfuwuguanli-yiji" unicode="&#59889;" d="M950.044444 844.8H73.955556C28.444444 844.8 0 816.355556 0 770.844444v-534.755555h1024V770.844444c0 45.511111-28.444444 73.955556-73.955556 73.955556M0 133.688889c0-45.511111 28.444444-73.955556 73.955556-73.955556h290.133333c-5.688889-34.133333-34.133333-91.022222-62.577778-91.022222-11.377778 0-22.755556-11.377778-22.755555-22.755555 0-17.066667 17.066667-22.755556 22.755555-22.755556h415.288889c17.066667 0 22.755556 5.688889 22.755556 22.755556 0 11.377778-5.688889 22.755556-22.755556 22.755555-22.755556 0-56.888889 51.2-68.266667 96.711111h290.133334c45.511111 0 73.955556 28.444444 73.955555 73.955556v62.577778H0v-68.266667z"  horiz-adv-x="1024" />

    
    <glyph glyph-name="xiangmuguanli-yiji" unicode="&#59890;" d="M978.488889 435.2c-5.688889 0-11.377778 0-17.066667-5.688889L512 253.155556 68.266667 429.511111c-5.688889 0-11.377778 5.688889-17.066667 5.688889-22.755556 0-45.511111-22.755556-45.511111-45.511111 0-17.066667 11.377778-34.133333 28.444444-39.822222 0 0 472.177778-193.422222 489.244445-193.422223 11.377778 0 477.866667 193.422222 477.866666 193.422223 11.377778 5.688889 22.755556 22.755556 22.755556 39.822222 0 22.755556-17.066667 45.511111-45.511111 45.511111M28.444444 548.977778l466.488889-187.733334c5.688889 0 11.377778-5.688889 17.066667-5.688888s11.377778 0 17.066667 5.688888l466.488889 187.733334c17.066667 5.688889 28.444444 22.755556 28.444444 45.511111s-11.377778 34.133333-28.444444 39.822222L529.066667 822.044444c-11.377778 0-11.377778 5.688889-17.066667 5.688889s-11.377778 0-17.066667-5.688889L28.444444 634.311111c-17.066667-5.688889-28.444444-22.755556-28.444444-39.822222s11.377778-39.822222 28.444444-45.511111M978.488889 230.4c-5.688889 0-11.377778 0-17.066667-5.688889L512 42.666667l-443.733333 176.355555c-5.688889 0-11.377778 5.688889-17.066667 5.688889-22.755556 0-45.511111-22.755556-45.511111-45.511111 0-17.066667 11.377778-34.133333 28.444444-39.822222l466.488889-187.733334c5.688889 0 11.377778-5.688889 17.066667-5.688888 5.688889 0 5.688889 0 17.066667 5.688888l466.488888 187.733334c17.066667 5.688889 28.444444 22.755556 28.444445 39.822222-5.688889 34.133333-22.755556 51.2-51.2 51.2"  horiz-adv-x="1029" />

    
    <glyph glyph-name="yanqianyunzhishiku-yijix" unicode="&#59891;" d="M483.555556 674.133333c-39.822222 17.066667-102.4 34.133333-204.8 34.133334H45.511111c-22.755556 0-45.511111-17.066667-45.511111-51.2v-659.911111c0-22.755556 17.066667-45.511111 45.511111-45.511112H341.333333c45.511111 0 91.022222-5.688889 142.222223-28.444444V674.133333zM955.733333 708.266667v-642.844445c0-39.822222-28.444444-68.266667-68.266666-68.266666h-170.666667c-39.822222 0-79.644444-17.066667-108.088889-39.822223 17.066667 5.688889 45.511111 5.688889 73.955556 5.688889h295.822222c22.755556 0 45.511111 17.066667 45.511111 45.511111V657.066667c0 22.755556-17.066667 45.511111-45.511111 45.511111l-22.755556 5.688889zM728.177778 839.111111c-79.644444 0-142.222222-39.822222-176.355556-108.088889v-750.933333c39.822222 45.511111 102.4 79.644444 170.666667 79.644444h85.333333c45.511111 0 85.333333 39.822222 85.333334 85.333334V799.288889c0 22.755556-17.066667 45.511111-45.511112 45.511111l-119.466666-5.688889z"  horiz-adv-x="1024" />

    
    <glyph glyph-name="zuhushezhi-yijix" unicode="&#59892;" d="M965.66344156 312.17955094v-371.67082313a36.50872781 36.50872781 0 0 0-36.50872875-36.50872781H425.8130675V312.77805469a36.50872781 36.50872781 0 0 0 36.50872781 36.50872875h466.8329175a36.50872781 36.50872781 0 0 0 36.50872875-37.1072325zM652.04748125 864H118.18214469a59.85037406 59.85037406 0 0 1-59.85037406-59.85037406v-837.90523688a59.85037406 59.85037406 0 0 1 59.85037406-59.85037406h273.51620906V331.93017468999994A50.87281781 50.87281781 0 0 0 442.5711725 385.1970075h269.32668281V804.14962594a59.85037406 59.85037406 0 0 1-59.85037406 59.85037406zM260.62603531 184.09975031H178.03251875a36.50872781 36.50872781 0 0 0-37.10723156 36.50872875 37.10723156 37.10723156 0 0 0 37.10723156 37.10723156h82.59351656a36.50872781 36.50872781 0 0 0 36.50872782-37.10723156 36.50872781 36.50872781 0 0 0-36.50872782-36.50872875z m332.16957563 232.21945125H178.03251875a37.10723156 37.10723156 0 0 0-37.10723156 37.1072325 36.50872781 36.50872781 0 0 0 37.10723156 36.50872782h414.76309219a36.50872781 36.50872781 0 0 0 37.10723156-36.50872782 37.10723156 37.10723156 0 0 0-37.10723156-37.1072325z m0 235.21197094H178.03251875a37.10723156 37.10723156 0 0 0-37.10723156 37.10723156 36.50872781 36.50872781 0 0 0 37.10723156 36.50872781h414.76309219a36.50872781 36.50872781 0 0 0 37.10723156-36.50872781 37.10723156 37.10723156 0 0 0-37.10723156-37.10723156z"  horiz-adv-x="1024" />

    
    <glyph glyph-name="canyuzhe" unicode="&#58882;" d="M766.862222 374.897778a209.92 209.92 0 0 1 79.075556 164.977778 214.471111 214.471111 0 0 1-214.471111 214.471111 208.782222 208.782222 0 0 1-79.644445-15.36 215.04 215.04 0 0 1-56.888889-364.657778 392.533333 392.533333 0 0 1-256-366.933333 36.977778 36.977778 0 1 1 73.386667 0 319.146667 319.146667 0 0 0 638.293333 0 36.408889 36.408889 0 0 1 36.408889-36.977778 36.977778 36.977778 0 0 1 36.408889 36.977778 393.671111 393.671111 0 0 1-256.568889 367.502222z m-276.48 164.977778a141.084444 141.084444 0 1 0 141.084445-141.084445 147.911111 147.911111 0 0 0-52.337778 10.24 139.946667 139.946667 0 0 0-88.746667 130.844445zM423.253333 425.528889a40.391111 40.391111 0 0 0 5.688889-19.911111 36.977778 36.977778 0 0 0-15.928889-30.72 39.253333 39.253333 0 0 0-20.48-5.688889 28.444444 28.444444 0 0 1-9.671111 0 318.008889 318.008889 0 0 1-310.044444-318.577778 36.408889 36.408889 0 0 0-36.408889-36.408889 37.546667 37.546667 0 0 0-36.408889 35.271111 391.395556 391.395556 0 0 0 256.568889 367.502223A214.471111 214.471111 0 0 0 312.888889 782.222222a203.093333 203.093333 0 0 0 79.644444 15.36 36.408889 36.408889 0 0 0 36.408889-36.977778 35.84 35.84 0 0 0-36.408889-35.271111 129.137778 129.137778 0 0 1-51.2-11.377777 141.084444 141.084444 0 0 1 0-262.257778 135.395556 135.395556 0 0 1 46.648889-10.808889h4.551111a39.253333 39.253333 0 0 0 20.48-5.688889l5.12-5.12zM413.013333 374.897778a31.857778 31.857778 0 0 0-20.48-6.826667h-9.671111a28.444444 28.444444 0 0 0 9.671111 0 39.253333 39.253333 0 0 1 20.48 6.826667zM392.533333 440.888889a34.702222 34.702222 0 0 0 20.48-6.257778A39.253333 39.253333 0 0 1 392.533333 440.888889z"  horiz-adv-x="1024" />

    
    <glyph glyph-name="pingjia-dianji" unicode="&#58885;" d="M250.796066-85.697049H95.01377l-38.274098 537.180328a25.516066 25.516066 0 0 0 25.516066 26.187541H243.409836a30.216393 30.216393 0 0 0 30.216394-30.216394v-507.63541a25.516066 25.516066 0 0 0-22.830164-25.516065zM967.260328 422.609836l-83.262951-402.885246a123.551475 123.551475 0 0 0-123.551475-108.107541H412.621639a71.847869 71.847869 0 0 0-71.847869 71.176394v470.032787a42.974426 42.974426 0 0 0 14.100984 31.559344A631.186885 631.186885 0 0 1 458.281967 599.879344 408.257049 408.257049 0 0 1 525.429508 761.704918c4.700328 52.375082 4.700328 67.147541 14.772459 75.876721A59.089836 59.089836 0 0 0 579.147541 854.368525a72.519344 72.519344 0 0 0 43.645902-13.429509 126.908852 126.908852 0 0 0 42.974426-55.060983A299.478033 299.478033 0 0 0 684.56918 694.557377a667.446557 667.446557 0 0 0-4.700328-85.948852c0-20.815738-26.859016-134.295082-26.859016-134.295082H914.885246a55.732459 55.732459 0 0 0 52.375082-51.703607z"  horiz-adv-x="1024" />

    
    <glyph glyph-name="pingjia-moren" unicode="&#58887;" d="M198.968471-106.032939h-146.276415L26.362301 416.905245a60.704712 60.704712 0 0 0 57.047802 64.361623h112.63284a62.898859 62.898859 0 0 0 59.97333-66.555769v-457.84518a60.704712 60.704712 0 0 0-57.047802-62.898858z m-73.138207 78.989264h48.271217V402.277604h-73.138208zM750.430557-127.974402H404.486835A114.095604 114.095604 0 0 0 292.585377-15.341562V477.609958a41.688778 41.688778 0 0 0 14.627642 31.449429 670.677364 670.677364 0 0 1 108.244547 112.63284 383.97559 383.97559 0 0 1 60.704712 146.276415v13.164877C480.550571 822.822298 482.744717 847.689288 502.492033 867.436604a101.662109 101.662109 0 0 0 65.824387 28.523901 106.781783 106.781783 0 0 0 68.749915-22.672844 162.366821 162.366821 0 0 0 56.31642-73.138208 321.076732 321.076732 0 0 0 22.672844-100.199344A877.658492 877.658492 0 0 0 711.667307 603.407675c0-11.702113-9.507967-51.196745-16.821788-84.108939h206.981128a98.005198 98.005198 0 0 0 95.811052-96.542434 27.061137 27.061137 0 0 0 0-8.045203l-83.377557-401.52876A162.366821 162.366821 0 0 0 750.430557-127.974402zM374.50017 457.13126v-473.935586a31.449429 31.449429 0 0 1 29.986665-30.718047h345.943722a83.377557 83.377557 0 0 1 82.646175 73.138207l81.914792 399.334614a14.627642 14.627642 0 0 1-13.164877 10.970731H644.380156a42.42016 42.42016 0 0 0-32.180812 15.359024 39.494632 39.494632 0 0 0-8.045202 34.374957s23.404226 108.244547 26.329754 128.723246 3.65691 52.65951 3.656911 81.914793a250.13267 250.13267 0 0 1-17.55317 73.138207 73.138208 73.138208 0 0 1-27.061137 35.10634 27.792519 27.792519 0 0 1-21.21008 8.045203c-6.582439-5.119675-8.045203-21.941462-9.507967-40.226015v-14.627641a458.576562 458.576562 0 0 0-73.138208-180.651373A658.243869 658.243869 0 0 0 374.50017 457.13126z m585.105661-35.837722z"  horiz-adv-x="1024" />

    
    <glyph glyph-name="shenpijilu" unicode="&#58884;" d="M910.222222 725.333333L748.088889 877.795556 728.746667 896H191.715556a96.142222 96.142222 0 0 1-96.142223-96.142222v-831.715556A96.142222 96.142222 0 0 1 191.715556-128h640.568888a96.711111 96.711111 0 0 1 96.142223 96.142222v739.555556z m-162.133333 63.715556L813.511111 725.333333h-65.422222z m113.777778-820.906667a32.426667 32.426667 0 0 0-31.857778-32.426666H191.715556a31.857778 31.857778 0 0 0-31.857778 32.426666V799.857778a31.857778 31.857778 0 0 0 31.857778 32.426666H682.666667V725.333333a68.266667 68.266667 0 0 1 68.266666-68.266666h113.777778zM668.444444 307.2a176.924444 176.924444 0 1 1 177.493334-176.924444 176.924444 176.924444 0 0 1-177.493334 176.924444z m0-290.133333a113.777778 113.777778 0 0 0-113.777777 113.777777 113.777778 113.777778 0 0 0 80.782222 107.52 101.831111 101.831111 0 0 0 63.715555 0 108.088889 108.088889 0 0 0 76.231112-75.093333 103.537778 103.537778 0 0 0 0-64.284444 113.777778 113.777778 0 0 0-106.951112-81.92zM781.653333 130.275556a100.693333 100.693333 0 0 0-5.12-31.857778h-108.088889a32.426667 32.426667 0 0 0-31.857777 31.857778v107.52a101.831111 101.831111 0 0 0 63.715555 0v-75.093334h76.231111a101.831111 101.831111 0 0 0 5.12-32.426666zM266.808889 690.062222h320.284444M587.093333 657.635556H266.808889a32.426667 32.426667 0 0 0-31.857778 32.426666 31.857778 31.857778 0 0 0 31.857778 31.857778h320.284444a31.857778 31.857778 0 0 0 31.857778-31.857778 32.426667 32.426667 0 0 0-31.857778-32.426666zM266.808889 529.635556h192.284444M459.093333 497.777778H266.808889a31.857778 31.857778 0 1 0 0 63.715555h192.284444a31.857778 31.857778 0 0 0 0-63.715555zM266.808889 365.795556h128M394.808889 333.937778H266.808889a32.426667 32.426667 0 0 0 0 64.284444h128a32.426667 32.426667 0 1 0 0-64.284444zM266.808889 207.075556h64.284444M331.093333 175.217778H266.808889a31.857778 31.857778 0 0 0 0 63.715555h64.284444a31.857778 31.857778 0 1 0 0-63.715555z"  horiz-adv-x="1024" />

    
    <glyph glyph-name="xulieguize" unicode="&#59893;" d="M260.01766865-65.94225411000002H164.02382862A104.24331123 104.24331123 0 0 0 62.03037324 38.301057130000004V730.50664102A102.74340761 102.74340761 0 0 0 164.02382862 834h545.21501572A104.24331123 104.24331123 0 0 0 811.98225107 730.50664102v-299.98075167a34.49778662 34.49778662 0 1 0-68.24562099 0v299.98075167A32.24793076 32.24793076 0 0 1 736.98706338 754.50510059a29.24812354 29.24812354 0 0 1-27.74821905 9.7493748H164.02382862a29.9980749 29.9980749 0 0 1-26.99826768-9.7493748 34.49778662 34.49778662 0 0 1-9.7493748-23.99845957v-692.20558389a38.24754609 38.24754609 0 0 1 9.7493748-24.74841182 35.99769023 35.99769023 0 0 1 23.99846044-9.74937393h98.99364727a35.24773799 35.24773799 0 0 0 0-69.74552549zM627.49408906 613.51414776H246.51853526a35.24773799 35.24773799 0 0 0 0 70.49547685h380.9755538a35.24773799 35.24773799 0 0 0 0-70.49547685zM627.49408906 388.52858467H246.51853526a35.24773799 35.24773799 0 0 0 0 70.49547598h380.9755538a35.24773799 35.24773799 0 0 0 0-70.49547598zM466.25443526-65.94225411000002a38.24754609 38.24754609 0 0 0-29.24812266 11.24927843l-142.49085733 149.99037539a38.24754609 38.24754609 0 0 0 1e-8 53.24658398l149.99037538 149.99037539A37.49759385 37.49759385 0 0 0 484.25328037 309.03368525999997a38.24754609 38.24754609 0 0 0 27.74821992-28.4981713 36.74764161 36.74764161 0 0 0-9.7493748-36.74764159L377.01016191 120.04581240000005l115.49258965-116.99249326a35.99769023 35.99769023 0 0 0 11.99922979-26.99826768 35.99769023 35.99769023 0 0 0-11.99922979-26.24831542 37.49759385 37.49759385 0 0 0-26.2483163-15.74899015zM775.23460947-65.94225411000002a41.24735332 41.24735332 0 0 0-26.99826767 11.24927843 38.24754609 38.24754609 0 0 0-11.24927842 26.99826768 41.24735332 41.24735332 0 0 0 11.24927842 26.99826767l122.99210771 122.99210772-116.99249326 120.74225272a38.99749746 38.99749746 0 0 0 0 54.74648672 38.24754609 38.24754609 0 0 0 53.99653536 0l142.49085732-144.7407123a37.49759385 37.49759385 0 0 0 0-53.2465831l-149.99037627-149.99037539a37.49759385 37.49759385 0 0 0-25.49836319-15.74899015z"  horiz-adv-x="1024" />

    
    <glyph glyph-name="xulieguizeliebiao" unicode="&#59894;" d="M245.052632-128H133.894737A120.421053 120.421053 0 0 0 16-9.263158V778.105263A117.894737 117.894737 0 0 0 133.894737 896h714.105263a120.421053 120.421053 0 0 0 118.736842-117.894737v-336.842105a39.578947 39.578947 0 1 0-79.157895 0v336.842105a40.421053 40.421053 0 0 1-38.736842 38.736842H133.894737a39.578947 39.578947 0 0 1-26.947369-10.105263 37.894737 37.894737 0 0 1-11.789473-26.947368v-789.052632a39.578947 39.578947 0 0 1 37.894737-39.578947h112a39.578947 39.578947 0 0 0 0-79.157895zM474.947368 615.578947a39.578947 39.578947 0 0 0 0 79.157895H773.894737a41.263158 41.263158 0 0 0 34.526316-19.368421 42.947368 42.947368 0 0 0 0-40.421053 41.263158 41.263158 0 0 0-34.526316-19.368421zM773.894737 390.736842H475.789474a39.578947 39.578947 0 0 0 0 79.157895H773.894737A39.578947 39.578947 0 0 0 773.894737 390.736842zM583.578947-119.578947h-10.947368a39.578947 39.578947 0 0 0-26.947368 48.842105l108.631578 373.052631a38.736842 38.736842 0 0 0 17.684211 23.578948 39.578947 39.578947 0 0 0 29.473684 0 39.578947 39.578947 0 0 0 26.947369-48.842105l-106.947369-368a39.578947 39.578947 0 0 0-37.894737-28.631579zM456.421053-114.526316a39.578947 39.578947 0 0 0-27.789474 11.789474L279.578947 53.894737a39.578947 39.578947 0 0 0 0 55.578947L437.052632 262.736842a38.736842 38.736842 0 0 0 55.578947 0 38.736842 38.736842 0 0 0 0-55.578947L362.947368 78.315789l121.263158-121.263157a39.578947 39.578947 0 0 0 0-53.894737 37.052632 37.052632 0 0 0-27.789473-17.684211zM812.631579-114.526316a39.578947 39.578947 0 0 0-27.789474 11.789474 39.578947 39.578947 0 0 0 0 53.894737l128 128L790.736842 206.315789a39.578947 39.578947 0 0 0 56.421053 56.421053l149.052631-149.894737a39.578947 39.578947 0 0 0 0-55.578947l-155.789473-155.789474a37.894737 37.894737 0 0 0-27.789474-16zM237.473684 693.894737h84.210527v-84.210526h-84.210527zM237.473684 469.052632h84.210527v-84.210527h-84.210527z"  horiz-adv-x="1024" />

    
    <glyph glyph-name="riqix" unicode="&#59022;" d="M853.333333 810.666667h-42.666666V853.333333C810.666667 878.933333 793.6 896 768 896s-42.666667-17.066667-42.666667-42.666667V810.666667h-170.666666V853.333333C554.666667 878.933333 537.6 896 512 896s-42.666667-17.066667-42.666667-42.666667V810.666667h-170.666666V853.333333C298.666667 878.933333 281.6 896 256 896s-42.666667-17.066667-42.666667-42.666667V810.666667H170.666667C76.8 810.666667 0 733.866667 0 640v-597.333333c0-93.866667 76.8-170.666667 170.666667-170.666667h682.666666c93.866667 0 170.666667 76.8 170.666667 170.666667V640c0 93.866667-76.8 170.666667-170.666667 170.666667zM170.666667 725.333333h42.666666v-42.666666c0-25.6 17.066667-42.666667 42.666667-42.666667s42.666667 17.066667 42.666667 42.666667V725.333333h170.666666v-42.666666c0-25.6 17.066667-42.666667 42.666667-42.666667s42.666667 17.066667 42.666667 42.666667V725.333333h170.666666v-42.666666c0-25.6 17.066667-42.666667 42.666667-42.666667s42.666667 17.066667 42.666667 42.666667V725.333333h42.666666c51.2 0 85.333333-34.133333 85.333334-85.333333v-85.333333H85.333333V640c0 51.2 34.133333 85.333333 85.333334 85.333333z m682.666666-768H170.666667c-51.2 0-85.333333 34.133333-85.333334 85.333334V469.333333h853.333334v-426.666666c0-51.2-34.133333-85.333333-85.333334-85.333334zM273.066667 332.8m-59.733334 0a59.733333 59.733333 0 1 1 119.466667 0 59.733333 59.733333 0 1 1-119.466667 0ZM435.2 332.8m-59.733333 0a59.733333 59.733333 0 1 1 119.466666 0 59.733333 59.733333 0 1 1-119.466666 0ZM588.8 332.8m-59.733333 0a59.733333 59.733333 0 1 1 119.466666 0 59.733333 59.733333 0 1 1-119.466666 0ZM750.933333 332.8m-59.733333 0a59.733333 59.733333 0 1 1 119.466667 0 59.733333 59.733333 0 1 1-119.466667 0ZM273.066667 145.066667m-59.733334 0a59.733333 59.733333 0 1 1 119.466667 0 59.733333 59.733333 0 1 1-119.466667 0ZM435.2 145.066667m-59.733333 0a59.733333 59.733333 0 1 1 119.466666 0 59.733333 59.733333 0 1 1-119.466666 0ZM588.8 145.066667m-59.733333 0a59.733333 59.733333 0 1 1 119.466666 0 59.733333 59.733333 0 1 1-119.466666 0ZM750.933333 145.066667m-59.733333 0a59.733333 59.733333 0 1 1 119.466667 0 59.733333 59.733333 0 1 1-119.466667 0Z"  horiz-adv-x="1024" />

    
    <glyph glyph-name="chuangjianshijian" unicode="&#59023;" d="M682.666667 256a42.752 42.752 0 0 0-19.029334 4.522667l-170.666666 85.333333A42.666667 42.666667 0 0 0 469.333333 384V682.666667a42.666667 42.666667 0 0 0 85.333334 0v-272.298667l147.029333-73.557333A42.666667 42.666667 0 0 0 682.666667 256zM512-128c-282.282667 0-512 229.632-512 512 0 282.282667 229.717333 512 512 512 282.368 0 512-229.717333 512-512 0-282.368-229.632-512-512-512zM512 810.666667C276.736 810.666667 85.333333 619.264 85.333333 384s191.402667-426.666667 426.666667-426.666667 426.666667 191.402667 426.666667 426.666667-191.402667 426.666667-426.666667 426.666667z"  horiz-adv-x="1024" />

    
    <glyph glyph-name="chuangjianren" unicode="&#59024;" d="M512 293.802667a300.373333 300.373333 0 0 1 299.434667 300.544C811.434667 761.344 676.693333 896 512 896a300.373333 300.373333 0 0 1-299.434667-300.544C212.565333 428.544 347.306667 293.802667 512 293.802667z m0 513.194666a211.114667 211.114667 0 0 0 210.346667-211.541333A211.114667 211.114667 0 0 0 512 384a211.114667 211.114667 0 0 0-210.346667 211.456A211.114667 211.114667 0 0 0 512 806.997333z m139.093333-542.122666a44.714667 44.714667 0 0 1-42.24-8.874667L512 173.653333 415.146667 256a45.312 45.312 0 0 1-42.24 8.874667C310.613333 244.906667 0 137.984 0-16.725333c0-24.490667 20.053333-44.458667 44.544-44.458667h934.912a44.629333 44.629333 0 0 1 44.544 44.458667c0 154.709333-310.613333 261.632-372.906667 281.6z m-538.709333-237.056c48.981333 52.309333 166.997333 110.165333 264.96 143.616L482.986667 81.237333c16.725333-14.506667 41.130667-14.506667 57.856 0L646.826667 171.52c97.877333-34.56 215.893333-92.416 264.874666-143.616H112.384z"  horiz-adv-x="1024" />

    
    </font>
</defs>
</svg>
