<?xml version="1.0" encoding="UTF-8"?>
<svg xmlns="http://www.w3.org/2000/svg" xmlns:xlink="http://www.w3.org/1999/xlink" version="1.2" >
<font id="VolvoSerifWebRegular">
<font-face  font-family="Volvo Serif Web" units-per-em="1000" ascent="750" descent="-250" font-style="normal" font-weight="400" font-stretch="normal" cap-height="706" x-height="471" underline-position="-75" underline-thickness="50" />
<missing-glyph  horiz-adv-x="500" d="M12 950 L487 950 L487 -250 L12 -250 L12 950 Z " />
<glyph glyph-name=".null" d="" />
<glyph glyph-name="nonmarkingreturn" unicode="&#xd;" horiz-adv-x="298" d="" />
<glyph glyph-name="space" unicode="&#x20;" horiz-adv-x="298" d="" />
<glyph glyph-name="A" unicode="A" horiz-adv-x="761" d="M5 30 Q48 32 71.5 50 Q95 68 112 113 L348 724 L382 724 L574 264 Q588 231 601.5 199.5 Q615 168 627.5 142 Q640 116 650 97 Q660 78 666 71 Q684 50 705 42.5 Q726 35 756 33 L756 -3 Q722 -2 690.5 -1 Q659 0 627 0 Q590 0 553.5 -1.5 Q517 -3 478 -5 L478 32 Q485 32 490 31.5 Q495 31 500 31 Q522 31 536.5 38.5 Q551 46 551 65 Q551 78 544.5 95 Q538 112 533 124 L473 271 L235 271 L185 127 Q180 113 175.5 97.5 Q171 82 171 67 Q171 48 184 41 Q197 34 212 32 Q217 31 223 30.5 Q229 30 236 30 L232 -6 Q200 -4 170.5 -2 Q141 0 112 0 Q86 0 60 -2 Q34 -4 5 -6 L5 30 Z M455 314 L345 585 L250 314 L455 314 Z " />
<glyph glyph-name="B" unicode="B" horiz-adv-x="613" d="M30 36 Q55 36 75 42.5 Q95 49 105 70 Q109 78 111 91.5 Q113 105 114 120 Q115 135 115 149 Q115 163 115 172 L115 577 Q115 602 112.5 620 Q110 638 101.5 649 Q93 660 76.5 665 Q60 670 32 670 L32 706 L188 706 Q220 706 252.5 708.5 Q285 711 317 711 Q355 711 392 701.5 Q429 692 457.5 672 Q486 652 503.5 620.5 Q521 589 521 545 Q521 512 508 480 Q492 440 465 418.5 Q438 397 403 378 Q428 373 454 361 Q502 338 532 294.5 Q562 251 562 197 Q562 149 540 107.5 Q518 66 479 39 Q442 13 401.5 5 Q361 -3 318 -3 Q287 -3 256.5 -1.5 Q226 0 195 0 L30 0 L30 36 Z M204 394 Q223 392 243 391.5 Q263 391 283 391 Q314 391 342.5 396.5 Q371 402 392.5 416 Q414 430 426.5 453 Q439 476 439 511 Q439 548 426.5 578 Q414 608 392 629.5 Q370 651 339 662.5 Q308 674 272 674 Q234 674 219 663.5 Q204 653 204 614 L204 394 Z M204 180 Q204 143 206.5 115 Q209 87 220 68.5 Q231 50 255 40.5 Q279 31 321 31 Q352 31 379 40 Q406 49 426 66 Q446 83 457.5 108 Q469 133 469 166 Q469 208 454 242 Q439 276 412.5 300 Q386 324 350 336.5 Q314 349 273 349 Q256 349 238.5 347.5 Q221 346 204 344 L204 180 Z " />
<glyph glyph-name="C" unicode="C" horiz-adv-x="756" d="M713 180 L713 102 Q686 75 661 57 Q612 21 550.5 4.5 Q489 -12 430 -12 Q353 -12 284.5 12 Q216 36 165 81.5 Q114 127 84.5 191.5 Q55 256 55 337 Q55 422 89 499 Q123 576 187 631 Q241 678 304 698.5 Q367 719 438 719 Q510 719 574.5 701 Q639 683 707 661 L707 528 L683 528 Q675 545 667.5 559 Q660 573 650 586 Q632 610 605.5 627 Q579 644 549 655 Q519 666 487.5 671 Q456 676 427 676 Q372 676 320 656 Q268 636 232 593 Q213 570 198.5 541 Q184 512 174.5 480 Q165 448 160.5 415 Q156 382 156 352 Q156 265 193 191.5 Q230 118 306 72 Q335 55 371 45 Q407 35 440 35 Q469 35 500 42.5 Q531 50 560.5 63.5 Q590 77 616.5 95.5 Q643 114 663 135 Q674 146 683 159 Q692 172 701 185 L713 180 Z " />
<glyph glyph-name="D" unicode="D" horiz-adv-x="818" d="M23 36 L39 36 Q62 36 76 41 Q90 46 98 55.5 Q106 65 108.5 80.5 Q111 96 111 117 L111 581 Q111 605 108 621.5 Q105 638 96.5 649 Q88 660 72 665 Q56 670 29 670 L29 706 L130 706 Q186 706 241 709 Q296 712 352 712 Q394 712 435.5 708 Q477 704 518 691 Q571 674 615.5 642 Q660 610 692.5 567.5 Q725 525 743 473.5 Q761 422 761 365 Q761 315 746 260 Q731 205 705 163 Q676 117 628.5 79 Q581 41 530 23 Q481 6 429.5 1.5 Q378 -3 327 -3 Q295 -3 262.5 -1.5 Q230 0 198 0 L23 0 L23 36 Z M204 187 Q204 141 207 112 Q210 83 223.5 66.5 Q237 50 264.5 44 Q292 38 340 38 Q415 38 483.5 58.5 Q552 79 602 139 Q635 180 649.5 225 Q664 270 664 322 Q664 398 640 462 Q616 526 572 572 Q528 618 465.5 643.5 Q403 669 326 669 Q295 669 265 666.5 Q235 664 204 660 L204 187 Z " />
<glyph glyph-name="E" unicode="E" horiz-adv-x="610" d="M30 36 L43 36 Q68 36 82 40 Q96 44 103 54 Q110 64 111.5 79.5 Q113 95 113 118 L113 580 Q113 601 111 617.5 Q109 634 102 646 Q95 658 82.5 664.5 Q70 671 49 671 Q44 671 39.5 670.5 Q35 670 30 670 L30 706 L508 706 L520 538 L484 538 Q482 567 477.5 587.5 Q473 608 453 627 Q437 641 415.5 649 Q394 657 370 660.5 Q346 664 322 665 Q298 666 277 666 L202 666 L202 391 L266 391 Q284 391 301.5 392 Q319 393 337 395 Q352 397 364.5 399.5 Q377 402 387 407.5 Q397 413 402.5 423 Q408 433 408 450 L408 458 Q408 462 406 472 L448 471 Q446 445 445 421 Q444 397 444 373 Q444 330 447 281 L412 281 Q410 305 404 318.5 Q398 332 387 339 Q376 346 360.5 348 Q345 350 326 351 Q315 352 301.5 352 Q288 352 267 352 L205 352 L205 108 Q205 90 211.5 72 Q218 54 236 47 Q241 45 252.5 44 Q264 43 276.5 42 Q289 41 301 41 Q313 41 320 41 Q343 41 370.5 42 Q398 43 424 48 Q450 53 473 64.5 Q496 76 511 96 Q525 115 529 138 Q533 161 536 184 L572 184 L553 0 L30 0 L30 36 Z " />
<glyph glyph-name="F" unicode="F" horiz-adv-x="557" d="M31 33 Q58 33 74 37 Q90 41 98.5 50.5 Q107 60 109.5 76 Q112 92 112 117 L112 589 Q112 613 109.5 628.5 Q107 644 99.5 653.5 Q92 663 78 667 Q64 671 42 671 L28 671 L28 707 L513 707 L519 544 L484 544 Q481 583 470 606.5 Q459 630 440 643.5 Q421 657 394 661.5 Q367 666 332 666 L203 666 L203 396 L286 396 Q301 396 316 397 Q331 398 346 399 Q383 401 400.5 414 Q418 427 418 469 L452 469 Q449 412 449 362 Q449 339 449.5 316.5 Q450 294 451 269 L417 269 L417 280 Q417 295 413 309 Q409 323 398 334 Q384 348 364 349 Q344 350 326 352 Q315 353 303 354 Q291 355 280 355 L205 355 L205 119 Q205 95 207.5 79 Q210 63 218 53.5 Q226 44 241.5 39 Q257 34 283 33 L283 -3 Q251 -2 222 -1 Q193 0 164 0 Q132 0 99 -1 Q66 -2 31 -3 L31 33 Z " />
<glyph glyph-name="G" unicode="G" horiz-adv-x="818" d="M638 223 Q638 259 622 271.5 Q606 284 571 284 L565 284 L565 320 Q596 319 624.5 318.5 Q653 318 682 318 Q711 318 740 319 Q769 320 800 321 L800 285 L795 285 Q752 285 740 269 Q728 253 728 213 L728 37 Q660 18 592.5 3 Q525 -12 456 -12 Q407 -12 356.5 -4 Q306 4 261 24 Q213 45 174 79.5 Q135 114 107.5 157 Q80 200 65.5 250 Q51 300 51 352 Q51 439 84 507.5 Q117 576 173 623 Q229 670 302.5 695 Q376 720 458 720 Q527 720 593.5 704 Q660 688 727 668 L727 533 L692 533 Q690 542 688.5 551.5 Q687 561 683 570 Q671 597 645.5 617 Q620 637 589 650 Q558 663 525 669.5 Q492 676 464 676 Q408 676 364.5 665.5 Q321 655 275 623 Q215 581 184.5 516 Q154 451 154 379 Q154 308 178 245 Q202 182 245.5 135 Q289 88 349 60.5 Q409 33 482 33 Q529 33 563.5 43.5 Q598 54 638 77 L638 223 Z " />
<glyph glyph-name="H" unicode="H" horiz-adv-x="819" d="M31 33 Q59 35 75.5 39.5 Q92 44 100.5 54 Q109 64 111.5 80.5 Q114 97 114 123 L114 577 Q114 602 112 620 Q110 638 103 650 Q96 662 81.5 667.5 Q67 673 43 673 L30 673 L30 710 Q66 708 99.5 707 Q133 706 167 706 Q197 706 228 707.5 Q259 709 291 711 L291 674 L280 674 Q266 674 253 671.5 Q240 669 229 662 Q212 651 210.5 632.5 Q209 614 208 597 Q207 586 206.5 576.5 Q206 567 206 556 L206 382 L611 382 L611 572 Q611 589 610 606 Q609 623 603 637 Q597 653 582.5 663 Q568 673 539 673 Q535 673 530.5 673 Q526 673 520 671 L520 710 Q557 708 591.5 707 Q626 706 661 706 Q692 706 722.5 707 Q753 708 786 709 L786 672 Q780 674 776 674 Q772 674 767 674 Q748 674 733 667 Q718 660 711 642 Q708 636 706.5 625 Q705 614 704.5 602 Q704 590 703.5 578 Q703 566 703 559 L703 130 Q703 106 705 88 Q707 70 714.5 57.5 Q722 45 736.5 38.5 Q751 32 777 32 L786 32 L786 -3 Q721 0 663 0 Q629 0 595.5 -1 Q562 -2 526 -3 L526 33 Q557 33 574 37.5 Q591 42 599 53.5 Q607 65 608.5 83.5 Q610 102 610 130 L610 338 L206 338 L206 143 Q206 130 206.5 117 Q207 104 208 91 Q210 62 222 47.5 Q234 33 265 33 Q270 33 275.5 33 Q281 33 288 34 L288 -3 Q254 -1 223 -0.5 Q192 0 160 0 Q128 0 96.5 -1 Q65 -2 31 -4 L31 33 Z " />
<glyph glyph-name="I" unicode="I" horiz-adv-x="326" d="M30 36 Q37 36 41.5 35.5 Q46 35 51 35 Q70 35 82.5 41.5 Q95 48 102.5 59 Q110 70 113 84 Q116 98 117 114 Q118 122 118 130 Q118 138 118 146 L118 583 Q118 607 115.5 624 Q113 641 105.5 652 Q98 663 83 668 Q68 673 44 673 L33 673 L33 710 Q74 708 112 707 Q150 706 188 706 Q239 706 296 709 L295 673 L282 673 Q256 673 242 666.5 Q228 660 221.5 648.5 Q215 637 213.5 620 Q212 603 211 582 Q211 572 210.5 559.5 Q210 547 210 537 L210 129 Q210 105 211.5 87 Q213 69 219.5 57.5 Q226 46 239.5 40.5 Q253 35 278 35 L292 35 L292 -1 Q259 -1 226 -0.5 Q193 0 161 0 Q129 0 96 -0.5 Q63 -1 30 -1 L30 36 Z " />
<glyph glyph-name="J" unicode="J" horiz-adv-x="371" d="M5 114 L34 114 Q38 96 42.5 81.5 Q47 67 55 56 Q63 45 75 39 Q87 33 107 33 Q119 33 131.5 37 Q144 41 153 49 Q179 71 185.5 98.5 Q192 126 192 159 L192 581 Q192 598 190.5 615 Q189 632 183 645 Q176 659 161 666.5 Q146 674 116 674 L108 674 L108 711 Q142 709 173 707.5 Q204 706 236 706 Q267 706 297.5 707.5 Q328 709 361 711 L361 675 Q341 673 331 671 Q307 665 297 650 Q287 635 284 611 Q282 599 282 590 Q282 581 282 572 L282 268 Q282 234 279.5 202.5 Q277 171 268 141.5 Q259 112 242.5 85 Q226 58 198 34 Q174 13 146 1 Q118 -11 86 -11 Q66 -11 45.5 -7.5 Q25 -4 5 1 L5 114 Z " />
<glyph glyph-name="K" unicode="K" horiz-adv-x="714" d="M33 32 Q59 32 75 36.5 Q91 41 99.5 51.5 Q108 62 111 78 Q114 94 114 118 L114 548 Q114 562 113.5 574.5 Q113 587 112 601 Q110 645 91.5 659.5 Q73 674 28 674 L28 709 Q65 707 99 706.5 Q133 706 168 706 Q200 706 231.5 707 Q263 708 297 710 L296 673 Q290 673 286 673.5 Q282 674 278 674 Q240 674 224.5 656.5 Q209 639 207 605 Q206 597 206 588.5 Q206 580 206 571 L206 342 L442 605 Q450 615 458.5 625.5 Q467 636 467 650 Q467 657 461.5 662 Q456 667 448 669.5 Q440 672 431.5 673 Q423 674 418 674 L418 709 Q484 706 545 706 Q597 706 656 709 L656 673 Q648 672 639 672 Q630 672 620 670 Q600 667 585.5 661.5 Q571 656 552 640 Q542 632 533.5 622.5 Q525 613 516 604 L324 400 L580 108 Q599 87 612.5 73.5 Q626 60 640.5 52.5 Q655 45 674 40.5 Q693 36 722 33 L721 -3 Q694 -2 669 -1 Q644 0 619 0 Q596 0 573 -0.5 Q550 -1 526 -2 Q522 11 518.5 20 Q515 29 510.5 37 Q506 45 500.5 52.5 Q495 60 488 69 Q453 112 417 152 Q381 192 344 233 Q321 258 299.5 283.5 Q278 309 256 335 L207 284 L207 125 Q207 96 209.5 78 Q212 60 221.5 50 Q231 40 249 36 Q267 32 297 32 L297 -4 Q262 -2 229.5 -1 Q197 0 165 0 Q133 0 100.5 -1 Q68 -2 33 -4 L33 32 Z " />
<glyph glyph-name="L" unicode="L" horiz-adv-x="610" d="M31 36 L44 36 Q67 36 83.5 43.5 Q100 51 108 74 Q110 80 111 91.5 Q112 103 113 115.5 Q114 128 114 139.5 Q114 151 114 159 L114 537 Q114 551 114 565 Q114 579 113 593 Q112 614 108.5 629.5 Q105 645 97.5 654.5 Q90 664 76.5 668.5 Q63 673 42 673 L30 673 L30 709 Q65 708 98 707 Q131 706 163 706 Q195 706 226.5 707 Q258 708 292 710 L291 674 Q262 674 245 669.5 Q228 665 219 654 Q210 643 207.5 625 Q205 607 205 581 L205 148 Q205 127 206.5 109.5 Q208 92 214.5 78.5 Q221 65 233.5 56 Q246 47 269 44 Q294 40 319 39 Q344 38 369 38 Q413 38 442.5 43.5 Q472 49 491.5 64.5 Q511 80 522.5 107.5 Q534 135 541 179 L574 179 L569 0 L31 0 L31 36 Z " />
<glyph glyph-name="M" unicode="M" horiz-adv-x="923" d="M22 33 Q46 34 60 38 Q74 42 87 60 Q94 71 98 86 Q102 101 103.5 117 Q105 133 105.5 149 Q106 165 106 178 Q110 282 112.5 390.5 Q115 499 115 603 Q115 625 108.5 638 Q102 651 90 658 Q78 665 61 667 Q44 669 23 670 L23 706 L191 706 Q262 562 327.5 418.5 Q393 275 461 131 L706 706 L889 706 L889 669 Q883 671 878.5 671 Q874 671 870 671 Q850 671 836.5 664.5 Q823 658 815.5 646.5 Q808 635 805 619 Q802 603 802 585 L808 261 Q809 228 810 194 Q811 160 812 127 Q812 113 812.5 97.5 Q813 82 816.5 69 Q820 56 829.5 46.5 Q839 37 857 34 Q867 32 878 32 Q889 32 901 32 L901 -5 Q863 -3 828 -1.5 Q793 0 758 0 Q729 0 700 -1 Q671 -2 640 -3 L640 33 L655 33 Q699 33 710.5 54.5 Q722 76 721 117 L714 613 Q701 580 688 547.5 Q675 515 661 480 Q641 431 620 382 Q599 333 579 283 Q550 209 519 136 Q488 63 456 -12 L430 -12 Q375 98 325 207 Q275 316 224 426 Q208 460 192 493 Q176 526 159 560 L159 189 Q159 170 159.5 151.5 Q160 133 161 114 Q162 93 165.5 79 Q169 65 178 55.5 Q187 46 201 40.5 Q215 35 237 33 L237 -3 Q208 -2 180.5 -1 Q153 0 126 0 Q77 0 22 -3 L22 33 Z " />
<glyph glyph-name="N" unicode="N" horiz-adv-x="807" d="M33 35 Q60 36 76 43 Q92 50 100 63 Q108 76 111 94 Q114 112 114 136 Q116 253 117.5 365.5 Q119 478 119 595 Q119 619 112 633.5 Q105 648 92.5 656 Q80 664 61.5 667 Q43 670 20 670 L20 706 L186 706 Q264 613 340 523 Q416 433 492 340 Q534 289 574.5 238 Q615 187 656 136 L649 529 Q649 547 648 567 Q647 587 645 605 Q642 644 626 658 Q610 672 568 672 L568 708 Q626 705 679 705 Q730 705 787 708 L787 672 Q753 672 737.5 660.5 Q722 649 717 631 Q712 611 711 586 Q710 561 709 540 Q705 402 702 264.5 Q699 127 694 -13 L660 -13 L166 583 L166 474 Q166 310 172 148 Q172 140 172.5 128 Q173 116 174.5 103.5 Q176 91 178 80 Q180 69 184 62 Q194 45 211 39 Q228 33 248 33 L256 33 L256 -3 Q221 -2 189 -1 Q157 0 125 0 Q102 0 80 0 Q58 0 33 -1 L33 35 Z " />
<glyph glyph-name="O" unicode="O" horiz-adv-x="862" d="M55 353 Q55 431 85 498 Q115 565 166 614 Q217 663 285.5 691 Q354 719 431 719 Q506 719 574 690.5 Q642 662 693 612.5 Q744 563 774 496.5 Q804 430 804 354 Q804 276 774 208.5 Q744 141 692.5 92 Q641 43 572.5 15 Q504 -13 427 -13 Q350 -13 282 15 Q214 43 163.5 92 Q113 141 84 208 Q55 275 55 353 Z M296 80 Q328 57 365.5 45 Q403 33 449 33 Q501 33 547.5 54.5 Q594 76 628.5 115 Q663 154 683.5 207.5 Q704 261 704 325 Q704 351 700.5 375.5 Q697 400 692 425 Q678 490 649 539 Q620 588 565 627 Q533 650 494.5 662 Q456 674 416 674 Q351 674 302.5 650 Q254 626 221.5 585 Q189 544 172.5 490 Q156 436 156 376 Q156 288 190 209.5 Q224 131 296 80 Z " />
<glyph glyph-name="P" unicode="P" horiz-adv-x="549" d="M29 32 Q59 32 76 39 Q93 46 101.5 59.5 Q110 73 111.5 93.5 Q113 114 113 140 L113 575 Q113 591 111 612.5 Q109 634 100 647 Q87 664 67.5 666 Q48 668 30 670 L30 706 L129 706 Q171 706 211.5 707.5 Q252 709 294 709 Q332 709 367.5 703.5 Q403 698 437 678 Q483 652 504.5 609.5 Q526 567 526 516 Q526 455 491 408 Q473 383 449.5 367.5 Q426 352 399 343 Q372 334 343 331 Q314 328 286 328 Q266 328 246 329 Q226 330 206 332 L206 153 Q206 144 206 130 Q206 116 207.5 101.5 Q209 87 212 74 Q215 61 220 54 Q230 40 245.5 36.5 Q261 33 279 33 L292 33 L292 -3 Q258 -2 227 -1 Q196 0 164 0 Q131 0 97 -1 Q63 -2 28 -4 L29 32 Z M201 395 Q223 380 248.5 374 Q274 368 301 368 Q320 368 342 373 Q364 377 381 390 Q398 403 409 420.5 Q420 438 426 459 Q432 480 432 501 Q432 530 421 561 Q403 616 363 644 Q323 672 265 672 Q249 672 233 670.5 Q217 669 201 667 L201 395 Z " />
<glyph glyph-name="Q" unicode="Q" horiz-adv-x="860" d="M775 -222 Q730 -222 685 -217 Q640 -212 597.5 -198.5 Q555 -185 517 -162 Q479 -139 449 -103 Q432 -84 420.5 -58.5 Q409 -33 399 -10 Q327 -5 264 24.5 Q201 54 154.5 102.5 Q108 151 81.5 215.5 Q55 280 55 355 Q55 433 85 500 Q115 567 166 616 Q217 665 285.5 693 Q354 721 431 721 Q506 721 574 692.5 Q642 664 693 614.5 Q744 565 774 498.5 Q804 432 804 356 Q804 288 781.5 229 Q759 170 719 123 Q679 76 625 43.5 Q571 11 508 -3 Q525 -44 544.5 -72.5 Q564 -101 595 -126 Q635 -158 678.5 -170.5 Q722 -183 775 -191 L775 -222 Z M296 80 Q328 57 365.5 45 Q403 33 449 33 Q501 33 547.5 55 Q594 77 628.5 116 Q663 155 683.5 208.5 Q704 262 704 326 Q704 352 700.5 377 Q697 402 692 427 Q678 492 649 541 Q620 590 565 629 Q533 652 494.5 664 Q456 676 416 676 Q351 676 302.5 652 Q254 628 221.5 586.5 Q189 545 172.5 491 Q156 437 156 377 Q156 289 190 210 Q224 131 296 80 Z " />
<glyph glyph-name="R" unicode="R" horiz-adv-x="678" d="M35 33 Q70 34 86 41.5 Q102 49 109 63 Q114 74 115.5 91 Q117 108 117 124 L117 538 Q117 548 116.5 561 Q116 574 115 588 Q114 602 111 614.5 Q108 627 104 636 Q91 660 71 664.5 Q51 669 28 671 L28 707 Q72 707 110.5 706.5 Q149 706 177 706 Q222 706 255.5 708.5 Q289 711 321 711 Q339 711 357 709 Q375 707 392 701 Q420 691 443.5 673 Q467 655 483.5 631 Q500 607 509 579 Q518 551 518 521 Q518 476 499 435.5 Q480 395 443 369 Q430 360 416.5 353 Q403 346 389 341 Q422 290 452.5 240 Q483 190 515 138 Q527 118 544 93.5 Q561 69 578 55 Q598 38 622.5 34.5 Q647 31 673 28 L673 -8 L630 -8 Q598 -8 570.5 -4 Q543 0 520 11 Q497 22 477 40.5 Q457 59 439 88 L323 274 Q312 292 299.5 305 Q287 318 266 320 Q251 322 235.5 322.5 Q220 323 205 325 L205 143 Q205 118 206 97.5 Q207 77 214 62.5 Q221 48 236 40 Q251 32 278 32 L292 32 L291 -4 Q255 -2 221.5 -1 Q188 0 154 0 Q98 0 35 -3 L35 33 Z M204 372 Q223 369 242 366.5 Q261 364 281 364 Q295 364 308 365 Q321 366 333 370 Q379 383 407.5 418.5 Q436 454 436 502 Q436 530 426.5 558.5 Q417 587 400 609 Q373 643 340.5 657.5 Q308 672 266 672 Q250 672 235 670.5 Q220 669 204 667 L204 372 Z " />
<glyph glyph-name="S" unicode="S" horiz-adv-x="548" d="M60 181 L90 181 Q95 163 99 145.5 Q103 128 113 111 Q135 73 176.5 51.5 Q218 30 263 30 Q291 30 318.5 39 Q346 48 368 65 Q390 82 403 106 Q416 130 416 161 Q416 193 400 220 Q384 247 358 267 Q342 279 323.5 288 Q305 297 287 305 Q249 322 209 340.5 Q169 359 131 385 Q95 410 75 446.5 Q55 483 55 528 Q55 565 71.5 600 Q88 635 115 659 Q150 691 195 704.5 Q240 718 286 718 Q332 718 376.5 710 Q421 702 468 691 L468 525 L429 525 L429 529 Q429 564 417 592 Q405 620 383.5 639 Q362 658 333 668 Q304 678 271 678 Q245 678 221 670 Q197 662 179 647 Q161 632 150 610.5 Q139 589 139 562 Q139 518 165.5 489.5 Q192 461 230 441 Q250 430 270.5 421.5 Q291 413 311 405 Q331 397 350 389 Q369 381 385 371 Q433 342 462.5 300 Q492 258 492 200 Q492 170 483.5 142 Q475 114 460 88 Q442 59 416.5 39.5 Q391 20 361.5 8.5 Q332 -3 299.5 -7.5 Q267 -12 235 -12 Q190 -12 147.5 -4.5 Q105 3 60 14 L60 181 Z " />
<glyph glyph-name="T" unicode="T" horiz-adv-x="657" d="M198 34 Q207 33 211 33 Q215 33 219 33 Q241 33 254 40 Q267 47 274 59.5 Q281 72 282.5 88.5 Q284 105 284 125 L284 659 L192 659 Q154 659 128 652.5 Q102 646 85 630.5 Q68 615 59.5 589 Q51 563 50 524 L13 524 L13 706 L644 706 L644 524 L607 524 Q607 555 603.5 580 Q600 605 589 623 Q578 641 557.5 650.5 Q537 660 503 660 L378 660 L378 119 Q378 102 379 85 Q380 68 387 56 Q393 45 406.5 38.5 Q420 32 446 32 L462 32 L462 -4 Q427 -2 394 -1 Q361 0 329 0 Q297 0 265 -1 Q233 -2 198 -4 L198 34 Z " />
<glyph glyph-name="U" unicode="U" horiz-adv-x="766" d="M96 589 Q96 633 81.5 653.5 Q67 674 21 674 L14 674 L14 710 Q48 708 80 707 Q112 706 144 706 Q175 706 206.5 707 Q238 708 271 710 L271 674 Q256 673 240 671 Q224 669 213 658 Q198 642 194 621 Q190 600 190 577 Q190 572 189.5 557 Q189 542 189 523 Q189 504 188.5 484.5 Q188 465 188 452 L188 266 Q188 223 197.5 181.5 Q207 140 234 106 Q263 71 306 52.5 Q349 34 394 34 Q436 34 476.5 49 Q517 64 548 90 Q576 115 591.5 148 Q607 181 614.5 217.5 Q622 254 623 291.5 Q624 329 624 364 Q624 418 621 471.5 Q618 525 614 579 Q613 595 610 618 Q607 641 599 653 Q591 666 579 669.5 Q567 673 552 673 L535 673 L535 709 Q563 708 588.5 707 Q614 706 640 706 Q666 706 693 707 Q720 708 749 710 L748 674 Q737 673 727 672.5 Q717 672 709 669 Q701 666 694 659 Q687 652 683 640 Q680 633 678.5 620.5 Q677 608 676 594.5 Q675 581 674.5 568 Q674 555 674 547 L674 339 Q674 307 672.5 275.5 Q671 244 666 212 Q657 161 632 120 Q607 79 570.5 50 Q534 21 488 5.5 Q442 -10 391 -10 Q332 -10 272 12 Q212 34 170 76 Q126 120 111 174 Q96 228 96 287 L96 589 Z " />
<glyph glyph-name="V" unicode="V" horiz-adv-x="788" d="M373 -18 Q350 29 331 75.5 Q312 122 292 169 Q260 246 228 323.5 Q196 401 161 486 Q149 514 138 540.5 Q127 567 117 588.5 Q107 610 99 625.5 Q91 641 86 647 Q69 667 49 670.5 Q29 674 6 676 L6 712 Q41 710 74.5 708 Q108 706 141 706 Q176 706 211 707 Q246 708 283 710 L283 674 Q268 673 254.5 671.5 Q241 670 230.5 665.5 Q220 661 214 651.5 Q208 642 208 626 Q208 616 210.5 607.5 Q213 599 217 589 L414 113 L605 577 Q612 593 618 609.5 Q624 626 624 640 Q624 652 619 659 Q614 666 606 669 Q598 672 587.5 672.5 Q577 673 566 673 L567 709 Q624 706 674 706 Q725 706 782 709 L782 673 Q756 671 738 666 Q714 658 702 647 Q690 636 679 614 Q674 603 669.5 592 Q665 581 661 573 Q630 498 598 424.5 Q566 351 534 277 Q502 203 468.5 130 Q435 57 401 -18 L373 -18 Z " />
<glyph glyph-name="W" unicode="W" horiz-adv-x="1053" d="M332 -11 Q306 51 284.5 113 Q263 175 241 237 Q209 328 177.5 418.5 Q146 509 114 600 Q109 612 104.5 623 Q100 634 92 645 Q75 666 53.5 669 Q32 672 4 674 L4 710 Q41 708 75 707 Q109 706 144 706 Q174 706 205 707 Q236 708 268 711 L268 675 Q256 674 244.5 673 Q233 672 224 668.5 Q215 665 209.5 658 Q204 651 204 639 Q204 631 206.5 621.5 Q209 612 212 604 L365 150 Q376 188 386.5 227 Q397 266 408 304 Q418 337 428 369.5 Q438 402 448 435 L531 721 L570 721 Q616 579 661.5 440.5 Q707 302 753 162 Q770 216 787.5 269.5 Q805 323 822 377 Q829 397 841 434 Q853 471 864 511 Q876 552 885 587.5 Q894 623 894 640 Q894 661 880.5 668 Q867 675 847 675 Q842 675 837.5 675 Q833 675 827 673 L827 710 Q862 708 895.5 707 Q929 706 961 706 Q983 706 1005 707.5 Q1027 709 1049 711 L1049 675 Q1039 675 1029 675 Q1019 675 1011 673 Q994 670 983.5 663.5 Q973 657 966.5 647 Q960 637 955 624.5 Q950 612 946 598 Q917 511 888 426 Q859 341 832 254 Q811 188 790.5 122 Q770 56 750 -12 L714 -12 Q668 132 622.5 272.5 Q577 413 531 556 Q489 413 449 272.5 Q409 132 363 -11 L332 -11 Z " />
<glyph glyph-name="X" unicode="X" horiz-adv-x="802" d="M17 32 L31 32 Q56 32 79.5 43 Q103 54 126 74 Q146 91 163.5 112 Q181 133 198 153 L348 344 L152 600 Q135 622 122 635 Q109 648 94 655.5 Q79 663 60.5 667 Q42 671 14 674 L14 709 Q87 706 154 706 Q192 706 230 707 Q268 708 308 709 L308 675 L303 675 Q284 675 267 671 Q250 667 250 646 Q250 635 254.5 623 Q259 611 266 602 L416 406 L578 609 Q583 615 588 625 Q593 635 593 647 Q593 663 576.5 668 Q560 673 544 675 L544 709 Q573 708 601 707 Q629 706 656 706 Q715 706 781 709 L781 674 Q749 674 726.5 667.5 Q704 661 685.5 648 Q667 635 650.5 617 Q634 599 615 576 L446 370 L649 109 Q663 91 676.5 76.5 Q690 62 704.5 52.5 Q719 43 736.5 37.5 Q754 32 777 32 L788 32 L788 -3 Q716 0 650 0 Q612 0 574 -1 Q536 -2 495 -3 L495 33 L507 33 Q515 33 524 34 Q533 35 541 37.5 Q549 40 554 44.5 Q559 49 559 57 Q559 71 549 85.5 Q539 100 522 123 L382 307 Q345 265 311 221.5 Q277 178 242 133 Q237 127 230.5 118 Q224 109 218 99.5 Q212 90 207.5 80 Q203 70 203 62 Q203 44 220 38 Q237 32 256 32 L256 -2 Q226 -1 197.5 -0.5 Q169 0 141 0 Q111 0 80 -0.5 Q49 -1 17 -3 L17 32 Z " />
<glyph glyph-name="Y" unicode="Y" horiz-adv-x="689" d="M225 34 L244 34 Q285 34 296.5 54 Q308 74 308 112 L308 255 Q276 316 242 375 Q208 434 174 494 L114 602 Q103 622 90.5 640 Q78 658 54 667 Q43 671 30.5 671.5 Q18 672 6 673 L6 709 Q67 706 122 706 Q157 706 191.5 707 Q226 708 263 709 L263 674 Q243 674 226 669 Q209 664 209 645 Q209 630 217 611 Q225 592 233 578 Q266 514 302.5 452.5 Q339 391 376 328 L516 595 Q522 607 529.5 622.5 Q537 638 537 650 Q537 658 532 662.5 Q527 667 519 669.5 Q511 672 502 672.5 Q493 673 486 673 L479 673 L479 708 Q505 707 529 706.5 Q553 706 577 706 Q603 706 631 707 Q659 708 683 709 L683 674 Q653 674 637 669.5 Q621 665 610 656 Q598 646 588 628 Q578 610 570 596 L403 284 L403 121 Q403 99 405.5 82.5 Q408 66 415.5 55.5 Q423 45 436.5 39.5 Q450 34 472 34 L485 34 L485 -2 Q449 -1 415 -0.5 Q381 0 347 0 Q317 0 287 -0.5 Q257 -1 225 -2 L225 34 Z " />
<glyph glyph-name="Z" unicode="Z" horiz-adv-x="652" d="M492 663 L323 663 Q294 663 264.5 661.5 Q235 660 206 658 Q175 656 147.5 649 Q120 642 98 619 Q83 603 80 585 Q77 567 76 543 L40 543 L40 706 L634 706 L148 43 L328 46 Q350 46 380.5 46.5 Q411 47 442.5 50.5 Q474 54 502 62 Q530 70 546 87 Q562 104 567 124.5 Q572 145 575 170 L610 170 L610 0 L1 0 L492 663 Z " />
<glyph glyph-name="Agrave" unicode="&#xc0;" horiz-adv-x="761" d="M5 30 Q48 32 71.5 50 Q95 68 112 113 L348 724 L382 724 L574 264 Q588 231 601.5 199.5 Q615 168 627.5 142 Q640 116 650 97 Q660 78 666 71 Q684 50 705 42.5 Q726 35 756 33 L756 -3 Q722 -2 690.5 -1 Q659 0 627 0 Q590 0 553.5 -1.5 Q517 -3 478 -5 L478 32 Q485 32 490 31.5 Q495 31 500 31 Q522 31 536.5 38.5 Q551 46 551 65 Q551 78 544.5 95 Q538 112 533 124 L473 271 L235 271 L185 127 Q180 113 175.5 97.5 Q171 82 171 67 Q171 48 184 41 Q197 34 212 32 Q217 31 223 30.5 Q229 30 236 30 L232 -6 Q200 -4 170.5 -2 Q141 0 112 0 Q86 0 60 -2 Q34 -4 5 -6 L5 30 Z M455 314 L345 585 L250 314 L455 314 Z M345 896 Q355 875 363 861 Q371 847 380 836 Q389 825 401 814 Q413 803 431 789 L431 774 Q417 776 404.5 777 Q392 778 381 780 Q353 788 326 804 Q299 820 282 843 Q273 855 266 867.5 Q259 880 251 892 L345 896 Z " />
<glyph glyph-name="Aacute" unicode="&#xc1;" horiz-adv-x="761" d="M5 30 Q48 32 71.5 50 Q95 68 112 113 L348 724 L382 724 L574 264 Q588 231 601.5 199.5 Q615 168 627.5 142 Q640 116 650 97 Q660 78 666 71 Q684 50 705 42.5 Q726 35 756 33 L756 -3 Q722 -2 690.5 -1 Q659 0 627 0 Q590 0 553.5 -1.5 Q517 -3 478 -5 L478 32 Q485 32 490 31.5 Q495 31 500 31 Q522 31 536.5 38.5 Q551 46 551 65 Q551 78 544.5 95 Q538 112 533 124 L473 271 L235 271 L185 127 Q180 113 175.5 97.5 Q171 82 171 67 Q171 48 184 41 Q197 34 212 32 Q217 31 223 30.5 Q229 30 236 30 L232 -6 Q200 -4 170.5 -2 Q141 0 112 0 Q86 0 60 -2 Q34 -4 5 -6 L5 30 Z M455 314 L345 585 L250 314 L455 314 Z M280 793 Q315 811 334 837 Q353 863 371 896 L461 891 Q442 863 424.5 843 Q407 823 387.5 809.5 Q368 796 344 788.5 Q320 781 287 777 L280 793 Z " />
<glyph glyph-name="Acircumflex" unicode="&#xc2;" horiz-adv-x="761" d="M5 30 Q48 32 71.5 50 Q95 68 112 113 L348 724 L382 724 L574 264 Q588 231 601.5 199.5 Q615 168 627.5 142 Q640 116 650 97 Q660 78 666 71 Q684 50 705 42.5 Q726 35 756 33 L756 -3 Q722 -2 690.5 -1 Q659 0 627 0 Q590 0 553.5 -1.5 Q517 -3 478 -5 L478 32 Q485 32 490 31.5 Q495 31 500 31 Q522 31 536.5 38.5 Q551 46 551 65 Q551 78 544.5 95 Q538 112 533 124 L473 271 L235 271 L185 127 Q180 113 175.5 97.5 Q171 82 171 67 Q171 48 184 41 Q197 34 212 32 Q217 31 223 30.5 Q229 30 236 30 L232 -6 Q200 -4 170.5 -2 Q141 0 112 0 Q86 0 60 -2 Q34 -4 5 -6 L5 30 Z M455 314 L345 585 L250 314 L455 314 Z M233 778 Q252 795 264.5 808 Q277 821 287 834.5 Q297 848 306 863.5 Q315 879 327 901 L384 910 Q397 888 408.5 870.5 Q420 853 432.5 837.5 Q445 822 459.5 806.5 Q474 791 494 773 L473 759 Q454 766 440 773 Q426 780 413.5 787.5 Q401 795 389 804 Q377 813 362 825 Q345 812 332.5 802.5 Q320 793 307.5 785.5 Q295 778 280.5 771.5 Q266 765 245 758 L233 778 Z " />
<glyph glyph-name="Atilde" unicode="&#xc3;" horiz-adv-x="761" d="M5 30 Q48 32 71.5 50 Q95 68 112 113 L348 724 L382 724 L574 264 Q588 231 601.5 199.5 Q615 168 627.5 142 Q640 116 650 97 Q660 78 666 71 Q684 50 705 42.5 Q726 35 756 33 L756 -3 Q722 -2 690.5 -1 Q659 0 627 0 Q590 0 553.5 -1.5 Q517 -3 478 -5 L478 32 Q485 32 490 31.5 Q495 31 500 31 Q522 31 536.5 38.5 Q551 46 551 65 Q551 78 544.5 95 Q538 112 533 124 L473 271 L235 271 L185 127 Q180 113 175.5 97.5 Q171 82 171 67 Q171 48 184 41 Q197 34 212 32 Q217 31 223 30.5 Q229 30 236 30 L232 -6 Q200 -4 170.5 -2 Q141 0 112 0 Q86 0 60 -2 Q34 -4 5 -6 L5 30 Z M455 314 L345 585 L250 314 L455 314 Z M201 801 Q208 816 217 831 Q226 846 237.5 858 Q249 870 263.5 877.5 Q278 885 296 885 Q326 885 355.5 871.5 Q385 858 414 849 Q423 846 431 844 Q439 842 447 842 Q468 842 479 852.5 Q490 863 503 882 L529 867 Q524 859 520 852 Q516 845 511 838 Q497 817 479 800.5 Q461 784 434 784 Q402 784 371 798 Q340 812 311 822 Q291 828 277 828 Q257 828 246.5 816.5 Q236 805 226 791 L201 801 Z " />
<glyph glyph-name="Adieresis" unicode="&#xc4;" horiz-adv-x="761" d="M5 30 Q48 32 71.5 50 Q95 68 112 113 L348 724 L382 724 L574 264 Q588 231 601.5 199.5 Q615 168 627.5 142 Q640 116 650 97 Q660 78 666 71 Q684 50 705 42.5 Q726 35 756 33 L756 -3 Q722 -2 690.5 -1 Q659 0 627 0 Q590 0 553.5 -1.5 Q517 -3 478 -5 L478 32 Q485 32 490 31.5 Q495 31 500 31 Q522 31 536.5 38.5 Q551 46 551 65 Q551 78 544.5 95 Q538 112 533 124 L473 271 L235 271 L185 127 Q180 113 175.5 97.5 Q171 82 171 67 Q171 48 184 41 Q197 34 212 32 Q217 31 223 30.5 Q229 30 236 30 L232 -6 Q200 -4 170.5 -2 Q141 0 112 0 Q86 0 60 -2 Q34 -4 5 -6 L5 30 Z M455 314 L345 585 L250 314 L455 314 Z M455 780 Q433 780 419 795.5 Q405 811 405 832 Q405 853 420.5 866 Q436 879 456 879 Q477 879 491 863 Q505 847 505 827 Q505 806 490 793 Q475 780 455 780 Z M271 780 Q249 780 235 795.5 Q221 811 221 832 Q221 853 236.5 866 Q252 879 272 879 Q293 879 307 863 Q321 847 321 827 Q321 806 306 793 Q291 780 271 780 Z " />
<glyph glyph-name="Amacron" unicode="&#x100;" horiz-adv-x="761" d="M5 30 Q48 32 71.5 50 Q95 68 112 113 L348 724 L382 724 L574 264 Q588 231 601.5 199.5 Q615 168 627.5 142 Q640 116 650 97 Q660 78 666 71 Q684 50 705 42.5 Q726 35 756 33 L756 -3 Q722 -2 690.5 -1 Q659 0 627 0 Q590 0 553.5 -1.5 Q517 -3 478 -5 L478 32 Q485 32 490 31.5 Q495 31 500 31 Q522 31 536.5 38.5 Q551 46 551 65 Q551 78 544.5 95 Q538 112 533 124 L473 271 L235 271 L185 127 Q180 113 175.5 97.5 Q171 82 171 67 Q171 48 184 41 Q197 34 212 32 Q217 31 223 30.5 Q229 30 236 30 L232 -6 Q200 -4 170.5 -2 Q141 0 112 0 Q86 0 60 -2 Q34 -4 5 -6 L5 30 Z M455 314 L345 585 L250 314 L455 314 Z M229 857 L507 857 L507 791 L229 791 L229 857 Z " />
<glyph glyph-name="Abreve" unicode="&#x102;" horiz-adv-x="761" d="M5 30 Q48 32 71.5 50 Q95 68 112 113 L348 724 L382 724 L574 264 Q588 231 601.5 199.5 Q615 168 627.5 142 Q640 116 650 97 Q660 78 666 71 Q684 50 705 42.5 Q726 35 756 33 L756 -3 Q722 -2 690.5 -1 Q659 0 627 0 Q590 0 553.5 -1.5 Q517 -3 478 -5 L478 32 Q485 32 490 31.5 Q495 31 500 31 Q522 31 536.5 38.5 Q551 46 551 65 Q551 78 544.5 95 Q538 112 533 124 L473 271 L235 271 L185 127 Q180 113 175.5 97.5 Q171 82 171 67 Q171 48 184 41 Q197 34 212 32 Q217 31 223 30.5 Q229 30 236 30 L232 -6 Q200 -4 170.5 -2 Q141 0 112 0 Q86 0 60 -2 Q34 -4 5 -6 L5 30 Z M455 314 L345 585 L250 314 L455 314 Z M239 891 Q245 883 254.5 873 Q264 863 279 854 Q294 845 316 839 Q338 833 370 833 Q402 833 424 839 Q446 845 461 854 Q476 863 485.5 873 Q495 883 501 891 L531 879 Q526 866 514 847.5 Q502 829 482.5 812 Q463 795 435 783 Q407 771 370 771 Q332 771 304.5 783 Q277 795 257.5 812 Q238 829 226 847.5 Q214 866 209 879 L239 891 Z " />
<glyph glyph-name="Aring" unicode="&#xc5;" horiz-adv-x="761" d="M264 820 Q264 841 272 859 Q280 877 294 891 Q308 905 326 913 Q344 921 365 921 Q386 921 404 913 Q422 905 436 891 Q450 877 458 859 Q466 841 466 820 Q466 799 458 781 Q450 763 436 749 Q422 735 404 727 Q394 722 383 720 L574 264 Q588 231 601.5 199.5 Q615 168 627.5 142 Q640 116 650 97 Q660 78 666 71 Q684 50 705 42.5 Q726 35 756 33 L756 -3 Q722 -2 690.5 -1 Q659 0 627 0 Q590 0 553.5 -1.5 Q517 -3 478 -5 L478 32 Q485 32 490 31.5 Q495 31 500 31 Q522 31 536.5 38.5 Q551 46 551 65 Q551 78 544.5 95 Q538 112 533 124 L473 271 L235 271 L185 127 Q180 113 175.5 97.5 Q171 82 171 67 Q171 48 184 41 Q197 34 212 32 Q217 31 223 30.5 Q229 30 236 30 L232 -6 Q200 -4 170.5 -2 Q141 0 112 0 Q86 0 60 -2 Q34 -4 5 -6 L5 30 Q48 32 71.5 50 Q95 68 112 113 L346 720 Q336 722 326 727 Q308 735 294 749 Q280 763 272 781 Q264 799 264 820 Z M455 314 L345 585 L250 314 L455 314 Z M365 758 Q391 758 409 776 Q427 794 427 820 Q427 847 409 864.5 Q391 882 365 882 Q339 882 321 864 Q303 846 303 820 Q303 794 321 776 Q339 758 365 758 Z " />
<glyph glyph-name="Aogonek" unicode="&#x104;" horiz-adv-x="759" d="M4 30 Q47 32 70 49 Q93 66 107 103 L353 737 L375 737 L573 264 Q587 231 600.5 199.5 Q614 168 626.5 142 Q639 116 649 97 Q659 78 665 71 Q683 50 704 42.5 Q725 35 755 33 L755 -3 Q727 -2 701 -1 Q675 0 649 0 Q615 -24 595 -52.5 Q575 -81 575 -117 Q575 -147 589.5 -163.5 Q604 -180 629 -180 Q648 -180 660.5 -176 Q673 -172 684 -167 L702 -198 Q684 -208 658.5 -214 Q633 -220 602 -220 Q587 -220 569 -215.5 Q551 -211 536 -200 Q521 -189 511 -172 Q501 -155 501 -129 Q501 -96 523.5 -60.5 Q546 -25 595 0 Q566 0 537 -1.5 Q508 -3 477 -5 L477 32 Q484 32 489 31.5 Q494 31 499 31 Q521 31 535.5 38.5 Q550 46 550 65 Q550 78 543.5 95 Q537 112 532 124 L467 281 L236 281 L184 127 Q179 113 174.5 97.5 Q170 82 170 67 Q170 48 183 41 Q196 34 211 32 Q216 31 222 30.5 Q228 30 235 30 L231 -6 Q199 -4 169.5 -2 Q140 0 111 0 Q85 0 59 -2 Q33 -4 4 -6 L4 30 Z M451 324 L341 592 L248 324 L451 324 Z " />
<glyph glyph-name="AE" unicode="&#xc6;" horiz-adv-x="983" d="M0 29 Q17 31 30 33 Q43 35 57 44 Q71 53 81.5 67 Q92 81 101 95 Q143 160 180.5 226 Q218 292 257 358 Q302 432 347 503.5 Q392 575 435 650 Q425 657 417.5 661.5 Q410 666 402.5 668.5 Q395 671 385.5 672 Q376 673 362 673 L362 706 L884 706 Q886 664 887.5 623 Q889 582 892 540 L860 540 Q858 559 855.5 574.5 Q853 590 845 605 Q833 627 814.5 639.5 Q796 652 773.5 658.5 Q751 665 727 666.5 Q703 668 680 668 L576 668 L576 391 L631 391 Q655 391 672.5 392 Q690 393 707 395 Q722 396 736 398.5 Q750 401 760.5 406.5 Q771 412 777.5 422 Q784 432 783 449 L783 457 Q783 460 782.5 464 Q782 468 782 472 L822 471 Q820 447 818.5 424.5 Q817 402 817 380 Q817 357 818.5 333 Q820 309 822 283 L786 283 Q784 312 775 327.5 Q766 343 737 349 Q720 352 696 353 Q672 354 634 354 L578 354 L578 159 Q578 147 578.5 134.5 Q579 122 579 110 Q580 91 582 75 Q584 59 604 50 Q619 43 641.5 41.5 Q664 40 681 40 Q702 40 728 40.5 Q754 41 779.5 45 Q805 49 828.5 56.5 Q852 64 868 78 Q893 100 900 124.5 Q907 149 910 183 L945 183 Q940 136 935.5 91.5 Q931 47 927 0 L405 0 L405 35 Q412 35 416.5 34.5 Q421 34 426 34 Q460 34 473 48 Q486 62 488 92 Q489 101 488.5 111 Q488 121 488 130 L488 353 L317 353 Q309 340 295.5 317.5 Q282 295 265.5 267 Q249 239 232 209 Q215 179 201.5 151.5 Q188 124 179 102 Q170 80 170 68 Q170 56 177 49 Q184 42 194.5 38.5 Q205 35 217.5 33.5 Q230 32 241 32 L254 32 L250 -4 Q215 -2 181.5 -1 Q148 0 115 0 Q87 0 58.5 -1 Q30 -2 0 -4 L0 29 Z M487 390 L487 645 L339 390 L487 390 Z " />
<glyph glyph-name="Cacute" unicode="&#x106;" horiz-adv-x="756" d="M713 180 L713 102 Q686 75 661 57 Q612 21 550.5 4.5 Q489 -12 430 -12 Q353 -12 284.5 12 Q216 36 165 81.5 Q114 127 84.5 191.5 Q55 256 55 337 Q55 422 89 499 Q123 576 187 631 Q241 678 304 698.5 Q367 719 438 719 Q510 719 574.5 701 Q639 683 707 661 L707 528 L683 528 Q675 545 667.5 559 Q660 573 650 586 Q632 610 605.5 627 Q579 644 549 655 Q519 666 487.5 671 Q456 676 427 676 Q372 676 320 656 Q268 636 232 593 Q213 570 198.5 541 Q184 512 174.5 480 Q165 448 160.5 415 Q156 382 156 352 Q156 265 193 191.5 Q230 118 306 72 Q335 55 371 45 Q407 35 440 35 Q469 35 500 42.5 Q531 50 560.5 63.5 Q590 77 616.5 95.5 Q643 114 663 135 Q674 146 683 159 Q692 172 701 185 L713 180 Z M357 793 Q392 811 411 837 Q430 863 448 896 L538 891 Q519 863 501.5 843 Q484 823 464.5 809.5 Q445 796 421 788.5 Q397 781 364 777 L357 793 Z " />
<glyph glyph-name="Ccaron" unicode="&#x10c;" horiz-adv-x="756" d="M713 180 L713 102 Q686 75 661 57 Q612 21 550.5 4.5 Q489 -12 430 -12 Q353 -12 284.5 12 Q216 36 165 81.5 Q114 127 84.5 191.5 Q55 256 55 337 Q55 422 89 499 Q123 576 187 631 Q241 678 304 698.5 Q367 719 438 719 Q510 719 574.5 701 Q639 683 707 661 L707 528 L683 528 Q675 545 667.5 559 Q660 573 650 586 Q632 610 605.5 627 Q579 644 549 655 Q519 666 487.5 671 Q456 676 427 676 Q372 676 320 656 Q268 636 232 593 Q213 570 198.5 541 Q184 512 174.5 480 Q165 448 160.5 415 Q156 382 156 352 Q156 265 193 191.5 Q230 118 306 72 Q335 55 371 45 Q407 35 440 35 Q469 35 500 42.5 Q531 50 560.5 63.5 Q590 77 616.5 95.5 Q643 114 663 135 Q674 146 683 159 Q692 172 701 185 L713 180 Z M306 911 Q325 904 339 897.5 Q353 891 365 883 Q377 875 388.5 865.5 Q400 856 415 844 Q432 857 445 866.5 Q458 876 471 883.5 Q484 891 499.5 897 Q515 903 537 910 L537 892 Q520 875 508 862 Q496 849 486.5 835.5 Q477 822 468.5 806.5 Q460 791 449 770 L393 760 Q381 782 370 799.5 Q359 817 347 833 Q335 849 320.5 864.5 Q306 880 287 898 L306 911 Z " />
<glyph glyph-name="Ccedilla" unicode="&#xc7;" horiz-adv-x="756" d="M713 180 L713 102 Q686 75 661 57 Q612 21 550.5 4.5 Q489 -12 430 -12 Q353 -12 284.5 12 Q216 36 165 81.5 Q114 127 84.5 191.5 Q55 256 55 337 Q55 422 89 499 Q123 576 187 631 Q241 678 304 698.5 Q367 719 438 719 Q510 719 574.5 701 Q639 683 707 661 L707 528 L683 528 Q675 545 667.5 559 Q660 573 650 586 Q632 610 605.5 627 Q579 644 549 655 Q519 666 487.5 671 Q456 676 427 676 Q372 676 320 656 Q268 636 232 593 Q213 570 198.5 541 Q184 512 174.5 480 Q165 448 160.5 415 Q156 382 156 352 Q156 265 193 191.5 Q230 118 306 72 Q335 55 371 45 Q407 35 440 35 Q469 35 500 42.5 Q531 50 560.5 63.5 Q590 77 616.5 95.5 Q643 114 663 135 Q674 146 683 159 Q692 172 701 185 L713 180 Z M368 -208 Q376 -194 381.5 -180 Q387 -166 387 -152 Q387 -131 376.5 -115.5 Q366 -100 349 -83 L420 -37 Q436 -57 447.5 -77 Q459 -97 459 -123 Q459 -154 438 -180.5 Q417 -207 395 -228 L368 -208 Z " />
<glyph glyph-name="Dcaron" unicode="&#x10e;" horiz-adv-x="818" d="M23 36 L39 36 Q62 36 76 41 Q90 46 98 55.5 Q106 65 108.5 80.5 Q111 96 111 117 L111 581 Q111 605 108 621.5 Q105 638 96.5 649 Q88 660 72 665 Q56 670 29 670 L29 706 L130 706 Q186 706 241 709 Q296 712 352 712 Q394 712 435.5 708 Q477 704 518 691 Q571 674 615.5 642 Q660 610 692.5 567.5 Q725 525 743 473.5 Q761 422 761 365 Q761 315 746 260 Q731 205 705 163 Q676 117 628.5 79 Q581 41 530 23 Q481 6 429.5 1.5 Q378 -3 327 -3 Q295 -3 262.5 -1.5 Q230 0 198 0 L23 0 L23 36 Z M204 187 Q204 141 207 112 Q210 83 223.5 66.5 Q237 50 264.5 44 Q292 38 340 38 Q415 38 483.5 58.5 Q552 79 602 139 Q635 180 649.5 225 Q664 270 664 322 Q664 398 640 462 Q616 526 572 572 Q528 618 465.5 643.5 Q403 669 326 669 Q295 669 265 666.5 Q235 664 204 660 L204 187 Z M222 911 Q241 904 255 897.5 Q269 891 281 883 Q293 875 304.5 865.5 Q316 856 331 844 Q348 857 361 866.5 Q374 876 387 883.5 Q400 891 415.5 897 Q431 903 453 910 L453 892 Q436 875 424 862 Q412 849 402.5 835.5 Q393 822 384.5 806.5 Q376 791 365 770 L309 760 Q297 782 286 799.5 Q275 817 263 833 Q251 849 236.5 864.5 Q222 880 203 898 L222 911 Z " />
<glyph glyph-name="Dcroat" unicode="&#x110;" horiz-adv-x="818" d="M23 36 L39 36 Q62 36 76 41 Q90 46 98 55.5 Q106 65 108.5 80.5 Q111 96 111 117 L111 350 L26 350 L26 394 L111 394 L111 581 Q111 605 108 621.5 Q105 638 96.5 649 Q88 660 72 665 Q56 670 29 670 L29 706 L130 706 Q186 706 241 709 Q296 712 352 712 Q394 712 435.5 708 Q477 704 518 691 Q571 674 615.5 642 Q660 610 692.5 567.5 Q725 525 743 473.5 Q761 422 761 365 Q761 315 746 260 Q731 205 705 163 Q676 117 628.5 79 Q581 41 530 23 Q481 6 429.5 1.5 Q378 -3 327 -3 Q295 -3 262.5 -1.5 Q230 0 198 0 L23 0 L23 36 Z M204 187 Q204 141 207 112 Q210 83 223.5 66.5 Q237 50 264.5 44 Q292 38 340 38 Q415 38 483.5 58.5 Q552 79 602 139 Q635 180 649.5 225 Q664 270 664 322 Q664 398 640 462 Q616 526 572 572 Q528 618 465.5 643.5 Q403 669 326 669 Q295 669 265 666.5 Q235 664 204 660 L204 394 L406 394 L406 350 L204 350 L204 187 Z " />
<glyph glyph-name="Egrave" unicode="&#xc8;" horiz-adv-x="610" d="M30 36 L43 36 Q68 36 82 40 Q96 44 103 54 Q110 64 111.5 79.5 Q113 95 113 118 L113 580 Q113 601 111 617.5 Q109 634 102 646 Q95 658 82.5 664.5 Q70 671 49 671 Q44 671 39.5 670.5 Q35 670 30 670 L30 706 L508 706 L520 538 L484 538 Q482 567 477.5 587.5 Q473 608 453 627 Q437 641 415.5 649 Q394 657 370 660.5 Q346 664 322 665 Q298 666 277 666 L202 666 L202 391 L266 391 Q284 391 301.5 392 Q319 393 337 395 Q352 397 364.5 399.5 Q377 402 387 407.5 Q397 413 402.5 423 Q408 433 408 450 L408 458 Q408 462 406 472 L448 471 Q446 445 445 421 Q444 397 444 373 Q444 330 447 281 L412 281 Q410 305 404 318.5 Q398 332 387 339 Q376 346 360.5 348 Q345 350 326 351 Q315 352 301.5 352 Q288 352 267 352 L205 352 L205 108 Q205 90 211.5 72 Q218 54 236 47 Q241 45 252.5 44 Q264 43 276.5 42 Q289 41 301 41 Q313 41 320 41 Q343 41 370.5 42 Q398 43 424 48 Q450 53 473 64.5 Q496 76 511 96 Q525 115 529 138 Q533 161 536 184 L572 184 L553 0 L30 0 L30 36 Z M285 896 Q295 875 303 861 Q311 847 320 836 Q329 825 341 814 Q353 803 371 789 L371 774 Q357 776 344.5 777 Q332 778 321 780 Q293 788 266 804 Q239 820 222 843 Q213 855 206 867.5 Q199 880 191 892 L285 896 Z " />
<glyph glyph-name="Eacute" unicode="&#xc9;" horiz-adv-x="610" d="M30 36 L43 36 Q68 36 82 40 Q96 44 103 54 Q110 64 111.5 79.5 Q113 95 113 118 L113 580 Q113 601 111 617.5 Q109 634 102 646 Q95 658 82.5 664.5 Q70 671 49 671 Q44 671 39.5 670.5 Q35 670 30 670 L30 706 L508 706 L520 538 L484 538 Q482 567 477.5 587.5 Q473 608 453 627 Q437 641 415.5 649 Q394 657 370 660.5 Q346 664 322 665 Q298 666 277 666 L202 666 L202 391 L266 391 Q284 391 301.5 392 Q319 393 337 395 Q352 397 364.5 399.5 Q377 402 387 407.5 Q397 413 402.5 423 Q408 433 408 450 L408 458 Q408 462 406 472 L448 471 Q446 445 445 421 Q444 397 444 373 Q444 330 447 281 L412 281 Q410 305 404 318.5 Q398 332 387 339 Q376 346 360.5 348 Q345 350 326 351 Q315 352 301.5 352 Q288 352 267 352 L205 352 L205 108 Q205 90 211.5 72 Q218 54 236 47 Q241 45 252.5 44 Q264 43 276.5 42 Q289 41 301 41 Q313 41 320 41 Q343 41 370.5 42 Q398 43 424 48 Q450 53 473 64.5 Q496 76 511 96 Q525 115 529 138 Q533 161 536 184 L572 184 L553 0 L30 0 L30 36 Z M254 793 Q289 811 308 837 Q327 863 345 896 L435 891 Q416 863 398.5 843 Q381 823 361.5 809.5 Q342 796 318 788.5 Q294 781 261 777 L254 793 Z " />
<glyph glyph-name="Ecircumflex" unicode="&#xca;" horiz-adv-x="610" d="M30 36 L43 36 Q68 36 82 40 Q96 44 103 54 Q110 64 111.5 79.5 Q113 95 113 118 L113 580 Q113 601 111 617.5 Q109 634 102 646 Q95 658 82.5 664.5 Q70 671 49 671 Q44 671 39.5 670.5 Q35 670 30 670 L30 706 L508 706 L520 538 L484 538 Q482 567 477.5 587.5 Q473 608 453 627 Q437 641 415.5 649 Q394 657 370 660.5 Q346 664 322 665 Q298 666 277 666 L202 666 L202 391 L266 391 Q284 391 301.5 392 Q319 393 337 395 Q352 397 364.5 399.5 Q377 402 387 407.5 Q397 413 402.5 423 Q408 433 408 450 L408 458 Q408 462 406 472 L448 471 Q446 445 445 421 Q444 397 444 373 Q444 330 447 281 L412 281 Q410 305 404 318.5 Q398 332 387 339 Q376 346 360.5 348 Q345 350 326 351 Q315 352 301.5 352 Q288 352 267 352 L205 352 L205 108 Q205 90 211.5 72 Q218 54 236 47 Q241 45 252.5 44 Q264 43 276.5 42 Q289 41 301 41 Q313 41 320 41 Q343 41 370.5 42 Q398 43 424 48 Q450 53 473 64.5 Q496 76 511 96 Q525 115 529 138 Q533 161 536 184 L572 184 L553 0 L30 0 L30 36 Z M177 778 Q196 795 208.5 808 Q221 821 231 834.5 Q241 848 250 863.5 Q259 879 271 901 L328 910 Q341 888 352.5 870.5 Q364 853 376.5 837.5 Q389 822 403.5 806.5 Q418 791 438 773 L417 759 Q398 766 384 773 Q370 780 357.5 787.5 Q345 795 333 804 Q321 813 306 825 Q289 812 276.5 802.5 Q264 793 251.5 785.5 Q239 778 224.5 771.5 Q210 765 189 758 L177 778 Z " />
<glyph glyph-name="Ecaron" unicode="&#x11a;" horiz-adv-x="610" d="M30 36 L43 36 Q68 36 82 40 Q96 44 103 54 Q110 64 111.5 79.5 Q113 95 113 118 L113 580 Q113 601 111 617.5 Q109 634 102 646 Q95 658 82.5 664.5 Q70 671 49 671 Q44 671 39.5 670.5 Q35 670 30 670 L30 706 L508 706 L520 538 L484 538 Q482 567 477.5 587.5 Q473 608 453 627 Q437 641 415.5 649 Q394 657 370 660.5 Q346 664 322 665 Q298 666 277 666 L202 666 L202 391 L266 391 Q284 391 301.5 392 Q319 393 337 395 Q352 397 364.5 399.5 Q377 402 387 407.5 Q397 413 402.5 423 Q408 433 408 450 L408 458 Q408 462 406 472 L448 471 Q446 445 445 421 Q444 397 444 373 Q444 330 447 281 L412 281 Q410 305 404 318.5 Q398 332 387 339 Q376 346 360.5 348 Q345 350 326 351 Q315 352 301.5 352 Q288 352 267 352 L205 352 L205 108 Q205 90 211.5 72 Q218 54 236 47 Q241 45 252.5 44 Q264 43 276.5 42 Q289 41 301 41 Q313 41 320 41 Q343 41 370.5 42 Q398 43 424 48 Q450 53 473 64.5 Q496 76 511 96 Q525 115 529 138 Q533 161 536 184 L572 184 L553 0 L30 0 L30 36 Z M199 911 Q218 904 232 897.5 Q246 891 258 883 Q270 875 281.5 865.5 Q293 856 308 844 Q325 857 338 866.5 Q351 876 364 883.5 Q377 891 392.5 897 Q408 903 430 910 L430 892 Q413 875 401 862 Q389 849 379.5 835.5 Q370 822 361.5 806.5 Q353 791 342 770 L286 760 Q274 782 263 799.5 Q252 817 240 833 Q228 849 213.5 864.5 Q199 880 180 898 L199 911 Z " />
<glyph glyph-name="Edieresis" unicode="&#xcb;" horiz-adv-x="610" d="M30 36 L43 36 Q68 36 82 40 Q96 44 103 54 Q110 64 111.5 79.5 Q113 95 113 118 L113 580 Q113 601 111 617.5 Q109 634 102 646 Q95 658 82.5 664.5 Q70 671 49 671 Q44 671 39.5 670.5 Q35 670 30 670 L30 706 L508 706 L520 538 L484 538 Q482 567 477.5 587.5 Q473 608 453 627 Q437 641 415.5 649 Q394 657 370 660.5 Q346 664 322 665 Q298 666 277 666 L202 666 L202 391 L266 391 Q284 391 301.5 392 Q319 393 337 395 Q352 397 364.5 399.5 Q377 402 387 407.5 Q397 413 402.5 423 Q408 433 408 450 L408 458 Q408 462 406 472 L448 471 Q446 445 445 421 Q444 397 444 373 Q444 330 447 281 L412 281 Q410 305 404 318.5 Q398 332 387 339 Q376 346 360.5 348 Q345 350 326 351 Q315 352 301.5 352 Q288 352 267 352 L205 352 L205 108 Q205 90 211.5 72 Q218 54 236 47 Q241 45 252.5 44 Q264 43 276.5 42 Q289 41 301 41 Q313 41 320 41 Q343 41 370.5 42 Q398 43 424 48 Q450 53 473 64.5 Q496 76 511 96 Q525 115 529 138 Q533 161 536 184 L572 184 L553 0 L30 0 L30 36 Z M395 780 Q373 780 359 795.5 Q345 811 345 832 Q345 853 360.5 866 Q376 879 396 879 Q417 879 431 863 Q445 847 445 827 Q445 806 430 793 Q415 780 395 780 Z M211 780 Q189 780 175 795.5 Q161 811 161 832 Q161 853 176.5 866 Q192 879 212 879 Q233 879 247 863 Q261 847 261 827 Q261 806 246 793 Q231 780 211 780 Z " />
<glyph glyph-name="Emacron" unicode="&#x112;" horiz-adv-x="610" d="M30 36 L43 36 Q68 36 82 40 Q96 44 103 54 Q110 64 111.5 79.5 Q113 95 113 118 L113 580 Q113 601 111 617.5 Q109 634 102 646 Q95 658 82.5 664.5 Q70 671 49 671 Q44 671 39.5 670.5 Q35 670 30 670 L30 706 L508 706 L520 538 L484 538 Q482 567 477.5 587.5 Q473 608 453 627 Q437 641 415.5 649 Q394 657 370 660.5 Q346 664 322 665 Q298 666 277 666 L202 666 L202 391 L266 391 Q284 391 301.5 392 Q319 393 337 395 Q352 397 364.5 399.5 Q377 402 387 407.5 Q397 413 402.5 423 Q408 433 408 450 L408 458 Q408 462 406 472 L448 471 Q446 445 445 421 Q444 397 444 373 Q444 330 447 281 L412 281 Q410 305 404 318.5 Q398 332 387 339 Q376 346 360.5 348 Q345 350 326 351 Q315 352 301.5 352 Q288 352 267 352 L205 352 L205 108 Q205 90 211.5 72 Q218 54 236 47 Q241 45 252.5 44 Q264 43 276.5 42 Q289 41 301 41 Q313 41 320 41 Q343 41 370.5 42 Q398 43 424 48 Q450 53 473 64.5 Q496 76 511 96 Q525 115 529 138 Q533 161 536 184 L572 184 L553 0 L30 0 L30 36 Z M166 857 L444 857 L444 791 L166 791 L166 857 Z " />
<glyph glyph-name="Edotaccent" unicode="&#x116;" horiz-adv-x="610" d="M30 36 L43 36 Q68 36 82 40 Q96 44 103 54 Q110 64 111.5 79.5 Q113 95 113 118 L113 580 Q113 601 111 617.5 Q109 634 102 646 Q95 658 82.5 664.5 Q70 671 49 671 Q44 671 39.5 670.5 Q35 670 30 670 L30 706 L508 706 L520 538 L484 538 Q482 567 477.5 587.5 Q473 608 453 627 Q437 641 415.5 649 Q394 657 370 660.5 Q346 664 322 665 Q298 666 277 666 L202 666 L202 391 L266 391 Q284 391 301.5 392 Q319 393 337 395 Q352 397 364.5 399.5 Q377 402 387 407.5 Q397 413 402.5 423 Q408 433 408 450 L408 458 Q408 462 406 472 L448 471 Q446 445 445 421 Q444 397 444 373 Q444 330 447 281 L412 281 Q410 305 404 318.5 Q398 332 387 339 Q376 346 360.5 348 Q345 350 326 351 Q315 352 301.5 352 Q288 352 267 352 L205 352 L205 108 Q205 90 211.5 72 Q218 54 236 47 Q241 45 252.5 44 Q264 43 276.5 42 Q289 41 301 41 Q313 41 320 41 Q343 41 370.5 42 Q398 43 424 48 Q450 53 473 64.5 Q496 76 511 96 Q525 115 529 138 Q533 161 536 184 L572 184 L553 0 L30 0 L30 36 Z M305 780 Q283 780 269 795.5 Q255 811 255 832 Q255 853 270.5 866 Q286 879 306 879 Q327 879 341 863 Q355 847 355 827 Q355 806 340 793 Q325 780 305 780 Z " />
<glyph glyph-name="Eogonek" unicode="&#x118;" horiz-adv-x="610" d="M30 36 L43 36 Q68 36 82 40 Q96 44 103 54 Q110 64 111.5 79.5 Q113 95 113 118 L113 580 Q113 601 111 617.5 Q109 634 102 646 Q95 658 82.5 664.5 Q70 671 49 671 Q44 671 39.5 670.5 Q35 670 30 670 L30 706 L508 706 L520 538 L484 538 Q482 567 477.5 587.5 Q473 608 453 627 Q437 641 415.5 649 Q394 657 370 660.5 Q346 664 322 665 Q298 666 277 666 L202 666 L202 391 L266 391 Q284 391 301.5 392 Q319 393 337 395 Q352 397 364.5 399.5 Q377 402 387 407.5 Q397 413 402.5 423 Q408 433 408 450 L408 458 Q408 462 406 472 L448 471 Q446 445 445 421 Q444 397 444 373 Q444 330 447 281 L412 281 Q410 305 404 318.5 Q398 332 387 339 Q376 346 360.5 348 Q345 350 326 351 Q315 352 301.5 352 Q288 352 267 352 L205 352 L205 108 Q205 90 211.5 72 Q218 54 236 47 Q241 45 252.5 44 Q264 43 276.5 42 Q289 41 301 41 Q313 41 320 41 Q343 41 370.5 42 Q398 43 424 48 Q450 53 473 64.5 Q496 76 511 96 Q525 115 529 138 Q533 161 536 184 L572 184 L553 0 L525 0 Q491 -24 471 -52.5 Q451 -81 451 -117 Q451 -147 465.5 -163.5 Q480 -180 505 -180 Q524 -180 536.5 -176 Q549 -172 560 -167 L578 -198 Q560 -208 534.5 -214 Q509 -220 478 -220 Q463 -220 445 -215.5 Q427 -211 412 -200 Q397 -189 387 -172 Q377 -155 377 -129 Q377 -96 399.5 -60.5 Q422 -25 471 0 L30 0 L30 36 Z " />
<glyph glyph-name="Gbreve" unicode="&#x11e;" horiz-adv-x="818" d="M638 223 Q638 259 622 271.5 Q606 284 571 284 L565 284 L565 320 Q596 319 624.5 318.5 Q653 318 682 318 Q711 318 740 319 Q769 320 800 321 L800 285 L795 285 Q752 285 740 269 Q728 253 728 213 L728 37 Q660 18 592.5 3 Q525 -12 456 -12 Q407 -12 356.5 -4 Q306 4 261 24 Q213 45 174 79.5 Q135 114 107.5 157 Q80 200 65.5 250 Q51 300 51 352 Q51 439 84 507.5 Q117 576 173 623 Q229 670 302.5 695 Q376 720 458 720 Q527 720 593.5 704 Q660 688 727 668 L727 533 L692 533 Q690 542 688.5 551.5 Q687 561 683 570 Q671 597 645.5 617 Q620 637 589 650 Q558 663 525 669.5 Q492 676 464 676 Q408 676 364.5 665.5 Q321 655 275 623 Q215 581 184.5 516 Q154 451 154 379 Q154 308 178 245 Q202 182 245.5 135 Q289 88 349 60.5 Q409 33 482 33 Q529 33 563.5 43.5 Q598 54 638 77 L638 223 Z M329 891 Q335 883 344.5 873 Q354 863 369 854 Q384 845 406 839 Q428 833 460 833 Q492 833 514 839 Q536 845 551 854 Q566 863 575.5 873 Q585 883 591 891 L621 879 Q616 866 604 847.5 Q592 829 572.5 812 Q553 795 525 783 Q497 771 460 771 Q422 771 394.5 783 Q367 795 347.5 812 Q328 829 316 847.5 Q304 866 299 879 L329 891 Z " />
<glyph glyph-name="Gcommaaccent" unicode="&#x122;" horiz-adv-x="818" d="M638 223 Q638 259 622 271.5 Q606 284 571 284 L565 284 L565 320 Q596 319 624.5 318.5 Q653 318 682 318 Q711 318 740 319 Q769 320 800 321 L800 285 L795 285 Q752 285 740 269 Q728 253 728 213 L728 37 Q660 18 592.5 3 Q525 -12 456 -12 Q407 -12 356.5 -4 Q306 4 261 24 Q213 45 174 79.5 Q135 114 107.5 157 Q80 200 65.5 250 Q51 300 51 352 Q51 439 84 507.5 Q117 576 173 623 Q229 670 302.5 695 Q376 720 458 720 Q527 720 593.5 704 Q660 688 727 668 L727 533 L692 533 Q690 542 688.5 551.5 Q687 561 683 570 Q671 597 645.5 617 Q620 637 589 650 Q558 663 525 669.5 Q492 676 464 676 Q408 676 364.5 665.5 Q321 655 275 623 Q215 581 184.5 516 Q154 451 154 379 Q154 308 178 245 Q202 182 245.5 135 Q289 88 349 60.5 Q409 33 482 33 Q529 33 563.5 43.5 Q598 54 638 77 L638 223 Z M425 -208 Q433 -194 438.5 -180 Q444 -166 444 -152 Q444 -131 433.5 -115.5 Q423 -100 406 -83 L477 -37 Q493 -57 504.5 -77 Q516 -97 516 -123 Q516 -154 495 -180.5 Q474 -207 452 -228 L425 -208 Z " />
<glyph glyph-name="Igrave" unicode="&#xcc;" horiz-adv-x="326" d="M30 36 Q37 36 41.5 35.5 Q46 35 51 35 Q70 35 82.5 41.5 Q95 48 102.5 59 Q110 70 113 84 Q116 98 117 114 Q118 122 118 130 Q118 138 118 146 L118 583 Q118 607 115.5 624 Q113 641 105.5 652 Q98 663 83 668 Q68 673 44 673 L33 673 L33 710 Q74 708 112 707 Q150 706 188 706 Q239 706 296 709 L295 673 L282 673 Q256 673 242 666.5 Q228 660 221.5 648.5 Q215 637 213.5 620 Q212 603 211 582 Q211 572 210.5 559.5 Q210 547 210 537 L210 129 Q210 105 211.5 87 Q213 69 219.5 57.5 Q226 46 239.5 40.5 Q253 35 278 35 L292 35 L292 -1 Q259 -1 226 -0.5 Q193 0 161 0 Q129 0 96 -0.5 Q63 -1 30 -1 L30 36 Z M142 896 Q152 875 160 861 Q168 847 177 836 Q186 825 198 814 Q210 803 228 789 L228 774 Q214 776 201.5 777 Q189 778 178 780 Q150 788 123 804 Q96 820 79 843 Q70 855 63 867.5 Q56 880 48 892 L142 896 Z " />
<glyph glyph-name="Iacute" unicode="&#xcd;" horiz-adv-x="326" d="M30 36 Q37 36 41.5 35.5 Q46 35 51 35 Q70 35 82.5 41.5 Q95 48 102.5 59 Q110 70 113 84 Q116 98 117 114 Q118 122 118 130 Q118 138 118 146 L118 583 Q118 607 115.5 624 Q113 641 105.5 652 Q98 663 83 668 Q68 673 44 673 L33 673 L33 710 Q74 708 112 707 Q150 706 188 706 Q239 706 296 709 L295 673 L282 673 Q256 673 242 666.5 Q228 660 221.5 648.5 Q215 637 213.5 620 Q212 603 211 582 Q211 572 210.5 559.5 Q210 547 210 537 L210 129 Q210 105 211.5 87 Q213 69 219.5 57.5 Q226 46 239.5 40.5 Q253 35 278 35 L292 35 L292 -1 Q259 -1 226 -0.5 Q193 0 161 0 Q129 0 96 -0.5 Q63 -1 30 -1 L30 36 Z M108 793 Q143 811 162 837 Q181 863 199 896 L289 891 Q270 863 252.5 843 Q235 823 215.5 809.5 Q196 796 172 788.5 Q148 781 115 777 L108 793 Z " />
<glyph glyph-name="Icircumflex" unicode="&#xce;" horiz-adv-x="326" d="M30 36 Q37 36 41.5 35.5 Q46 35 51 35 Q70 35 82.5 41.5 Q95 48 102.5 59 Q110 70 113 84 Q116 98 117 114 Q118 122 118 130 Q118 138 118 146 L118 583 Q118 607 115.5 624 Q113 641 105.5 652 Q98 663 83 668 Q68 673 44 673 L33 673 L33 710 Q74 708 112 707 Q150 706 188 706 Q239 706 296 709 L295 673 L282 673 Q256 673 242 666.5 Q228 660 221.5 648.5 Q215 637 213.5 620 Q212 603 211 582 Q211 572 210.5 559.5 Q210 547 210 537 L210 129 Q210 105 211.5 87 Q213 69 219.5 57.5 Q226 46 239.5 40.5 Q253 35 278 35 L292 35 L292 -1 Q259 -1 226 -0.5 Q193 0 161 0 Q129 0 96 -0.5 Q63 -1 30 -1 L30 36 Z M35 778 Q54 795 66.5 808 Q79 821 89 834.5 Q99 848 108 863.5 Q117 879 129 901 L186 910 Q199 888 210.5 870.5 Q222 853 234.5 837.5 Q247 822 261.5 806.5 Q276 791 296 773 L275 759 Q256 766 242 773 Q228 780 215.5 787.5 Q203 795 191 804 Q179 813 164 825 Q147 812 134.5 802.5 Q122 793 109.5 785.5 Q97 778 82.5 771.5 Q68 765 47 758 L35 778 Z " />
<glyph glyph-name="Idieresis" unicode="&#xcf;" horiz-adv-x="326" d="M30 36 Q37 36 41.5 35.5 Q46 35 51 35 Q70 35 82.5 41.5 Q95 48 102.5 59 Q110 70 113 84 Q116 98 117 114 Q118 122 118 130 Q118 138 118 146 L118 583 Q118 607 115.5 624 Q113 641 105.5 652 Q98 663 83 668 Q68 673 44 673 L33 673 L33 710 Q74 708 112 707 Q150 706 188 706 Q239 706 296 709 L295 673 L282 673 Q256 673 242 666.5 Q228 660 221.5 648.5 Q215 637 213.5 620 Q212 603 211 582 Q211 572 210.5 559.5 Q210 547 210 537 L210 129 Q210 105 211.5 87 Q213 69 219.5 57.5 Q226 46 239.5 40.5 Q253 35 278 35 L292 35 L292 -1 Q259 -1 226 -0.5 Q193 0 161 0 Q129 0 96 -0.5 Q63 -1 30 -1 L30 36 Z M258 780 Q236 780 222 795.5 Q208 811 208 832 Q208 853 223.5 866 Q239 879 259 879 Q280 879 294 863 Q308 847 308 827 Q308 806 293 793 Q278 780 258 780 Z M74 780 Q52 780 38 795.5 Q24 811 24 832 Q24 853 39.5 866 Q55 879 75 879 Q96 879 110 863 Q124 847 124 827 Q124 806 109 793 Q94 780 74 780 Z " />
<glyph glyph-name="Imacron" unicode="&#x12a;" horiz-adv-x="326" d="M30 36 Q37 36 41.5 35.5 Q46 35 51 35 Q70 35 82.5 41.5 Q95 48 102.5 59 Q110 70 113 84 Q116 98 117 114 Q118 122 118 130 Q118 138 118 146 L118 583 Q118 607 115.5 624 Q113 641 105.5 652 Q98 663 83 668 Q68 673 44 673 L33 673 L33 710 Q74 708 112 707 Q150 706 188 706 Q239 706 296 709 L295 673 L282 673 Q256 673 242 666.5 Q228 660 221.5 648.5 Q215 637 213.5 620 Q212 603 211 582 Q211 572 210.5 559.5 Q210 547 210 537 L210 129 Q210 105 211.5 87 Q213 69 219.5 57.5 Q226 46 239.5 40.5 Q253 35 278 35 L292 35 L292 -1 Q259 -1 226 -0.5 Q193 0 161 0 Q129 0 96 -0.5 Q63 -1 30 -1 L30 36 Z M26 857 L304 857 L304 791 L26 791 L26 857 Z " />
<glyph glyph-name="Idotaccent" unicode="&#x130;" horiz-adv-x="326" d="M30 36 Q37 36 41.5 35.5 Q46 35 51 35 Q70 35 82.5 41.5 Q95 48 102.5 59 Q110 70 113 84 Q116 98 117 114 Q118 122 118 130 Q118 138 118 146 L118 583 Q118 607 115.5 624 Q113 641 105.5 652 Q98 663 83 668 Q68 673 44 673 L33 673 L33 710 Q74 708 112 707 Q150 706 188 706 Q239 706 296 709 L295 673 L282 673 Q256 673 242 666.5 Q228 660 221.5 648.5 Q215 637 213.5 620 Q212 603 211 582 Q211 572 210.5 559.5 Q210 547 210 537 L210 129 Q210 105 211.5 87 Q213 69 219.5 57.5 Q226 46 239.5 40.5 Q253 35 278 35 L292 35 L292 -1 Q259 -1 226 -0.5 Q193 0 161 0 Q129 0 96 -0.5 Q63 -1 30 -1 L30 36 Z M165 780 Q143 780 129 795.5 Q115 811 115 832 Q115 853 130.5 866 Q146 879 166 879 Q187 879 201 863 Q215 847 215 827 Q215 806 200 793 Q185 780 165 780 Z " />
<glyph glyph-name="Iogonek" unicode="&#x12e;" horiz-adv-x="326" d="M265 -198 Q247 -208 221.5 -214 Q196 -220 165 -220 Q150 -220 132 -215.5 Q114 -211 99 -200 Q84 -189 74 -172 Q64 -155 64 -129 Q64 -96 86.5 -60.5 Q109 -25 158 0 Q126 0 94 -0.5 Q62 -1 30 -1 L30 36 Q37 36 41.5 35.5 Q46 35 51 35 Q70 35 82.5 41.5 Q95 48 102.5 59 Q110 70 113 84 Q116 98 117 114 Q118 122 118 130 Q118 138 118 146 L118 583 Q118 607 115.5 624 Q113 641 105.5 652 Q98 663 83 668 Q68 673 44 673 L33 673 L33 710 Q74 708 112 707 Q150 706 188 706 Q239 706 296 709 L295 673 L282 673 Q256 673 242 666.5 Q228 660 221.5 648.5 Q215 637 213.5 620 Q212 603 211 582 Q211 572 210.5 559.5 Q210 547 210 537 L210 129 Q210 105 211.5 87 Q213 69 219.5 57.5 Q226 46 239.5 40.5 Q253 35 278 35 L292 35 L292 -1 Q272 -1 252 -0.5 Q232 0 212 0 Q178 -24 158 -52.5 Q138 -81 138 -117 Q138 -147 152.5 -163.5 Q167 -180 192 -180 Q211 -180 223.5 -176 Q236 -172 247 -167 L265 -198 Z " />
<glyph glyph-name="Kcommaaccent" unicode="&#x136;" horiz-adv-x="714" d="M33 32 Q59 32 75 36.5 Q91 41 99.5 51.5 Q108 62 111 78 Q114 94 114 118 L114 548 Q114 562 113.5 574.5 Q113 587 112 601 Q110 645 91.5 659.5 Q73 674 28 674 L28 709 Q65 707 99 706.5 Q133 706 168 706 Q200 706 231.5 707 Q263 708 297 710 L296 673 Q290 673 286 673.5 Q282 674 278 674 Q240 674 224.5 656.5 Q209 639 207 605 Q206 597 206 588.5 Q206 580 206 571 L206 342 L442 605 Q450 615 458.5 625.5 Q467 636 467 650 Q467 657 461.5 662 Q456 667 448 669.5 Q440 672 431.5 673 Q423 674 418 674 L418 709 Q484 706 545 706 Q597 706 656 709 L656 673 Q648 672 639 672 Q630 672 620 670 Q600 667 585.5 661.5 Q571 656 552 640 Q542 632 533.5 622.5 Q525 613 516 604 L324 400 L580 108 Q599 87 612.5 73.5 Q626 60 640.5 52.5 Q655 45 674 40.5 Q693 36 722 33 L721 -3 Q694 -2 669 -1 Q644 0 619 0 Q596 0 573 -0.5 Q550 -1 526 -2 Q522 11 518.5 20 Q515 29 510.5 37 Q506 45 500.5 52.5 Q495 60 488 69 Q453 112 417 152 Q381 192 344 233 Q321 258 299.5 283.5 Q278 309 256 335 L207 284 L207 125 Q207 96 209.5 78 Q212 60 221.5 50 Q231 40 249 36 Q267 32 297 32 L297 -4 Q262 -2 229.5 -1 Q197 0 165 0 Q133 0 100.5 -1 Q68 -2 33 -4 L33 32 Z M353 -208 Q361 -194 366.5 -180 Q372 -166 372 -152 Q372 -131 361.5 -115.5 Q351 -100 334 -83 L405 -37 Q421 -57 432.5 -77 Q444 -97 444 -123 Q444 -154 423 -180.5 Q402 -207 380 -228 L353 -208 Z " />
<glyph glyph-name="Lacute" unicode="&#x139;" horiz-adv-x="610" d="M31 36 L44 36 Q67 36 83.5 43.5 Q100 51 108 74 Q110 80 111 91.5 Q112 103 113 115.5 Q114 128 114 139.5 Q114 151 114 159 L114 537 Q114 551 114 565 Q114 579 113 593 Q112 614 108.5 629.5 Q105 645 97.5 654.5 Q90 664 76.5 668.5 Q63 673 42 673 L30 673 L30 709 Q65 708 98 707 Q131 706 163 706 Q195 706 226.5 707 Q258 708 292 710 L291 674 Q262 674 245 669.5 Q228 665 219 654 Q210 643 207.5 625 Q205 607 205 581 L205 148 Q205 127 206.5 109.5 Q208 92 214.5 78.5 Q221 65 233.5 56 Q246 47 269 44 Q294 40 319 39 Q344 38 369 38 Q413 38 442.5 43.5 Q472 49 491.5 64.5 Q511 80 522.5 107.5 Q534 135 541 179 L574 179 L569 0 L31 0 L31 36 Z M216 793 Q251 811 270 837 Q289 863 307 896 L397 891 Q378 863 360.5 843 Q343 823 323.5 809.5 Q304 796 280 788.5 Q256 781 223 777 L216 793 Z " />
<glyph glyph-name="Lcaron" unicode="&#x13d;" horiz-adv-x="610" d="M31 36 L44 36 Q67 36 83.5 43.5 Q100 51 108 74 Q110 80 111 91.5 Q112 103 113 115.5 Q114 128 114 139.5 Q114 151 114 159 L114 537 Q114 551 114 565 Q114 579 113 593 Q112 614 108.5 629.5 Q105 645 97.5 654.5 Q90 664 76.5 668.5 Q63 673 42 673 L30 673 L30 709 Q65 708 98 707 Q131 706 163 706 Q195 706 226.5 707 Q258 708 292 710 L291 674 Q262 674 245 669.5 Q228 665 219 654 Q210 643 207.5 625 Q205 607 205 581 L205 148 Q205 127 206.5 109.5 Q208 92 214.5 78.5 Q221 65 233.5 56 Q246 47 269 44 Q294 40 319 39 Q344 38 369 38 Q413 38 442.5 43.5 Q472 49 491.5 64.5 Q511 80 522.5 107.5 Q534 135 541 179 L574 179 L569 0 L31 0 L31 36 Z M364 482 Q390 508 406.5 534 Q423 560 423 595 Q423 624 411 641.5 Q399 659 378 682 L459 721 Q473 698 480.5 677.5 Q488 657 488 632 Q488 606 480 584 Q472 562 458.5 542.5 Q445 523 428.5 505 Q412 487 394 469 L364 482 Z " />
<glyph glyph-name="Lcommaaccent" unicode="&#x13b;" horiz-adv-x="610" d="M31 36 L44 36 Q67 36 83.5 43.5 Q100 51 108 74 Q110 80 111 91.5 Q112 103 113 115.5 Q114 128 114 139.5 Q114 151 114 159 L114 537 Q114 551 114 565 Q114 579 113 593 Q112 614 108.5 629.5 Q105 645 97.5 654.5 Q90 664 76.5 668.5 Q63 673 42 673 L30 673 L30 709 Q65 708 98 707 Q131 706 163 706 Q195 706 226.5 707 Q258 708 292 710 L291 674 Q262 674 245 669.5 Q228 665 219 654 Q210 643 207.5 625 Q205 607 205 581 L205 148 Q205 127 206.5 109.5 Q208 92 214.5 78.5 Q221 65 233.5 56 Q246 47 269 44 Q294 40 319 39 Q344 38 369 38 Q413 38 442.5 43.5 Q472 49 491.5 64.5 Q511 80 522.5 107.5 Q534 135 541 179 L574 179 L569 0 L31 0 L31 36 Z M271 -208 Q279 -194 284.5 -180 Q290 -166 290 -152 Q290 -131 279.5 -115.5 Q269 -100 252 -83 L323 -37 Q339 -57 350.5 -77 Q362 -97 362 -123 Q362 -154 341 -180.5 Q320 -207 298 -228 L271 -208 Z " />
<glyph glyph-name="Lslash" unicode="&#x141;" horiz-adv-x="610" d="M31 36 L44 36 Q67 36 83.5 43.5 Q100 51 108 74 Q110 80 111 91.5 Q112 103 113 115.5 Q114 128 114 139.5 Q114 151 114 159 L114 339 L29 287 L29 336 L114 388 L114 537 Q114 551 114 565 Q114 579 113 593 Q112 614 108.5 629.5 Q105 645 97.5 654.5 Q90 664 76.5 668.5 Q63 673 42 673 L30 673 L30 709 Q65 708 98 707 Q131 706 163 706 Q195 706 226.5 707 Q258 708 292 710 L291 674 Q262 674 245 669.5 Q228 665 219 654 Q210 643 207.5 625 Q205 607 205 581 L205 445 L389 559 L389 510 L205 396 L205 148 Q205 127 206.5 109.5 Q208 92 214.5 78.5 Q221 65 233.5 56 Q246 47 269 44 Q294 40 319 39 Q344 38 369 38 Q413 38 442.5 43.5 Q472 49 491.5 64.5 Q511 80 522.5 107.5 Q534 135 541 179 L574 179 L569 0 L31 0 L31 36 Z " />
<glyph glyph-name="Nacute" unicode="&#x143;" horiz-adv-x="807" d="M33 35 Q60 36 76 43 Q92 50 100 63 Q108 76 111 94 Q114 112 114 136 Q116 253 117.5 365.5 Q119 478 119 595 Q119 619 112 633.5 Q105 648 92.5 656 Q80 664 61.5 667 Q43 670 20 670 L20 706 L186 706 Q264 613 340 523 Q416 433 492 340 Q534 289 574.5 238 Q615 187 656 136 L649 529 Q649 547 648 567 Q647 587 645 605 Q642 644 626 658 Q610 672 568 672 L568 708 Q626 705 679 705 Q730 705 787 708 L787 672 Q753 672 737.5 660.5 Q722 649 717 631 Q712 611 711 586 Q710 561 709 540 Q705 402 702 264.5 Q699 127 694 -13 L660 -13 L166 583 L166 474 Q166 310 172 148 Q172 140 172.5 128 Q173 116 174.5 103.5 Q176 91 178 80 Q180 69 184 62 Q194 45 211 39 Q228 33 248 33 L256 33 L256 -3 Q221 -2 189 -1 Q157 0 125 0 Q102 0 80 0 Q58 0 33 -1 L33 35 Z M352 793 Q387 811 406 837 Q425 863 443 896 L533 891 Q514 863 496.5 843 Q479 823 459.5 809.5 Q440 796 416 788.5 Q392 781 359 777 L352 793 Z " />
<glyph glyph-name="Ncaron" unicode="&#x147;" horiz-adv-x="807" d="M33 35 Q60 36 76 43 Q92 50 100 63 Q108 76 111 94 Q114 112 114 136 Q116 253 117.5 365.5 Q119 478 119 595 Q119 619 112 633.5 Q105 648 92.5 656 Q80 664 61.5 667 Q43 670 20 670 L20 706 L186 706 Q264 613 340 523 Q416 433 492 340 Q534 289 574.5 238 Q615 187 656 136 L649 529 Q649 547 648 567 Q647 587 645 605 Q642 644 626 658 Q610 672 568 672 L568 708 Q626 705 679 705 Q730 705 787 708 L787 672 Q753 672 737.5 660.5 Q722 649 717 631 Q712 611 711 586 Q710 561 709 540 Q705 402 702 264.5 Q699 127 694 -13 L660 -13 L166 583 L166 474 Q166 310 172 148 Q172 140 172.5 128 Q173 116 174.5 103.5 Q176 91 178 80 Q180 69 184 62 Q194 45 211 39 Q228 33 248 33 L256 33 L256 -3 Q221 -2 189 -1 Q157 0 125 0 Q102 0 80 0 Q58 0 33 -1 L33 35 Z M298 911 Q317 904 331 897.5 Q345 891 357 883 Q369 875 380.5 865.5 Q392 856 407 844 Q424 857 437 866.5 Q450 876 463 883.5 Q476 891 491.5 897 Q507 903 529 910 L529 892 Q512 875 500 862 Q488 849 478.5 835.5 Q469 822 460.5 806.5 Q452 791 441 770 L385 760 Q373 782 362 799.5 Q351 817 339 833 Q327 849 312.5 864.5 Q298 880 279 898 L298 911 Z " />
<glyph glyph-name="Ntilde" unicode="&#xd1;" horiz-adv-x="807" d="M33 35 Q60 36 76 43 Q92 50 100 63 Q108 76 111 94 Q114 112 114 136 Q116 253 117.5 365.5 Q119 478 119 595 Q119 619 112 633.5 Q105 648 92.5 656 Q80 664 61.5 667 Q43 670 20 670 L20 706 L186 706 Q264 613 340 523 Q416 433 492 340 Q534 289 574.5 238 Q615 187 656 136 L649 529 Q649 547 648 567 Q647 587 645 605 Q642 644 626 658 Q610 672 568 672 L568 708 Q626 705 679 705 Q730 705 787 708 L787 672 Q753 672 737.5 660.5 Q722 649 717 631 Q712 611 711 586 Q710 561 709 540 Q705 402 702 264.5 Q699 127 694 -13 L660 -13 L166 583 L166 474 Q166 310 172 148 Q172 140 172.5 128 Q173 116 174.5 103.5 Q176 91 178 80 Q180 69 184 62 Q194 45 211 39 Q228 33 248 33 L256 33 L256 -3 Q221 -2 189 -1 Q157 0 125 0 Q102 0 80 0 Q58 0 33 -1 L33 35 Z M252 801 Q259 816 268 831 Q277 846 288.5 858 Q300 870 314.5 877.5 Q329 885 347 885 Q377 885 406.5 871.5 Q436 858 465 849 Q474 846 482 844 Q490 842 498 842 Q519 842 530 852.5 Q541 863 554 882 L580 867 Q575 859 571 852 Q567 845 562 838 Q548 817 530 800.5 Q512 784 485 784 Q453 784 422 798 Q391 812 362 822 Q342 828 328 828 Q308 828 297.5 816.5 Q287 805 277 791 L252 801 Z " />
<glyph glyph-name="Ncommaaccent" unicode="&#x145;" horiz-adv-x="807" d="M33 35 Q60 36 76 43 Q92 50 100 63 Q108 76 111 94 Q114 112 114 136 Q116 253 117.5 365.5 Q119 478 119 595 Q119 619 112 633.5 Q105 648 92.5 656 Q80 664 61.5 667 Q43 670 20 670 L20 706 L186 706 Q264 613 340 523 Q416 433 492 340 Q534 289 574.5 238 Q615 187 656 136 L649 529 Q649 547 648 567 Q647 587 645 605 Q642 644 626 658 Q610 672 568 672 L568 708 Q626 705 679 705 Q730 705 787 708 L787 672 Q753 672 737.5 660.5 Q722 649 717 631 Q712 611 711 586 Q710 561 709 540 Q705 402 702 264.5 Q699 127 694 -13 L660 -13 L166 583 L166 474 Q166 310 172 148 Q172 140 172.5 128 Q173 116 174.5 103.5 Q176 91 178 80 Q180 69 184 62 Q194 45 211 39 Q228 33 248 33 L256 33 L256 -3 Q221 -2 189 -1 Q157 0 125 0 Q102 0 80 0 Q58 0 33 -1 L33 35 Z M390 -208 Q398 -194 403.5 -180 Q409 -166 409 -152 Q409 -131 398.5 -115.5 Q388 -100 371 -83 L442 -37 Q458 -57 469.5 -77 Q481 -97 481 -123 Q481 -154 460 -180.5 Q439 -207 417 -228 L390 -208 Z " />
<glyph glyph-name="Ograve" unicode="&#xd2;" horiz-adv-x="862" d="M55 353 Q55 431 85 498 Q115 565 166 614 Q217 663 285.5 691 Q354 719 431 719 Q506 719 574 690.5 Q642 662 693 612.5 Q744 563 774 496.5 Q804 430 804 354 Q804 276 774 208.5 Q744 141 692.5 92 Q641 43 572.5 15 Q504 -13 427 -13 Q350 -13 282 15 Q214 43 163.5 92 Q113 141 84 208 Q55 275 55 353 Z M296 80 Q328 57 365.5 45 Q403 33 449 33 Q501 33 547.5 54.5 Q594 76 628.5 115 Q663 154 683.5 207.5 Q704 261 704 325 Q704 351 700.5 375.5 Q697 400 692 425 Q678 490 649 539 Q620 588 565 627 Q533 650 494.5 662 Q456 674 416 674 Q351 674 302.5 650 Q254 626 221.5 585 Q189 544 172.5 490 Q156 436 156 376 Q156 288 190 209.5 Q224 131 296 80 Z M416 896 Q426 875 434 861 Q442 847 451 836 Q460 825 472 814 Q484 803 502 789 L502 774 Q488 776 475.5 777 Q463 778 452 780 Q424 788 397 804 Q370 820 353 843 Q344 855 337 867.5 Q330 880 322 892 L416 896 Z " />
<glyph glyph-name="Oacute" unicode="&#xd3;" horiz-adv-x="862" d="M55 353 Q55 431 85 498 Q115 565 166 614 Q217 663 285.5 691 Q354 719 431 719 Q506 719 574 690.5 Q642 662 693 612.5 Q744 563 774 496.5 Q804 430 804 354 Q804 276 774 208.5 Q744 141 692.5 92 Q641 43 572.5 15 Q504 -13 427 -13 Q350 -13 282 15 Q214 43 163.5 92 Q113 141 84 208 Q55 275 55 353 Z M296 80 Q328 57 365.5 45 Q403 33 449 33 Q501 33 547.5 54.5 Q594 76 628.5 115 Q663 154 683.5 207.5 Q704 261 704 325 Q704 351 700.5 375.5 Q697 400 692 425 Q678 490 649 539 Q620 588 565 627 Q533 650 494.5 662 Q456 674 416 674 Q351 674 302.5 650 Q254 626 221.5 585 Q189 544 172.5 490 Q156 436 156 376 Q156 288 190 209.5 Q224 131 296 80 Z M371 793 Q406 811 425 837 Q444 863 462 896 L552 891 Q533 863 515.5 843 Q498 823 478.5 809.5 Q459 796 435 788.5 Q411 781 378 777 L371 793 Z " />
<glyph glyph-name="Ocircumflex" unicode="&#xd4;" horiz-adv-x="862" d="M55 353 Q55 431 85 498 Q115 565 166 614 Q217 663 285.5 691 Q354 719 431 719 Q506 719 574 690.5 Q642 662 693 612.5 Q744 563 774 496.5 Q804 430 804 354 Q804 276 774 208.5 Q744 141 692.5 92 Q641 43 572.5 15 Q504 -13 427 -13 Q350 -13 282 15 Q214 43 163.5 92 Q113 141 84 208 Q55 275 55 353 Z M296 80 Q328 57 365.5 45 Q403 33 449 33 Q501 33 547.5 54.5 Q594 76 628.5 115 Q663 154 683.5 207.5 Q704 261 704 325 Q704 351 700.5 375.5 Q697 400 692 425 Q678 490 649 539 Q620 588 565 627 Q533 650 494.5 662 Q456 674 416 674 Q351 674 302.5 650 Q254 626 221.5 585 Q189 544 172.5 490 Q156 436 156 376 Q156 288 190 209.5 Q224 131 296 80 Z M312 778 Q331 795 343.5 808 Q356 821 366 834.5 Q376 848 385 863.5 Q394 879 406 901 L463 910 Q476 888 487.5 870.5 Q499 853 511.5 837.5 Q524 822 538.5 806.5 Q553 791 573 773 L552 759 Q533 766 519 773 Q505 780 492.5 787.5 Q480 795 468 804 Q456 813 441 825 Q424 812 411.5 802.5 Q399 793 386.5 785.5 Q374 778 359.5 771.5 Q345 765 324 758 L312 778 Z " />
<glyph glyph-name="Otilde" unicode="&#xd5;" horiz-adv-x="862" d="M55 353 Q55 431 85 498 Q115 565 166 614 Q217 663 285.5 691 Q354 719 431 719 Q506 719 574 690.5 Q642 662 693 612.5 Q744 563 774 496.5 Q804 430 804 354 Q804 276 774 208.5 Q744 141 692.5 92 Q641 43 572.5 15 Q504 -13 427 -13 Q350 -13 282 15 Q214 43 163.5 92 Q113 141 84 208 Q55 275 55 353 Z M296 80 Q328 57 365.5 45 Q403 33 449 33 Q501 33 547.5 54.5 Q594 76 628.5 115 Q663 154 683.5 207.5 Q704 261 704 325 Q704 351 700.5 375.5 Q697 400 692 425 Q678 490 649 539 Q620 588 565 627 Q533 650 494.5 662 Q456 674 416 674 Q351 674 302.5 650 Q254 626 221.5 585 Q189 544 172.5 490 Q156 436 156 376 Q156 288 190 209.5 Q224 131 296 80 Z M261 801 Q268 816 277 831 Q286 846 297.5 858 Q309 870 323.5 877.5 Q338 885 356 885 Q386 885 415.5 871.5 Q445 858 474 849 Q483 846 491 844 Q499 842 507 842 Q528 842 539 852.5 Q550 863 563 882 L589 867 Q584 859 580 852 Q576 845 571 838 Q557 817 539 800.5 Q521 784 494 784 Q462 784 431 798 Q400 812 371 822 Q351 828 337 828 Q317 828 306.5 816.5 Q296 805 286 791 L261 801 Z " />
<glyph glyph-name="Odieresis" unicode="&#xd6;" horiz-adv-x="862" d="M55 353 Q55 431 85 498 Q115 565 166 614 Q217 663 285.5 691 Q354 719 431 719 Q506 719 574 690.5 Q642 662 693 612.5 Q744 563 774 496.5 Q804 430 804 354 Q804 276 774 208.5 Q744 141 692.5 92 Q641 43 572.5 15 Q504 -13 427 -13 Q350 -13 282 15 Q214 43 163.5 92 Q113 141 84 208 Q55 275 55 353 Z M296 80 Q328 57 365.5 45 Q403 33 449 33 Q501 33 547.5 54.5 Q594 76 628.5 115 Q663 154 683.5 207.5 Q704 261 704 325 Q704 351 700.5 375.5 Q697 400 692 425 Q678 490 649 539 Q620 588 565 627 Q533 650 494.5 662 Q456 674 416 674 Q351 674 302.5 650 Q254 626 221.5 585 Q189 544 172.5 490 Q156 436 156 376 Q156 288 190 209.5 Q224 131 296 80 Z M524 780 Q502 780 488 795.5 Q474 811 474 832 Q474 853 489.5 866 Q505 879 525 879 Q546 879 560 863 Q574 847 574 827 Q574 806 559 793 Q544 780 524 780 Z M340 780 Q318 780 304 795.5 Q290 811 290 832 Q290 853 305.5 866 Q321 879 341 879 Q362 879 376 863 Q390 847 390 827 Q390 806 375 793 Q360 780 340 780 Z " />
<glyph glyph-name="Omacron" unicode="&#x14c;" horiz-adv-x="862" d="M55 353 Q55 431 85 498 Q115 565 166 614 Q217 663 285.5 691 Q354 719 431 719 Q506 719 574 690.5 Q642 662 693 612.5 Q744 563 774 496.5 Q804 430 804 354 Q804 276 774 208.5 Q744 141 692.5 92 Q641 43 572.5 15 Q504 -13 427 -13 Q350 -13 282 15 Q214 43 163.5 92 Q113 141 84 208 Q55 275 55 353 Z M296 80 Q328 57 365.5 45 Q403 33 449 33 Q501 33 547.5 54.5 Q594 76 628.5 115 Q663 154 683.5 207.5 Q704 261 704 325 Q704 351 700.5 375.5 Q697 400 692 425 Q678 490 649 539 Q620 588 565 627 Q533 650 494.5 662 Q456 674 416 674 Q351 674 302.5 650 Q254 626 221.5 585 Q189 544 172.5 490 Q156 436 156 376 Q156 288 190 209.5 Q224 131 296 80 Z M293 857 L571 857 L571 791 L293 791 L293 857 Z " />
<glyph glyph-name="Ohungarumlaut" unicode="&#x150;" horiz-adv-x="862" d="M55 353 Q55 431 85 498 Q115 565 166 614 Q217 663 285.5 691 Q354 719 431 719 Q506 719 574 690.5 Q642 662 693 612.5 Q744 563 774 496.5 Q804 430 804 354 Q804 276 774 208.5 Q744 141 692.5 92 Q641 43 572.5 15 Q504 -13 427 -13 Q350 -13 282 15 Q214 43 163.5 92 Q113 141 84 208 Q55 275 55 353 Z M296 80 Q328 57 365.5 45 Q403 33 449 33 Q501 33 547.5 54.5 Q594 76 628.5 115 Q663 154 683.5 207.5 Q704 261 704 325 Q704 351 700.5 375.5 Q697 400 692 425 Q678 490 649 539 Q620 588 565 627 Q533 650 494.5 662 Q456 674 416 674 Q351 674 302.5 650 Q254 626 221.5 585 Q189 544 172.5 490 Q156 436 156 376 Q156 288 190 209.5 Q224 131 296 80 Z M467 793 Q500 815 524.5 846.5 Q549 878 554 905 L649 899 Q641 878 626 857 Q611 836 589 818.5 Q567 801 538.5 789.5 Q510 778 476 777 L467 793 Z M285 793 Q318 815 342.5 846.5 Q367 878 372 905 L462 899 L467 899 Q459 878 444 857 Q429 836 407 818.5 Q385 801 356.5 789.5 Q328 778 294 777 L285 793 Z " />
<glyph glyph-name="Oslash" unicode="&#xd8;" horiz-adv-x="860" d="M141 115 Q99 162 76 222.5 Q53 283 53 353 Q53 431 83 498 Q113 565 164 614 Q215 663 283.5 691 Q352 719 429 719 Q560 719 677 626 L764 707 L793 676 L709 593 Q752 545 777 484.5 Q802 424 802 354 Q802 276 772 208.5 Q742 141 690.5 92 Q639 43 570.5 15 Q502 -13 425 -13 Q353 -13 288.5 11.5 Q224 36 174 81 L90 4 L59 34 L141 115 Z M205 176 Q308 272 413.5 372.5 Q519 473 622 573 Q610 588 595 601 Q580 614 563 627 Q531 650 492.5 662 Q454 674 414 674 Q349 674 300.5 650 Q252 626 219.5 585 Q187 544 170.5 490 Q154 436 154 376 Q154 322 166.5 271.5 Q179 221 205 176 Z M648 537 Q547 440 440.5 338 Q334 236 232 137 Q246 121 261 107 Q276 93 294 80 Q326 57 363.5 45 Q401 33 447 33 Q499 33 545.5 54.5 Q592 76 626.5 115 Q661 154 681.5 207.5 Q702 261 702 325 Q702 351 698.5 375.5 Q695 400 690 425 Q683 457 673 484.5 Q663 512 648 537 Z " />
<glyph glyph-name="OE" unicode="&#x152;" horiz-adv-x="1009" d="M727 40 Q749 40 773 41 Q797 42 819.5 46.5 Q842 51 861.5 59.5 Q881 68 894 82 Q912 102 920 126 Q928 150 935 178 L971 177 Q964 132 960.5 88.5 Q957 45 955 0 L551 0 Q525 0 498.5 -2.5 Q472 -5 446 -5 Q406 -5 366 0 Q326 5 288 19 Q235 39 192 73 Q149 107 118.5 151 Q88 195 71.5 247.5 Q55 300 55 356 Q55 416 74.5 471 Q94 526 128.5 571.5 Q163 617 211 650.5 Q259 684 316 701 Q343 709 370 712 Q397 715 424 715 Q443 715 466.5 713.5 Q490 712 514 710.5 Q538 709 559 707.5 Q580 706 594 706 L907 706 L914 536 L881 536 Q879 563 874 584.5 Q869 606 853 626 Q840 641 823 650 Q806 659 786.5 663.5 Q767 668 746.5 669.5 Q726 671 707 671 L604 671 L604 395 L730 395 Q754 395 769 398 Q784 401 793 409.5 Q802 418 805 433 Q808 448 808 472 L844 472 Q843 447 842.5 424.5 Q842 402 842 379 Q842 355 842.5 330.5 Q843 306 844 280 L813 281 Q813 324 795 339 Q777 354 739 354 L605 354 L605 147 Q605 120 606.5 100 Q608 80 615.5 66.5 Q623 53 639.5 46.5 Q656 40 686 40 L727 40 Z M515 591 Q515 638 494 655.5 Q473 673 420 673 Q358 673 308.5 652.5 Q259 632 225 594.5 Q191 557 173 503 Q155 449 155 382 Q155 306 183 234.5 Q211 163 267 111 Q303 77 349 57 Q395 37 445 37 Q486 37 500.5 63 Q515 89 515 127 L515 591 Z " />
<glyph glyph-name="Racute" unicode="&#x154;" horiz-adv-x="678" d="M35 33 Q70 34 86 41.5 Q102 49 109 63 Q114 74 115.5 91 Q117 108 117 124 L117 538 Q117 548 116.5 561 Q116 574 115 588 Q114 602 111 614.5 Q108 627 104 636 Q91 660 71 664.5 Q51 669 28 671 L28 707 Q72 707 110.5 706.5 Q149 706 177 706 Q222 706 255.5 708.5 Q289 711 321 711 Q339 711 357 709 Q375 707 392 701 Q420 691 443.5 673 Q467 655 483.5 631 Q500 607 509 579 Q518 551 518 521 Q518 476 499 435.5 Q480 395 443 369 Q430 360 416.5 353 Q403 346 389 341 Q422 290 452.5 240 Q483 190 515 138 Q527 118 544 93.5 Q561 69 578 55 Q598 38 622.5 34.5 Q647 31 673 28 L673 -8 L630 -8 Q598 -8 570.5 -4 Q543 0 520 11 Q497 22 477 40.5 Q457 59 439 88 L323 274 Q312 292 299.5 305 Q287 318 266 320 Q251 322 235.5 322.5 Q220 323 205 325 L205 143 Q205 118 206 97.5 Q207 77 214 62.5 Q221 48 236 40 Q251 32 278 32 L292 32 L291 -4 Q255 -2 221.5 -1 Q188 0 154 0 Q98 0 35 -3 L35 33 Z M204 372 Q223 369 242 366.5 Q261 364 281 364 Q295 364 308 365 Q321 366 333 370 Q379 383 407.5 418.5 Q436 454 436 502 Q436 530 426.5 558.5 Q417 587 400 609 Q373 643 340.5 657.5 Q308 672 266 672 Q250 672 235 670.5 Q220 669 204 667 L204 372 Z M216 793 Q251 811 270 837 Q289 863 307 896 L397 891 Q378 863 360.5 843 Q343 823 323.5 809.5 Q304 796 280 788.5 Q256 781 223 777 L216 793 Z " />
<glyph glyph-name="Rcaron" unicode="&#x158;" horiz-adv-x="678" d="M35 33 Q70 34 86 41.5 Q102 49 109 63 Q114 74 115.5 91 Q117 108 117 124 L117 538 Q117 548 116.5 561 Q116 574 115 588 Q114 602 111 614.5 Q108 627 104 636 Q91 660 71 664.5 Q51 669 28 671 L28 707 Q72 707 110.5 706.5 Q149 706 177 706 Q222 706 255.5 708.5 Q289 711 321 711 Q339 711 357 709 Q375 707 392 701 Q420 691 443.5 673 Q467 655 483.5 631 Q500 607 509 579 Q518 551 518 521 Q518 476 499 435.5 Q480 395 443 369 Q430 360 416.5 353 Q403 346 389 341 Q422 290 452.5 240 Q483 190 515 138 Q527 118 544 93.5 Q561 69 578 55 Q598 38 622.5 34.5 Q647 31 673 28 L673 -8 L630 -8 Q598 -8 570.5 -4 Q543 0 520 11 Q497 22 477 40.5 Q457 59 439 88 L323 274 Q312 292 299.5 305 Q287 318 266 320 Q251 322 235.5 322.5 Q220 323 205 325 L205 143 Q205 118 206 97.5 Q207 77 214 62.5 Q221 48 236 40 Q251 32 278 32 L292 32 L291 -4 Q255 -2 221.5 -1 Q188 0 154 0 Q98 0 35 -3 L35 33 Z M204 372 Q223 369 242 366.5 Q261 364 281 364 Q295 364 308 365 Q321 366 333 370 Q379 383 407.5 418.5 Q436 454 436 502 Q436 530 426.5 558.5 Q417 587 400 609 Q373 643 340.5 657.5 Q308 672 266 672 Q250 672 235 670.5 Q220 669 204 667 L204 372 Z M170 911 Q189 904 203 897.5 Q217 891 229 883 Q241 875 252.5 865.5 Q264 856 279 844 Q296 857 309 866.5 Q322 876 335 883.5 Q348 891 363.5 897 Q379 903 401 910 L401 892 Q384 875 372 862 Q360 849 350.5 835.5 Q341 822 332.5 806.5 Q324 791 313 770 L257 760 Q245 782 234 799.5 Q223 817 211 833 Q199 849 184.5 864.5 Q170 880 151 898 L170 911 Z " />
<glyph glyph-name="Rcommaaccent" unicode="&#x156;" horiz-adv-x="678" d="M35 33 Q70 34 86 41.5 Q102 49 109 63 Q114 74 115.5 91 Q117 108 117 124 L117 538 Q117 548 116.5 561 Q116 574 115 588 Q114 602 111 614.5 Q108 627 104 636 Q91 660 71 664.5 Q51 669 28 671 L28 707 Q72 707 110.5 706.5 Q149 706 177 706 Q222 706 255.5 708.5 Q289 711 321 711 Q339 711 357 709 Q375 707 392 701 Q420 691 443.5 673 Q467 655 483.5 631 Q500 607 509 579 Q518 551 518 521 Q518 476 499 435.5 Q480 395 443 369 Q430 360 416.5 353 Q403 346 389 341 Q422 290 452.5 240 Q483 190 515 138 Q527 118 544 93.5 Q561 69 578 55 Q598 38 622.5 34.5 Q647 31 673 28 L673 -8 L630 -8 Q598 -8 570.5 -4 Q543 0 520 11 Q497 22 477 40.5 Q457 59 439 88 L323 274 Q312 292 299.5 305 Q287 318 266 320 Q251 322 235.5 322.5 Q220 323 205 325 L205 143 Q205 118 206 97.5 Q207 77 214 62.5 Q221 48 236 40 Q251 32 278 32 L292 32 L291 -4 Q255 -2 221.5 -1 Q188 0 154 0 Q98 0 35 -3 L35 33 Z M204 372 Q223 369 242 366.5 Q261 364 281 364 Q295 364 308 365 Q321 366 333 370 Q379 383 407.5 418.5 Q436 454 436 502 Q436 530 426.5 558.5 Q417 587 400 609 Q373 643 340.5 657.5 Q308 672 266 672 Q250 672 235 670.5 Q220 669 204 667 L204 372 Z M308 -208 Q316 -194 321.5 -180 Q327 -166 327 -152 Q327 -131 316.5 -115.5 Q306 -100 289 -83 L360 -37 Q376 -57 387.5 -77 Q399 -97 399 -123 Q399 -154 378 -180.5 Q357 -207 335 -228 L308 -208 Z " />
<glyph glyph-name="Sacute" unicode="&#x15a;" horiz-adv-x="548" d="M60 181 L90 181 Q95 163 99 145.5 Q103 128 113 111 Q135 73 176.5 51.5 Q218 30 263 30 Q291 30 318.5 39 Q346 48 368 65 Q390 82 403 106 Q416 130 416 161 Q416 193 400 220 Q384 247 358 267 Q342 279 323.5 288 Q305 297 287 305 Q249 322 209 340.5 Q169 359 131 385 Q95 410 75 446.5 Q55 483 55 528 Q55 565 71.5 600 Q88 635 115 659 Q150 691 195 704.5 Q240 718 286 718 Q332 718 376.5 710 Q421 702 468 691 L468 525 L429 525 L429 529 Q429 564 417 592 Q405 620 383.5 639 Q362 658 333 668 Q304 678 271 678 Q245 678 221 670 Q197 662 179 647 Q161 632 150 610.5 Q139 589 139 562 Q139 518 165.5 489.5 Q192 461 230 441 Q250 430 270.5 421.5 Q291 413 311 405 Q331 397 350 389 Q369 381 385 371 Q433 342 462.5 300 Q492 258 492 200 Q492 170 483.5 142 Q475 114 460 88 Q442 59 416.5 39.5 Q391 20 361.5 8.5 Q332 -3 299.5 -7.5 Q267 -12 235 -12 Q190 -12 147.5 -4.5 Q105 3 60 14 L60 181 Z M220 793 Q255 811 274 837 Q293 863 311 896 L401 891 Q382 863 364.5 843 Q347 823 327.5 809.5 Q308 796 284 788.5 Q260 781 227 777 L220 793 Z " />
<glyph glyph-name="Scaron" unicode="&#x160;" horiz-adv-x="548" d="M60 181 L90 181 Q95 163 99 145.5 Q103 128 113 111 Q135 73 176.5 51.5 Q218 30 263 30 Q291 30 318.5 39 Q346 48 368 65 Q390 82 403 106 Q416 130 416 161 Q416 193 400 220 Q384 247 358 267 Q342 279 323.5 288 Q305 297 287 305 Q249 322 209 340.5 Q169 359 131 385 Q95 410 75 446.5 Q55 483 55 528 Q55 565 71.5 600 Q88 635 115 659 Q150 691 195 704.5 Q240 718 286 718 Q332 718 376.5 710 Q421 702 468 691 L468 525 L429 525 L429 529 Q429 564 417 592 Q405 620 383.5 639 Q362 658 333 668 Q304 678 271 678 Q245 678 221 670 Q197 662 179 647 Q161 632 150 610.5 Q139 589 139 562 Q139 518 165.5 489.5 Q192 461 230 441 Q250 430 270.5 421.5 Q291 413 311 405 Q331 397 350 389 Q369 381 385 371 Q433 342 462.5 300 Q492 258 492 200 Q492 170 483.5 142 Q475 114 460 88 Q442 59 416.5 39.5 Q391 20 361.5 8.5 Q332 -3 299.5 -7.5 Q267 -12 235 -12 Q190 -12 147.5 -4.5 Q105 3 60 14 L60 181 Z M179 911 Q198 904 212 897.5 Q226 891 238 883 Q250 875 261.5 865.5 Q273 856 288 844 Q305 857 318 866.5 Q331 876 344 883.5 Q357 891 372.5 897 Q388 903 410 910 L410 892 Q393 875 381 862 Q369 849 359.5 835.5 Q350 822 341.5 806.5 Q333 791 322 770 L266 760 Q254 782 243 799.5 Q232 817 220 833 Q208 849 193.5 864.5 Q179 880 160 898 L179 911 Z " />
<glyph glyph-name="Scedilla" unicode="&#x15e;" horiz-adv-x="548" d="M60 181 L90 181 Q95 163 99 145.5 Q103 128 113 111 Q135 73 176.5 51.5 Q218 30 263 30 Q291 30 318.5 39 Q346 48 368 65 Q390 82 403 106 Q416 130 416 161 Q416 193 400 220 Q384 247 358 267 Q342 279 323.5 288 Q305 297 287 305 Q249 322 209 340.5 Q169 359 131 385 Q95 410 75 446.5 Q55 483 55 528 Q55 565 71.5 600 Q88 635 115 659 Q150 691 195 704.5 Q240 718 286 718 Q332 718 376.5 710 Q421 702 468 691 L468 525 L429 525 L429 529 Q429 564 417 592 Q405 620 383.5 639 Q362 658 333 668 Q304 678 271 678 Q245 678 221 670 Q197 662 179 647 Q161 632 150 610.5 Q139 589 139 562 Q139 518 165.5 489.5 Q192 461 230 441 Q250 430 270.5 421.5 Q291 413 311 405 Q331 397 350 389 Q369 381 385 371 Q433 342 462.5 300 Q492 258 492 200 Q492 170 483.5 142 Q475 114 460 88 Q442 59 416.5 39.5 Q391 20 361.5 8.5 Q332 -3 299.5 -7.5 Q267 -12 235 -12 Q190 -12 147.5 -4.5 Q105 3 60 14 L60 181 Z M250 -208 Q258 -194 263.5 -180 Q269 -166 269 -152 Q269 -131 258.5 -115.5 Q248 -100 231 -83 L302 -37 Q318 -57 329.5 -77 Q341 -97 341 -123 Q341 -154 320 -180.5 Q299 -207 277 -228 L250 -208 Z " />
<glyph glyph-name="Scommaaccent" unicode="&#x218;" horiz-adv-x="548" d="M60 181 L90 181 Q95 163 99 145.5 Q103 128 113 111 Q135 73 176.5 51.5 Q218 30 263 30 Q291 30 318.5 39 Q346 48 368 65 Q390 82 403 106 Q416 130 416 161 Q416 193 400 220 Q384 247 358 267 Q342 279 323.5 288 Q305 297 287 305 Q249 322 209 340.5 Q169 359 131 385 Q95 410 75 446.5 Q55 483 55 528 Q55 565 71.5 600 Q88 635 115 659 Q150 691 195 704.5 Q240 718 286 718 Q332 718 376.5 710 Q421 702 468 691 L468 525 L429 525 L429 529 Q429 564 417 592 Q405 620 383.5 639 Q362 658 333 668 Q304 678 271 678 Q245 678 221 670 Q197 662 179 647 Q161 632 150 610.5 Q139 589 139 562 Q139 518 165.5 489.5 Q192 461 230 441 Q250 430 270.5 421.5 Q291 413 311 405 Q331 397 350 389 Q369 381 385 371 Q433 342 462.5 300 Q492 258 492 200 Q492 170 483.5 142 Q475 114 460 88 Q442 59 416.5 39.5 Q391 20 361.5 8.5 Q332 -3 299.5 -7.5 Q267 -12 235 -12 Q190 -12 147.5 -4.5 Q105 3 60 14 L60 181 Z M250 -208 Q258 -194 263.5 -180 Q269 -166 269 -152 Q269 -131 258.5 -115.5 Q248 -100 231 -83 L302 -37 Q318 -57 329.5 -77 Q341 -97 341 -123 Q341 -154 320 -180.5 Q299 -207 277 -228 L250 -208 Z " />
<glyph glyph-name="Tcaron" unicode="&#x164;" horiz-adv-x="657" d="M198 34 Q207 33 211 33 Q215 33 219 33 Q241 33 254 40 Q267 47 274 59.5 Q281 72 282.5 88.5 Q284 105 284 125 L284 659 L192 659 Q154 659 128 652.5 Q102 646 85 630.5 Q68 615 59.5 589 Q51 563 50 524 L13 524 L13 706 L644 706 L644 524 L607 524 Q607 555 603.5 580 Q600 605 589 623 Q578 641 557.5 650.5 Q537 660 503 660 L378 660 L378 119 Q378 102 379 85 Q380 68 387 56 Q393 45 406.5 38.5 Q420 32 446 32 L462 32 L462 -4 Q427 -2 394 -1 Q361 0 329 0 Q297 0 265 -1 Q233 -2 198 -4 L198 34 Z M225 911 Q244 904 258 897.5 Q272 891 284 883 Q296 875 307.5 865.5 Q319 856 334 844 Q351 857 364 866.5 Q377 876 390 883.5 Q403 891 418.5 897 Q434 903 456 910 L456 892 Q439 875 427 862 Q415 849 405.5 835.5 Q396 822 387.5 806.5 Q379 791 368 770 L312 760 Q300 782 289 799.5 Q278 817 266 833 Q254 849 239.5 864.5 Q225 880 206 898 L225 911 Z " />
<glyph glyph-name="Tcommaaccent" unicode="&#x162;" horiz-adv-x="657" d="M198 34 Q207 33 211 33 Q215 33 219 33 Q241 33 254 40 Q267 47 274 59.5 Q281 72 282.5 88.5 Q284 105 284 125 L284 659 L192 659 Q154 659 128 652.5 Q102 646 85 630.5 Q68 615 59.5 589 Q51 563 50 524 L13 524 L13 706 L644 706 L644 524 L607 524 Q607 555 603.5 580 Q600 605 589 623 Q578 641 557.5 650.5 Q537 660 503 660 L378 660 L378 119 Q378 102 379 85 Q380 68 387 56 Q393 45 406.5 38.5 Q420 32 446 32 L462 32 L462 -4 Q427 -2 394 -1 Q361 0 329 0 Q297 0 265 -1 Q233 -2 198 -4 L198 34 Z M292 -208 Q300 -194 305.5 -180 Q311 -166 311 -152 Q311 -131 300.5 -115.5 Q290 -100 273 -83 L344 -37 Q360 -57 371.5 -77 Q383 -97 383 -123 Q383 -154 362 -180.5 Q341 -207 319 -228 L292 -208 Z " />
<glyph glyph-name="uni021A" unicode="&#x21a;" horiz-adv-x="657" d="M198 34 Q207 33 211 33 Q215 33 219 33 Q241 33 254 40 Q267 47 274 59.5 Q281 72 282.5 88.5 Q284 105 284 125 L284 659 L192 659 Q154 659 128 652.5 Q102 646 85 630.5 Q68 615 59.5 589 Q51 563 50 524 L13 524 L13 706 L644 706 L644 524 L607 524 Q607 555 603.5 580 Q600 605 589 623 Q578 641 557.5 650.5 Q537 660 503 660 L378 660 L378 119 Q378 102 379 85 Q380 68 387 56 Q393 45 406.5 38.5 Q420 32 446 32 L462 32 L462 -4 Q427 -2 394 -1 Q361 0 329 0 Q297 0 265 -1 Q233 -2 198 -4 L198 34 Z M292 -208 Q300 -194 305.5 -180 Q311 -166 311 -152 Q311 -131 300.5 -115.5 Q290 -100 273 -83 L344 -37 Q360 -57 371.5 -77 Q383 -97 383 -123 Q383 -154 362 -180.5 Q341 -207 319 -228 L292 -208 Z " />
<glyph glyph-name="Ugrave" unicode="&#xd9;" horiz-adv-x="766" d="M96 589 Q96 633 81.5 653.5 Q67 674 21 674 L14 674 L14 710 Q48 708 80 707 Q112 706 144 706 Q175 706 206.5 707 Q238 708 271 710 L271 674 Q256 673 240 671 Q224 669 213 658 Q198 642 194 621 Q190 600 190 577 Q190 572 189.5 557 Q189 542 189 523 Q189 504 188.5 484.5 Q188 465 188 452 L188 266 Q188 223 197.5 181.5 Q207 140 234 106 Q263 71 306 52.5 Q349 34 394 34 Q436 34 476.5 49 Q517 64 548 90 Q576 115 591.5 148 Q607 181 614.5 217.5 Q622 254 623 291.5 Q624 329 624 364 Q624 418 621 471.5 Q618 525 614 579 Q613 595 610 618 Q607 641 599 653 Q591 666 579 669.5 Q567 673 552 673 L535 673 L535 709 Q563 708 588.5 707 Q614 706 640 706 Q666 706 693 707 Q720 708 749 710 L748 674 Q737 673 727 672.5 Q717 672 709 669 Q701 666 694 659 Q687 652 683 640 Q680 633 678.5 620.5 Q677 608 676 594.5 Q675 581 674.5 568 Q674 555 674 547 L674 339 Q674 307 672.5 275.5 Q671 244 666 212 Q657 161 632 120 Q607 79 570.5 50 Q534 21 488 5.5 Q442 -10 391 -10 Q332 -10 272 12 Q212 34 170 76 Q126 120 111 174 Q96 228 96 287 L96 589 Z M361 896 Q371 875 379 861 Q387 847 396 836 Q405 825 417 814 Q429 803 447 789 L447 774 Q433 776 420.5 777 Q408 778 397 780 Q369 788 342 804 Q315 820 298 843 Q289 855 282 867.5 Q275 880 267 892 L361 896 Z " />
<glyph glyph-name="Uacute" unicode="&#xda;" horiz-adv-x="766" d="M96 589 Q96 633 81.5 653.5 Q67 674 21 674 L14 674 L14 710 Q48 708 80 707 Q112 706 144 706 Q175 706 206.5 707 Q238 708 271 710 L271 674 Q256 673 240 671 Q224 669 213 658 Q198 642 194 621 Q190 600 190 577 Q190 572 189.5 557 Q189 542 189 523 Q189 504 188.5 484.5 Q188 465 188 452 L188 266 Q188 223 197.5 181.5 Q207 140 234 106 Q263 71 306 52.5 Q349 34 394 34 Q436 34 476.5 49 Q517 64 548 90 Q576 115 591.5 148 Q607 181 614.5 217.5 Q622 254 623 291.5 Q624 329 624 364 Q624 418 621 471.5 Q618 525 614 579 Q613 595 610 618 Q607 641 599 653 Q591 666 579 669.5 Q567 673 552 673 L535 673 L535 709 Q563 708 588.5 707 Q614 706 640 706 Q666 706 693 707 Q720 708 749 710 L748 674 Q737 673 727 672.5 Q717 672 709 669 Q701 666 694 659 Q687 652 683 640 Q680 633 678.5 620.5 Q677 608 676 594.5 Q675 581 674.5 568 Q674 555 674 547 L674 339 Q674 307 672.5 275.5 Q671 244 666 212 Q657 161 632 120 Q607 79 570.5 50 Q534 21 488 5.5 Q442 -10 391 -10 Q332 -10 272 12 Q212 34 170 76 Q126 120 111 174 Q96 228 96 287 L96 589 Z M345 793 Q380 811 399 837 Q418 863 436 896 L526 891 Q507 863 489.5 843 Q472 823 452.5 809.5 Q433 796 409 788.5 Q385 781 352 777 L345 793 Z " />
<glyph glyph-name="Ucircumflex" unicode="&#xdb;" horiz-adv-x="766" d="M96 589 Q96 633 81.5 653.5 Q67 674 21 674 L14 674 L14 710 Q48 708 80 707 Q112 706 144 706 Q175 706 206.5 707 Q238 708 271 710 L271 674 Q256 673 240 671 Q224 669 213 658 Q198 642 194 621 Q190 600 190 577 Q190 572 189.5 557 Q189 542 189 523 Q189 504 188.5 484.5 Q188 465 188 452 L188 266 Q188 223 197.5 181.5 Q207 140 234 106 Q263 71 306 52.5 Q349 34 394 34 Q436 34 476.5 49 Q517 64 548 90 Q576 115 591.5 148 Q607 181 614.5 217.5 Q622 254 623 291.5 Q624 329 624 364 Q624 418 621 471.5 Q618 525 614 579 Q613 595 610 618 Q607 641 599 653 Q591 666 579 669.5 Q567 673 552 673 L535 673 L535 709 Q563 708 588.5 707 Q614 706 640 706 Q666 706 693 707 Q720 708 749 710 L748 674 Q737 673 727 672.5 Q717 672 709 669 Q701 666 694 659 Q687 652 683 640 Q680 633 678.5 620.5 Q677 608 676 594.5 Q675 581 674.5 568 Q674 555 674 547 L674 339 Q674 307 672.5 275.5 Q671 244 666 212 Q657 161 632 120 Q607 79 570.5 50 Q534 21 488 5.5 Q442 -10 391 -10 Q332 -10 272 12 Q212 34 170 76 Q126 120 111 174 Q96 228 96 287 L96 589 Z M274 778 Q293 795 305.5 808 Q318 821 328 834.5 Q338 848 347 863.5 Q356 879 368 901 L425 910 Q438 888 449.5 870.5 Q461 853 473.5 837.5 Q486 822 500.5 806.5 Q515 791 535 773 L514 759 Q495 766 481 773 Q467 780 454.5 787.5 Q442 795 430 804 Q418 813 403 825 Q386 812 373.5 802.5 Q361 793 348.5 785.5 Q336 778 321.5 771.5 Q307 765 286 758 L274 778 Z " />
<glyph glyph-name="Udieresis" unicode="&#xdc;" horiz-adv-x="766" d="M96 589 Q96 633 81.5 653.5 Q67 674 21 674 L14 674 L14 710 Q48 708 80 707 Q112 706 144 706 Q175 706 206.5 707 Q238 708 271 710 L271 674 Q256 673 240 671 Q224 669 213 658 Q198 642 194 621 Q190 600 190 577 Q190 572 189.5 557 Q189 542 189 523 Q189 504 188.5 484.5 Q188 465 188 452 L188 266 Q188 223 197.5 181.5 Q207 140 234 106 Q263 71 306 52.5 Q349 34 394 34 Q436 34 476.5 49 Q517 64 548 90 Q576 115 591.5 148 Q607 181 614.5 217.5 Q622 254 623 291.5 Q624 329 624 364 Q624 418 621 471.5 Q618 525 614 579 Q613 595 610 618 Q607 641 599 653 Q591 666 579 669.5 Q567 673 552 673 L535 673 L535 709 Q563 708 588.5 707 Q614 706 640 706 Q666 706 693 707 Q720 708 749 710 L748 674 Q737 673 727 672.5 Q717 672 709 669 Q701 666 694 659 Q687 652 683 640 Q680 633 678.5 620.5 Q677 608 676 594.5 Q675 581 674.5 568 Q674 555 674 547 L674 339 Q674 307 672.5 275.5 Q671 244 666 212 Q657 161 632 120 Q607 79 570.5 50 Q534 21 488 5.5 Q442 -10 391 -10 Q332 -10 272 12 Q212 34 170 76 Q126 120 111 174 Q96 228 96 287 L96 589 Z M497 780 Q475 780 461 795.5 Q447 811 447 832 Q447 853 462.5 866 Q478 879 498 879 Q519 879 533 863 Q547 847 547 827 Q547 806 532 793 Q517 780 497 780 Z M313 780 Q291 780 277 795.5 Q263 811 263 832 Q263 853 278.5 866 Q294 879 314 879 Q335 879 349 863 Q363 847 363 827 Q363 806 348 793 Q333 780 313 780 Z " />
<glyph glyph-name="Umacron" unicode="&#x16a;" horiz-adv-x="766" d="M96 589 Q96 633 81.5 653.5 Q67 674 21 674 L14 674 L14 710 Q48 708 80 707 Q112 706 144 706 Q175 706 206.5 707 Q238 708 271 710 L271 674 Q256 673 240 671 Q224 669 213 658 Q198 642 194 621 Q190 600 190 577 Q190 572 189.5 557 Q189 542 189 523 Q189 504 188.5 484.5 Q188 465 188 452 L188 266 Q188 223 197.5 181.5 Q207 140 234 106 Q263 71 306 52.5 Q349 34 394 34 Q436 34 476.5 49 Q517 64 548 90 Q576 115 591.5 148 Q607 181 614.5 217.5 Q622 254 623 291.5 Q624 329 624 364 Q624 418 621 471.5 Q618 525 614 579 Q613 595 610 618 Q607 641 599 653 Q591 666 579 669.5 Q567 673 552 673 L535 673 L535 709 Q563 708 588.5 707 Q614 706 640 706 Q666 706 693 707 Q720 708 749 710 L748 674 Q737 673 727 672.5 Q717 672 709 669 Q701 666 694 659 Q687 652 683 640 Q680 633 678.5 620.5 Q677 608 676 594.5 Q675 581 674.5 568 Q674 555 674 547 L674 339 Q674 307 672.5 275.5 Q671 244 666 212 Q657 161 632 120 Q607 79 570.5 50 Q534 21 488 5.5 Q442 -10 391 -10 Q332 -10 272 12 Q212 34 170 76 Q126 120 111 174 Q96 228 96 287 L96 589 Z M256 857 L534 857 L534 791 L256 791 L256 857 Z " />
<glyph glyph-name="Uring" unicode="&#x16e;" horiz-adv-x="766" d="M96 589 Q96 633 81.5 653.5 Q67 674 21 674 L14 674 L14 710 Q48 708 80 707 Q112 706 144 706 Q175 706 206.5 707 Q238 708 271 710 L271 674 Q256 673 240 671 Q224 669 213 658 Q198 642 194 621 Q190 600 190 577 Q190 572 189.5 557 Q189 542 189 523 Q189 504 188.5 484.5 Q188 465 188 452 L188 266 Q188 223 197.5 181.5 Q207 140 234 106 Q263 71 306 52.5 Q349 34 394 34 Q436 34 476.5 49 Q517 64 548 90 Q576 115 591.5 148 Q607 181 614.5 217.5 Q622 254 623 291.5 Q624 329 624 364 Q624 418 621 471.5 Q618 525 614 579 Q613 595 610 618 Q607 641 599 653 Q591 666 579 669.5 Q567 673 552 673 L535 673 L535 709 Q563 708 588.5 707 Q614 706 640 706 Q666 706 693 707 Q720 708 749 710 L748 674 Q737 673 727 672.5 Q717 672 709 669 Q701 666 694 659 Q687 652 683 640 Q680 633 678.5 620.5 Q677 608 676 594.5 Q675 581 674.5 568 Q674 555 674 547 L674 339 Q674 307 672.5 275.5 Q671 244 666 212 Q657 161 632 120 Q607 79 570.5 50 Q534 21 488 5.5 Q442 -10 391 -10 Q332 -10 272 12 Q212 34 170 76 Q126 120 111 174 Q96 228 96 287 L96 589 Z M297 820 Q297 841 305 859 Q313 877 327 891 Q341 905 359 913 Q377 921 398 921 Q419 921 437 913 Q455 905 469 891 Q483 877 491 859 Q499 841 499 820 Q499 799 491 781 Q483 763 469 749 Q455 735 437 727 Q419 719 398 719 Q377 719 359 727 Q341 735 327 749 Q313 763 305 781 Q297 799 297 820 Z M398 758 Q424 758 442 776 Q460 794 460 820 Q460 847 442 864.5 Q424 882 398 882 Q372 882 354 864 Q336 846 336 820 Q336 794 354 776 Q372 758 398 758 Z " />
<glyph glyph-name="Uhungarumlaut" unicode="&#x170;" horiz-adv-x="766" d="M96 589 Q96 633 81.5 653.5 Q67 674 21 674 L14 674 L14 710 Q48 708 80 707 Q112 706 144 706 Q175 706 206.5 707 Q238 708 271 710 L271 674 Q256 673 240 671 Q224 669 213 658 Q198 642 194 621 Q190 600 190 577 Q190 572 189.5 557 Q189 542 189 523 Q189 504 188.5 484.5 Q188 465 188 452 L188 266 Q188 223 197.5 181.5 Q207 140 234 106 Q263 71 306 52.5 Q349 34 394 34 Q436 34 476.5 49 Q517 64 548 90 Q576 115 591.5 148 Q607 181 614.5 217.5 Q622 254 623 291.5 Q624 329 624 364 Q624 418 621 471.5 Q618 525 614 579 Q613 595 610 618 Q607 641 599 653 Q591 666 579 669.5 Q567 673 552 673 L535 673 L535 709 Q563 708 588.5 707 Q614 706 640 706 Q666 706 693 707 Q720 708 749 710 L748 674 Q737 673 727 672.5 Q717 672 709 669 Q701 666 694 659 Q687 652 683 640 Q680 633 678.5 620.5 Q677 608 676 594.5 Q675 581 674.5 568 Q674 555 674 547 L674 339 Q674 307 672.5 275.5 Q671 244 666 212 Q657 161 632 120 Q607 79 570.5 50 Q534 21 488 5.5 Q442 -10 391 -10 Q332 -10 272 12 Q212 34 170 76 Q126 120 111 174 Q96 228 96 287 L96 589 Z M418 793 Q451 815 475.5 846.5 Q500 878 505 905 L600 899 Q592 878 577 857 Q562 836 540 818.5 Q518 801 489.5 789.5 Q461 778 427 777 L418 793 Z M236 793 Q269 815 293.5 846.5 Q318 878 323 905 L413 899 L418 899 Q410 878 395 857 Q380 836 358 818.5 Q336 801 307.5 789.5 Q279 778 245 777 L236 793 Z " />
<glyph glyph-name="Uogonek" unicode="&#x172;" horiz-adv-x="766" d="M504 -198 Q486 -208 460.5 -214 Q435 -220 404 -220 Q389 -220 371 -215.5 Q353 -211 338 -200 Q323 -189 313 -172 Q303 -155 303 -129 Q303 -99 321.5 -67 Q340 -35 379 -10 Q322 -8 266 13.5 Q210 35 170 76 Q126 120 111 174 Q96 228 96 287 L96 589 Q96 633 81.5 653.5 Q67 674 21 674 L14 674 L14 710 Q48 708 80 707 Q112 706 144 706 Q175 706 206.5 707 Q238 708 271 710 L271 674 Q256 673 240 671 Q224 669 213 658 Q198 642 194 621 Q190 600 190 577 Q190 572 189.5 557 Q189 542 189 523 Q189 504 188.5 484.5 Q188 465 188 452 L188 266 Q188 223 197.5 181.5 Q207 140 234 106 Q263 71 306 52.5 Q349 34 394 34 Q436 34 476.5 49 Q517 64 548 90 Q576 115 591.5 148 Q607 181 614.5 217.5 Q622 254 623 291.5 Q624 329 624 364 Q624 418 621 471.5 Q618 525 614 579 Q613 595 610 618 Q607 641 599 653 Q591 666 579 669.5 Q567 673 552 673 L535 673 L535 709 Q563 708 588.5 707 Q614 706 640 706 Q666 706 693 707 Q720 708 749 710 L748 674 Q737 673 727 672.5 Q717 672 709 669 Q701 666 694 659 Q687 652 683 640 Q680 633 678.5 620.5 Q677 608 676 594.5 Q675 581 674.5 568 Q674 555 674 547 L674 339 Q674 307 672.5 275.5 Q671 244 666 212 Q658 168 638 131 Q618 94 589 66 Q560 38 522.5 20 Q485 2 443 -5 Q413 -28 395 -55.5 Q377 -83 377 -117 Q377 -147 391.5 -163.5 Q406 -180 431 -180 Q450 -180 462.5 -176 Q475 -172 486 -167 L504 -198 Z " />
<glyph glyph-name="Yacute" unicode="&#xdd;" horiz-adv-x="689" d="M225 34 L244 34 Q285 34 296.5 54 Q308 74 308 112 L308 255 Q276 316 242 375 Q208 434 174 494 L114 602 Q103 622 90.5 640 Q78 658 54 667 Q43 671 30.5 671.5 Q18 672 6 673 L6 709 Q67 706 122 706 Q157 706 191.5 707 Q226 708 263 709 L263 674 Q243 674 226 669 Q209 664 209 645 Q209 630 217 611 Q225 592 233 578 Q266 514 302.5 452.5 Q339 391 376 328 L516 595 Q522 607 529.5 622.5 Q537 638 537 650 Q537 658 532 662.5 Q527 667 519 669.5 Q511 672 502 672.5 Q493 673 486 673 L479 673 L479 708 Q505 707 529 706.5 Q553 706 577 706 Q603 706 631 707 Q659 708 683 709 L683 674 Q653 674 637 669.5 Q621 665 610 656 Q598 646 588 628 Q578 610 570 596 L403 284 L403 121 Q403 99 405.5 82.5 Q408 66 415.5 55.5 Q423 45 436.5 39.5 Q450 34 472 34 L485 34 L485 -2 Q449 -1 415 -0.5 Q381 0 347 0 Q317 0 287 -0.5 Q257 -1 225 -2 L225 34 Z M304 793 Q339 811 358 837 Q377 863 395 896 L485 891 Q466 863 448.5 843 Q431 823 411.5 809.5 Q392 796 368 788.5 Q344 781 311 777 L304 793 Z " />
<glyph glyph-name="Ydieresis" unicode="&#x178;" horiz-adv-x="689" d="M225 34 L244 34 Q285 34 296.5 54 Q308 74 308 112 L308 255 Q276 316 242 375 Q208 434 174 494 L114 602 Q103 622 90.5 640 Q78 658 54 667 Q43 671 30.5 671.5 Q18 672 6 673 L6 709 Q67 706 122 706 Q157 706 191.5 707 Q226 708 263 709 L263 674 Q243 674 226 669 Q209 664 209 645 Q209 630 217 611 Q225 592 233 578 Q266 514 302.5 452.5 Q339 391 376 328 L516 595 Q522 607 529.5 622.5 Q537 638 537 650 Q537 658 532 662.5 Q527 667 519 669.5 Q511 672 502 672.5 Q493 673 486 673 L479 673 L479 708 Q505 707 529 706.5 Q553 706 577 706 Q603 706 631 707 Q659 708 683 709 L683 674 Q653 674 637 669.5 Q621 665 610 656 Q598 646 588 628 Q578 610 570 596 L403 284 L403 121 Q403 99 405.5 82.5 Q408 66 415.5 55.5 Q423 45 436.5 39.5 Q450 34 472 34 L485 34 L485 -2 Q449 -1 415 -0.5 Q381 0 347 0 Q317 0 287 -0.5 Q257 -1 225 -2 L225 34 Z M452 780 Q430 780 416 795.5 Q402 811 402 832 Q402 853 417.5 866 Q433 879 453 879 Q474 879 488 863 Q502 847 502 827 Q502 806 487 793 Q472 780 452 780 Z M268 780 Q246 780 232 795.5 Q218 811 218 832 Q218 853 233.5 866 Q249 879 269 879 Q290 879 304 863 Q318 847 318 827 Q318 806 303 793 Q288 780 268 780 Z " />
<glyph glyph-name="Zacute" unicode="&#x179;" horiz-adv-x="652" d="M492 663 L323 663 Q294 663 264.5 661.5 Q235 660 206 658 Q175 656 147.5 649 Q120 642 98 619 Q83 603 80 585 Q77 567 76 543 L40 543 L40 706 L634 706 L148 43 L328 46 Q350 46 380.5 46.5 Q411 47 442.5 50.5 Q474 54 502 62 Q530 70 546 87 Q562 104 567 124.5 Q572 145 575 170 L610 170 L610 0 L1 0 L492 663 Z M270 793 Q305 811 324 837 Q343 863 361 896 L451 891 Q432 863 414.5 843 Q397 823 377.5 809.5 Q358 796 334 788.5 Q310 781 277 777 L270 793 Z " />
<glyph glyph-name="Zcaron" unicode="&#x17d;" horiz-adv-x="652" d="M492 663 L323 663 Q294 663 264.5 661.5 Q235 660 206 658 Q175 656 147.5 649 Q120 642 98 619 Q83 603 80 585 Q77 567 76 543 L40 543 L40 706 L634 706 L148 43 L328 46 Q350 46 380.5 46.5 Q411 47 442.5 50.5 Q474 54 502 62 Q530 70 546 87 Q562 104 567 124.5 Q572 145 575 170 L610 170 L610 0 L1 0 L492 663 Z M220 911 Q239 904 253 897.5 Q267 891 279 883 Q291 875 302.5 865.5 Q314 856 329 844 Q346 857 359 866.5 Q372 876 385 883.5 Q398 891 413.5 897 Q429 903 451 910 L451 892 Q434 875 422 862 Q410 849 400.5 835.5 Q391 822 382.5 806.5 Q374 791 363 770 L307 760 Q295 782 284 799.5 Q273 817 261 833 Q249 849 234.5 864.5 Q220 880 201 898 L220 911 Z " />
<glyph glyph-name="Zdotaccent" unicode="&#x17b;" horiz-adv-x="652" d="M492 663 L323 663 Q294 663 264.5 661.5 Q235 660 206 658 Q175 656 147.5 649 Q120 642 98 619 Q83 603 80 585 Q77 567 76 543 L40 543 L40 706 L634 706 L148 43 L328 46 Q350 46 380.5 46.5 Q411 47 442.5 50.5 Q474 54 502 62 Q530 70 546 87 Q562 104 567 124.5 Q572 145 575 170 L610 170 L610 0 L1 0 L492 663 Z M326 780 Q304 780 290 795.5 Q276 811 276 832 Q276 853 291.5 866 Q307 879 327 879 Q348 879 362 863 Q376 847 376 827 Q376 806 361 793 Q346 780 326 780 Z " />
<glyph glyph-name="Eth" unicode="&#xd0;" horiz-adv-x="818" d="M23 36 L39 36 Q62 36 76 41 Q90 46 98 55.5 Q106 65 108.5 80.5 Q111 96 111 117 L111 350 L26 350 L26 394 L111 394 L111 581 Q111 605 108 621.5 Q105 638 96.5 649 Q88 660 72 665 Q56 670 29 670 L29 706 L130 706 Q186 706 241 709 Q296 712 352 712 Q394 712 435.5 708 Q477 704 518 691 Q571 674 615.5 642 Q660 610 692.5 567.5 Q725 525 743 473.5 Q761 422 761 365 Q761 315 746 260 Q731 205 705 163 Q676 117 628.5 79 Q581 41 530 23 Q481 6 429.5 1.5 Q378 -3 327 -3 Q295 -3 262.5 -1.5 Q230 0 198 0 L23 0 L23 36 Z M204 187 Q204 141 207 112 Q210 83 223.5 66.5 Q237 50 264.5 44 Q292 38 340 38 Q415 38 483.5 58.5 Q552 79 602 139 Q635 180 649.5 225 Q664 270 664 322 Q664 398 640 462 Q616 526 572 572 Q528 618 465.5 643.5 Q403 669 326 669 Q295 669 265 666.5 Q235 664 204 660 L204 394 L406 394 L406 350 L204 350 L204 187 Z " />
<glyph glyph-name="Thorn" unicode="&#xde;" horiz-adv-x="527" d="M29 32 Q60 32 77 39.5 Q94 47 102 60.5 Q110 74 111.5 94 Q113 114 113 140 L113 582 Q113 599 111 619.5 Q109 640 99 653 Q86 670 67 672.5 Q48 675 30 677 L30 707 Q37 707 45 706.5 Q53 706 63 706 Q73 706 87 706 Q101 706 121 706 Q145 706 193 706.5 Q241 707 295 710 L295 674 L277 674 Q239 674 224.5 656.5 Q210 639 208 606 Q207 599 207 591 Q207 583 207 566 Q228 568 250.5 568.5 Q273 569 294 569 Q332 569 367.5 563.5 Q403 558 438 538 Q483 512 504.5 469.5 Q526 427 526 376 Q526 315 491 268 Q473 243 449.5 227.5 Q426 212 399 203 Q372 194 343 191 Q314 188 286 188 Q266 188 246 189 Q226 190 206 192 L206 151 Q206 141 206 127 Q206 113 207.5 98.5 Q209 84 212 71.5 Q215 59 220 52 Q230 38 245.5 34.5 Q261 31 279 31 L292 31 L292 -3 Q258 -2 227 -1 Q196 0 164 0 Q131 0 97 -1 Q63 -2 28 -4 L29 32 Z M201 255 Q223 240 249 234 Q275 228 301 228 Q362 228 397 264 Q432 300 432 361 Q432 390 421 421 Q383 532 265 532 Q249 532 233 530.5 Q217 529 201 527 L201 255 Z " />
<glyph glyph-name="a" unicode="a" horiz-adv-x="480" d="M311 283 L311 306 Q311 338 304 370 Q297 402 273 422 Q262 431 249 436 Q236 441 219 441 Q206 441 192 437 Q178 433 167 425.5 Q156 418 148.5 406.5 Q141 395 141 381 Q141 370 145 358.5 Q149 347 154 334 L85 303 Q77 317 72.5 331 Q68 345 68 359 Q68 375 74 389 Q85 412 105 427 Q125 442 147 453 Q170 465 194.5 474.5 Q219 484 246 484 Q275 484 304 474 Q333 464 353 441 Q377 414 384.5 377 Q392 340 392 311 L392 126 Q392 117 392.5 106.5 Q393 96 396 87 Q399 78 404.5 72 Q410 66 420 66 Q430 66 440 70 Q450 74 463 80 L463 46 L344 -13 Q330 6 325.5 19 Q321 32 316 52 Q285 26 245 7.5 Q205 -11 165 -11 Q142 -11 121 -1.5 Q100 8 83.5 24.5 Q67 41 57.5 62.5 Q48 84 48 109 Q48 139 60.5 159.5 Q73 180 93 194 Q113 208 137.5 218 Q162 228 186 237 L311 283 Z M312 245 L191 198 Q170 190 149.5 173 Q129 156 129 131 Q129 115 135 99.5 Q141 84 151.5 72 Q162 60 176 52.5 Q190 45 205 45 Q232 45 262 61 Q292 77 312 93 L312 245 Z " />
<glyph glyph-name="b" unicode="b" horiz-adv-x="529" d="M63 590 Q63 621 61.5 637.5 Q60 654 52 666 Q44 678 25 678 Q17 678 5.5 674 Q-6 670 -17 665 L-17 700 Q23 716 58 731 Q93 746 127 769 L143 769 L143 426 Q181 449 219.5 466.5 Q258 484 304 484 Q348 484 382.5 463 Q417 442 441 409 Q465 376 477.5 334 Q490 292 490 250 Q490 194 472 146 Q454 98 422 63 Q390 28 345.5 8 Q301 -12 249 -12 Q200 -12 152.5 -3 Q105 6 57 17 Q59 46 61 73.5 Q63 101 63 128 L63 590 Z M143 60 Q171 46 199 35.5 Q227 25 259 25 Q296 25 325 42 Q354 59 373.5 86.5 Q393 114 403 149 Q413 184 413 220 Q413 259 402.5 295.5 Q392 332 371.5 360.5 Q351 389 321.5 406 Q292 423 254 423 Q221 423 195 411 Q169 399 143 382 L143 60 Z " />
<glyph glyph-name="c" unicode="c" horiz-adv-x="460" d="M432 55 Q391 23 350.5 6 Q310 -11 260 -11 Q213 -11 172 9 Q131 29 101 62.5 Q71 96 53.5 141.5 Q36 187 36 238 Q36 276 46.5 312 Q57 348 76 378.5 Q95 409 122.5 432.5 Q150 456 185 469 Q211 479 236 482 Q261 485 287 485 Q322 485 350 478.5 Q378 472 413 458 L417 363 L407 357 Q390 376 374 391.5 Q358 407 341 418.5 Q324 430 303.5 436.5 Q283 443 257 443 Q224 443 198 430.5 Q172 418 154 396 Q136 374 127 344.5 Q118 315 118 282 Q118 238 129.5 195.5 Q141 153 163.5 118.5 Q186 84 220.5 63 Q255 42 300 42 Q337 42 368.5 56 Q400 70 432 87 L432 55 Z " />
<glyph glyph-name="d" unicode="d" horiz-adv-x="557" d="M552 49 Q514 35 479.5 19 Q445 3 409 -16 Q401 4 397 19.5 Q393 35 390 55 Q371 41 354.5 29.5 Q338 18 321 9.5 Q304 1 284.5 -4 Q265 -9 240 -9 Q192 -9 154.5 10 Q117 29 91.5 61.5 Q66 94 52.5 136.5 Q39 179 39 227 Q39 280 56.5 327 Q74 374 105 409 Q136 444 179.5 464.5 Q223 485 274 485 Q305 485 332 477 Q359 469 387 457 L387 584 Q387 591 387 603 Q387 615 386.5 627 Q386 639 385 649.5 Q384 660 381 665 Q372 682 350 682 Q339 682 328 678.5 Q317 675 308 670 L308 705 Q346 721 381.5 735.5 Q417 750 452 769 L469 769 L469 157 Q469 145 470 130 Q471 115 475 102 Q479 89 487 80.5 Q495 72 509 72 Q520 72 529.5 76 Q539 80 552 87 L552 49 Z M390 390 Q358 416 329.5 430.5 Q301 445 261 445 Q225 445 198 429.5 Q171 414 153 388.5 Q135 363 126 330 Q117 297 117 262 Q117 226 127 188 Q137 150 156.5 119.5 Q176 89 205.5 69.5 Q235 50 273 50 Q296 50 317.5 57 Q339 64 359 77 Q367 82 375.5 88.5 Q384 95 390 101 L390 390 Z " />
<glyph glyph-name="e" unicode="e" horiz-adv-x="487" d="M442 45 Q363 -11 266 -11 Q215 -11 172.5 9 Q130 29 100 63 Q70 97 53 143 Q36 189 36 242 Q36 291 52.5 335 Q69 379 98.5 412 Q128 445 169 464.5 Q210 484 259 484 Q288 484 316 475.5 Q344 467 367.5 451.5 Q391 436 409.5 413 Q428 390 438 361 Q445 341 446.5 318 Q448 295 448 272 L119 272 Q119 227 131 185.5 Q143 144 166 111.5 Q189 79 224 59.5 Q259 40 305 40 Q341 40 373.5 52 Q406 64 442 81 L442 45 Z M362 311 Q361 325 359 340.5 Q357 356 352 370 Q338 405 308.5 425 Q279 445 243 445 Q216 445 194.5 434 Q173 423 157.5 404.5 Q142 386 133 361.5 Q124 337 121 311 L362 311 Z " />
<glyph glyph-name="f" unicode="f" horiz-adv-x="345" d="M33 31 Q58 31 73 35 Q88 39 95.5 48.5 Q103 58 105.5 73.5 Q108 89 108 112 L108 423 L16 423 L22 471 L109 471 L109 560 Q109 605 120 640 Q131 675 163 707 Q195 739 235 754 Q275 769 319 769 Q339 769 359.5 766 Q380 763 402 760 L402 634 L374 635 Q372 646 370.5 655.5 Q369 665 365 673 Q354 699 330 713 Q306 727 278 727 Q251 727 233.5 714 Q216 701 206.5 681.5 Q197 662 193 637.5 Q189 613 189 591 L189 471 L338 471 L320 423 L189 423 L189 116 Q189 91 190.5 75 Q192 59 199 49.5 Q206 40 221.5 36.5 Q237 33 264 33 L264 -4 Q233 -2 205 -1 Q177 0 148 0 Q120 0 91.5 -1 Q63 -2 33 -4 L33 31 Z " />
<glyph glyph-name="g" unicode="g" horiz-adv-x="480" d="M469 471 L451 423 L378 423 Q390 401 398.5 378.5 Q407 356 407 330 Q407 294 393.5 264.5 Q380 235 357 213.5 Q334 192 303.5 180 Q273 168 239 168 Q228 168 218.5 169 Q209 170 198 172 Q191 167 182 161 Q173 155 164.5 147.5 Q156 140 150 131.5 Q144 123 144 114 Q144 100 158.5 93.5 Q173 87 183 85 Q216 78 249 77 Q282 76 316 71 Q351 66 384 54 Q417 42 440 9 Q460 -21 460 -61 Q460 -106 441.5 -136.5 Q423 -167 393 -186 Q363 -205 324.5 -213.5 Q286 -222 245 -222 Q213 -222 176 -217.5 Q139 -213 108 -197 Q77 -181 56 -154.5 Q35 -128 35 -90 Q35 -66 42.5 -48.5 Q50 -31 62.5 -18.5 Q75 -6 91.5 3 Q108 12 126 19 Q104 28 85.5 44.5 Q67 61 67 90 Q67 105 75.5 119.5 Q84 134 96.5 146.5 Q109 159 124 169.5 Q139 180 153 188 Q110 211 85.5 244.5 Q61 278 61 333 Q61 374 78 407 Q88 426 105 441 Q122 456 142.5 466 Q163 476 185.5 481 Q208 486 230 486 Q256 486 278.5 482.5 Q301 479 325 471 L469 471 Z M239 205 Q261 205 277.5 214.5 Q294 224 305.5 240 Q317 256 322.5 277 Q328 298 328 320 Q328 343 322 366.5 Q316 390 304 409 Q292 428 273.5 440 Q255 452 230 452 Q207 452 190 443.5 Q173 435 162 420 Q151 405 145.5 385 Q140 365 140 343 Q140 319 146 294.5 Q152 270 164 250 Q176 230 194.5 217.5 Q213 205 239 205 Z M133 -156 Q157 -173 189 -179 Q221 -185 243 -185 Q267 -185 293.5 -180 Q320 -175 342 -163.5 Q364 -152 378 -133.5 Q392 -115 392 -88 Q392 -58 375.5 -40.5 Q359 -23 335 -14 Q311 -5 283.5 -2.5 Q256 0 234 0 Q214 0 190.5 -3 Q167 -6 146 -15 Q125 -24 111 -41.5 Q97 -59 97 -88 Q97 -108 107 -126 Q117 -144 133 -156 Z " />
<glyph glyph-name="h" unicode="h" horiz-adv-x="577" d="M19 28 Q56 30 75 43.5 Q94 57 94 94 L94 611 Q94 622 93.5 634.5 Q93 647 90 658 Q87 669 79.5 676 Q72 683 59 683 Q39 683 16 673 L16 706 Q68 724 116 746 Q128 751 139 757.5 Q150 764 161 769 L176 769 L176 416 Q210 442 251.5 462.5 Q293 483 338 483 Q375 483 405 467 Q435 451 455 420 Q475 388 479.5 353 Q484 318 484 282 L484 107 Q484 83 486 68 Q488 53 495.5 45 Q503 37 517.5 34.5 Q532 32 558 32 L558 -4 Q529 -2 501 -1 Q473 0 446 0 Q417 0 388 -1.5 Q359 -3 328 -5 L329 33 Q353 33 367 36.5 Q381 40 388.5 48.5 Q396 57 398 71.5 Q400 86 400 107 L400 313 Q400 343 391.5 367 Q383 391 357 409 Q334 424 303 424 Q268 424 236 406.5 Q204 389 176 368 L176 103 Q176 64 186 48 Q196 32 234 32 L246 32 L246 -4 Q217 -2 190 -1 Q163 0 136 0 Q107 0 78.5 -1 Q50 -2 19 -4 L19 28 Z " />
<glyph glyph-name="i" unicode="i" horiz-adv-x="282" d="M35 28 Q49 30 67 32 Q85 34 95 46 Q104 57 107 74 Q110 91 110 106 L110 349 Q110 358 109 368.5 Q108 379 105 387.5 Q102 396 95.5 402 Q89 408 78 408 Q68 408 58 405.5 Q48 403 35 399 L35 433 Q73 444 106.5 458 Q140 472 174 489 L188 489 L188 92 Q188 56 200.5 44 Q213 32 246 32 L259 32 L259 -4 Q230 -2 202 -1 Q174 0 147 0 Q93 0 35 -3 L35 28 Z M93 632 Q93 653 108 667.5 Q123 682 144 682 Q165 682 180.5 667.5 Q196 653 196 632 Q196 611 180.5 597 Q165 583 144 583 Q123 583 108 597 Q93 611 93 632 Z " />
<glyph glyph-name="j" unicode="j" horiz-adv-x="237" d="M-46 -137 Q-26 -148 -9.5 -155.5 Q7 -163 27 -163 Q38 -163 45.5 -160.5 Q53 -158 58 -154 Q67 -148 72 -134 Q77 -120 79.5 -103.5 Q82 -87 82.5 -70 Q83 -53 83 -41 L83 342 Q83 353 82 363.5 Q81 374 77.5 382.5 Q74 391 67 396 Q60 401 48 401 Q39 401 29 397.5 Q19 394 7 389 L7 425 Q46 439 79 454 Q112 469 147 489 L165 489 L165 20 Q165 -13 158.5 -47.5 Q152 -82 137 -113 Q122 -144 98 -168.5 Q74 -193 39 -204 Q20 -210 1 -211 Q-18 -212 -37 -212 L-46 -212 L-46 -137 Z M71 632 Q71 653 86 667.5 Q101 682 122 682 Q143 682 158.5 667.5 Q174 653 174 632 Q174 611 158.5 597 Q143 583 122 583 Q101 583 86 597 Q71 611 71 632 Z " />
<glyph glyph-name="k" unicode="k" horiz-adv-x="513" d="M9 32 Q33 33 48 36 Q63 39 71 46 Q79 53 81.5 67 Q84 81 84 105 L84 621 Q84 631 83.5 642 Q83 653 79.5 661 Q76 669 69.5 674.5 Q63 680 51 680 Q39 680 26.5 676.5 Q14 673 3 670 L3 701 Q44 717 80.5 733 Q117 749 154 769 L165 769 L165 270 L287 384 Q294 390 307 403.5 Q320 417 320 427 Q320 435 312 437 Q304 439 295 439 L284 439 L284 473 Q332 471 375 472 Q399 472 424 473 Q449 474 475 474 L475 441 Q449 441 434.5 438.5 Q420 436 409 430 Q395 424 379.5 411 Q364 398 352 388 Q326 368 302 345 Q278 322 254 301 L410 96 Q424 78 435 66.5 Q446 55 457.5 47.5 Q469 40 484 36.5 Q499 33 522 30 L522 -2 Q503 -1 486.5 -0.5 Q470 0 453 0 Q432 0 413 -1 Q394 -2 371 -4 Q363 17 358 28 Q353 39 341 55 L197 249 L165 219 L165 87 Q165 51 183.5 41 Q202 31 237 31 L237 -3 Q211 -3 186 -1.5 Q161 0 136 0 Q105 0 73.5 -1.5 Q42 -3 9 -5 L9 32 Z " />
<glyph glyph-name="l" unicode="l" horiz-adv-x="278" d="M25 29 Q36 30 44.5 31 Q53 32 61 34 Q88 42 94 64 Q100 86 100 110 L100 628 Q100 649 94.5 666.5 Q89 684 66 684 Q55 684 44.5 681 Q34 678 21 673 L21 703 Q60 718 96.5 733.5 Q133 749 168 769 L182 769 L182 110 Q182 86 184.5 70.5 Q187 55 195 46.5 Q203 38 218 34.5 Q233 31 259 30 L259 -2 Q227 -1 193 -0.5 Q159 0 127 0 Q102 0 73.5 -1 Q45 -2 25 -2 L25 29 Z " />
<glyph glyph-name="m" unicode="m" horiz-adv-x="875" d="M34 33 Q53 33 66.5 35 Q80 37 88.5 43 Q97 49 100.5 61 Q104 73 104 93 L104 340 Q104 349 103.5 360.5 Q103 372 99.5 382 Q96 392 89 399 Q82 406 70 406 Q60 406 50 402 Q40 398 28 392 L28 426 L169 489 L184 489 L184 413 Q217 442 255.5 462 Q294 482 340 482 Q390 482 419.5 460.5 Q449 439 475 401 Q495 417 514.5 431.5 Q534 446 554.5 457 Q575 468 598.5 475 Q622 482 649 482 Q678 482 703.5 471.5 Q729 461 749 441 Q769 421 778 391 Q787 361 787 332 L787 96 Q787 67 796 50.5 Q805 34 837 34 Q841 34 845.5 33.5 Q850 33 856 35 L856 -3 Q794 0 739 0 Q692 0 638 -3 L638 35 Q667 35 680 40.5 Q693 46 699 57 Q704 67 705.5 81.5 Q707 96 707 109 L707 310 Q707 363 685 392.5 Q663 422 606 422 Q571 422 543 405 Q515 388 486 365 L486 108 Q486 83 487.5 68.5 Q489 54 496 46.5 Q503 39 517.5 37 Q532 35 558 35 L558 -3 Q496 0 440 0 Q391 0 337 -3 L338 31 Q380 32 393 46 Q406 60 406 99 L406 307 Q406 341 398.5 367 Q391 393 361 410 Q335 425 307 425 Q269 425 242 408.5 Q215 392 186 369 L186 110 Q186 86 187.5 71 Q189 56 196.5 47.5 Q204 39 219 35.5 Q234 32 260 31 L260 -4 Q228 -2 198.5 -1 Q169 0 140 0 Q114 0 88 -1 Q62 -2 34 -4 L34 33 Z " />
<glyph glyph-name="n" unicode="n" horiz-adv-x="574" d="M32 32 Q55 32 73 35.5 Q91 39 97 60 Q99 66 100 75.5 Q101 85 101.5 95.5 Q102 106 102 116 Q102 126 102 132 L102 264 Q102 274 102 293 Q102 312 100 332 Q98 352 94 368.5 Q90 385 83 391 Q75 397 68 397 Q58 397 49 394 Q37 391 28 388 L28 418 Q65 434 96.5 451 Q128 468 160 489 L176 489 L176 404 Q194 420 211.5 434 Q229 448 248.5 459 Q268 470 290 476.5 Q312 483 339 483 Q372 483 401 468 Q430 453 449 427 Q471 397 476.5 364.5 Q482 332 482 297 L482 96 Q482 60 492 46 Q502 32 539 32 L555 32 L555 -5 Q530 -3 505.5 -1.5 Q481 0 447 0 L425 0 Q392 0 373.5 -1 Q355 -2 337 -4 L337 30 Q346 31 356 31.5 Q366 32 375 35 Q382 38 387.5 43.5 Q393 49 396 60 Q398 66 399 80 Q400 94 400.5 110.5 Q401 127 401 142.5 Q401 158 401 165 L401 299 Q401 329 396 355 Q391 381 363 404 Q351 413 334 418.5 Q317 424 302 424 Q287 424 270.5 418.5 Q254 413 237.5 405 Q221 397 205.5 386.5 Q190 376 179 367 L179 92 Q179 73 181 61 Q183 49 189.5 42 Q196 35 209 32.5 Q222 30 243 30 L243 -5 Q210 -3 179 -1.5 Q148 0 117 0 Q96 0 75.5 -1 Q55 -2 32 -4 L32 32 Z " />
<glyph glyph-name="o" unicode="o" horiz-adv-x="538" d="M271 -9 Q221 -9 178 11.5 Q135 32 103.5 67 Q72 102 54.5 148.5 Q37 195 37 246 Q37 297 55 340.5 Q73 384 104.5 416 Q136 448 178 466 Q220 484 268 484 Q317 484 359.5 463.5 Q402 443 433.5 408 Q465 373 483 327.5 Q501 282 501 231 Q501 180 483 136.5 Q465 93 433.5 60.5 Q402 28 360 9.5 Q318 -9 271 -9 Z M290 32 Q322 32 350 52 Q385 76 398 113.5 Q411 151 411 196 Q411 233 402 276.5 Q393 320 374 357 Q355 394 324.5 418.5 Q294 443 252 443 Q219 443 195 428 Q171 413 155.5 388.5 Q140 364 132 333 Q124 302 124 271 Q124 233 134.5 191 Q145 149 166 114 Q187 79 218 55.5 Q249 32 290 32 Z " />
<glyph glyph-name="p" unicode="p" horiz-adv-x="568" d="M21 -180 Q58 -178 77 -167.5 Q96 -157 96 -118 L96 341 Q96 350 95.5 360.5 Q95 371 92 380 Q89 389 83 395 Q77 401 66 401 Q54 401 40.5 397 Q27 393 16 389 L16 426 Q58 439 88.5 453.5 Q119 468 156 491 L177 491 L177 413 Q214 439 253.5 461 Q293 483 342 483 Q385 483 419.5 463 Q454 443 477.5 410.5 Q501 378 513.5 337.5 Q526 297 526 256 Q526 202 509.5 154 Q493 106 462 70 Q431 34 388 12.5 Q345 -9 291 -9 Q262 -9 233.5 -2.5 Q205 4 178 13 L178 -104 Q178 -127 180.5 -141.5 Q183 -156 190.5 -164.5 Q198 -173 212.5 -177 Q227 -181 251 -183 L251 -215 Q214 -211 179.5 -210.5 Q145 -210 110 -210 Q88 -210 66.5 -211.5 Q45 -213 21 -214 L21 -180 Z M177 83 Q206 60 232.5 45.5 Q259 31 297 31 Q337 31 365 46.5 Q393 62 411 88.5 Q429 115 437 149.5 Q445 184 445 223 Q445 257 436 292.5 Q427 328 409 356.5 Q391 385 363.5 403 Q336 421 300 421 Q263 421 234.5 405.5 Q206 390 177 368 L177 83 Z " />
<glyph glyph-name="q" unicode="q" horiz-adv-x="533" d="M313 -179 Q358 -178 372 -162.5 Q386 -147 386 -106 L386 48 Q349 24 312 7.5 Q275 -9 229 -9 Q187 -9 152 10 Q117 29 92 60.5 Q67 92 53 132 Q39 172 39 214 Q39 268 57 317 Q75 366 106.5 402.5 Q138 439 181.5 460.5 Q225 482 277 482 Q309 482 338 473.5 Q367 465 396 455 L455 489 L468 484 L468 -101 Q468 -115 469.5 -129.5 Q471 -144 476 -155 Q481 -165 491.5 -170.5 Q502 -176 524 -176 L539 -176 L538 -213 Q509 -212 481.5 -211 Q454 -210 427 -210 Q399 -210 370.5 -211 Q342 -212 312 -213 L313 -179 Z M387 398 Q360 421 334 432.5 Q308 444 276 444 Q236 444 207 427.5 Q178 411 159 383.5 Q140 356 131 319.5 Q122 283 122 243 Q122 205 132.5 170.5 Q143 136 162.5 109 Q182 82 211 66 Q240 50 278 50 Q305 50 334.5 60 Q364 70 387 90 L387 398 Z " />
<glyph glyph-name="r" unicode="r" horiz-adv-x="382" d="M33 34 Q58 34 71.5 39.5 Q85 45 91 55.5 Q97 66 98 81.5 Q99 97 99 117 L99 345 Q99 364 94.5 380.5 Q90 397 69 397 Q59 397 49 394 Q39 391 26 386 L27 422 Q66 437 97 451.5 Q128 466 160 489 L179 489 L179 390 Q190 407 203 423.5 Q216 440 232 452.5 Q248 465 267 473 Q286 481 309 481 Q324 481 338 478 Q352 475 366 471 L366 374 L344 375 Q333 395 317 403 Q301 411 280 411 Q245 411 218.5 387 Q192 363 185 331 Q183 320 182 306 Q181 292 181 280 L181 91 Q181 71 183 59.5 Q185 48 192 41.5 Q199 35 211.5 33 Q224 31 244 30 L243 -3 Q184 0 131 0 Q107 0 83 -0.5 Q59 -1 33 -2 L33 34 Z " />
<glyph glyph-name="s" unicode="s" horiz-adv-x="397" d="M48 145 L77 145 Q81 130 84 115.5 Q87 101 94 87 Q108 58 136 44 Q164 30 195 30 Q211 30 226.5 35 Q242 40 254 50 Q266 60 273.5 74.5 Q281 89 281 108 Q281 124 274 137 Q267 150 256.5 160.5 Q246 171 233.5 179.5 Q221 188 209 194 Q185 207 158 220 Q131 233 108 250.5 Q85 268 70 292.5 Q55 317 55 352 Q55 387 69 412 Q83 437 105.5 453 Q128 469 156 476.5 Q184 484 212 484 Q244 484 275.5 477.5 Q307 471 338 463 L338 355 L314 355 Q310 369 306 381 Q302 393 296 403 Q282 426 257.5 438 Q233 450 207 450 Q176 450 151.5 431 Q127 412 127 380 Q127 364 133.5 351 Q140 338 150.5 328 Q161 318 173 310 Q185 302 197 296 Q222 284 250 271 Q278 258 301 240 Q324 222 339.5 196.5 Q355 171 355 134 Q355 98 340.5 70.5 Q326 43 302.5 25 Q279 7 249 -2 Q219 -11 189 -11 Q154 -11 118.5 -3.5 Q83 4 48 15 L48 145 Z " />
<glyph glyph-name="t" unicode="t" horiz-adv-x="356" d="M98 423 L0 423 L0 428 Q29 452 50.5 470.5 Q72 489 89.5 508.5 Q107 528 123.5 551.5 Q140 575 161 608 L178 608 L178 471 L338 471 L320 423 L177 423 L177 179 Q177 158 182.5 137.5 Q188 117 199 101 Q210 85 227 75.5 Q244 66 268 66 Q288 66 306.5 73 Q325 80 344 90 L360 67 Q336 50 315.5 32 Q295 14 273 -6 Q249 -5 227 -2.5 Q205 0 185.5 7.5 Q166 15 149 29 Q132 43 119 67 Q105 92 101.5 120 Q98 148 98 176 L98 423 Z " />
<glyph glyph-name="u" unicode="u" horiz-adv-x="572" d="M96 344 Q96 353 95.5 364 Q95 375 92 384 Q89 393 82.5 399.5 Q76 406 64 406 Q53 406 41.5 401.5 Q30 397 16 390 L16 431 Q54 443 87.5 457.5 Q121 472 155 489 L177 489 L177 227 Q177 200 179.5 169 Q182 138 191.5 112 Q201 86 221 69 Q241 52 277 52 Q310 52 341 71 Q372 90 398 108 L398 326 Q398 337 398 346.5 Q398 356 397 367 Q396 386 390.5 396.5 Q385 407 365 407 Q354 407 343.5 403.5 Q333 400 324 395 L324 434 Q360 445 392 458.5 Q424 472 456 489 L478 489 L478 111 Q478 98 481 82 Q484 66 501 66 Q512 66 526 71 Q540 76 551 80 L551 45 Q486 19 424 -15 L414 -11 L402 67 Q385 54 365 40.5 Q345 27 323 15.5 Q301 4 278 -3 Q255 -10 234 -10 Q202 -10 173.5 6.5 Q145 23 127 49 Q104 84 100 120.5 Q96 157 96 196 L96 344 Z " />
<glyph glyph-name="v" unicode="v" horiz-adv-x="502" d="M103 334 Q90 368 84.5 382.5 Q79 397 74 404 Q63 424 49 431.5 Q35 439 12 445 L12 474 Q70 471 124 471 Q145 471 166 471.5 Q187 472 210 473 L210 444 Q204 444 196.5 443 Q189 442 182.5 439.5 Q176 437 171 432 Q166 427 166 418 Q166 405 171 386.5 Q176 368 186 342 L275 107 L356 332 Q364 356 369 376.5 Q374 397 374 410 Q374 431 359 436 Q344 441 324 443 L324 474 Q366 471 402 471 Q425 471 448 472 Q471 473 496 475 L496 441 Q470 438 456.5 432 Q443 426 435 416 Q425 404 416.5 379.5 Q408 355 397 326 L270 -7 L236 -7 L103 334 Z " />
<glyph glyph-name="w" unicode="w" horiz-adv-x="763" d="M110 300 Q103 320 96.5 340 Q90 360 83 377 Q76 394 69 407.5 Q62 421 53 428 Q43 436 31.5 438.5 Q20 441 4 443 L4 474 Q62 471 116 471 Q162 471 215 474 L215 445 Q195 443 179.5 437 Q164 431 164 409 Q164 400 169.5 377 Q175 354 183 332 L258 110 Q291 198 323 292 Q355 386 386 477 L411 477 L547 102 L622 330 Q631 359 633.5 377 Q636 395 636 406 Q636 428 621.5 434 Q607 440 584 441 L584 475 Q610 473 633 472 Q656 471 679 471 Q699 471 719.5 472.5 Q740 474 763 476 L763 442 Q746 440 731.5 437 Q717 434 706 425 Q690 412 680 383 Q670 354 659 322 L545 -8 L509 -8 L380 343 L259 -8 L220 -8 L110 300 Z " />
<glyph glyph-name="x" unicode="x" horiz-adv-x="533" d="M13 31 Q38 32 58 35.5 Q78 39 95 54 Q109 67 122 84.5 Q135 102 147 118 L226 223 L110 384 Q97 402 87 413.5 Q77 425 65.5 431 Q54 437 39.5 439 Q25 441 3 441 L3 474 Q36 473 66.5 472 Q97 471 128 471 Q184 471 246 474 L246 442 L235 442 Q221 442 206 438.5 Q191 435 191 422 Q191 413 194.5 406 Q198 399 203 393 L280 283 L349 381 Q355 390 359.5 399 Q364 408 364 419 Q364 433 350 436.5 Q336 440 324 441 L324 473 Q349 472 372 471.5 Q395 471 418 471 Q441 471 464 471.5 Q487 472 512 473 L512 440 Q490 439 470.5 436.5 Q451 434 432 420 Q415 408 402 390 Q389 372 377 355 L305 253 L418 94 Q424 86 431 76 Q438 66 445 58 Q460 41 473.5 36.5 Q487 32 504 32 L527 32 L527 -4 Q498 -2 471 -1.5 Q444 -1 417 -1 Q388 -1 360.5 -1.5 Q333 -2 302 -4 L302 29 Q313 30 325.5 33 Q338 36 338 48 Q338 55 334 64.5 Q330 74 326 79 L247 193 L184 109 Q181 104 175.5 96.5 Q170 89 165 80 Q160 71 156 62.5 Q152 54 152 49 Q152 38 163.5 33.5 Q175 29 186 29 L193 29 L192 -3 Q166 -2 142 -1 Q118 0 94 0 Q74 0 54.5 -0.5 Q35 -1 13 -2 L13 31 Z " />
<glyph glyph-name="y" unicode="y" horiz-adv-x="502" d="M55 -124 L68 -124 Q80 -132 94 -137.5 Q108 -143 122 -143 Q148 -143 167 -130.5 Q186 -118 200.5 -98 Q215 -78 225 -53.5 Q235 -29 242 -6 L92 362 Q83 383 76.5 397 Q70 411 61.5 419.5 Q53 428 40.5 432 Q28 436 7 439 L7 475 Q34 473 59.5 472 Q85 471 110 471 Q133 471 156.5 472 Q180 473 206 475 L205 438 L197 438 Q180 438 173 435 Q167 433 163.5 428.5 Q160 424 160 415 Q160 398 171 373 L283 99 Q291 122 306 165 Q321 208 335 254 Q342 278 349 302 Q356 326 361.5 346 Q367 366 370 381 Q373 396 373 404 Q373 426 358 432.5 Q343 439 323 441 L323 475 Q347 473 368.5 472 Q390 471 412 471 Q433 471 454.5 472 Q476 473 499 475 L499 442 Q489 440 481 438 Q473 436 465 434 Q449 429 438 416 Q427 404 419.5 383 Q412 362 407 346 Q372 238 337 127.5 Q302 17 258 -84 Q243 -119 221.5 -149 Q200 -179 165 -198 Q149 -206 131 -209 Q113 -212 95 -212 Q85 -212 74.5 -211.5 Q64 -211 55 -210 L55 -124 Z " />
<glyph glyph-name="z" unicode="z" horiz-adv-x="484" d="M272 37 Q307 37 339.5 42 Q372 47 398 74 Q411 88 417 105.5 Q423 123 428 143 L454 143 L447 0 L28 0 Q103 106 177.5 219 Q252 332 328 433 L208 433 Q178 433 156.5 428 Q135 423 120.5 411.5 Q106 400 98 379.5 Q90 359 86 328 L57 328 L61 471 L452 471 L149 37 L272 37 Z " />
<glyph glyph-name="agrave" unicode="&#xe0;" horiz-adv-x="480" d="M311 283 L311 306 Q311 338 304 370 Q297 402 273 422 Q262 431 249 436 Q236 441 219 441 Q206 441 192 437 Q178 433 167 425.5 Q156 418 148.5 406.5 Q141 395 141 381 Q141 370 145 358.5 Q149 347 154 334 L85 303 Q77 317 72.5 331 Q68 345 68 359 Q68 375 74 389 Q85 412 105 427 Q125 442 147 453 Q170 465 194.5 474.5 Q219 484 246 484 Q275 484 304 474 Q333 464 353 441 Q377 414 384.5 377 Q392 340 392 311 L392 126 Q392 117 392.5 106.5 Q393 96 396 87 Q399 78 404.5 72 Q410 66 420 66 Q430 66 440 70 Q450 74 463 80 L463 46 L344 -13 Q330 6 325.5 19 Q321 32 316 52 Q285 26 245 7.5 Q205 -11 165 -11 Q142 -11 121 -1.5 Q100 8 83.5 24.5 Q67 41 57.5 62.5 Q48 84 48 109 Q48 139 60.5 159.5 Q73 180 93 194 Q113 208 137.5 218 Q162 228 186 237 L311 283 Z M312 245 L191 198 Q170 190 149.5 173 Q129 156 129 131 Q129 115 135 99.5 Q141 84 151.5 72 Q162 60 176 52.5 Q190 45 205 45 Q232 45 262 61 Q292 77 312 93 L312 245 Z M220 685 Q230 664 238 650 Q246 636 255 625 Q264 614 276 603 Q288 592 306 577 L306 563 Q292 565 279.5 565.5 Q267 566 256 569 Q228 576 201 592.5 Q174 609 157 632 Q148 643 141 655.5 Q134 668 126 681 L220 685 Z " />
<glyph glyph-name="aacute" unicode="&#xe1;" horiz-adv-x="480" d="M311 283 L311 306 Q311 338 304 370 Q297 402 273 422 Q262 431 249 436 Q236 441 219 441 Q206 441 192 437 Q178 433 167 425.5 Q156 418 148.5 406.5 Q141 395 141 381 Q141 370 145 358.5 Q149 347 154 334 L85 303 Q77 317 72.5 331 Q68 345 68 359 Q68 375 74 389 Q85 412 105 427 Q125 442 147 453 Q170 465 194.5 474.5 Q219 484 246 484 Q275 484 304 474 Q333 464 353 441 Q377 414 384.5 377 Q392 340 392 311 L392 126 Q392 117 392.5 106.5 Q393 96 396 87 Q399 78 404.5 72 Q410 66 420 66 Q430 66 440 70 Q450 74 463 80 L463 46 L344 -13 Q330 6 325.5 19 Q321 32 316 52 Q285 26 245 7.5 Q205 -11 165 -11 Q142 -11 121 -1.5 Q100 8 83.5 24.5 Q67 41 57.5 62.5 Q48 84 48 109 Q48 139 60.5 159.5 Q73 180 93 194 Q113 208 137.5 218 Q162 228 186 237 L311 283 Z M312 245 L191 198 Q170 190 149.5 173 Q129 156 129 131 Q129 115 135 99.5 Q141 84 151.5 72 Q162 60 176 52.5 Q190 45 205 45 Q232 45 262 61 Q292 77 312 93 L312 245 Z M188 581 Q223 599 242 625 Q261 651 279 685 L369 680 Q350 652 332.5 632 Q315 612 295.5 598.5 Q276 585 252 577.5 Q228 570 195 566 L188 581 Z " />
<glyph glyph-name="acircumflex" unicode="&#xe2;" horiz-adv-x="480" d="M311 283 L311 306 Q311 338 304 370 Q297 402 273 422 Q262 431 249 436 Q236 441 219 441 Q206 441 192 437 Q178 433 167 425.5 Q156 418 148.5 406.5 Q141 395 141 381 Q141 370 145 358.5 Q149 347 154 334 L85 303 Q77 317 72.5 331 Q68 345 68 359 Q68 375 74 389 Q85 412 105 427 Q125 442 147 453 Q170 465 194.5 474.5 Q219 484 246 484 Q275 484 304 474 Q333 464 353 441 Q377 414 384.5 377 Q392 340 392 311 L392 126 Q392 117 392.5 106.5 Q393 96 396 87 Q399 78 404.5 72 Q410 66 420 66 Q430 66 440 70 Q450 74 463 80 L463 46 L344 -13 Q330 6 325.5 19 Q321 32 316 52 Q285 26 245 7.5 Q205 -11 165 -11 Q142 -11 121 -1.5 Q100 8 83.5 24.5 Q67 41 57.5 62.5 Q48 84 48 109 Q48 139 60.5 159.5 Q73 180 93 194 Q113 208 137.5 218 Q162 228 186 237 L311 283 Z M312 245 L191 198 Q170 190 149.5 173 Q129 156 129 131 Q129 115 135 99.5 Q141 84 151.5 72 Q162 60 176 52.5 Q190 45 205 45 Q232 45 262 61 Q292 77 312 93 L312 245 Z M119 576 Q138 593 150.5 606 Q163 619 173 632.5 Q183 646 192 661.5 Q201 677 213 699 L270 707 Q283 685 294.5 668 Q306 651 318.5 635.5 Q331 620 345.5 604.5 Q360 589 380 571 L359 557 Q340 564 326 571 Q312 578 299.5 585.5 Q287 593 275 602 Q263 611 248 623 Q231 610 218.5 600.5 Q206 591 193.5 583.5 Q181 576 166.5 569 Q152 562 131 555 L119 576 Z " />
<glyph glyph-name="atilde" unicode="&#xe3;" horiz-adv-x="480" d="M311 283 L311 306 Q311 338 304 370 Q297 402 273 422 Q262 431 249 436 Q236 441 219 441 Q206 441 192 437 Q178 433 167 425.5 Q156 418 148.5 406.5 Q141 395 141 381 Q141 370 145 358.5 Q149 347 154 334 L85 303 Q77 317 72.5 331 Q68 345 68 359 Q68 375 74 389 Q85 412 105 427 Q125 442 147 453 Q170 465 194.5 474.5 Q219 484 246 484 Q275 484 304 474 Q333 464 353 441 Q377 414 384.5 377 Q392 340 392 311 L392 126 Q392 117 392.5 106.5 Q393 96 396 87 Q399 78 404.5 72 Q410 66 420 66 Q430 66 440 70 Q450 74 463 80 L463 46 L344 -13 Q330 6 325.5 19 Q321 32 316 52 Q285 26 245 7.5 Q205 -11 165 -11 Q142 -11 121 -1.5 Q100 8 83.5 24.5 Q67 41 57.5 62.5 Q48 84 48 109 Q48 139 60.5 159.5 Q73 180 93 194 Q113 208 137.5 218 Q162 228 186 237 L311 283 Z M312 245 L191 198 Q170 190 149.5 173 Q129 156 129 131 Q129 115 135 99.5 Q141 84 151.5 72 Q162 60 176 52.5 Q190 45 205 45 Q232 45 262 61 Q292 77 312 93 L312 245 Z M81 591 Q88 606 97 621 Q106 636 117.5 648.5 Q129 661 143.5 668.5 Q158 676 176 676 Q206 676 235.5 662.5 Q265 649 294 640 Q303 637 311 635 Q319 633 327 633 Q348 633 359.5 643.5 Q371 654 383 673 L409 658 Q400 641 391 628 Q378 608 359.5 591.5 Q341 575 314 575 Q282 575 251 588.5 Q220 602 191 612 Q182 615 173.5 617 Q165 619 157 619 Q137 619 126.5 607 Q116 595 106 581 L81 591 Z " />
<glyph glyph-name="adieresis" unicode="&#xe4;" horiz-adv-x="480" d="M311 283 L311 306 Q311 338 304 370 Q297 402 273 422 Q262 431 249 436 Q236 441 219 441 Q206 441 192 437 Q178 433 167 425.5 Q156 418 148.5 406.5 Q141 395 141 381 Q141 370 145 358.5 Q149 347 154 334 L85 303 Q77 317 72.5 331 Q68 345 68 359 Q68 375 74 389 Q85 412 105 427 Q125 442 147 453 Q170 465 194.5 474.5 Q219 484 246 484 Q275 484 304 474 Q333 464 353 441 Q377 414 384.5 377 Q392 340 392 311 L392 126 Q392 117 392.5 106.5 Q393 96 396 87 Q399 78 404.5 72 Q410 66 420 66 Q430 66 440 70 Q450 74 463 80 L463 46 L344 -13 Q330 6 325.5 19 Q321 32 316 52 Q285 26 245 7.5 Q205 -11 165 -11 Q142 -11 121 -1.5 Q100 8 83.5 24.5 Q67 41 57.5 62.5 Q48 84 48 109 Q48 139 60.5 159.5 Q73 180 93 194 Q113 208 137.5 218 Q162 228 186 237 L311 283 Z M312 245 L191 198 Q170 190 149.5 173 Q129 156 129 131 Q129 115 135 99.5 Q141 84 151.5 72 Q162 60 176 52.5 Q190 45 205 45 Q232 45 262 61 Q292 77 312 93 L312 245 Z M329 583 Q307 583 293 598.5 Q279 614 279 635 Q279 656 294.5 669 Q310 682 330 682 Q351 682 365 666 Q379 650 379 630 Q379 609 364 596 Q349 583 329 583 Z M145 583 Q123 583 109 598.5 Q95 614 95 635 Q95 656 110.5 669 Q126 682 146 682 Q167 682 181 666 Q195 650 195 630 Q195 609 180 596 Q165 583 145 583 Z " />
<glyph glyph-name="amacron" unicode="&#x101;" horiz-adv-x="480" d="M311 283 L311 306 Q311 338 304 370 Q297 402 273 422 Q262 431 249 436 Q236 441 219 441 Q206 441 192 437 Q178 433 167 425.5 Q156 418 148.5 406.5 Q141 395 141 381 Q141 370 145 358.5 Q149 347 154 334 L85 303 Q77 317 72.5 331 Q68 345 68 359 Q68 375 74 389 Q85 412 105 427 Q125 442 147 453 Q170 465 194.5 474.5 Q219 484 246 484 Q275 484 304 474 Q333 464 353 441 Q377 414 384.5 377 Q392 340 392 311 L392 126 Q392 117 392.5 106.5 Q393 96 396 87 Q399 78 404.5 72 Q410 66 420 66 Q430 66 440 70 Q450 74 463 80 L463 46 L344 -13 Q330 6 325.5 19 Q321 32 316 52 Q285 26 245 7.5 Q205 -11 165 -11 Q142 -11 121 -1.5 Q100 8 83.5 24.5 Q67 41 57.5 62.5 Q48 84 48 109 Q48 139 60.5 159.5 Q73 180 93 194 Q113 208 137.5 218 Q162 228 186 237 L311 283 Z M312 245 L191 198 Q170 190 149.5 173 Q129 156 129 131 Q129 115 135 99.5 Q141 84 151.5 72 Q162 60 176 52.5 Q190 45 205 45 Q232 45 262 61 Q292 77 312 93 L312 245 Z M101 668 L379 668 L379 602 L101 602 L101 668 Z " />
<glyph glyph-name="abreve" unicode="&#x103;" horiz-adv-x="480" d="M311 283 L311 306 Q311 338 304 370 Q297 402 273 422 Q262 431 249 436 Q236 441 219 441 Q206 441 192 437 Q178 433 167 425.5 Q156 418 148.5 406.5 Q141 395 141 381 Q141 370 145 358.5 Q149 347 154 334 L85 303 Q77 317 72.5 331 Q68 345 68 359 Q68 375 74 389 Q85 412 105 427 Q125 442 147 453 Q170 465 194.5 474.5 Q219 484 246 484 Q275 484 304 474 Q333 464 353 441 Q377 414 384.5 377 Q392 340 392 311 L392 126 Q392 117 392.5 106.5 Q393 96 396 87 Q399 78 404.5 72 Q410 66 420 66 Q430 66 440 70 Q450 74 463 80 L463 46 L344 -13 Q330 6 325.5 19 Q321 32 316 52 Q285 26 245 7.5 Q205 -11 165 -11 Q142 -11 121 -1.5 Q100 8 83.5 24.5 Q67 41 57.5 62.5 Q48 84 48 109 Q48 139 60.5 159.5 Q73 180 93 194 Q113 208 137.5 218 Q162 228 186 237 L311 283 Z M312 245 L191 198 Q170 190 149.5 173 Q129 156 129 131 Q129 115 135 99.5 Q141 84 151.5 72 Q162 60 176 52.5 Q190 45 205 45 Q232 45 262 61 Q292 77 312 93 L312 245 Z M107 695 Q113 687 122.5 677 Q132 667 147 658 Q162 649 184 643 Q206 637 238 637 Q270 637 292 643 Q314 649 329 658 Q344 667 353.5 677 Q363 687 369 695 L399 683 Q394 670 382 651.5 Q370 633 350.5 616 Q331 599 303 587 Q275 575 238 575 Q200 575 172.5 587 Q145 599 125.5 616 Q106 633 94 651.5 Q82 670 77 683 L107 695 Z " />
<glyph glyph-name="aring" unicode="&#xe5;" horiz-adv-x="480" d="M311 283 L311 306 Q311 338 304 370 Q297 402 273 422 Q262 431 249 436 Q236 441 219 441 Q206 441 192 437 Q178 433 167 425.5 Q156 418 148.5 406.5 Q141 395 141 381 Q141 370 145 358.5 Q149 347 154 334 L85 303 Q77 317 72.5 331 Q68 345 68 359 Q68 375 74 389 Q85 412 105 427 Q125 442 147 453 Q170 465 194.5 474.5 Q219 484 246 484 Q275 484 304 474 Q333 464 353 441 Q377 414 384.5 377 Q392 340 392 311 L392 126 Q392 117 392.5 106.5 Q393 96 396 87 Q399 78 404.5 72 Q410 66 420 66 Q430 66 440 70 Q450 74 463 80 L463 46 L344 -13 Q330 6 325.5 19 Q321 32 316 52 Q285 26 245 7.5 Q205 -11 165 -11 Q142 -11 121 -1.5 Q100 8 83.5 24.5 Q67 41 57.5 62.5 Q48 84 48 109 Q48 139 60.5 159.5 Q73 180 93 194 Q113 208 137.5 218 Q162 228 186 237 L311 283 Z M312 245 L191 198 Q170 190 149.5 173 Q129 156 129 131 Q129 115 135 99.5 Q141 84 151.5 72 Q162 60 176 52.5 Q190 45 205 45 Q232 45 262 61 Q292 77 312 93 L312 245 Z M132 642 Q132 663 140 681 Q148 699 162 713 Q176 727 194 735 Q212 743 233 743 Q254 743 272 735 Q290 727 304 713 Q318 699 326 681 Q334 663 334 642 Q334 621 326 603 Q318 585 304 571 Q290 557 272 549 Q254 541 233 541 Q212 541 194 549 Q176 557 162 571 Q148 585 140 603 Q132 621 132 642 Z M233 580 Q259 580 277 598 Q295 616 295 642 Q295 669 277 686.5 Q259 704 233 704 Q207 704 189 686 Q171 668 171 642 Q171 616 189 598 Q207 580 233 580 Z " />
<glyph glyph-name="aogonek" unicode="&#x105;" horiz-adv-x="480" d="M425 -198 Q407 -208 381.5 -214 Q356 -220 325 -220 Q310 -220 292 -215.5 Q274 -211 259 -200 Q244 -189 234 -172 Q224 -155 224 -129 Q224 -94 249.5 -56.5 Q275 -19 331 6 Q325 17 322 27 Q319 37 316 52 Q285 26 245 7.5 Q205 -11 165 -11 Q142 -11 121 -1.5 Q100 8 83.5 24.5 Q67 41 57.5 62.5 Q48 84 48 109 Q48 139 60.5 159.5 Q73 180 93.5 194.5 Q114 209 139 219 Q164 229 188 238 L311 283 L311 306 Q311 338 304 370 Q297 402 273 422 Q262 431 249 436 Q236 441 219 441 Q206 441 192 437 Q178 433 167 425.5 Q156 418 148.5 406.5 Q141 395 141 381 Q141 370 145 358.5 Q149 347 154 334 L85 303 Q77 317 72.5 331 Q68 345 68 359 Q68 375 74 389 Q85 412 105 427 Q125 442 147 453 Q170 465 194.5 474.5 Q219 484 246 484 Q275 484 304 474 Q333 464 353 441 Q377 414 384.5 377 Q392 340 392 311 L392 126 Q392 117 392.5 106.5 Q393 96 396 87 Q399 78 404.5 72 Q410 66 420 66 Q430 66 440 70 Q450 74 463 80 L463 46 L399 14 Q348 -12 323 -45.5 Q298 -79 298 -117 Q298 -147 312.5 -163.5 Q327 -180 352 -180 Q371 -180 383.5 -176 Q396 -172 407 -167 L425 -198 Z M312 245 L191 198 Q170 190 149.5 173 Q129 156 129 131 Q129 115 135 99.5 Q141 84 151.5 72 Q162 60 176 52.5 Q190 45 205 45 Q232 45 262 61 Q292 77 312 93 L312 245 Z " />
<glyph glyph-name="ae" unicode="&#xe6;" horiz-adv-x="765" d="M311 283 L311 306 Q311 338 304 370 Q297 402 273 422 Q262 431 249 436 Q236 441 219 441 Q206 441 192 437 Q178 433 167 425.5 Q156 418 148.5 406.5 Q141 395 141 381 Q141 370 145 358.5 Q149 347 154 334 L85 303 Q77 317 72.5 331 Q68 345 68 359 Q68 375 74 389 Q85 412 105 427 Q125 442 147 453 Q170 465 194.5 474.5 Q219 484 246 484 Q275 484 304 474 Q333 464 353 441 Q366 425 373 409 Q403 444 444.5 464 Q486 484 537 484 Q566 484 594 475.5 Q622 467 645.5 451.5 Q669 436 687.5 413 Q706 390 716 361 Q723 341 724.5 318 Q726 295 726 272 L397 272 Q397 227 409 185.5 Q421 144 444 111.5 Q467 79 502 59.5 Q537 40 583 40 Q619 40 651.5 52 Q684 64 720 81 L720 45 Q641 -11 544 -11 Q483 -11 435.5 16 Q388 43 358 89 Q329 56 303.5 36 Q278 16 256 5.5 Q234 -5 214.5 -8 Q195 -11 178 -11 Q155 -11 132 -1.5 Q109 8 90 24.5 Q71 41 59.5 62.5 Q48 84 48 109 Q48 139 60.5 159 Q73 179 92.5 193.5 Q112 208 135.5 217.5 Q159 227 180 235 L311 283 Z M314 245 L191 198 Q170 190 149.5 173 Q129 156 129 131 Q129 115 134.5 99.5 Q140 84 151 72 Q162 60 178 52.5 Q194 45 214 45 Q241 45 271.5 60.5 Q302 76 340 120 Q314 175 314 242 L314 245 Z M640 311 Q639 325 637 340.5 Q635 356 630 370 Q616 405 586.5 425 Q557 445 521 445 Q494 445 472.5 434 Q451 423 435.5 404.5 Q420 386 411 361.5 Q402 337 399 311 L640 311 Z " />
<glyph glyph-name="cacute" unicode="&#x107;" horiz-adv-x="460" d="M432 55 Q391 23 350.5 6 Q310 -11 260 -11 Q213 -11 172 9 Q131 29 101 62.5 Q71 96 53.5 141.5 Q36 187 36 238 Q36 276 46.5 312 Q57 348 76 378.5 Q95 409 122.5 432.5 Q150 456 185 469 Q211 479 236 482 Q261 485 287 485 Q322 485 350 478.5 Q378 472 413 458 L417 363 L407 357 Q390 376 374 391.5 Q358 407 341 418.5 Q324 430 303.5 436.5 Q283 443 257 443 Q224 443 198 430.5 Q172 418 154 396 Q136 374 127 344.5 Q118 315 118 282 Q118 238 129.5 195.5 Q141 153 163.5 118.5 Q186 84 220.5 63 Q255 42 300 42 Q337 42 368.5 56 Q400 70 432 87 L432 55 Z M192 581 Q227 599 246 625 Q265 651 283 685 L373 680 Q354 652 336.5 632 Q319 612 299.5 598.5 Q280 585 256 577.5 Q232 570 199 566 L192 581 Z " />
<glyph glyph-name="ccaron" unicode="&#x10d;" horiz-adv-x="460" d="M432 55 Q391 23 350.5 6 Q310 -11 260 -11 Q213 -11 172 9 Q131 29 101 62.5 Q71 96 53.5 141.5 Q36 187 36 238 Q36 276 46.5 312 Q57 348 76 378.5 Q95 409 122.5 432.5 Q150 456 185 469 Q211 479 236 482 Q261 485 287 485 Q322 485 350 478.5 Q378 472 413 458 L417 363 L407 357 Q390 376 374 391.5 Q358 407 341 418.5 Q324 430 303.5 436.5 Q283 443 257 443 Q224 443 198 430.5 Q172 418 154 396 Q136 374 127 344.5 Q118 315 118 282 Q118 238 129.5 195.5 Q141 153 163.5 118.5 Q186 84 220.5 63 Q255 42 300 42 Q337 42 368.5 56 Q400 70 432 87 L432 55 Z M140 708 Q159 701 173 694.5 Q187 688 199 680 Q211 672 222.5 662.5 Q234 653 249 641 Q266 654 279 663.5 Q292 673 305 680.5 Q318 688 333.5 694 Q349 700 371 707 L371 689 Q354 672 342 659 Q330 646 320.5 632.5 Q311 619 302.5 603.5 Q294 588 283 567 L227 557 Q215 579 204 596.5 Q193 614 181 630 Q169 646 154.5 661.5 Q140 677 121 695 L140 708 Z " />
<glyph glyph-name="ccedilla" unicode="&#xe7;" horiz-adv-x="460" d="M432 55 Q391 23 350.5 6 Q310 -11 260 -11 Q213 -11 172 9 Q131 29 101 62.5 Q71 96 53.5 141.5 Q36 187 36 238 Q36 276 46.5 312 Q57 348 76 378.5 Q95 409 122.5 432.5 Q150 456 185 469 Q211 479 236 482 Q261 485 287 485 Q322 485 350 478.5 Q378 472 413 458 L417 363 L407 357 Q390 376 374 391.5 Q358 407 341 418.5 Q324 430 303.5 436.5 Q283 443 257 443 Q224 443 198 430.5 Q172 418 154 396 Q136 374 127 344.5 Q118 315 118 282 Q118 238 129.5 195.5 Q141 153 163.5 118.5 Q186 84 220.5 63 Q255 42 300 42 Q337 42 368.5 56 Q400 70 432 87 L432 55 Z M208 -208 Q216 -194 221.5 -180 Q227 -166 227 -152 Q227 -131 216.5 -115.5 Q206 -100 189 -83 L260 -37 Q276 -57 287.5 -77 Q299 -97 299 -123 Q299 -154 278 -180.5 Q257 -207 235 -228 L208 -208 Z " />
<glyph glyph-name="dcaron" unicode="&#x10f;" horiz-adv-x="557" d="M552 49 Q514 35 479.5 19 Q445 3 409 -16 Q401 4 397 19.5 Q393 35 390 55 Q371 41 354.5 29.5 Q338 18 321 9.5 Q304 1 284.5 -4 Q265 -9 240 -9 Q192 -9 154.5 10 Q117 29 91.5 61.5 Q66 94 52.5 136.5 Q39 179 39 227 Q39 280 56.5 327 Q74 374 105 409 Q136 444 179.5 464.5 Q223 485 274 485 Q305 485 332 477 Q359 469 387 457 L387 584 Q387 591 387 603 Q387 615 386.5 627 Q386 639 385 649.5 Q384 660 381 665 Q372 682 350 682 Q339 682 328 678.5 Q317 675 308 670 L308 705 Q346 721 381.5 735.5 Q417 750 452 769 L469 769 L469 157 Q469 145 470 130 Q471 115 475 102 Q479 89 487 80.5 Q495 72 509 72 Q520 72 529.5 76 Q539 80 552 87 L552 49 Z M390 390 Q358 416 329.5 430.5 Q301 445 261 445 Q225 445 198 429.5 Q171 414 153 388.5 Q135 363 126 330 Q117 297 117 262 Q117 226 127 188 Q137 150 156.5 119.5 Q176 89 205.5 69.5 Q235 50 273 50 Q296 50 317.5 57 Q339 64 359 77 Q367 82 375.5 88.5 Q384 95 390 101 L390 390 Z M505 553 Q531 579 547.5 605 Q564 631 564 666 Q564 695 552 712.5 Q540 730 519 753 L600 792 Q614 769 621.5 748.5 Q629 728 629 703 Q629 677 621 655 Q613 633 599.5 613.5 Q586 594 569.5 576 Q553 558 535 540 L505 553 Z " />
<glyph glyph-name="dcroat" unicode="&#x111;" horiz-adv-x="557" d="M256 600 L387 600 Q387 617 386 636.5 Q385 656 381 665 Q372 682 350 682 Q339 682 328 678.5 Q317 675 308 670 L308 705 Q346 721 381.5 735.5 Q417 750 452 769 L469 769 L469 600 L526 600 L526 556 L469 556 L469 157 Q469 145 470 130 Q471 115 475 102 Q479 89 487 80.5 Q495 72 509 72 Q520 72 529.5 76 Q539 80 552 87 L552 49 Q514 35 479.5 19 Q445 3 409 -16 Q401 4 397 19.5 Q393 35 390 55 Q371 41 354.5 29.5 Q338 18 321 9.5 Q304 1 284.5 -4 Q265 -9 240 -9 Q192 -9 154.5 10 Q117 29 91.5 61.5 Q66 94 52.5 136.5 Q39 179 39 227 Q39 280 56.5 327 Q74 374 105 409 Q136 444 179.5 464.5 Q223 485 274 485 Q305 485 332 477 Q359 469 387 457 L387 556 L256 556 L256 600 Z M390 390 Q358 416 329.5 430.5 Q301 445 261 445 Q225 445 198 429.5 Q171 414 153 388.5 Q135 363 126 330 Q117 297 117 262 Q117 226 127 188 Q137 150 156.5 119.5 Q176 89 205.5 69.5 Q235 50 273 50 Q296 50 317.5 57 Q339 64 359 77 Q367 82 375.5 88.5 Q384 95 390 101 L390 390 Z " />
<glyph glyph-name="egrave" unicode="&#xe8;" horiz-adv-x="487" d="M442 45 Q363 -11 266 -11 Q215 -11 172.5 9 Q130 29 100 63 Q70 97 53 143 Q36 189 36 242 Q36 291 52.5 335 Q69 379 98.5 412 Q128 445 169 464.5 Q210 484 259 484 Q288 484 316 475.5 Q344 467 367.5 451.5 Q391 436 409.5 413 Q428 390 438 361 Q445 341 446.5 318 Q448 295 448 272 L119 272 Q119 227 131 185.5 Q143 144 166 111.5 Q189 79 224 59.5 Q259 40 305 40 Q341 40 373.5 52 Q406 64 442 81 L442 45 Z M362 311 Q361 325 359 340.5 Q357 356 352 370 Q338 405 308.5 425 Q279 445 243 445 Q216 445 194.5 434 Q173 423 157.5 404.5 Q142 386 133 361.5 Q124 337 121 311 L362 311 Z M235 685 Q245 664 253 650 Q261 636 270 625 Q279 614 291 603 Q303 592 321 577 L321 563 Q307 565 294.5 565.5 Q282 566 271 569 Q243 576 216 592.5 Q189 609 172 632 Q163 643 156 655.5 Q149 668 141 681 L235 685 Z " />
<glyph glyph-name="eacute" unicode="&#xe9;" horiz-adv-x="487" d="M442 45 Q363 -11 266 -11 Q215 -11 172.5 9 Q130 29 100 63 Q70 97 53 143 Q36 189 36 242 Q36 291 52.5 335 Q69 379 98.5 412 Q128 445 169 464.5 Q210 484 259 484 Q288 484 316 475.5 Q344 467 367.5 451.5 Q391 436 409.5 413 Q428 390 438 361 Q445 341 446.5 318 Q448 295 448 272 L119 272 Q119 227 131 185.5 Q143 144 166 111.5 Q189 79 224 59.5 Q259 40 305 40 Q341 40 373.5 52 Q406 64 442 81 L442 45 Z M362 311 Q361 325 359 340.5 Q357 356 352 370 Q338 405 308.5 425 Q279 445 243 445 Q216 445 194.5 434 Q173 423 157.5 404.5 Q142 386 133 361.5 Q124 337 121 311 L362 311 Z M198 581 Q233 599 252 625 Q271 651 289 685 L379 680 Q360 652 342.5 632 Q325 612 305.5 598.5 Q286 585 262 577.5 Q238 570 205 566 L198 581 Z " />
<glyph glyph-name="ecircumflex" unicode="&#xea;" horiz-adv-x="487" d="M442 45 Q363 -11 266 -11 Q215 -11 172.5 9 Q130 29 100 63 Q70 97 53 143 Q36 189 36 242 Q36 291 52.5 335 Q69 379 98.5 412 Q128 445 169 464.5 Q210 484 259 484 Q288 484 316 475.5 Q344 467 367.5 451.5 Q391 436 409.5 413 Q428 390 438 361 Q445 341 446.5 318 Q448 295 448 272 L119 272 Q119 227 131 185.5 Q143 144 166 111.5 Q189 79 224 59.5 Q259 40 305 40 Q341 40 373.5 52 Q406 64 442 81 L442 45 Z M362 311 Q361 325 359 340.5 Q357 356 352 370 Q338 405 308.5 425 Q279 445 243 445 Q216 445 194.5 434 Q173 423 157.5 404.5 Q142 386 133 361.5 Q124 337 121 311 L362 311 Z M131 576 Q150 593 162.5 606 Q175 619 185 632.5 Q195 646 204 661.5 Q213 677 225 699 L282 707 Q295 685 306.5 668 Q318 651 330.5 635.5 Q343 620 357.5 604.5 Q372 589 392 571 L371 557 Q352 564 338 571 Q324 578 311.5 585.5 Q299 593 287 602 Q275 611 260 623 Q243 610 230.5 600.5 Q218 591 205.5 583.5 Q193 576 178.5 569 Q164 562 143 555 L131 576 Z " />
<glyph glyph-name="ecaron" unicode="&#x11b;" horiz-adv-x="487" d="M442 45 Q363 -11 266 -11 Q215 -11 172.5 9 Q130 29 100 63 Q70 97 53 143 Q36 189 36 242 Q36 291 52.5 335 Q69 379 98.5 412 Q128 445 169 464.5 Q210 484 259 484 Q288 484 316 475.5 Q344 467 367.5 451.5 Q391 436 409.5 413 Q428 390 438 361 Q445 341 446.5 318 Q448 295 448 272 L119 272 Q119 227 131 185.5 Q143 144 166 111.5 Q189 79 224 59.5 Q259 40 305 40 Q341 40 373.5 52 Q406 64 442 81 L442 45 Z M362 311 Q361 325 359 340.5 Q357 356 352 370 Q338 405 308.5 425 Q279 445 243 445 Q216 445 194.5 434 Q173 423 157.5 404.5 Q142 386 133 361.5 Q124 337 121 311 L362 311 Z M136 708 Q155 701 169 694.5 Q183 688 195 680 Q207 672 218.5 662.5 Q230 653 245 641 Q262 654 275 663.5 Q288 673 301 680.5 Q314 688 329.5 694 Q345 700 367 707 L367 689 Q350 672 338 659 Q326 646 316.5 632.5 Q307 619 298.5 603.5 Q290 588 279 567 L223 557 Q211 579 200 596.5 Q189 614 177 630 Q165 646 150.5 661.5 Q136 677 117 695 L136 708 Z " />
<glyph glyph-name="edieresis" unicode="&#xeb;" horiz-adv-x="487" d="M442 45 Q363 -11 266 -11 Q215 -11 172.5 9 Q130 29 100 63 Q70 97 53 143 Q36 189 36 242 Q36 291 52.5 335 Q69 379 98.5 412 Q128 445 169 464.5 Q210 484 259 484 Q288 484 316 475.5 Q344 467 367.5 451.5 Q391 436 409.5 413 Q428 390 438 361 Q445 341 446.5 318 Q448 295 448 272 L119 272 Q119 227 131 185.5 Q143 144 166 111.5 Q189 79 224 59.5 Q259 40 305 40 Q341 40 373.5 52 Q406 64 442 81 L442 45 Z M362 311 Q361 325 359 340.5 Q357 356 352 370 Q338 405 308.5 425 Q279 445 243 445 Q216 445 194.5 434 Q173 423 157.5 404.5 Q142 386 133 361.5 Q124 337 121 311 L362 311 Z M350 583 Q328 583 314 598.5 Q300 614 300 635 Q300 656 315.5 669 Q331 682 351 682 Q372 682 386 666 Q400 650 400 630 Q400 609 385 596 Q370 583 350 583 Z M166 583 Q144 583 130 598.5 Q116 614 116 635 Q116 656 131.5 669 Q147 682 167 682 Q188 682 202 666 Q216 650 216 630 Q216 609 201 596 Q186 583 166 583 Z " />
<glyph glyph-name="emacron" unicode="&#x113;" horiz-adv-x="487" d="M442 45 Q363 -11 266 -11 Q215 -11 172.5 9 Q130 29 100 63 Q70 97 53 143 Q36 189 36 242 Q36 291 52.5 335 Q69 379 98.5 412 Q128 445 169 464.5 Q210 484 259 484 Q288 484 316 475.5 Q344 467 367.5 451.5 Q391 436 409.5 413 Q428 390 438 361 Q445 341 446.5 318 Q448 295 448 272 L119 272 Q119 227 131 185.5 Q143 144 166 111.5 Q189 79 224 59.5 Q259 40 305 40 Q341 40 373.5 52 Q406 64 442 81 L442 45 Z M362 311 Q361 325 359 340.5 Q357 356 352 370 Q338 405 308.5 425 Q279 445 243 445 Q216 445 194.5 434 Q173 423 157.5 404.5 Q142 386 133 361.5 Q124 337 121 311 L362 311 Z M115 668 L393 668 L393 602 L115 602 L115 668 Z " />
<glyph glyph-name="edotaccent" unicode="&#x117;" horiz-adv-x="487" d="M442 45 Q363 -11 266 -11 Q215 -11 172.5 9 Q130 29 100 63 Q70 97 53 143 Q36 189 36 242 Q36 291 52.5 335 Q69 379 98.5 412 Q128 445 169 464.5 Q210 484 259 484 Q288 484 316 475.5 Q344 467 367.5 451.5 Q391 436 409.5 413 Q428 390 438 361 Q445 341 446.5 318 Q448 295 448 272 L119 272 Q119 227 131 185.5 Q143 144 166 111.5 Q189 79 224 59.5 Q259 40 305 40 Q341 40 373.5 52 Q406 64 442 81 L442 45 Z M362 311 Q361 325 359 340.5 Q357 356 352 370 Q338 405 308.5 425 Q279 445 243 445 Q216 445 194.5 434 Q173 423 157.5 404.5 Q142 386 133 361.5 Q124 337 121 311 L362 311 Z M200 632 Q200 653 215 667.5 Q230 682 251 682 Q272 682 287.5 667.5 Q303 653 303 632 Q303 611 287.5 597 Q272 583 251 583 Q230 583 215 597 Q200 611 200 632 Z " />
<glyph glyph-name="eogonek" unicode="&#x119;" horiz-adv-x="487" d="M409 -198 Q391 -208 365.5 -214 Q340 -220 309 -220 Q294 -220 276 -215.5 Q258 -211 243 -200 Q228 -189 218 -172 Q208 -155 208 -129 Q208 -99 226 -67 Q244 -35 283 -10 Q278 -11 274.5 -11 Q271 -11 266 -11 Q215 -11 172.5 9 Q130 29 100 63 Q70 97 53 143 Q36 189 36 242 Q36 291 52.5 335 Q69 379 98.5 412 Q128 445 169 464.5 Q210 484 259 484 Q288 484 316 475.5 Q344 467 367.5 451.5 Q391 436 409.5 413 Q428 390 438 361 Q445 341 446.5 318 Q448 295 448 272 L119 272 Q119 227 131 185.5 Q143 144 166 111.5 Q189 79 224 59.5 Q259 40 305 40 Q341 40 373.5 52 Q406 64 442 81 L442 45 Q423 31 403 21.5 Q383 12 362 4 Q326 -21 304 -50 Q282 -79 282 -117 Q282 -147 296.5 -163.5 Q311 -180 336 -180 Q355 -180 367.5 -176 Q380 -172 391 -167 L409 -198 Z M362 311 Q361 325 359 340.5 Q357 356 352 370 Q338 405 308.5 425 Q279 445 243 445 Q216 445 194.5 434 Q173 423 157.5 404.5 Q142 386 133 361.5 Q124 337 121 311 L362 311 Z " />
<glyph glyph-name="gbreve" unicode="&#x11f;" horiz-adv-x="480" d="M469 471 L451 423 L378 423 Q390 401 398.5 378.5 Q407 356 407 330 Q407 294 393.5 264.5 Q380 235 357 213.5 Q334 192 303.5 180 Q273 168 239 168 Q228 168 218.5 169 Q209 170 198 172 Q191 167 182 161 Q173 155 164.5 147.5 Q156 140 150 131.5 Q144 123 144 114 Q144 100 158.5 93.5 Q173 87 183 85 Q216 78 249 77 Q282 76 316 71 Q351 66 384 54 Q417 42 440 9 Q460 -21 460 -61 Q460 -106 441.5 -136.5 Q423 -167 393 -186 Q363 -205 324.5 -213.5 Q286 -222 245 -222 Q213 -222 176 -217.5 Q139 -213 108 -197 Q77 -181 56 -154.5 Q35 -128 35 -90 Q35 -66 42.5 -48.5 Q50 -31 62.5 -18.5 Q75 -6 91.5 3 Q108 12 126 19 Q104 28 85.5 44.5 Q67 61 67 90 Q67 105 75.5 119.5 Q84 134 96.5 146.5 Q109 159 124 169.5 Q139 180 153 188 Q110 211 85.5 244.5 Q61 278 61 333 Q61 374 78 407 Q88 426 105 441 Q122 456 142.5 466 Q163 476 185.5 481 Q208 486 230 486 Q256 486 278.5 482.5 Q301 479 325 471 L469 471 Z M239 205 Q261 205 277.5 214.5 Q294 224 305.5 240 Q317 256 322.5 277 Q328 298 328 320 Q328 343 322 366.5 Q316 390 304 409 Q292 428 273.5 440 Q255 452 230 452 Q207 452 190 443.5 Q173 435 162 420 Q151 405 145.5 385 Q140 365 140 343 Q140 319 146 294.5 Q152 270 164 250 Q176 230 194.5 217.5 Q213 205 239 205 Z M133 -156 Q157 -173 189 -179 Q221 -185 243 -185 Q267 -185 293.5 -180 Q320 -175 342 -163.5 Q364 -152 378 -133.5 Q392 -115 392 -88 Q392 -58 375.5 -40.5 Q359 -23 335 -14 Q311 -5 283.5 -2.5 Q256 0 234 0 Q214 0 190.5 -3 Q167 -6 146 -15 Q125 -24 111 -41.5 Q97 -59 97 -88 Q97 -108 107 -126 Q117 -144 133 -156 Z M113 695 Q119 687 128.5 677 Q138 667 153 658 Q168 649 190 643 Q212 637 244 637 Q276 637 298 643 Q320 649 335 658 Q350 667 359.5 677 Q369 687 375 695 L405 683 Q400 670 388 651.5 Q376 633 356.5 616 Q337 599 309 587 Q281 575 244 575 Q206 575 178.5 587 Q151 599 131.5 616 Q112 633 100 651.5 Q88 670 83 683 L113 695 Z " />
<glyph glyph-name="gcommaaccent" unicode="&#x123;" horiz-adv-x="480" d="M469 471 L451 423 L378 423 Q390 401 398.5 378.5 Q407 356 407 330 Q407 294 393.5 264.5 Q380 235 357 213.5 Q334 192 303.5 180 Q273 168 239 168 Q228 168 218.5 169 Q209 170 198 172 Q191 167 182 161 Q173 155 164.5 147.5 Q156 140 150 131.5 Q144 123 144 114 Q144 100 158.5 93.5 Q173 87 183 85 Q216 78 249 77 Q282 76 316 71 Q351 66 384 54 Q417 42 440 9 Q460 -21 460 -61 Q460 -106 441.5 -136.5 Q423 -167 393 -186 Q363 -205 324.5 -213.5 Q286 -222 245 -222 Q213 -222 176 -217.5 Q139 -213 108 -197 Q77 -181 56 -154.5 Q35 -128 35 -90 Q35 -66 42.5 -48.5 Q50 -31 62.5 -18.5 Q75 -6 91.5 3 Q108 12 126 19 Q104 28 85.5 44.5 Q67 61 67 90 Q67 105 75.5 119.5 Q84 134 96.5 146.5 Q109 159 124 169.5 Q139 180 153 188 Q110 211 85.5 244.5 Q61 278 61 333 Q61 374 78 407 Q88 426 105 441 Q122 456 142.5 466 Q163 476 185.5 481 Q208 486 230 486 Q256 486 278.5 482.5 Q301 479 325 471 L469 471 Z M239 205 Q261 205 277.5 214.5 Q294 224 305.5 240 Q317 256 322.5 277 Q328 298 328 320 Q328 343 322 366.5 Q316 390 304 409 Q292 428 273.5 440 Q255 452 230 452 Q207 452 190 443.5 Q173 435 162 420 Q151 405 145.5 385 Q140 365 140 343 Q140 319 146 294.5 Q152 270 164 250 Q176 230 194.5 217.5 Q213 205 239 205 Z M133 -156 Q157 -173 189 -179 Q221 -185 243 -185 Q267 -185 293.5 -180 Q320 -175 342 -163.5 Q364 -152 378 -133.5 Q392 -115 392 -88 Q392 -58 375.5 -40.5 Q359 -23 335 -14 Q311 -5 283.5 -2.5 Q256 0 234 0 Q214 0 190.5 -3 Q167 -6 146 -15 Q125 -24 111 -41.5 Q97 -59 97 -88 Q97 -108 107 -126 Q117 -144 133 -156 Z M223 532 Q207 552 195.5 572 Q184 592 184 618 Q184 649 205 675.5 Q226 702 248 723 L275 703 Q267 689 261.5 675 Q256 661 256 647 Q256 626 266.5 610.5 Q277 595 294 578 L223 532 Z " />
<glyph glyph-name="igrave" unicode="&#xec;" horiz-adv-x="282" d="M35 28 Q49 30 67 32 Q85 34 95 46 Q104 57 107 74 Q110 91 110 106 L110 349 Q110 358 109 368.5 Q108 379 105 387.5 Q102 396 95.5 402 Q89 408 78 408 Q68 408 58 405.5 Q48 403 35 399 L35 433 Q73 444 106.5 458 Q140 472 174 489 L188 489 L188 92 Q188 56 200.5 44 Q213 32 246 32 L259 32 L259 -4 Q230 -2 202 -1 Q174 0 147 0 Q93 0 35 -3 L35 28 Z M116 685 Q126 664 134 650 Q142 636 151 625 Q160 614 172 603 Q184 592 202 577 L202 563 Q188 565 175.5 565.5 Q163 566 152 569 Q124 576 97 592.5 Q70 609 53 632 Q44 643 37 655.5 Q30 668 22 681 L116 685 Z " />
<glyph glyph-name="iacute" unicode="&#xed;" horiz-adv-x="282" d="M35 28 Q49 30 67 32 Q85 34 95 46 Q104 57 107 74 Q110 91 110 106 L110 349 Q110 358 109 368.5 Q108 379 105 387.5 Q102 396 95.5 402 Q89 408 78 408 Q68 408 58 405.5 Q48 403 35 399 L35 433 Q73 444 106.5 458 Q140 472 174 489 L188 489 L188 92 Q188 56 200.5 44 Q213 32 246 32 L259 32 L259 -4 Q230 -2 202 -1 Q174 0 147 0 Q93 0 35 -3 L35 28 Z M55 581 Q90 599 109 625 Q128 651 146 685 L236 680 Q217 652 199.5 632 Q182 612 162.5 598.5 Q143 585 119 577.5 Q95 570 62 566 L55 581 Z " />
<glyph glyph-name="icircumflex" unicode="&#xee;" horiz-adv-x="282" d="M35 28 Q49 30 67 32 Q85 34 95 46 Q104 57 107 74 Q110 91 110 106 L110 349 Q110 358 109 368.5 Q108 379 105 387.5 Q102 396 95.5 402 Q89 408 78 408 Q68 408 58 405.5 Q48 403 35 399 L35 433 Q73 444 106.5 458 Q140 472 174 489 L188 489 L188 92 Q188 56 200.5 44 Q213 32 246 32 L259 32 L259 -4 Q230 -2 202 -1 Q174 0 147 0 Q93 0 35 -3 L35 28 Z M10 576 Q29 593 41.5 606 Q54 619 64 632.5 Q74 646 83 661.5 Q92 677 104 699 L161 707 Q174 685 185.5 668 Q197 651 209.5 635.5 Q222 620 236.5 604.5 Q251 589 271 571 L250 557 Q231 564 217 571 Q203 578 190.5 585.5 Q178 593 166 602 Q154 611 139 623 Q122 610 109.5 600.5 Q97 591 84.5 583.5 Q72 576 57.5 569 Q43 562 22 555 L10 576 Z " />
<glyph glyph-name="idieresis" unicode="&#xef;" horiz-adv-x="282" d="M35 28 Q49 30 67 32 Q85 34 95 46 Q104 57 107 74 Q110 91 110 106 L110 349 Q110 358 109 368.5 Q108 379 105 387.5 Q102 396 95.5 402 Q89 408 78 408 Q68 408 58 405.5 Q48 403 35 399 L35 433 Q73 444 106.5 458 Q140 472 174 489 L188 489 L188 92 Q188 56 200.5 44 Q213 32 246 32 L259 32 L259 -4 Q230 -2 202 -1 Q174 0 147 0 Q93 0 35 -3 L35 28 Z M228 583 Q206 583 192 598.5 Q178 614 178 635 Q178 656 193.5 669 Q209 682 229 682 Q250 682 264 666 Q278 650 278 630 Q278 609 263 596 Q248 583 228 583 Z M44 583 Q22 583 8 598.5 Q-6 614 -6 635 Q-6 656 9.5 669 Q25 682 45 682 Q66 682 80 666 Q94 650 94 630 Q94 609 79 596 Q64 583 44 583 Z " />
<glyph glyph-name="imacron" unicode="&#x12b;" horiz-adv-x="282" d="M35 28 Q49 30 67 32 Q85 34 95 46 Q104 57 107 74 Q110 91 110 106 L110 349 Q110 358 109 368.5 Q108 379 105 387.5 Q102 396 95.5 402 Q89 408 78 408 Q68 408 58 405.5 Q48 403 35 399 L35 433 Q73 444 106.5 458 Q140 472 174 489 L188 489 L188 92 Q188 56 200.5 44 Q213 32 246 32 L259 32 L259 -4 Q230 -2 202 -1 Q174 0 147 0 Q93 0 35 -3 L35 28 Z M-8 668 L270 668 L270 602 L-8 602 L-8 668 Z " />
<glyph glyph-name="iogonek" unicode="&#x12f;" horiz-adv-x="282" d="M243 -198 Q225 -208 199.5 -214 Q174 -220 143 -220 Q128 -220 110 -215.5 Q92 -211 77 -200 Q62 -189 52 -172 Q42 -155 42 -129 Q42 -96 64.5 -60.5 Q87 -25 136 0 Q87 0 35 -3 L35 28 Q49 30 67 32 Q85 34 95 46 Q104 57 107 74 Q110 91 110 106 L110 349 Q110 358 109 368.5 Q108 379 105 387.5 Q102 396 95.5 402 Q89 408 78 408 Q68 408 58 405.5 Q48 403 35 399 L35 433 Q73 444 106.5 458 Q140 472 174 489 L188 489 L188 92 Q188 56 200.5 44 Q213 32 246 32 L259 32 L259 -4 L189 0 Q156 -25 136 -53 Q116 -81 116 -117 Q116 -147 130.5 -163.5 Q145 -180 170 -180 Q189 -180 201.5 -176 Q214 -172 225 -167 L243 -198 Z M93 632 Q93 653 108 667.5 Q123 682 144 682 Q165 682 180.5 667.5 Q196 653 196 632 Q196 611 180.5 597 Q165 583 144 583 Q123 583 108 597 Q93 611 93 632 Z " />
<glyph glyph-name="dotlessi" unicode="&#x131;" horiz-adv-x="282" d="M35 28 Q49 30 67 32 Q85 34 95 46 Q104 57 107 74 Q110 91 110 106 L110 349 Q110 358 109 368.5 Q108 379 105 387.5 Q102 396 95.5 402 Q89 408 78 408 Q68 408 58 405.5 Q48 403 35 399 L35 433 Q73 444 106.5 458 Q140 472 174 489 L188 489 L188 92 Q188 56 200.5 44 Q213 32 246 32 L259 32 L259 -4 Q230 -2 202 -1 Q174 0 147 0 Q93 0 35 -3 L35 28 Z " />
<glyph glyph-name="kcommaaccent" unicode="&#x137;" horiz-adv-x="513" d="M9 32 Q33 33 48 36 Q63 39 71 46 Q79 53 81.5 67 Q84 81 84 105 L84 621 Q84 631 83.5 642 Q83 653 79.5 661 Q76 669 69.5 674.5 Q63 680 51 680 Q39 680 26.5 676.5 Q14 673 3 670 L3 701 Q44 717 80.5 733 Q117 749 154 769 L165 769 L165 270 L287 384 Q294 390 307 403.5 Q320 417 320 427 Q320 435 312 437 Q304 439 295 439 L284 439 L284 473 Q332 471 375 472 Q399 472 424 473 Q449 474 475 474 L475 441 Q449 441 434.5 438.5 Q420 436 409 430 Q395 424 379.5 411 Q364 398 352 388 Q326 368 302 345 Q278 322 254 301 L410 96 Q424 78 435 66.5 Q446 55 457.5 47.5 Q469 40 484 36.5 Q499 33 522 30 L522 -2 Q503 -1 486.5 -0.5 Q470 0 453 0 Q432 0 413 -1 Q394 -2 371 -4 Q363 17 358 28 Q353 39 341 55 L197 249 L165 219 L165 87 Q165 51 183.5 41 Q202 31 237 31 L237 -3 Q211 -3 186 -1.5 Q161 0 136 0 Q105 0 73.5 -1.5 Q42 -3 9 -5 L9 32 Z M249 -208 Q257 -194 262.5 -180 Q268 -166 268 -152 Q268 -131 257.5 -115.5 Q247 -100 230 -83 L301 -37 Q317 -57 328.5 -77 Q340 -97 340 -123 Q340 -154 319 -180.5 Q298 -207 276 -228 L249 -208 Z " />
<glyph glyph-name="lacute" unicode="&#x13a;" horiz-adv-x="278" d="M25 29 Q36 30 44.5 31 Q53 32 61 34 Q88 42 94 64 Q100 86 100 110 L100 628 Q100 649 94.5 666.5 Q89 684 66 684 Q55 684 44.5 681 Q34 678 21 673 L21 703 Q60 718 96.5 733.5 Q133 749 168 769 L182 769 L182 110 Q182 86 184.5 70.5 Q187 55 195 46.5 Q203 38 218 34.5 Q233 31 259 30 L259 -2 Q227 -1 193 -0.5 Q159 0 127 0 Q102 0 73.5 -1 Q45 -2 25 -2 L25 29 Z M67 845 Q102 863 121 889 Q140 915 158 948 L248 943 Q229 915 211.5 895 Q194 875 174.5 861.5 Q155 848 131 840.5 Q107 833 74 829 L67 845 Z " />
<glyph glyph-name="lcaron" unicode="&#x13e;" horiz-adv-x="278" d="M25 29 Q36 30 44.5 31 Q53 32 61 34 Q88 42 94 64 Q100 86 100 110 L100 628 Q100 649 94.5 666.5 Q89 684 66 684 Q55 684 44.5 681 Q34 678 21 673 L21 703 Q60 718 96.5 733.5 Q133 749 168 769 L182 769 L182 110 Q182 86 184.5 70.5 Q187 55 195 46.5 Q203 38 218 34.5 Q233 31 259 30 L259 -2 Q227 -1 193 -0.5 Q159 0 127 0 Q102 0 73.5 -1 Q45 -2 25 -2 L25 29 Z M223 553 Q249 579 265.5 605 Q282 631 282 666 Q282 695 270 712.5 Q258 730 237 753 L318 792 Q332 769 339.5 748.5 Q347 728 347 703 Q347 677 339 655 Q331 633 317.5 613.5 Q304 594 287.5 576 Q271 558 253 540 L223 553 Z " />
<glyph glyph-name="lcommaaccent" unicode="&#x13c;" horiz-adv-x="278" d="M25 29 Q36 30 44.5 31 Q53 32 61 34 Q88 42 94 64 Q100 86 100 110 L100 628 Q100 649 94.5 666.5 Q89 684 66 684 Q55 684 44.5 681 Q34 678 21 673 L21 703 Q60 718 96.5 733.5 Q133 749 168 769 L182 769 L182 110 Q182 86 184.5 70.5 Q187 55 195 46.5 Q203 38 218 34.5 Q233 31 259 30 L259 -2 Q227 -1 193 -0.5 Q159 0 127 0 Q102 0 73.5 -1 Q45 -2 25 -2 L25 29 Z M111 -208 Q119 -194 124.5 -180 Q130 -166 130 -152 Q130 -131 119.5 -115.5 Q109 -100 92 -83 L163 -37 Q179 -57 190.5 -77 Q202 -97 202 -123 Q202 -154 181 -180.5 Q160 -207 138 -228 L111 -208 Z " />
<glyph glyph-name="lslash" unicode="&#x142;" horiz-adv-x="278" d="M24 369 L100 426 L100 628 Q100 649 94.5 666.5 Q89 684 66 684 Q55 684 44.5 681 Q34 678 21 673 L21 703 Q60 718 96.5 733.5 Q133 749 168 769 L182 769 L182 487 L250 538 L250 492 L182 441 L182 110 Q182 86 184.5 70.5 Q187 55 195 46.5 Q203 38 218 34.5 Q233 31 259 30 L259 -2 Q227 -1 193 -0.5 Q159 0 127 0 Q102 0 73.5 -1 Q45 -2 25 -2 L25 29 Q36 30 44.5 31 Q53 32 61 34 Q88 42 94 64 Q100 86 100 110 L100 380 L24 323 L24 369 Z " />
<glyph glyph-name="nacute" unicode="&#x144;" horiz-adv-x="574" d="M32 32 Q55 32 73 35.5 Q91 39 97 60 Q99 66 100 75.5 Q101 85 101.5 95.5 Q102 106 102 116 Q102 126 102 132 L102 264 Q102 274 102 293 Q102 312 100 332 Q98 352 94 368.5 Q90 385 83 391 Q75 397 68 397 Q58 397 49 394 Q37 391 28 388 L28 418 Q65 434 96.5 451 Q128 468 160 489 L176 489 L176 404 Q194 420 211.5 434 Q229 448 248.5 459 Q268 470 290 476.5 Q312 483 339 483 Q372 483 401 468 Q430 453 449 427 Q471 397 476.5 364.5 Q482 332 482 297 L482 96 Q482 60 492 46 Q502 32 539 32 L555 32 L555 -5 Q530 -3 505.5 -1.5 Q481 0 447 0 L425 0 Q392 0 373.5 -1 Q355 -2 337 -4 L337 30 Q346 31 356 31.5 Q366 32 375 35 Q382 38 387.5 43.5 Q393 49 396 60 Q398 66 399 80 Q400 94 400.5 110.5 Q401 127 401 142.5 Q401 158 401 165 L401 299 Q401 329 396 355 Q391 381 363 404 Q351 413 334 418.5 Q317 424 302 424 Q287 424 270.5 418.5 Q254 413 237.5 405 Q221 397 205.5 386.5 Q190 376 179 367 L179 92 Q179 73 181 61 Q183 49 189.5 42 Q196 35 209 32.5 Q222 30 243 30 L243 -5 Q210 -3 179 -1.5 Q148 0 117 0 Q96 0 75.5 -1 Q55 -2 32 -4 L32 32 Z M238 581 Q273 599 292 625 Q311 651 329 685 L419 680 Q400 652 382.5 632 Q365 612 345.5 598.5 Q326 585 302 577.5 Q278 570 245 566 L238 581 Z " />
<glyph glyph-name="ncaron" unicode="&#x148;" horiz-adv-x="574" d="M32 32 Q55 32 73 35.5 Q91 39 97 60 Q99 66 100 75.5 Q101 85 101.5 95.5 Q102 106 102 116 Q102 126 102 132 L102 264 Q102 274 102 293 Q102 312 100 332 Q98 352 94 368.5 Q90 385 83 391 Q75 397 68 397 Q58 397 49 394 Q37 391 28 388 L28 418 Q65 434 96.5 451 Q128 468 160 489 L176 489 L176 404 Q194 420 211.5 434 Q229 448 248.5 459 Q268 470 290 476.5 Q312 483 339 483 Q372 483 401 468 Q430 453 449 427 Q471 397 476.5 364.5 Q482 332 482 297 L482 96 Q482 60 492 46 Q502 32 539 32 L555 32 L555 -5 Q530 -3 505.5 -1.5 Q481 0 447 0 L425 0 Q392 0 373.5 -1 Q355 -2 337 -4 L337 30 Q346 31 356 31.5 Q366 32 375 35 Q382 38 387.5 43.5 Q393 49 396 60 Q398 66 399 80 Q400 94 400.5 110.5 Q401 127 401 142.5 Q401 158 401 165 L401 299 Q401 329 396 355 Q391 381 363 404 Q351 413 334 418.5 Q317 424 302 424 Q287 424 270.5 418.5 Q254 413 237.5 405 Q221 397 205.5 386.5 Q190 376 179 367 L179 92 Q179 73 181 61 Q183 49 189.5 42 Q196 35 209 32.5 Q222 30 243 30 L243 -5 Q210 -3 179 -1.5 Q148 0 117 0 Q96 0 75.5 -1 Q55 -2 32 -4 L32 32 Z M178 708 Q197 701 211 694.5 Q225 688 237 680 Q249 672 260.5 662.5 Q272 653 287 641 Q304 654 317 663.5 Q330 673 343 680.5 Q356 688 371.5 694 Q387 700 409 707 L409 689 Q392 672 380 659 Q368 646 358.5 632.5 Q349 619 340.5 603.5 Q332 588 321 567 L265 557 Q253 579 242 596.5 Q231 614 219 630 Q207 646 192.5 661.5 Q178 677 159 695 L178 708 Z " />
<glyph glyph-name="ntilde" unicode="&#xf1;" horiz-adv-x="574" d="M32 32 Q55 32 73 35.5 Q91 39 97 60 Q99 66 100 75.5 Q101 85 101.5 95.5 Q102 106 102 116 Q102 126 102 132 L102 264 Q102 274 102 293 Q102 312 100 332 Q98 352 94 368.5 Q90 385 83 391 Q75 397 68 397 Q58 397 49 394 Q37 391 28 388 L28 418 Q65 434 96.5 451 Q128 468 160 489 L176 489 L176 404 Q194 420 211.5 434 Q229 448 248.5 459 Q268 470 290 476.5 Q312 483 339 483 Q372 483 401 468 Q430 453 449 427 Q471 397 476.5 364.5 Q482 332 482 297 L482 96 Q482 60 492 46 Q502 32 539 32 L555 32 L555 -5 Q530 -3 505.5 -1.5 Q481 0 447 0 L425 0 Q392 0 373.5 -1 Q355 -2 337 -4 L337 30 Q346 31 356 31.5 Q366 32 375 35 Q382 38 387.5 43.5 Q393 49 396 60 Q398 66 399 80 Q400 94 400.5 110.5 Q401 127 401 142.5 Q401 158 401 165 L401 299 Q401 329 396 355 Q391 381 363 404 Q351 413 334 418.5 Q317 424 302 424 Q287 424 270.5 418.5 Q254 413 237.5 405 Q221 397 205.5 386.5 Q190 376 179 367 L179 92 Q179 73 181 61 Q183 49 189.5 42 Q196 35 209 32.5 Q222 30 243 30 L243 -5 Q210 -3 179 -1.5 Q148 0 117 0 Q96 0 75.5 -1 Q55 -2 32 -4 L32 32 Z M123 591 Q130 606 139 621 Q148 636 159.5 648.5 Q171 661 185.5 668.5 Q200 676 218 676 Q248 676 277.5 662.5 Q307 649 336 640 Q345 637 353 635 Q361 633 369 633 Q390 633 401.5 643.5 Q413 654 425 673 L451 658 Q442 641 433 628 Q420 608 401.5 591.5 Q383 575 356 575 Q324 575 293 588.5 Q262 602 233 612 Q224 615 215.5 617 Q207 619 199 619 Q179 619 168.5 607 Q158 595 148 581 L123 591 Z " />
<glyph glyph-name="ncommaaccent" unicode="&#x146;" horiz-adv-x="574" d="M32 32 Q55 32 73 35.5 Q91 39 97 60 Q99 66 100 75.5 Q101 85 101.5 95.5 Q102 106 102 116 Q102 126 102 132 L102 264 Q102 274 102 293 Q102 312 100 332 Q98 352 94 368.5 Q90 385 83 391 Q75 397 68 397 Q58 397 49 394 Q37 391 28 388 L28 418 Q65 434 96.5 451 Q128 468 160 489 L176 489 L176 404 Q194 420 211.5 434 Q229 448 248.5 459 Q268 470 290 476.5 Q312 483 339 483 Q372 483 401 468 Q430 453 449 427 Q471 397 476.5 364.5 Q482 332 482 297 L482 96 Q482 60 492 46 Q502 32 539 32 L555 32 L555 -5 Q530 -3 505.5 -1.5 Q481 0 447 0 L425 0 Q392 0 373.5 -1 Q355 -2 337 -4 L337 30 Q346 31 356 31.5 Q366 32 375 35 Q382 38 387.5 43.5 Q393 49 396 60 Q398 66 399 80 Q400 94 400.5 110.5 Q401 127 401 142.5 Q401 158 401 165 L401 299 Q401 329 396 355 Q391 381 363 404 Q351 413 334 418.5 Q317 424 302 424 Q287 424 270.5 418.5 Q254 413 237.5 405 Q221 397 205.5 386.5 Q190 376 179 367 L179 92 Q179 73 181 61 Q183 49 189.5 42 Q196 35 209 32.5 Q222 30 243 30 L243 -5 Q210 -3 179 -1.5 Q148 0 117 0 Q96 0 75.5 -1 Q55 -2 32 -4 L32 32 Z M246 -208 Q254 -194 259.5 -180 Q265 -166 265 -152 Q265 -131 254.5 -115.5 Q244 -100 227 -83 L298 -37 Q314 -57 325.5 -77 Q337 -97 337 -123 Q337 -154 316 -180.5 Q295 -207 273 -228 L246 -208 Z " />
<glyph glyph-name="ograve" unicode="&#xf2;" horiz-adv-x="538" d="M271 -9 Q221 -9 178 11.5 Q135 32 103.5 67 Q72 102 54.5 148.5 Q37 195 37 246 Q37 297 55 340.5 Q73 384 104.5 416 Q136 448 178 466 Q220 484 268 484 Q317 484 359.5 463.5 Q402 443 433.5 408 Q465 373 483 327.5 Q501 282 501 231 Q501 180 483 136.5 Q465 93 433.5 60.5 Q402 28 360 9.5 Q318 -9 271 -9 Z M290 32 Q322 32 350 52 Q385 76 398 113.5 Q411 151 411 196 Q411 233 402 276.5 Q393 320 374 357 Q355 394 324.5 418.5 Q294 443 252 443 Q219 443 195 428 Q171 413 155.5 388.5 Q140 364 132 333 Q124 302 124 271 Q124 233 134.5 191 Q145 149 166 114 Q187 79 218 55.5 Q249 32 290 32 Z M242 685 Q252 664 260 650 Q268 636 277 625 Q286 614 298 603 Q310 592 328 577 L328 563 Q314 565 301.5 565.5 Q289 566 278 569 Q250 576 223 592.5 Q196 609 179 632 Q170 643 163 655.5 Q156 668 148 681 L242 685 Z " />
<glyph glyph-name="oacute" unicode="&#xf3;" horiz-adv-x="538" d="M271 -9 Q221 -9 178 11.5 Q135 32 103.5 67 Q72 102 54.5 148.5 Q37 195 37 246 Q37 297 55 340.5 Q73 384 104.5 416 Q136 448 178 466 Q220 484 268 484 Q317 484 359.5 463.5 Q402 443 433.5 408 Q465 373 483 327.5 Q501 282 501 231 Q501 180 483 136.5 Q465 93 433.5 60.5 Q402 28 360 9.5 Q318 -9 271 -9 Z M290 32 Q322 32 350 52 Q385 76 398 113.5 Q411 151 411 196 Q411 233 402 276.5 Q393 320 374 357 Q355 394 324.5 418.5 Q294 443 252 443 Q219 443 195 428 Q171 413 155.5 388.5 Q140 364 132 333 Q124 302 124 271 Q124 233 134.5 191 Q145 149 166 114 Q187 79 218 55.5 Q249 32 290 32 Z M195 581 Q230 599 249 625 Q268 651 286 685 L376 680 Q357 652 339.5 632 Q322 612 302.5 598.5 Q283 585 259 577.5 Q235 570 202 566 L195 581 Z " />
<glyph glyph-name="ocircumflex" unicode="&#xf4;" horiz-adv-x="538" d="M271 -9 Q221 -9 178 11.5 Q135 32 103.5 67 Q72 102 54.5 148.5 Q37 195 37 246 Q37 297 55 340.5 Q73 384 104.5 416 Q136 448 178 466 Q220 484 268 484 Q317 484 359.5 463.5 Q402 443 433.5 408 Q465 373 483 327.5 Q501 282 501 231 Q501 180 483 136.5 Q465 93 433.5 60.5 Q402 28 360 9.5 Q318 -9 271 -9 Z M290 32 Q322 32 350 52 Q385 76 398 113.5 Q411 151 411 196 Q411 233 402 276.5 Q393 320 374 357 Q355 394 324.5 418.5 Q294 443 252 443 Q219 443 195 428 Q171 413 155.5 388.5 Q140 364 132 333 Q124 302 124 271 Q124 233 134.5 191 Q145 149 166 114 Q187 79 218 55.5 Q249 32 290 32 Z M137 576 Q156 593 168.5 606 Q181 619 191 632.5 Q201 646 210 661.5 Q219 677 231 699 L288 707 Q301 685 312.5 668 Q324 651 336.5 635.5 Q349 620 363.5 604.5 Q378 589 398 571 L377 557 Q358 564 344 571 Q330 578 317.5 585.5 Q305 593 293 602 Q281 611 266 623 Q249 610 236.5 600.5 Q224 591 211.5 583.5 Q199 576 184.5 569 Q170 562 149 555 L137 576 Z " />
<glyph glyph-name="otilde" unicode="&#xf5;" horiz-adv-x="538" d="M271 -9 Q221 -9 178 11.5 Q135 32 103.5 67 Q72 102 54.5 148.5 Q37 195 37 246 Q37 297 55 340.5 Q73 384 104.5 416 Q136 448 178 466 Q220 484 268 484 Q317 484 359.5 463.5 Q402 443 433.5 408 Q465 373 483 327.5 Q501 282 501 231 Q501 180 483 136.5 Q465 93 433.5 60.5 Q402 28 360 9.5 Q318 -9 271 -9 Z M290 32 Q322 32 350 52 Q385 76 398 113.5 Q411 151 411 196 Q411 233 402 276.5 Q393 320 374 357 Q355 394 324.5 418.5 Q294 443 252 443 Q219 443 195 428 Q171 413 155.5 388.5 Q140 364 132 333 Q124 302 124 271 Q124 233 134.5 191 Q145 149 166 114 Q187 79 218 55.5 Q249 32 290 32 Z M102 591 Q109 606 118 621 Q127 636 138.5 648.5 Q150 661 164.5 668.5 Q179 676 197 676 Q227 676 256.5 662.5 Q286 649 315 640 Q324 637 332 635 Q340 633 348 633 Q369 633 380.5 643.5 Q392 654 404 673 L430 658 Q421 641 412 628 Q399 608 380.5 591.5 Q362 575 335 575 Q303 575 272 588.5 Q241 602 212 612 Q203 615 194.5 617 Q186 619 178 619 Q158 619 147.5 607 Q137 595 127 581 L102 591 Z " />
<glyph glyph-name="odieresis" unicode="&#xf6;" horiz-adv-x="538" d="M271 -9 Q221 -9 178 11.5 Q135 32 103.5 67 Q72 102 54.5 148.5 Q37 195 37 246 Q37 297 55 340.5 Q73 384 104.5 416 Q136 448 178 466 Q220 484 268 484 Q317 484 359.5 463.5 Q402 443 433.5 408 Q465 373 483 327.5 Q501 282 501 231 Q501 180 483 136.5 Q465 93 433.5 60.5 Q402 28 360 9.5 Q318 -9 271 -9 Z M290 32 Q322 32 350 52 Q385 76 398 113.5 Q411 151 411 196 Q411 233 402 276.5 Q393 320 374 357 Q355 394 324.5 418.5 Q294 443 252 443 Q219 443 195 428 Q171 413 155.5 388.5 Q140 364 132 333 Q124 302 124 271 Q124 233 134.5 191 Q145 149 166 114 Q187 79 218 55.5 Q249 32 290 32 Z M357 583 Q335 583 321 598.5 Q307 614 307 635 Q307 656 322.5 669 Q338 682 358 682 Q379 682 393 666 Q407 650 407 630 Q407 609 392 596 Q377 583 357 583 Z M173 583 Q151 583 137 598.5 Q123 614 123 635 Q123 656 138.5 669 Q154 682 174 682 Q195 682 209 666 Q223 650 223 630 Q223 609 208 596 Q193 583 173 583 Z " />
<glyph glyph-name="omacron" unicode="&#x14d;" horiz-adv-x="538" d="M271 -9 Q221 -9 178 11.5 Q135 32 103.5 67 Q72 102 54.5 148.5 Q37 195 37 246 Q37 297 55 340.5 Q73 384 104.5 416 Q136 448 178 466 Q220 484 268 484 Q317 484 359.5 463.5 Q402 443 433.5 408 Q465 373 483 327.5 Q501 282 501 231 Q501 180 483 136.5 Q465 93 433.5 60.5 Q402 28 360 9.5 Q318 -9 271 -9 Z M290 32 Q322 32 350 52 Q385 76 398 113.5 Q411 151 411 196 Q411 233 402 276.5 Q393 320 374 357 Q355 394 324.5 418.5 Q294 443 252 443 Q219 443 195 428 Q171 413 155.5 388.5 Q140 364 132 333 Q124 302 124 271 Q124 233 134.5 191 Q145 149 166 114 Q187 79 218 55.5 Q249 32 290 32 Z M125 668 L403 668 L403 602 L125 602 L125 668 Z " />
<glyph glyph-name="ohungarumlaut" unicode="&#x151;" horiz-adv-x="538" d="M271 -9 Q221 -9 178 11.5 Q135 32 103.5 67 Q72 102 54.5 148.5 Q37 195 37 246 Q37 297 55 340.5 Q73 384 104.5 416 Q136 448 178 466 Q220 484 268 484 Q317 484 359.5 463.5 Q402 443 433.5 408 Q465 373 483 327.5 Q501 282 501 231 Q501 180 483 136.5 Q465 93 433.5 60.5 Q402 28 360 9.5 Q318 -9 271 -9 Z M290 32 Q322 32 350 52 Q385 76 398 113.5 Q411 151 411 196 Q411 233 402 276.5 Q393 320 374 357 Q355 394 324.5 418.5 Q294 443 252 443 Q219 443 195 428 Q171 413 155.5 388.5 Q140 364 132 333 Q124 302 124 271 Q124 233 134.5 191 Q145 149 166 114 Q187 79 218 55.5 Q249 32 290 32 Z M301 582 Q334 604 358.5 635.5 Q383 667 388 694 L483 688 Q475 667 460 646 Q445 625 423 607.5 Q401 590 372.5 578.5 Q344 567 310 566 L301 582 Z M119 582 Q152 604 176.5 635.5 Q201 667 206 694 L296 688 L301 688 Q293 667 278 646 Q263 625 241 607.5 Q219 590 190.5 578.5 Q162 567 128 566 L119 582 Z " />
<glyph glyph-name="oslash" unicode="&#xf8;" horiz-adv-x="538" d="M99 72 Q70 107 53.5 151.5 Q37 196 37 246 Q37 297 55 340.5 Q73 384 104.5 416 Q136 448 178 466 Q220 484 268 484 Q308 484 344 470 Q380 456 409 431 L455 484 L484 460 L436 405 Q466 370 483.5 325.5 Q501 281 501 231 Q501 180 483 136.5 Q465 93 433.5 60.5 Q402 28 360 9.5 Q318 -9 271 -9 Q228 -9 191 5.5 Q154 20 125 46 L77 -9 L48 14 L99 72 Z M174 102 Q194 71 223 51.5 Q252 32 290 32 Q322 32 350 52 Q385 76 398 113.5 Q411 151 411 196 Q411 230 403.5 268 Q396 306 381 341 L174 102 Z M362 377 Q343 406 315.5 424.5 Q288 443 252 443 Q219 443 195 428 Q171 413 155.5 388.5 Q140 364 132 333 Q124 302 124 271 Q124 239 131.5 204 Q139 169 154 137 L362 377 Z " />
<glyph glyph-name="oe" unicode="&#x153;" horiz-adv-x="864" d="M819 45 Q740 -11 643 -11 Q581 -11 533 16.5 Q485 44 455 92 Q423 45 374.5 18 Q326 -9 268 -9 Q218 -9 176 11.5 Q134 32 103 67 Q72 102 54.5 148.5 Q37 195 37 246 Q37 297 55 340.5 Q73 384 104 416 Q135 448 176.5 466 Q218 484 265 484 Q323 484 371 455.5 Q419 427 451 379 Q480 427 527.5 455.5 Q575 484 636 484 Q665 484 693 475.5 Q721 467 744.5 451.5 Q768 436 786.5 413 Q805 390 815 361 Q822 341 823.5 318 Q825 295 825 272 L496 272 Q496 227 508 185.5 Q520 144 543 111.5 Q566 79 601 59.5 Q636 40 682 40 Q718 40 750.5 52 Q783 64 819 81 L819 45 Z M287 32 Q319 32 347 52 Q382 76 394.5 113.5 Q407 151 407 196 Q407 233 398 276.5 Q389 320 370 357 Q351 394 321.5 418.5 Q292 443 250 443 Q217 443 193.5 428 Q170 413 154 388.5 Q138 364 130.5 333 Q123 302 123 271 Q123 233 133.5 191 Q144 149 165 114 Q186 79 216.5 55.5 Q247 32 287 32 Z M739 311 Q738 325 736 340.5 Q734 356 729 370 Q715 405 685.5 425 Q656 445 620 445 Q593 445 571.5 434 Q550 423 534.5 404.5 Q519 386 510 361.5 Q501 337 498 311 L739 311 Z " />
<glyph glyph-name="racute" unicode="&#x155;" horiz-adv-x="382" d="M33 34 Q58 34 71.5 39.5 Q85 45 91 55.5 Q97 66 98 81.5 Q99 97 99 117 L99 345 Q99 364 94.5 380.5 Q90 397 69 397 Q59 397 49 394 Q39 391 26 386 L27 422 Q66 437 97 451.5 Q128 466 160 489 L179 489 L179 390 Q190 407 203 423.5 Q216 440 232 452.5 Q248 465 267 473 Q286 481 309 481 Q324 481 338 478 Q352 475 366 471 L366 374 L344 375 Q333 395 317 403 Q301 411 280 411 Q245 411 218.5 387 Q192 363 185 331 Q183 320 182 306 Q181 292 181 280 L181 91 Q181 71 183 59.5 Q185 48 192 41.5 Q199 35 211.5 33 Q224 31 244 30 L243 -3 Q184 0 131 0 Q107 0 83 -0.5 Q59 -1 33 -2 L33 34 Z M133 581 Q168 599 187 625 Q206 651 224 685 L314 680 Q295 652 277.5 632 Q260 612 240.5 598.5 Q221 585 197 577.5 Q173 570 140 566 L133 581 Z " />
<glyph glyph-name="rcaron" unicode="&#x159;" horiz-adv-x="382" d="M33 34 Q58 34 71.5 39.5 Q85 45 91 55.5 Q97 66 98 81.5 Q99 97 99 117 L99 345 Q99 364 94.5 380.5 Q90 397 69 397 Q59 397 49 394 Q39 391 26 386 L27 422 Q66 437 97 451.5 Q128 466 160 489 L179 489 L179 390 Q190 407 203 423.5 Q216 440 232 452.5 Q248 465 267 473 Q286 481 309 481 Q324 481 338 478 Q352 475 366 471 L366 374 L344 375 Q333 395 317 403 Q301 411 280 411 Q245 411 218.5 387 Q192 363 185 331 Q183 320 182 306 Q181 292 181 280 L181 91 Q181 71 183 59.5 Q185 48 192 41.5 Q199 35 211.5 33 Q224 31 244 30 L243 -3 Q184 0 131 0 Q107 0 83 -0.5 Q59 -1 33 -2 L33 34 Z M92 708 Q111 701 125 694.5 Q139 688 151 680 Q163 672 174.5 662.5 Q186 653 201 641 Q218 654 231 663.5 Q244 673 257 680.5 Q270 688 285.5 694 Q301 700 323 707 L323 689 Q306 672 294 659 Q282 646 272.5 632.5 Q263 619 254.5 603.5 Q246 588 235 567 L179 557 Q167 579 156 596.5 Q145 614 133 630 Q121 646 106.5 661.5 Q92 677 73 695 L92 708 Z " />
<glyph glyph-name="rcommaaccent" unicode="&#x157;" horiz-adv-x="382" d="M33 34 Q58 34 71.5 39.5 Q85 45 91 55.5 Q97 66 98 81.5 Q99 97 99 117 L99 345 Q99 364 94.5 380.5 Q90 397 69 397 Q59 397 49 394 Q39 391 26 386 L27 422 Q66 437 97 451.5 Q128 466 160 489 L179 489 L179 390 Q190 407 203 423.5 Q216 440 232 452.5 Q248 465 267 473 Q286 481 309 481 Q324 481 338 478 Q352 475 366 471 L366 374 L344 375 Q333 395 317 403 Q301 411 280 411 Q245 411 218.5 387 Q192 363 185 331 Q183 320 182 306 Q181 292 181 280 L181 91 Q181 71 183 59.5 Q185 48 192 41.5 Q199 35 211.5 33 Q224 31 244 30 L243 -3 Q184 0 131 0 Q107 0 83 -0.5 Q59 -1 33 -2 L33 34 Z M106 -208 Q114 -194 119.5 -180 Q125 -166 125 -152 Q125 -131 114.5 -115.5 Q104 -100 87 -83 L158 -37 Q174 -57 185.5 -77 Q197 -97 197 -123 Q197 -154 176 -180.5 Q155 -207 133 -228 L106 -208 Z " />
<glyph glyph-name="sacute" unicode="&#x15b;" horiz-adv-x="397" d="M48 145 L77 145 Q81 130 84 115.5 Q87 101 94 87 Q108 58 136 44 Q164 30 195 30 Q211 30 226.5 35 Q242 40 254 50 Q266 60 273.5 74.5 Q281 89 281 108 Q281 124 274 137 Q267 150 256.5 160.5 Q246 171 233.5 179.5 Q221 188 209 194 Q185 207 158 220 Q131 233 108 250.5 Q85 268 70 292.5 Q55 317 55 352 Q55 387 69 412 Q83 437 105.5 453 Q128 469 156 476.5 Q184 484 212 484 Q244 484 275.5 477.5 Q307 471 338 463 L338 355 L314 355 Q310 369 306 381 Q302 393 296 403 Q282 426 257.5 438 Q233 450 207 450 Q176 450 151.5 431 Q127 412 127 380 Q127 364 133.5 351 Q140 338 150.5 328 Q161 318 173 310 Q185 302 197 296 Q222 284 250 271 Q278 258 301 240 Q324 222 339.5 196.5 Q355 171 355 134 Q355 98 340.5 70.5 Q326 43 302.5 25 Q279 7 249 -2 Q219 -11 189 -11 Q154 -11 118.5 -3.5 Q83 4 48 15 L48 145 Z M141 581 Q176 599 195 625 Q214 651 232 685 L322 680 Q303 652 285.5 632 Q268 612 248.5 598.5 Q229 585 205 577.5 Q181 570 148 566 L141 581 Z " />
<glyph glyph-name="scaron" unicode="&#x161;" horiz-adv-x="397" d="M48 145 L77 145 Q81 130 84 115.5 Q87 101 94 87 Q108 58 136 44 Q164 30 195 30 Q211 30 226.5 35 Q242 40 254 50 Q266 60 273.5 74.5 Q281 89 281 108 Q281 124 274 137 Q267 150 256.5 160.5 Q246 171 233.5 179.5 Q221 188 209 194 Q185 207 158 220 Q131 233 108 250.5 Q85 268 70 292.5 Q55 317 55 352 Q55 387 69 412 Q83 437 105.5 453 Q128 469 156 476.5 Q184 484 212 484 Q244 484 275.5 477.5 Q307 471 338 463 L338 355 L314 355 Q310 369 306 381 Q302 393 296 403 Q282 426 257.5 438 Q233 450 207 450 Q176 450 151.5 431 Q127 412 127 380 Q127 364 133.5 351 Q140 338 150.5 328 Q161 318 173 310 Q185 302 197 296 Q222 284 250 271 Q278 258 301 240 Q324 222 339.5 196.5 Q355 171 355 134 Q355 98 340.5 70.5 Q326 43 302.5 25 Q279 7 249 -2 Q219 -11 189 -11 Q154 -11 118.5 -3.5 Q83 4 48 15 L48 145 Z M103 708 Q122 701 136 694.5 Q150 688 162 680 Q174 672 185.5 662.5 Q197 653 212 641 Q229 654 242 663.5 Q255 673 268 680.5 Q281 688 296.5 694 Q312 700 334 707 L334 689 Q317 672 305 659 Q293 646 283.5 632.5 Q274 619 265.5 603.5 Q257 588 246 567 L190 557 Q178 579 167 596.5 Q156 614 144 630 Q132 646 117.5 661.5 Q103 677 84 695 L103 708 Z " />
<glyph glyph-name="scedilla" unicode="&#x15f;" horiz-adv-x="397" d="M48 145 L77 145 Q81 130 84 115.5 Q87 101 94 87 Q108 58 136 44 Q164 30 195 30 Q211 30 226.5 35 Q242 40 254 50 Q266 60 273.5 74.5 Q281 89 281 108 Q281 124 274 137 Q267 150 256.5 160.5 Q246 171 233.5 179.5 Q221 188 209 194 Q185 207 158 220 Q131 233 108 250.5 Q85 268 70 292.5 Q55 317 55 352 Q55 387 69 412 Q83 437 105.5 453 Q128 469 156 476.5 Q184 484 212 484 Q244 484 275.5 477.5 Q307 471 338 463 L338 355 L314 355 Q310 369 306 381 Q302 393 296 403 Q282 426 257.5 438 Q233 450 207 450 Q176 450 151.5 431 Q127 412 127 380 Q127 364 133.5 351 Q140 338 150.5 328 Q161 318 173 310 Q185 302 197 296 Q222 284 250 271 Q278 258 301 240 Q324 222 339.5 196.5 Q355 171 355 134 Q355 98 340.5 70.5 Q326 43 302.5 25 Q279 7 249 -2 Q219 -11 189 -11 Q154 -11 118.5 -3.5 Q83 4 48 15 L48 145 Z M161 -208 Q169 -194 174.5 -180 Q180 -166 180 -152 Q180 -131 169.5 -115.5 Q159 -100 142 -83 L213 -37 Q229 -57 240.5 -77 Q252 -97 252 -123 Q252 -154 231 -180.5 Q210 -207 188 -228 L161 -208 Z " />
<glyph glyph-name="scommaaccent" unicode="&#x219;" horiz-adv-x="397" d="M48 145 L77 145 Q81 130 84 115.5 Q87 101 94 87 Q108 58 136 44 Q164 30 195 30 Q211 30 226.5 35 Q242 40 254 50 Q266 60 273.5 74.5 Q281 89 281 108 Q281 124 274 137 Q267 150 256.5 160.5 Q246 171 233.5 179.5 Q221 188 209 194 Q185 207 158 220 Q131 233 108 250.5 Q85 268 70 292.5 Q55 317 55 352 Q55 387 69 412 Q83 437 105.5 453 Q128 469 156 476.5 Q184 484 212 484 Q244 484 275.5 477.5 Q307 471 338 463 L338 355 L314 355 Q310 369 306 381 Q302 393 296 403 Q282 426 257.5 438 Q233 450 207 450 Q176 450 151.5 431 Q127 412 127 380 Q127 364 133.5 351 Q140 338 150.5 328 Q161 318 173 310 Q185 302 197 296 Q222 284 250 271 Q278 258 301 240 Q324 222 339.5 196.5 Q355 171 355 134 Q355 98 340.5 70.5 Q326 43 302.5 25 Q279 7 249 -2 Q219 -11 189 -11 Q154 -11 118.5 -3.5 Q83 4 48 15 L48 145 Z M161 -208 Q169 -194 174.5 -180 Q180 -166 180 -152 Q180 -131 169.5 -115.5 Q159 -100 142 -83 L213 -37 Q229 -57 240.5 -77 Q252 -97 252 -123 Q252 -154 231 -180.5 Q210 -207 188 -228 L161 -208 Z " />
<glyph glyph-name="germandbls" unicode="&#xdf;" horiz-adv-x="570" d="M30 30 Q74 30 88 47 Q102 64 102 104 L102 427 L16 427 L16 471 L102 471 L102 540 Q102 581 110.5 622 Q119 663 139 695.5 Q159 728 192 748.5 Q225 769 275 769 Q305 769 334 759.5 Q363 750 386.5 732 Q410 714 424 688 Q438 662 438 629 Q438 585 419 556 Q400 527 377 507 Q366 497 355.5 488 Q345 479 336 468 Q318 450 318 434 Q318 423 326.5 414 Q335 405 351 394 Q366 383 385.5 372.5 Q405 362 426 348 Q446 335 466 319 Q486 303 501.5 282.5 Q517 262 526.5 236.5 Q536 211 536 179 Q536 139 519.5 105 Q503 71 476 45.5 Q449 20 413.5 5.5 Q378 -9 340 -9 Q308 -9 283.5 -1.5 Q259 6 230 17 L230 110 L252 110 L259 92 Q270 64 293 46 Q316 28 347 28 Q371 28 391 39 Q411 50 424.5 68 Q438 86 445.5 108.5 Q453 131 453 154 Q453 183 440.5 207 Q428 231 409 251 Q390 271 367.5 288.5 Q345 306 325 322 Q315 330 304 340 Q293 350 284 361 Q275 372 269.5 385 Q264 398 264 412 Q264 441 281.5 465.5 Q299 490 320.5 515.5 Q342 541 359.5 569 Q377 597 377 632 Q377 653 369 671.5 Q361 690 347 704 Q333 718 314 726 Q295 734 274 734 Q242 734 223.5 719.5 Q205 705 195.5 683 Q186 661 183 634 Q180 607 180 582 L180 2 L30 2 L30 30 Z " />
<glyph glyph-name="tcaron" unicode="&#x165;" horiz-adv-x="356" d="M98 423 L0 423 L0 428 Q29 452 50.5 470.5 Q72 489 89.5 508.5 Q107 528 123.5 551.5 Q140 575 161 608 L178 608 L178 471 L338 471 L320 423 L177 423 L177 179 Q177 158 182.5 137.5 Q188 117 199 101 Q210 85 227 75.5 Q244 66 268 66 Q288 66 306.5 73 Q325 80 344 90 L360 67 Q336 50 315.5 32 Q295 14 273 -6 Q249 -5 227 -2.5 Q205 0 185.5 7.5 Q166 15 149 29 Q132 43 119 67 Q105 92 101.5 120 Q98 148 98 176 L98 423 Z M232 553 Q258 579 274.5 605 Q291 631 291 666 Q291 695 279 712.5 Q267 730 246 753 L327 792 Q341 769 348.5 748.5 Q356 728 356 703 Q356 677 348 655 Q340 633 326.5 613.5 Q313 594 296.5 576 Q280 558 262 540 L232 553 Z " />
<glyph glyph-name="tcommaaccent" unicode="&#x163;" horiz-adv-x="356" d="M98 423 L0 423 L0 428 Q29 452 50.5 470.5 Q72 489 89.5 508.5 Q107 528 123.5 551.5 Q140 575 161 608 L178 608 L178 471 L338 471 L320 423 L177 423 L177 179 Q177 158 182.5 137.5 Q188 117 199 101 Q210 85 227 75.5 Q244 66 268 66 Q288 66 306.5 73 Q325 80 344 90 L360 67 Q336 50 315.5 32 Q295 14 273 -6 Q249 -5 227 -2.5 Q205 0 185.5 7.5 Q166 15 149 29 Q132 43 119 67 Q105 92 101.5 120 Q98 148 98 176 L98 423 Z M166 -208 Q174 -194 179.5 -180 Q185 -166 185 -152 Q185 -131 174.5 -115.5 Q164 -100 147 -83 L218 -37 Q234 -57 245.5 -77 Q257 -97 257 -123 Q257 -154 236 -180.5 Q215 -207 193 -228 L166 -208 Z " />
<glyph glyph-name="uni021B" unicode="&#x21b;" horiz-adv-x="356" d="M98 423 L0 423 L0 428 Q29 452 50.5 470.5 Q72 489 89.5 508.5 Q107 528 123.5 551.5 Q140 575 161 608 L178 608 L178 471 L338 471 L320 423 L177 423 L177 179 Q177 158 182.5 137.5 Q188 117 199 101 Q210 85 227 75.5 Q244 66 268 66 Q288 66 306.5 73 Q325 80 344 90 L360 67 Q336 50 315.5 32 Q295 14 273 -6 Q249 -5 227 -2.5 Q205 0 185.5 7.5 Q166 15 149 29 Q132 43 119 67 Q105 92 101.5 120 Q98 148 98 176 L98 423 Z M166 -208 Q174 -194 179.5 -180 Q185 -166 185 -152 Q185 -131 174.5 -115.5 Q164 -100 147 -83 L218 -37 Q234 -57 245.5 -77 Q257 -97 257 -123 Q257 -154 236 -180.5 Q215 -207 193 -228 L166 -208 Z " />
<glyph glyph-name="ugrave" unicode="&#xf9;" horiz-adv-x="572" d="M96 344 Q96 353 95.5 364 Q95 375 92 384 Q89 393 82.5 399.5 Q76 406 64 406 Q53 406 41.5 401.5 Q30 397 16 390 L16 431 Q54 443 87.5 457.5 Q121 472 155 489 L177 489 L177 227 Q177 200 179.5 169 Q182 138 191.5 112 Q201 86 221 69 Q241 52 277 52 Q310 52 341 71 Q372 90 398 108 L398 326 Q398 337 398 346.5 Q398 356 397 367 Q396 386 390.5 396.5 Q385 407 365 407 Q354 407 343.5 403.5 Q333 400 324 395 L324 434 Q360 445 392 458.5 Q424 472 456 489 L478 489 L478 111 Q478 98 481 82 Q484 66 501 66 Q512 66 526 71 Q540 76 551 80 L551 45 Q486 19 424 -15 L414 -11 L402 67 Q385 54 365 40.5 Q345 27 323 15.5 Q301 4 278 -3 Q255 -10 234 -10 Q202 -10 173.5 6.5 Q145 23 127 49 Q104 84 100 120.5 Q96 157 96 196 L96 344 Z M260 685 Q270 664 278 650 Q286 636 295 625 Q304 614 316 603 Q328 592 346 577 L346 563 Q332 565 319.5 565.5 Q307 566 296 569 Q268 576 241 592.5 Q214 609 197 632 Q188 643 181 655.5 Q174 668 166 681 L260 685 Z " />
<glyph glyph-name="uacute" unicode="&#xfa;" horiz-adv-x="572" d="M96 344 Q96 353 95.5 364 Q95 375 92 384 Q89 393 82.5 399.5 Q76 406 64 406 Q53 406 41.5 401.5 Q30 397 16 390 L16 431 Q54 443 87.5 457.5 Q121 472 155 489 L177 489 L177 227 Q177 200 179.5 169 Q182 138 191.5 112 Q201 86 221 69 Q241 52 277 52 Q310 52 341 71 Q372 90 398 108 L398 326 Q398 337 398 346.5 Q398 356 397 367 Q396 386 390.5 396.5 Q385 407 365 407 Q354 407 343.5 403.5 Q333 400 324 395 L324 434 Q360 445 392 458.5 Q424 472 456 489 L478 489 L478 111 Q478 98 481 82 Q484 66 501 66 Q512 66 526 71 Q540 76 551 80 L551 45 Q486 19 424 -15 L414 -11 L402 67 Q385 54 365 40.5 Q345 27 323 15.5 Q301 4 278 -3 Q255 -10 234 -10 Q202 -10 173.5 6.5 Q145 23 127 49 Q104 84 100 120.5 Q96 157 96 196 L96 344 Z M225 581 Q260 599 279 625 Q298 651 316 685 L406 680 Q387 652 369.5 632 Q352 612 332.5 598.5 Q313 585 289 577.5 Q265 570 232 566 L225 581 Z " />
<glyph glyph-name="ucircumflex" unicode="&#xfb;" horiz-adv-x="572" d="M96 344 Q96 353 95.5 364 Q95 375 92 384 Q89 393 82.5 399.5 Q76 406 64 406 Q53 406 41.5 401.5 Q30 397 16 390 L16 431 Q54 443 87.5 457.5 Q121 472 155 489 L177 489 L177 227 Q177 200 179.5 169 Q182 138 191.5 112 Q201 86 221 69 Q241 52 277 52 Q310 52 341 71 Q372 90 398 108 L398 326 Q398 337 398 346.5 Q398 356 397 367 Q396 386 390.5 396.5 Q385 407 365 407 Q354 407 343.5 403.5 Q333 400 324 395 L324 434 Q360 445 392 458.5 Q424 472 456 489 L478 489 L478 111 Q478 98 481 82 Q484 66 501 66 Q512 66 526 71 Q540 76 551 80 L551 45 Q486 19 424 -15 L414 -11 L402 67 Q385 54 365 40.5 Q345 27 323 15.5 Q301 4 278 -3 Q255 -10 234 -10 Q202 -10 173.5 6.5 Q145 23 127 49 Q104 84 100 120.5 Q96 157 96 196 L96 344 Z M161 576 Q180 593 192.5 606 Q205 619 215 632.5 Q225 646 234 661.5 Q243 677 255 699 L312 707 Q325 685 336.5 668 Q348 651 360.5 635.5 Q373 620 387.5 604.5 Q402 589 422 571 L401 557 Q382 564 368 571 Q354 578 341.5 585.5 Q329 593 317 602 Q305 611 290 623 Q273 610 260.5 600.5 Q248 591 235.5 583.5 Q223 576 208.5 569 Q194 562 173 555 L161 576 Z " />
<glyph glyph-name="udieresis" unicode="&#xfc;" horiz-adv-x="572" d="M96 344 Q96 353 95.5 364 Q95 375 92 384 Q89 393 82.5 399.5 Q76 406 64 406 Q53 406 41.5 401.5 Q30 397 16 390 L16 431 Q54 443 87.5 457.5 Q121 472 155 489 L177 489 L177 227 Q177 200 179.5 169 Q182 138 191.5 112 Q201 86 221 69 Q241 52 277 52 Q310 52 341 71 Q372 90 398 108 L398 326 Q398 337 398 346.5 Q398 356 397 367 Q396 386 390.5 396.5 Q385 407 365 407 Q354 407 343.5 403.5 Q333 400 324 395 L324 434 Q360 445 392 458.5 Q424 472 456 489 L478 489 L478 111 Q478 98 481 82 Q484 66 501 66 Q512 66 526 71 Q540 76 551 80 L551 45 Q486 19 424 -15 L414 -11 L402 67 Q385 54 365 40.5 Q345 27 323 15.5 Q301 4 278 -3 Q255 -10 234 -10 Q202 -10 173.5 6.5 Q145 23 127 49 Q104 84 100 120.5 Q96 157 96 196 L96 344 Z M378 583 Q356 583 342 598.5 Q328 614 328 635 Q328 656 343.5 669 Q359 682 379 682 Q400 682 414 666 Q428 650 428 630 Q428 609 413 596 Q398 583 378 583 Z M194 583 Q172 583 158 598.5 Q144 614 144 635 Q144 656 159.5 669 Q175 682 195 682 Q216 682 230 666 Q244 650 244 630 Q244 609 229 596 Q214 583 194 583 Z " />
<glyph glyph-name="umacron" unicode="&#x16b;" horiz-adv-x="572" d="M96 344 Q96 353 95.5 364 Q95 375 92 384 Q89 393 82.5 399.5 Q76 406 64 406 Q53 406 41.5 401.5 Q30 397 16 390 L16 431 Q54 443 87.5 457.5 Q121 472 155 489 L177 489 L177 227 Q177 200 179.5 169 Q182 138 191.5 112 Q201 86 221 69 Q241 52 277 52 Q310 52 341 71 Q372 90 398 108 L398 326 Q398 337 398 346.5 Q398 356 397 367 Q396 386 390.5 396.5 Q385 407 365 407 Q354 407 343.5 403.5 Q333 400 324 395 L324 434 Q360 445 392 458.5 Q424 472 456 489 L478 489 L478 111 Q478 98 481 82 Q484 66 501 66 Q512 66 526 71 Q540 76 551 80 L551 45 Q486 19 424 -15 L414 -11 L402 67 Q385 54 365 40.5 Q345 27 323 15.5 Q301 4 278 -3 Q255 -10 234 -10 Q202 -10 173.5 6.5 Q145 23 127 49 Q104 84 100 120.5 Q96 157 96 196 L96 344 Z M154 668 L432 668 L432 602 L154 602 L154 668 Z " />
<glyph glyph-name="uring" unicode="&#x16f;" horiz-adv-x="572" d="M96 344 Q96 353 95.5 364 Q95 375 92 384 Q89 393 82.5 399.5 Q76 406 64 406 Q53 406 41.5 401.5 Q30 397 16 390 L16 431 Q54 443 87.5 457.5 Q121 472 155 489 L177 489 L177 227 Q177 200 179.5 169 Q182 138 191.5 112 Q201 86 221 69 Q241 52 277 52 Q310 52 341 71 Q372 90 398 108 L398 326 Q398 337 398 346.5 Q398 356 397 367 Q396 386 390.5 396.5 Q385 407 365 407 Q354 407 343.5 403.5 Q333 400 324 395 L324 434 Q360 445 392 458.5 Q424 472 456 489 L478 489 L478 111 Q478 98 481 82 Q484 66 501 66 Q512 66 526 71 Q540 76 551 80 L551 45 Q486 19 424 -15 L414 -11 L402 67 Q385 54 365 40.5 Q345 27 323 15.5 Q301 4 278 -3 Q255 -10 234 -10 Q202 -10 173.5 6.5 Q145 23 127 49 Q104 84 100 120.5 Q96 157 96 196 L96 344 Z M192 642 Q192 663 200 681 Q208 699 222 713 Q236 727 254 735 Q272 743 293 743 Q314 743 332 735 Q350 727 364 713 Q378 699 386 681 Q394 663 394 642 Q394 621 386 603 Q378 585 364 571 Q350 557 332 549 Q314 541 293 541 Q272 541 254 549 Q236 557 222 571 Q208 585 200 603 Q192 621 192 642 Z M293 580 Q319 580 337 598 Q355 616 355 642 Q355 669 337 686.5 Q319 704 293 704 Q267 704 249 686 Q231 668 231 642 Q231 616 249 598 Q267 580 293 580 Z " />
<glyph glyph-name="uhungarumlaut" unicode="&#x171;" horiz-adv-x="572" d="M96 344 Q96 353 95.5 364 Q95 375 92 384 Q89 393 82.5 399.5 Q76 406 64 406 Q53 406 41.5 401.5 Q30 397 16 390 L16 431 Q54 443 87.5 457.5 Q121 472 155 489 L177 489 L177 227 Q177 200 179.5 169 Q182 138 191.5 112 Q201 86 221 69 Q241 52 277 52 Q310 52 341 71 Q372 90 398 108 L398 326 Q398 337 398 346.5 Q398 356 397 367 Q396 386 390.5 396.5 Q385 407 365 407 Q354 407 343.5 403.5 Q333 400 324 395 L324 434 Q360 445 392 458.5 Q424 472 456 489 L478 489 L478 111 Q478 98 481 82 Q484 66 501 66 Q512 66 526 71 Q540 76 551 80 L551 45 Q486 19 424 -15 L414 -11 L402 67 Q385 54 365 40.5 Q345 27 323 15.5 Q301 4 278 -3 Q255 -10 234 -10 Q202 -10 173.5 6.5 Q145 23 127 49 Q104 84 100 120.5 Q96 157 96 196 L96 344 Z M326 582 Q359 604 383.5 635.5 Q408 667 413 694 L508 688 Q500 667 485 646 Q470 625 448 607.5 Q426 590 397.5 578.5 Q369 567 335 566 L326 582 Z M144 582 Q177 604 201.5 635.5 Q226 667 231 694 L321 688 L326 688 Q318 667 303 646 Q288 625 266 607.5 Q244 590 215.5 578.5 Q187 567 153 566 L144 582 Z " />
<glyph glyph-name="uogonek" unicode="&#x173;" horiz-adv-x="572" d="M505 -198 Q487 -208 461.5 -214 Q436 -220 405 -220 Q390 -220 372 -215.5 Q354 -211 339 -200 Q324 -189 314 -172 Q304 -155 304 -129 Q304 -94 329.5 -56.5 Q355 -19 411 6 L402 67 Q385 54 365 40.5 Q345 27 323 15.5 Q301 4 278 -3 Q255 -10 234 -10 Q202 -10 173.5 6.5 Q145 23 127 49 Q104 84 100 120.5 Q96 157 96 196 L96 344 Q96 353 95.5 364 Q95 375 92 384 Q89 393 82.5 399.5 Q76 406 64 406 Q53 406 41.5 401.5 Q30 397 16 390 L16 431 Q54 443 87.5 457.5 Q121 472 155 489 L177 489 L177 227 Q177 200 179.5 169 Q182 138 191.5 112 Q201 86 221 69 Q241 52 277 52 Q310 52 341 71 Q372 90 398 108 L398 326 Q398 337 398 346.5 Q398 356 397 367 Q396 386 390.5 396.5 Q385 407 365 407 Q354 407 343.5 403.5 Q333 400 324 395 L324 434 Q360 445 392 458.5 Q424 472 456 489 L478 489 L478 111 Q478 98 481 82 Q484 66 501 66 Q512 66 526 71 Q540 76 551 80 L551 45 Q525 34 502.5 24.5 Q480 15 464 5 Q419 -23 398.5 -52 Q378 -81 378 -117 Q378 -147 392.5 -163.5 Q407 -180 432 -180 Q451 -180 463.5 -176 Q476 -172 487 -167 L505 -198 Z " />
<glyph glyph-name="yacute" unicode="&#xfd;" horiz-adv-x="502" d="M55 -124 L68 -124 Q80 -132 94 -137.5 Q108 -143 122 -143 Q148 -143 167 -130.5 Q186 -118 200.5 -98 Q215 -78 225 -53.5 Q235 -29 242 -6 L92 362 Q83 383 76.5 397 Q70 411 61.5 419.5 Q53 428 40.5 432 Q28 436 7 439 L7 475 Q34 473 59.5 472 Q85 471 110 471 Q133 471 156.5 472 Q180 473 206 475 L205 438 L197 438 Q180 438 173 435 Q167 433 163.5 428.5 Q160 424 160 415 Q160 398 171 373 L283 99 Q291 122 306 165 Q321 208 335 254 Q342 278 349 302 Q356 326 361.5 346 Q367 366 370 381 Q373 396 373 404 Q373 426 358 432.5 Q343 439 323 441 L323 475 Q347 473 368.5 472 Q390 471 412 471 Q433 471 454.5 472 Q476 473 499 475 L499 442 Q489 440 481 438 Q473 436 465 434 Q449 429 438 416 Q427 404 419.5 383 Q412 362 407 346 Q372 238 337 127.5 Q302 17 258 -84 Q243 -119 221.5 -149 Q200 -179 165 -198 Q149 -206 131 -209 Q113 -212 95 -212 Q85 -212 74.5 -211.5 Q64 -211 55 -210 L55 -124 Z M205 581 Q240 599 259 625 Q278 651 296 685 L386 680 Q367 652 349.5 632 Q332 612 312.5 598.5 Q293 585 269 577.5 Q245 570 212 566 L205 581 Z " />
<glyph glyph-name="ydieresis" unicode="&#xff;" horiz-adv-x="502" d="M55 -124 L68 -124 Q80 -132 94 -137.5 Q108 -143 122 -143 Q148 -143 167 -130.5 Q186 -118 200.5 -98 Q215 -78 225 -53.5 Q235 -29 242 -6 L92 362 Q83 383 76.5 397 Q70 411 61.5 419.5 Q53 428 40.5 432 Q28 436 7 439 L7 475 Q34 473 59.5 472 Q85 471 110 471 Q133 471 156.5 472 Q180 473 206 475 L205 438 L197 438 Q180 438 173 435 Q167 433 163.5 428.5 Q160 424 160 415 Q160 398 171 373 L283 99 Q291 122 306 165 Q321 208 335 254 Q342 278 349 302 Q356 326 361.5 346 Q367 366 370 381 Q373 396 373 404 Q373 426 358 432.5 Q343 439 323 441 L323 475 Q347 473 368.5 472 Q390 471 412 471 Q433 471 454.5 472 Q476 473 499 475 L499 442 Q489 440 481 438 Q473 436 465 434 Q449 429 438 416 Q427 404 419.5 383 Q412 362 407 346 Q372 238 337 127.5 Q302 17 258 -84 Q243 -119 221.5 -149 Q200 -179 165 -198 Q149 -206 131 -209 Q113 -212 95 -212 Q85 -212 74.5 -211.5 Q64 -211 55 -210 L55 -124 Z M347 583 Q325 583 311 598.5 Q297 614 297 635 Q297 656 312.5 669 Q328 682 348 682 Q369 682 383 666 Q397 650 397 630 Q397 609 382 596 Q367 583 347 583 Z M163 583 Q141 583 127 598.5 Q113 614 113 635 Q113 656 128.5 669 Q144 682 164 682 Q185 682 199 666 Q213 650 213 630 Q213 609 198 596 Q183 583 163 583 Z " />
<glyph glyph-name="zacute" unicode="&#x17a;" horiz-adv-x="484" d="M272 37 Q307 37 339.5 42 Q372 47 398 74 Q411 88 417 105.5 Q423 123 428 143 L454 143 L447 0 L28 0 Q103 106 177.5 219 Q252 332 328 433 L208 433 Q178 433 156.5 428 Q135 423 120.5 411.5 Q106 400 98 379.5 Q90 359 86 328 L57 328 L61 471 L452 471 L149 37 L272 37 Z M191 581 Q226 599 245 625 Q264 651 282 685 L372 680 Q353 652 335.5 632 Q318 612 298.5 598.5 Q279 585 255 577.5 Q231 570 198 566 L191 581 Z " />
<glyph glyph-name="zcaron" unicode="&#x17e;" horiz-adv-x="484" d="M272 37 Q307 37 339.5 42 Q372 47 398 74 Q411 88 417 105.5 Q423 123 428 143 L454 143 L447 0 L28 0 Q103 106 177.5 219 Q252 332 328 433 L208 433 Q178 433 156.5 428 Q135 423 120.5 411.5 Q106 400 98 379.5 Q90 359 86 328 L57 328 L61 471 L452 471 L149 37 L272 37 Z M156 708 Q175 701 189 694.5 Q203 688 215 680 Q227 672 238.5 662.5 Q250 653 265 641 Q282 654 295 663.5 Q308 673 321 680.5 Q334 688 349.5 694 Q365 700 387 707 L387 689 Q370 672 358 659 Q346 646 336.5 632.5 Q327 619 318.5 603.5 Q310 588 299 567 L243 557 Q231 579 220 596.5 Q209 614 197 630 Q185 646 170.5 661.5 Q156 677 137 695 L156 708 Z " />
<glyph glyph-name="zdotaccent" unicode="&#x17c;" horiz-adv-x="484" d="M272 37 Q307 37 339.5 42 Q372 47 398 74 Q411 88 417 105.5 Q423 123 428 143 L454 143 L447 0 L28 0 Q103 106 177.5 219 Q252 332 328 433 L208 433 Q178 433 156.5 428 Q135 423 120.5 411.5 Q106 400 98 379.5 Q90 359 86 328 L57 328 L61 471 L452 471 L149 37 L272 37 Z M197 632 Q197 653 212 667.5 Q227 682 248 682 Q269 682 284.5 667.5 Q300 653 300 632 Q300 611 284.5 597 Q269 583 248 583 Q227 583 212 597 Q197 611 197 632 Z " />
<glyph glyph-name="eth" unicode="&#xf0;" horiz-adv-x="529" d="M117 641 L201 681 Q175 698 148 713.5 Q121 729 90 744 L108 765 Q187 748 255 706 L347 749 L372 719 L293 681 Q349 639 387 589.5 Q425 540 448 483.5 Q471 427 481 363.5 Q491 300 491 229 Q491 179 473.5 136 Q456 93 425 60.5 Q394 28 353 9.5 Q312 -9 265 -9 Q215 -9 173 11 Q131 31 100.5 65.5 Q70 100 52.5 145.5 Q35 191 35 242 Q35 292 52 335 Q69 378 99 409.5 Q129 441 170 459 Q211 477 259 477 Q301 477 339.5 455 Q378 433 404 401 Q357 555 236 654 L142 609 L117 641 Z M284 32 Q318 32 346 52 Q381 77 392.5 114 Q404 151 404 194 Q404 232 395 274.5 Q386 317 367.5 353 Q349 389 319 413 Q289 437 247 437 Q214 437 190.5 422 Q167 407 151 383 Q135 359 127.5 328.5 Q120 298 120 267 Q120 229 130.5 188 Q141 147 161.5 112 Q182 77 212.5 54.5 Q243 32 284 32 Z " />
<glyph glyph-name="thorn" unicode="&#xfe;" horiz-adv-x="576" d="M26 -180 Q44 -179 58 -176.5 Q72 -174 81.5 -167 Q91 -160 96 -147 Q101 -134 101 -112 L101 625 Q101 634 100.5 644 Q100 654 97 662.5 Q94 671 88 676.5 Q82 682 71 682 Q59 682 45.5 678 Q32 674 21 670 L21 706 Q63 719 93.5 733 Q124 747 161 769 L182 769 L182 414 Q219 440 259 462 Q299 484 348 484 Q391 484 425.5 464.5 Q460 445 484 413 Q508 381 521 340 Q534 299 534 257 Q534 203 516.5 155 Q499 107 467.5 70.5 Q436 34 392 12.5 Q348 -9 294 -9 Q265 -9 237.5 -2.5 Q210 4 183 13 L183 -104 Q183 -127 185.5 -141 Q188 -155 195.5 -163.5 Q203 -172 217.5 -176 Q232 -180 256 -182 L256 -214 Q219 -210 184.5 -210 Q150 -210 115 -210 Q93 -210 71.5 -211.5 Q50 -213 26 -214 L26 -180 Z M182 80 Q211 57 237.5 44 Q264 31 302 31 Q342 31 370 46.5 Q398 62 416 88 Q434 114 442 148.5 Q450 183 450 222 Q450 256 441 291.5 Q432 327 413.5 356 Q395 385 367.5 403 Q340 421 304 421 Q267 421 239 404 Q211 387 182 364 L182 80 Z " />
<glyph glyph-name="fi" unicode="&#xfb01;" horiz-adv-x="563" d="M33 31 L37 31 Q61 31 75 35.5 Q89 40 96.5 49.5 Q104 59 106 74.5 Q108 90 108 112 L108 423 L16 423 L22 471 L109 471 L109 557 Q109 601 120 636.5 Q131 672 163 704 Q197 739 241.5 754 Q286 769 333 769 Q362 769 389.5 767 Q417 765 448 760 L448 634 L420 635 Q413 678 389.5 704 Q366 730 324 730 Q260 730 224.5 693 Q189 656 189 588 L189 471 L362 471 Q386 471 409 475 Q432 479 455 489 L469 489 L469 92 Q469 59 479.5 45.5 Q490 32 525 32 L540 32 L540 -3 Q481 0 428 0 Q374 0 316 -3 L316 29 Q338 31 353 35 Q368 39 376 48 Q384 57 387.5 71 Q391 85 391 106 L391 354 Q391 363 390.5 373.5 Q390 384 387 394 Q384 404 377.5 411.5 Q371 419 358 421 Q350 423 340 423 Q330 423 305 423 L189 423 L189 116 Q189 92 190.5 75.5 Q192 59 199 49.5 Q206 40 221 36 Q236 32 264 32 L264 -3 Q233 -1 205 -0.5 Q177 0 148 0 Q93 0 33 -3 L33 31 Z " />
<glyph glyph-name="fl" unicode="&#xfb02;" horiz-adv-x="569" d="M33 31 Q58 31 73 35 Q88 39 95.5 48.5 Q103 58 105.5 73.5 Q108 89 108 112 L108 423 L16 423 L22 471 L109 471 L109 560 Q109 605 120 640 Q131 675 163 707 Q195 739 240 754 Q285 769 329 769 Q349 769 369 765.5 Q389 762 409 759 Q411 759 418.5 760.5 Q426 762 434.5 763.5 Q443 765 450.5 766.5 Q458 768 459 769 L473 769 L473 110 Q473 86 475.5 70.5 Q478 55 486 46.5 Q494 38 509 34.5 Q524 31 550 30 L550 -2 Q515 -1 482.5 -0.5 Q450 0 418 0 Q393 0 368 -1 Q343 -2 316 -2 L316 29 Q325 31 334.5 31.5 Q344 32 352 34 Q379 42 385 64 Q391 86 391 110 L391 629 Q391 684 370 706.5 Q349 729 305 729 Q270 729 248 716 Q226 703 212.5 682.5 Q199 662 194 637.5 Q189 613 189 591 L189 471 L326 471 L310 423 L189 423 L189 116 Q189 91 190.5 74.5 Q192 58 199 48.5 Q206 39 221.5 35.5 Q237 32 264 32 L264 -3 Q233 -1 205 -0.5 Q177 0 148 0 Q93 0 33 -3 L33 31 Z " />
<glyph glyph-name="ampersand" unicode="&#x26;" horiz-adv-x="714" d="M490 168 Q499 194 504 220.5 Q509 247 509 280 Q509 294 507 305.5 Q505 317 494 328 Q480 341 463.5 343.5 Q447 346 426 346 L426 380 Q454 378 479 377 Q504 376 530 376 Q557 376 584.5 377 Q612 378 641 380 L641 343 L636 343 Q607 343 593 338.5 Q579 334 572 325 Q563 312 559 291 Q555 270 552 256 Q545 225 536.5 196 Q528 167 516 138 Q533 118 553.5 96 Q574 74 597 59 Q617 46 642.5 40 Q668 34 710 33 L709 -3 Q664 0 625 0 Q602 0 579 -1 Q556 -2 532 -4 Q515 13 499 30 Q483 47 469 66 Q458 56 447 46.5 Q436 37 424 29 Q390 5 349.5 -5 Q309 -15 269 -15 Q228 -15 188.5 -3 Q149 9 118 32.5 Q87 56 67.5 90.5 Q48 125 48 170 Q48 206 60.5 234.5 Q73 263 93.5 286.5 Q114 310 140 329.5 Q166 349 193 367 Q173 386 155 405.5 Q137 425 123 446.5 Q109 468 100.5 493 Q92 518 92 548 Q92 584 108.5 614.5 Q125 645 152 667.5 Q179 690 212.5 702.5 Q246 715 279 715 Q309 715 338 705.5 Q367 696 389.5 677.5 Q412 659 426 633 Q440 607 440 574 Q440 540 425 512.5 Q410 485 386.5 462.5 Q363 440 335 422 Q307 404 282 388 Q310 362 335 333 Q360 304 386 276 L490 168 Z M264 412 Q282 424 300.5 438.5 Q319 453 334.5 469.5 Q350 486 359.5 506 Q369 526 369 549 Q369 572 358 598.5 Q347 625 330 642 Q297 675 254 675 Q233 675 215 667 Q197 659 183.5 645 Q170 631 162.5 613 Q155 595 155 574 Q155 545 173.5 519.5 Q192 494 210 473 Q224 458 237 442.5 Q250 427 264 412 Z M449 90 Q392 154 334 216 Q276 278 216 339 Q178 316 156.5 284 Q135 252 135 206 Q135 170 149.5 138.5 Q164 107 188.5 83.5 Q213 60 245 46.5 Q277 33 312 33 Q353 33 385 50 Q417 67 449 90 Z " />
<glyph glyph-name="grave" unicode="&#x60;" horiz-adv-x="284" d="M145 685 Q155 664 163 650 Q171 636 180 625 Q189 614 201 603 Q213 592 231 577 L231 563 Q217 565 204.5 565.5 Q192 566 181 569 Q153 576 126 592.5 Q99 609 82 632 Q73 643 66 655.5 Q59 668 51 681 L145 685 Z " />
<glyph glyph-name="acute" unicode="&#xb4;" horiz-adv-x="284" d="M52 581 Q87 599 106 625 Q125 651 143 685 L233 680 Q214 652 196.5 632 Q179 612 159.5 598.5 Q140 585 116 577.5 Q92 570 59 566 L52 581 Z " />
<glyph glyph-name="circumflex" unicode="&#x2c6;" horiz-adv-x="284" d="M12 576 Q31 593 43.5 606 Q56 619 66 632.5 Q76 646 85 661.5 Q94 677 106 699 L163 707 Q176 685 187.5 668 Q199 651 211.5 635.5 Q224 620 238.5 604.5 Q253 589 273 571 L252 557 Q233 564 219 571 Q205 578 192.5 585.5 Q180 593 168 602 Q156 611 141 623 Q124 610 111.5 600.5 Q99 591 86.5 583.5 Q74 576 59.5 569 Q45 562 24 555 L12 576 Z " />
<glyph glyph-name="caron" unicode="&#x2c7;" horiz-adv-x="284" d="M35 708 Q54 701 68 694.5 Q82 688 94 680 Q106 672 117.5 662.5 Q129 653 144 641 Q161 654 174 663.5 Q187 673 200 680.5 Q213 688 228.5 694 Q244 700 266 707 L266 689 Q249 672 237 659 Q225 646 215.5 632.5 Q206 619 197.5 603.5 Q189 588 178 567 L122 557 Q110 579 99 596.5 Q88 614 76 630 Q64 646 49.5 661.5 Q35 677 16 695 L35 708 Z " />
<glyph glyph-name="caronalt" unicode="&#xe000;" horiz-adv-x="193" d="M24 553 Q50 579 66.5 605 Q83 631 83 666 Q83 695 71 712.5 Q59 730 38 753 L119 792 Q133 769 140.5 748.5 Q148 728 148 703 Q148 677 140 655 Q132 633 118.5 613.5 Q105 594 88.5 576 Q72 558 54 540 L24 553 Z " />
<glyph glyph-name="commaaccent" unicode="&#xf6c3;" horiz-adv-x="148" d="M39 -208 Q47 -194 52.5 -180 Q58 -166 58 -152 Q58 -131 47.5 -115.5 Q37 -100 20 -83 L91 -37 Q107 -57 118.5 -77 Q130 -97 130 -123 Q130 -154 109 -180.5 Q88 -207 66 -228 L39 -208 Z " />
<glyph glyph-name="commaaccentalt" unicode="&#xe001;" horiz-adv-x="148" d="M61 532 Q45 552 33.5 572 Q22 592 22 618 Q22 649 43 675.5 Q64 702 86 723 L113 703 Q105 689 99.5 675 Q94 661 94 647 Q94 626 104.5 610.5 Q115 595 132 578 L61 532 Z " />
<glyph glyph-name="tilde" unicode="&#x2dc;" horiz-adv-x="284" d="M-22 591 Q-15 606 -6 621 Q3 636 14.5 648.5 Q26 661 40.5 668.5 Q55 676 73 676 Q103 676 132.5 662.5 Q162 649 191 640 Q200 637 208 635 Q216 633 224 633 Q245 633 256.5 643.5 Q268 654 280 673 L306 658 Q297 641 288 628 Q275 608 256.5 591.5 Q238 575 211 575 Q179 575 148 588.5 Q117 602 88 612 Q79 615 70.5 617 Q62 619 54 619 Q34 619 23.5 607 Q13 595 3 581 L-22 591 Z " />
<glyph glyph-name="dieresis" unicode="&#xa8;" horiz-adv-x="284" d="M234 583 Q212 583 198 598.5 Q184 614 184 635 Q184 656 199.5 669 Q215 682 235 682 Q256 682 270 666 Q284 650 284 630 Q284 609 269 596 Q254 583 234 583 Z M50 583 Q28 583 14 598.5 Q0 614 0 635 Q0 656 15.5 669 Q31 682 51 682 Q72 682 86 666 Q100 650 100 630 Q100 609 85 596 Q70 583 50 583 Z " />
<glyph glyph-name="macron" unicode="&#xaf;" horiz-adv-x="284" d="M3 668 L281 668 L281 602 L3 602 L3 668 Z " />
<glyph glyph-name="breve" unicode="&#x2d8;" horiz-adv-x="284" d="M11 695 Q17 687 26.5 677 Q36 667 51 658 Q66 649 88 643 Q110 637 142 637 Q174 637 196 643 Q218 649 233 658 Q248 667 257.5 677 Q267 687 273 695 L303 683 Q298 670 286 651.5 Q274 633 254.5 616 Q235 599 207 587 Q179 575 142 575 Q104 575 76.5 587 Q49 599 29.5 616 Q10 633 -2 651.5 Q-14 670 -19 683 L11 695 Z " />
<glyph glyph-name="ring" unicode="&#x2da;" horiz-adv-x="284" d="M41 642 Q41 663 49 681 Q57 699 71 713 Q85 727 103 735 Q121 743 142 743 Q163 743 181 735 Q199 727 213 713 Q227 699 235 681 Q243 663 243 642 Q243 621 235 603 Q227 585 213 571 Q199 557 181 549 Q163 541 142 541 Q121 541 103 549 Q85 557 71 571 Q57 585 49 603 Q41 621 41 642 Z M142 580 Q168 580 186 598 Q204 616 204 642 Q204 669 186 686.5 Q168 704 142 704 Q116 704 98 686 Q80 668 80 642 Q80 616 98 598 Q116 580 142 580 Z " />
</font>
</svg>
