<?xml version="1.0" encoding="UTF-8"?>
<svg xmlns="http://www.w3.org/2000/svg" xmlns:xlink="http://www.w3.org/1999/xlink" version="1.2" >
<font id="VolvoSerifWebItalic">
<font-face  font-family="Volvo Serif Web" units-per-em="1000" ascent="750" descent="-250" font-style="italic" font-weight="400" font-stretch="normal" slope="-12" cap-height="706" x-height="471" underline-position="-75" underline-thickness="50" />
<missing-glyph  horiz-adv-x="500" d="M12 950 L487 950 L487 -250 L12 -250 L12 950 Z " />
<glyph glyph-name=".null" d="" />
<glyph glyph-name="nonmarkingreturn" unicode="&#xd;" horiz-adv-x="277" d="" />
<glyph glyph-name="space" unicode="&#x20;" horiz-adv-x="277" d="" />
<glyph glyph-name="A" unicode="A" horiz-adv-x="739" d="M700 -3 Q668 -2 636.5 -1 Q605 0 574 0 Q541 0 507.5 -1 Q474 -2 438 -3 L447 32 L460 32 Q471 32 483.5 33 Q496 34 504 38 Q513 43 518.5 53 Q524 63 524 83 Q524 94 523 104 Q522 114 521 125 L506 291 L277 291 L158 110 Q152 101 146 91 Q140 81 140 70 Q140 45 156 37.5 Q172 30 195 30 Q200 30 206 30 Q212 30 220 31 L211 -4 Q178 -2 146.5 -1 Q115 0 83 0 Q54 0 24.5 -1 Q-5 -2 -37 -4 L-26 32 Q-6 33 10.5 40 Q27 47 41 58.5 Q55 70 67 84 Q79 98 91 113 Q136 172 177 232.5 Q218 293 261 353 Q325 444 389 536.5 Q453 629 519 724 L555 724 L614 116 Q617 90 621 73.5 Q625 57 634 48 Q643 39 659 35.5 Q675 32 701 32 L708 32 L700 -3 Z M503 333 Q496 400 490.5 466.5 Q485 533 480 600 Q388 468 303 333 L503 333 Z " />
<glyph glyph-name="B" unicode="B" horiz-adv-x="614" d="M569 545 Q569 484 530 439 Q511 416 485 403.5 Q459 391 431 382 Q495 369 530 327 Q565 285 565 217 Q565 183 554 150 Q539 103 505 65.5 Q471 28 423 12 Q394 3 365.5 1.5 Q337 0 308 0 L2 0 L10 35 L28 35 Q57 35 73 50.5 Q89 66 94 94 L190 592 Q193 604 193 619 Q193 635 186.5 645 Q180 655 169 660.5 Q158 666 143.5 668 Q129 670 113 671 L122 706 L395 706 Q429 706 460.5 694.5 Q492 683 516 662 Q540 641 554.5 611.5 Q569 582 569 545 Z M479 545 Q479 610 440 640.5 Q401 671 340 671 Q329 671 317.5 670.5 Q306 670 295 669 L247 409 Q263 407 278.5 406 Q294 405 311 405 Q345 405 376 412.5 Q407 420 429.5 436.5 Q452 453 465.5 480 Q479 507 479 545 Z M471 206 Q471 243 458.5 272.5 Q446 302 423.5 323 Q401 344 370 355 Q339 366 303 366 Q286 366 270 363.5 Q254 361 237 358 L190 115 Q189 110 188 104 Q187 98 187 91 Q187 72 197 61 Q207 50 222 44 Q237 38 254.5 36.5 Q272 35 287 35 Q329 35 370 50 Q394 59 412.5 75 Q431 91 444 112 Q457 133 464 157 Q471 181 471 206 Z " />
<glyph glyph-name="C" unicode="C" horiz-adv-x="765" d="M738 518 L708 518 Q706 536 703.5 549 Q701 562 696.5 573 Q692 584 684 595 Q676 606 664 618 Q632 650 587 664.5 Q542 679 493 679 Q427 679 370.5 658 Q314 637 272 596 Q230 555 206 495.5 Q182 436 182 359 Q182 302 197 249 Q212 196 246 151 Q289 95 353 65 Q417 35 487 35 Q531 35 577.5 48 Q624 61 658 88 Q673 100 684 115.5 Q695 131 706 146 L732 146 L717 40 Q653 14 595.5 -0.5 Q538 -15 469 -15 Q443 -15 416 -12 Q344 -6 282.5 23.5 Q221 53 176 100 Q131 147 106 210 Q81 273 81 346 Q81 393 92 438.5 Q103 484 125 526 Q153 580 194 617.5 Q235 655 284.5 678.5 Q334 702 390 713 Q446 724 503 724 Q541 724 574 719.5 Q607 715 638 706.5 Q669 698 698.5 686 Q728 674 759 659 L738 518 Z " />
<glyph glyph-name="D" unicode="D" horiz-adv-x="781" d="M756 388 Q756 334 741.5 281.5 Q727 229 699.5 183.5 Q672 138 632.5 100.5 Q593 63 544 38 Q499 16 444.5 5 Q390 -6 323 -6 Q267 -6 210.5 -2.5 Q154 1 91 0 L-1 -1 L7 34 Q46 34 65.5 46 Q85 58 93 97 L189 597 Q190 602 191 608 Q192 614 192 621 Q192 637 185 646.5 Q178 656 167 661.5 Q156 667 141 669 Q126 671 111 671 L120 706 Q205 706 278 708 Q351 710 428 710 Q498 710 558 686.5 Q618 663 662 621 Q706 579 731 519.5 Q756 460 756 388 Z M659 394 Q659 427 654.5 458 Q650 489 637 520 Q620 560 593 588 Q566 616 532 634 Q498 652 458.5 660 Q419 668 379 668 Q357 668 335 666 Q313 664 291 662 L188 120 Q186 113 185 106 Q184 99 184 91 Q184 72 193.5 61 Q203 50 219 44.5 Q235 39 255 37.5 Q275 36 296 36 Q381 36 448.5 60.5 Q516 85 563 131.5 Q610 178 634.5 244 Q659 310 659 394 Z " />
<glyph glyph-name="E" unicode="E" horiz-adv-x="576" d="M553 549 L517 550 Q518 561 518.5 570.5 Q519 580 519 588 Q519 608 515 622 Q511 636 494 648 Q482 656 466 660.5 Q450 665 434 665 L291 665 Q280 595 266.5 526.5 Q253 458 239 389 L376 389 Q399 389 414.5 393 Q430 397 440.5 406.5 Q451 416 458.5 431 Q466 446 472 468 L507 468 L469 267 L435 268 Q435 274 435.5 278 Q436 282 436 286 Q436 325 413 335.5 Q390 346 355 346 L232 346 L194 147 Q190 129 188 116.5 Q186 104 186 92 Q186 68 204 56 Q222 44 244 44 L347 44 Q395 44 431 59.5 Q467 75 486 122 Q489 130 492 138.5 Q495 147 499 158 L535 158 L510 0 L-1 0 L8 35 Q22 36 33 37.5 Q44 39 55 44 Q71 52 80.5 68.5 Q90 85 94 103 L190 599 Q193 612 193 621 Q193 650 172.5 660.5 Q152 671 124 671 L113 671 L119 706 L582 706 L553 549 Z " />
<glyph glyph-name="F" unicode="F" horiz-adv-x="519" d="M547 550 L512 550 Q513 563 514.5 574 Q516 585 516 596 Q516 618 509 632.5 Q502 647 489 654.5 Q476 662 459 665 Q442 668 421 668 L293 668 L241 390 L389 390 Q407 390 418 394 Q429 398 436.5 406 Q444 414 449 426 Q454 438 459 455 L494 455 L452 260 L414 261 Q417 271 419 285 Q421 299 421 307 Q421 333 404 339.5 Q387 346 363 346 L233 346 L190 122 Q188 110 187 100.5 Q186 91 186 85 Q186 52 206 42.5 Q226 33 255 33 L272 33 L266 -2 Q228 -1 191.5 -0.5 Q155 0 119 0 Q90 0 61 0 Q32 0 0 -2 L6 33 Q24 33 38.5 34.5 Q53 36 64 43 Q75 50 82.5 64.5 Q90 79 95 105 L183 571 Q187 591 188.5 603 Q190 615 190 623 Q190 645 177 653.5 Q164 662 145 667 Q136 669 129.5 669.5 Q123 670 113 671 L119 706 L579 706 L547 550 Z " />
<glyph glyph-name="G" unicode="G" horiz-adv-x="864" d="M837 281 L821 281 Q802 281 790 275 Q778 269 770.5 258.5 Q763 248 758.5 233 Q754 218 751 201 L713 9 Q666 -5 621 -10 Q576 -15 528 -15 Q475 -15 423.5 -8.5 Q372 -2 324.5 15 Q277 32 234 60 Q191 88 156 132 Q117 180 99 233.5 Q81 287 81 348 Q81 405 97 456.5 Q113 508 142.5 551 Q172 594 214 628 Q256 662 308 684 Q338 697 387 709.5 Q436 722 516 722 Q559 722 595.5 718.5 Q632 715 666.5 707.5 Q701 700 736 687.5 Q771 675 812 658 Q806 619 799.5 582 Q793 545 785 507 L751 507 Q751 514 751.5 518.5 Q752 523 752 528 Q752 571 728 600 Q704 629 669 646 Q634 663 593 670.5 Q552 678 518 678 Q442 678 379.5 652.5 Q317 627 273 582.5 Q229 538 204.5 476.5 Q180 415 180 343 Q180 275 202 219 Q224 163 265.5 122.5 Q307 82 365.5 59.5 Q424 37 498 37 Q516 37 536 39 Q556 41 571 43 Q594 46 611.5 53.5 Q629 61 637 76 Q641 84 643 96.5 Q645 109 649 132 Q654 166 658 194 Q662 222 662 238 Q662 263 651.5 272 Q641 281 619 281 L587 281 L590 316 L841 316 L837 281 Z " />
<glyph glyph-name="H" unicode="H" horiz-adv-x="802" d="M849 673 Q805 673 786 657 Q767 641 760 601 L670 118 Q668 110 667 100.5 Q666 91 666 83 Q666 64 671.5 53.5 Q677 43 687 38.5 Q697 34 712 33.5 Q727 33 746 33 L738 -2 Q704 -1 671 -0.5 Q638 0 606 0 Q575 0 544.5 -0.5 Q514 -1 480 -2 L488 33 Q513 33 528.5 38.5 Q544 44 553.5 54.5 Q563 65 568 81 Q573 97 577 119 L622 347 L232 347 L193 135 Q188 109 187 99 Q186 89 186 82 Q186 55 199 43.5 Q212 32 241 32 L268 32 L257 -3 Q188 0 124 0 Q94 0 64 -1 Q34 -2 1 -4 L10 32 Q22 32 32 32.5 Q42 33 52 37 Q69 43 79 59.5 Q89 76 92 93 L184 567 Q187 582 189.5 598 Q192 614 192 621 Q192 639 186 649 Q180 659 170 664.5 Q160 670 146 671 Q132 672 116 673 L121 708 Q188 706 251 706 Q281 706 312 706.5 Q343 707 376 709 L370 674 Q326 675 307 659.5 Q288 644 281 604 L241 389 L630 389 L663 568 Q668 591 669 602 Q670 613 670 621 Q670 639 664.5 649 Q659 659 649 664 Q639 669 625 671 Q611 673 594 673 L602 708 Q637 707 670 706.5 Q703 706 736 706 Q765 706 794.5 706.5 Q824 707 856 708 L849 673 Z " />
<glyph glyph-name="I" unicode="I" horiz-adv-x="323" d="M369 673 Q346 673 331 671 Q316 669 306.5 660.5 Q297 652 291 638 Q285 624 281 603 L191 125 Q186 102 186 82 Q186 50 201 40 Q216 30 243 30 L266 30 L259 -3 Q223 -3 188.5 -1.5 Q154 0 119 0 Q91 0 62.5 -0.5 Q34 -1 2 -2 L9 33 L22 33 Q43 33 56 39 Q69 45 77 56 Q85 67 90 82 Q95 97 98 115 L185 574 Q192 608 192 622 Q192 656 169 665.5 Q146 675 113 674 L121 708 Q152 707 181.5 706.5 Q211 706 240 706 Q274 706 307.5 706 Q341 706 378 708 L369 673 Z " />
<glyph glyph-name="J" unicode="J" horiz-adv-x="385" d="M441 675 Q423 674 407 667.5 Q391 661 380 644 Q375 636 372 626 Q369 616 367 606 Q358 560 348.5 515.5 Q339 471 331 423 Q320 365 310 307 Q300 249 282 189 Q267 139 241.5 91.5 Q216 44 170 14 Q150 2 128.5 -5 Q107 -12 84 -12 Q63 -12 43 -5 Q23 2 3 10 L21 106 L52 106 Q52 75 62.5 54.5 Q73 34 105 34 Q116 34 126.5 39 Q137 44 145 52 Q161 68 168.5 87 Q176 106 181 128 Q193 184 203.5 238.5 Q214 293 225 350 Q236 406 246 455.5 Q256 505 266 561 Q270 581 272.5 599.5 Q275 618 275 629 Q275 659 258 666.5 Q241 674 215 674 L195 674 L205 709 Q272 706 336 706 Q363 706 390 707 Q417 708 447 710 L441 675 Z " />
<glyph glyph-name="K" unicode="K" horiz-adv-x="718" d="M685 -4 Q654 -2 624 -1 Q594 0 565 0 Q536 0 505.5 -1 Q475 -2 443 -4 L451 30 L458 30 Q473 30 483 36 Q493 42 493 53 Q493 62 488 72 Q483 82 478 90 L293 362 L223 299 L190 121 Q187 106 185.5 97.5 Q184 89 184 81 Q184 55 202 43 Q220 31 246 31 L261 31 L252 -4 Q220 -2 189.5 -1 Q159 0 128 0 Q96 0 65 -1 Q34 -2 -1 -4 L7 31 Q18 32 29.5 33 Q41 34 52 39 Q69 47 77.5 63 Q86 79 91 97 Q98 118 103.5 149.5 Q109 181 114 204 L185 573 Q189 591 190.5 601.5 Q192 612 192 620 Q192 636 186 646.5 Q180 657 169 662.5 Q158 668 143 670.5 Q128 673 110 673 L120 708 Q155 707 188.5 706.5 Q222 706 255 706 Q284 706 313 706.5 Q342 707 374 708 L365 673 Q343 670 329 666 Q315 662 306 654 Q297 646 291 632 Q285 618 281 595 L235 362 L504 620 Q512 628 520.5 638.5 Q529 649 529 660 Q529 671 516.5 674 Q504 677 492 677 L499 709 Q550 706 598 706 Q619 706 640.5 706 Q662 706 686 708 L677 673 Q656 670 645 666.5 Q634 663 627 659 Q620 655 606.5 643.5 Q593 632 568 609 L356 420 L589 91 Q602 73 611.5 62.5 Q621 52 632 45.5 Q643 39 657 35.5 Q671 32 694 30 L685 -4 Z " />
<glyph glyph-name="L" unicode="L" horiz-adv-x="593" d="M533 0 L-4 0 L4 35 L19 35 Q57 35 72.5 58 Q88 81 95 115 L183 561 Q189 590 190 602.5 Q191 615 191 620 Q191 654 171 664 Q151 674 120 674 L112 674 L118 709 Q163 707 200 706.5 Q237 706 263 706 Q304 706 335 706 Q366 706 393 707 L384 672 Q359 672 342 669.5 Q325 667 313 659.5 Q301 652 294 637 Q287 622 282 597 L195 144 Q189 115 189 102 Q189 79 202.5 67 Q216 55 235.5 50 Q255 45 277 44 Q299 43 317 43 Q360 43 393.5 47.5 Q427 52 452 65.5 Q477 79 495.5 104 Q514 129 527 170 L560 170 L533 0 Z " />
<glyph glyph-name="M" unicode="M" horiz-adv-x="927" d="M952 672 Q936 671 921 669.5 Q906 668 892 651 Q878 634 872.5 607.5 Q867 581 863 556 L807 166 Q803 140 801.5 123.5 Q800 107 800 94 Q800 84 802.5 72.5 Q805 61 812.5 51.5 Q820 42 834 36 Q848 30 870 30 L881 30 L869 -5 Q832 -3 796.5 -1.5 Q761 0 726 0 Q696 0 665 -1 Q634 -2 601 -3 L607 32 Q642 35 662.5 44.5 Q683 54 694.5 70 Q706 86 711 109 Q716 132 721 163 L783 602 Q692 450 606 297 Q520 144 427 -8 L408 -8 Q403 9 398 25.5 Q393 42 388 58 L247 484 Q242 497 238.5 510.5 Q235 524 231 538 L162 194 Q157 168 154 150.5 Q151 133 149.5 121.5 Q148 110 147.5 102.5 Q147 95 147 89 Q147 57 162 44.5 Q177 32 212 30 L199 -4 Q173 -2 148.5 -1 Q124 0 99 0 Q71 0 42.5 -0.5 Q14 -1 -17 -3 L-8 31 Q12 32 23.5 35 Q35 38 49 49 Q66 62 73 82 Q80 102 86 121 Q115 212 136.5 305 Q158 398 178 492 Q183 512 186 533.5 Q189 555 189 570 Q189 599 179 625 Q169 651 141 663 Q127 669 113.5 670.5 Q100 672 85 674 L92 708 Q116 707 138.5 706.5 Q161 706 184 706 Q203 706 224 706.5 Q245 707 265 707 L454 139 Q539 281 624.5 423.5 Q710 566 795 709 Q818 708 839 707 Q860 706 881 706 Q899 706 917.5 706.5 Q936 707 957 708 L952 672 Z " />
<glyph glyph-name="N" unicode="N" horiz-adv-x="822" d="M867 675 Q848 675 836 671 Q789 658 777 592 L663 -16 L625 -16 L230 574 L156 122 Q153 105 152.5 96.5 Q152 88 152 81 Q152 53 172 44.5 Q192 36 220 36 L216 1 L-2 1 L8 36 Q18 37 28.5 38 Q39 39 50 43 Q73 51 82 69.5 Q91 88 96 111 L177 537 Q187 593 187 605 Q187 629 175 645 Q158 667 131.5 670 Q105 673 76 673 L84 708 Q108 707 130 706.5 Q152 706 175 706 Q192 706 209 706.5 Q226 707 245 708 L639 120 L712 550 Q717 582 718.5 594 Q720 606 720 616 Q720 624 717.5 634 Q715 644 709 652 Q695 669 677.5 671 Q660 673 636 673 L642 708 Q672 707 700.5 706.5 Q729 706 757 706 Q810 706 872 709 L867 675 Z " />
<glyph glyph-name="O" unicode="O" horiz-adv-x="864" d="M838 356 Q838 309 826.5 264 Q815 219 793.5 178 Q772 137 741 102 Q710 67 670 42 Q622 12 571 -1 Q520 -14 464 -14 Q382 -14 312 12 Q242 38 190.5 86 Q139 134 110 202 Q81 270 81 354 Q81 416 100 473 Q119 530 153.5 577.5 Q188 625 237 659.5 Q286 694 347 710 Q373 717 398.5 719 Q424 721 450 721 Q522 721 592 700.5 Q662 680 717 631 Q777 579 807.5 506.5 Q838 434 838 356 Z M737 367 Q737 428 719.5 483.5 Q702 539 668.5 582 Q635 625 584.5 650.5 Q534 676 468 676 Q401 676 347.5 647 Q294 618 256.5 571.5 Q219 525 199 465 Q179 405 179 344 Q179 299 189.5 254.5 Q200 210 221 170.5 Q242 131 273.5 99.5 Q305 68 347 50 Q372 39 401.5 35 Q431 31 457 31 Q502 31 538.5 46 Q575 61 610 89 Q673 140 705 214 Q737 288 737 367 Z " />
<glyph glyph-name="P" unicode="P" horiz-adv-x="559" d="M588 541 Q588 499 569.5 463.5 Q551 428 520 402 Q472 360 411 343 Q350 326 288 326 Q274 326 259.5 326.5 Q245 327 231 328 L194 134 Q190 114 189 105 Q188 96 188 88 Q188 68 194.5 57 Q201 46 213 40.5 Q225 35 240.5 33 Q256 31 274 31 L266 -4 Q234 -2 204.5 -1 Q175 0 145 0 Q110 0 74 -1 Q38 -2 0 -4 L9 31 Q19 32 29 32 Q39 32 48 35 Q75 43 85 68 Q95 93 100 120 L186 563 Q190 583 191.5 595.5 Q193 608 193 615 Q193 649 173.5 660 Q154 671 121 671 L114 671 L122 706 L392 706 Q431 706 466.5 696.5 Q502 687 529 666.5 Q556 646 572 615 Q588 584 588 541 Z M499 532 Q499 566 487 592 Q475 618 454 635.5 Q433 653 404.5 662 Q376 671 343 671 Q320 671 296 668 L239 377 Q259 375 279 372.5 Q299 370 320 370 Q358 370 391 380 Q424 390 448 410.5 Q472 431 485.5 461 Q499 491 499 532 Z " />
<glyph glyph-name="Q" unicode="Q" horiz-adv-x="864" d="M838 356 Q838 309 826.5 264 Q815 219 793.5 178 Q772 137 741 102 Q710 67 670 42 Q634 19 596.5 6.5 Q559 -6 519 -11 Q541 -46 563 -70.5 Q585 -95 610.5 -110 Q636 -125 666.5 -132 Q697 -139 735 -139 Q758 -139 780 -137 Q802 -135 827 -133 L831 -169 Q794 -174 760 -179 Q726 -184 691 -184 Q635 -184 593 -172 Q551 -160 517 -137.5 Q483 -115 454.5 -82.5 Q426 -50 398 -9 Q329 1 271 30.5 Q213 60 170.5 107 Q128 154 104.5 216.5 Q81 279 81 354 Q81 416 99.5 473.5 Q118 531 152.5 578.5 Q187 626 236.5 660 Q286 694 347 709 Q372 715 399 718 Q426 721 452 721 Q524 721 593 700.5 Q662 680 717 631 Q777 579 807.5 506.5 Q838 434 838 356 Z M737 367 Q737 428 719.5 483.5 Q702 539 668.5 582 Q635 625 584.5 650.5 Q534 676 468 676 Q401 676 347.5 647 Q294 618 256.5 571.5 Q219 525 199 465 Q179 405 179 344 Q179 299 189.5 254.5 Q200 210 221 170.5 Q242 131 273.5 99.5 Q305 68 347 50 Q372 39 401.5 35 Q431 31 457 31 Q502 31 538.5 46 Q575 61 610 89 Q673 140 705 214 Q737 288 737 367 Z " />
<glyph glyph-name="R" unicode="R" horiz-adv-x="656" d="M649 4 Q631 -1 614 -3.5 Q597 -6 580 -6 Q545 -6 520 7 Q495 20 476 40.5 Q457 61 443 87.5 Q429 114 416 141 L347 292 Q339 309 333.5 316.5 Q328 324 320 328 Q315 330 306.5 330.5 Q298 331 285 331 L230 331 L196 154 Q190 122 187.5 107 Q185 92 185 84 Q185 52 207.5 42 Q230 32 264 31 L253 -3 Q229 -2 211.5 -1 Q194 0 179 0 Q164 0 150 0 Q136 0 118 0 Q83 0 57 -1 Q31 -2 -1 -4 L7 31 Q28 33 42 36.5 Q56 40 65.5 48 Q75 56 81.5 70 Q88 84 94 107 Q97 119 102 140 Q107 161 110 178 L185 569 Q190 595 191 604 Q192 613 192 619 Q192 636 185.5 646 Q179 656 168 661.5 Q157 667 142.5 669 Q128 671 112 671 L118 706 L397 706 Q459 706 492 692 Q525 678 548 650 Q565 629 572.5 602.5 Q580 576 580 550 Q580 494 558 450.5 Q536 407 489 378 Q473 368 455.5 360 Q438 352 421 344 Q445 292 469.5 239 Q494 186 519 135 Q530 112 541 93.5 Q552 75 567 61.5 Q582 48 601.5 40.5 Q621 33 649 33 L649 4 Z M491 538 Q491 609 451 639 Q411 669 344 669 L293 669 L237 369 L268 369 Q311 369 349.5 375 Q388 381 424 405 Q459 429 475 462.5 Q491 496 491 538 Z " />
<glyph glyph-name="S" unicode="S" horiz-adv-x="531" d="M503 555 L475 555 Q473 572 469.5 586 Q466 600 459 613 Q441 646 405.5 662 Q370 678 329 678 Q303 678 279.5 670.5 Q256 663 239 648.5 Q222 634 212 612.5 Q202 591 202 564 Q202 526 220.5 498 Q239 470 268 448 L396 352 Q445 315 463.5 276 Q482 237 482 201 Q482 143 448 94 Q428 64 399.5 43.5 Q371 23 338.5 10.5 Q306 -2 271 -7 Q236 -12 202 -12 Q160 -12 121 -4.5 Q82 3 40 16 L67 156 L97 155 Q101 129 107 110.5 Q113 92 130 75 Q150 57 178 47 Q206 37 232 37 Q263 37 292 45 Q321 53 343.5 69.5 Q366 86 380 111 Q394 136 394 170 Q394 191 386 210.5 Q378 230 365 246.5 Q352 263 336.5 277 Q321 291 305 303 L254 340 Q228 359 203 378.5 Q178 398 158 420.5 Q138 443 126 469 Q114 495 114 527 Q114 576 132.5 612.5 Q151 649 182.5 673 Q214 697 255.5 709 Q297 721 342 721 Q369 721 391.5 718 Q414 715 435 709.5 Q456 704 477.5 696 Q499 688 524 678 L503 555 Z " />
<glyph glyph-name="T" unicode="T" horiz-adv-x="614" d="M668 540 L633 540 Q635 554 636 565.5 Q637 577 637 588 Q637 634 616 652 Q595 670 551 670 L440 670 L346 162 Q342 141 339.5 127 Q337 113 336 105 Q335 97 335 92.5 Q335 88 335 85 Q335 68 341.5 58 Q348 48 358.5 42.5 Q369 37 383 35 Q397 33 413 32 L405 -3 Q387 -2 366.5 -1.5 Q346 -1 326.5 -0.5 Q307 0 290 0 Q273 0 261 0 Q240 0 209 0 Q178 0 147 -2 L156 34 L174 34 Q193 34 205 40.5 Q217 47 224.5 58 Q232 69 236.5 84 Q241 99 244 116 L349 669 L294 669 Q261 669 229 664 Q197 659 169 642 Q139 623 127 595 Q115 567 105 533 L71 533 L99 706 L696 706 L668 540 Z " />
<glyph glyph-name="U" unicode="U" horiz-adv-x="781" d="M852 675 Q827 674 805.5 669.5 Q784 665 770 645 Q765 638 761 627.5 Q757 617 753.5 605 Q750 593 747.5 581 Q745 569 743 560 L686 274 Q675 219 656 167.5 Q637 116 598 74 Q554 26 493.5 5.5 Q433 -15 369 -15 Q317 -15 270.5 0 Q224 15 188.5 44 Q153 73 132 116.5 Q111 160 111 216 Q111 236 113.5 257 Q116 278 120 299 L168 547 Q172 566 174 578.5 Q176 591 177 598.5 Q178 606 178.5 611 Q179 616 179 621 Q179 656 160 665.5 Q141 675 109 675 L100 675 L110 710 Q141 708 171 707 Q201 706 230 706 Q263 706 296.5 707.5 Q330 709 366 711 L359 675 Q337 672 321.5 668 Q306 664 295.5 655.5 Q285 647 278.5 633.5 Q272 620 268 599 L212 309 Q207 285 205 261.5 Q203 238 203 227 Q203 135 254.5 88 Q306 41 390 41 Q453 41 495.5 61 Q538 81 566 115.5 Q594 150 610 196.5 Q626 243 637 296 L678 509 Q686 549 688.5 572.5 Q691 596 691 610 Q691 650 673 662.5 Q655 675 618 675 L605 675 L614 710 Q646 708 676.5 707 Q707 706 737 706 Q766 706 795 707 Q824 708 856 710 L852 675 Z " />
<glyph glyph-name="V" unicode="V" horiz-adv-x="739" d="M828 674 Q802 674 782.5 667.5 Q763 661 747.5 649.5 Q732 638 719 621.5 Q706 605 692 585 L283 -18 L245 -18 L186 589 Q183 615 179 632 Q175 649 165.5 658.5 Q156 668 139.5 671.5 Q123 675 97 675 L90 675 L94 710 Q129 708 161.5 707 Q194 706 226 706 Q288 706 356 709 L348 674 L335 674 Q303 674 290 659.5 Q277 645 277 614 Q277 609 277.5 594.5 Q278 580 280 554 L322 114 L577 504 Q606 549 633 597 Q640 610 645.5 622 Q651 634 651 648 Q651 664 639.5 669 Q628 674 610 674 L596 674 L605 709 Q662 706 716 706 Q745 706 774.5 706.5 Q804 707 836 709 L828 674 Z " />
<glyph glyph-name="W" unicode="W" horiz-adv-x="1031" d="M1120 675 Q1102 673 1090 670 Q1078 667 1067.5 662.5 Q1057 658 1047 650 Q1037 642 1024 629 Q1002 607 982 576 Q962 545 942 514 L612 -18 L579 -18 L544 526 L252 -18 L214 -18 Q214 -10 214 0 Q214 10 212 25 L169 599 Q167 624 161.5 639 Q156 654 145.5 661.5 Q135 669 118 671.5 Q101 674 76 674 L80 709 Q147 706 208 706 Q239 706 270 707 Q301 708 335 709 L326 674 L316 674 Q290 674 273 666.5 Q256 659 256 631 Q256 627 256.5 614.5 Q257 602 258 591 L292 143 L583 721 L624 721 Q631 569 641 423.5 Q651 278 656 127 L901 549 Q917 577 926 594.5 Q935 612 939.5 622 Q944 632 945 637 Q946 642 946 647 Q946 665 930 669.5 Q914 674 893 674 L878 674 L885 709 Q917 708 947 707 Q977 706 1007 706 Q1036 706 1066.5 707 Q1097 708 1129 710 L1120 675 Z " />
<glyph glyph-name="X" unicode="X" horiz-adv-x="760" d="M775 673 Q753 673 738.5 668.5 Q724 664 711 655 Q698 646 685.5 631.5 Q673 617 655 598 L452 375 L613 105 Q621 92 635 74 Q649 56 660 47 Q672 37 687.5 35.5 Q703 34 719 34 L732 34 L723 -1 Q691 0 660 0 Q629 0 598 0 Q563 0 527.5 -0.5 Q492 -1 454 -1 L461 34 L475 34 Q484 34 493 34.5 Q502 35 509.5 37.5 Q517 40 522 45.5 Q527 51 527 61 Q527 74 518.5 88 Q510 102 504 113 L381 317 L268 190 Q262 182 246.5 165.5 Q231 149 215.5 129.5 Q200 110 188 91.5 Q176 73 176 63 Q176 49 180.5 40.5 Q185 32 202 32 L230 32 L220 -3 Q181 -2 143 -1 Q105 0 67 0 Q50 0 33 0 Q16 0 -1 -1 L7 34 Q27 34 42.5 39 Q58 44 71 52 Q84 60 95.5 71.5 Q107 83 119 96 L358 356 L201 620 Q189 640 178.5 651 Q168 662 155 667 Q142 672 126.5 673 Q111 674 89 674 L97 709 Q161 706 223 706 Q291 706 368 709 L362 673 L330 673 Q316 673 305 670 Q294 667 294 651 Q294 639 304.5 620.5 Q315 602 330 577 L428 413 L585 596 Q605 620 611.5 633.5 Q618 647 618 656 Q618 663 614 666.5 Q610 670 603.5 671 Q597 672 589.5 672 Q582 672 575 672 L584 708 Q612 707 642 706.5 Q672 706 691 706 Q734 706 785 709 L775 673 Z " />
<glyph glyph-name="Y" unicode="Y" horiz-adv-x="656" d="M737 673 Q714 670 699 667 Q684 664 672.5 657.5 Q661 651 651 640 Q641 629 627 611 L395 306 L359 113 Q355 93 355 77 Q355 62 360.5 53 Q366 44 375.5 39.5 Q385 35 397.5 33.5 Q410 32 424 32 L436 32 L430 -3 Q395 -2 361.5 -1 Q328 0 295 0 Q236 0 170 -3 L179 32 Q204 33 219.5 37 Q235 41 244.5 50 Q254 59 259 74.5 Q264 90 269 115 L307 309 L187 588 Q180 605 169.5 626.5 Q159 648 145 660 Q134 670 119.5 672 Q105 674 90 674 L72 674 L78 709 Q138 706 193 706 Q222 706 250 707 Q278 708 310 709 L302 676 Q289 675 274 671 Q259 667 259 652 Q259 644 262 634 Q265 624 269 616 L380 356 L548 595 Q557 608 565.5 624 Q574 640 574 650 Q574 667 559.5 670.5 Q545 674 531 674 L507 674 L517 709 Q580 706 638 706 Q664 706 690.5 706.5 Q717 707 746 708 L737 673 Z " />
<glyph glyph-name="Z" unicode="Z" horiz-adv-x="593" d="M124 46 L386 46 Q418 46 445.5 56 Q473 66 487 88 Q496 102 501 118.5 Q506 135 509 155 L549 155 L530 0 L-26 0 L496 663 L343 663 Q327 663 307.5 662.5 Q288 662 268.5 659 Q249 656 231 650.5 Q213 645 200 635 Q177 617 168 590.5 Q159 564 154 533 L113 533 L142 706 L646 706 L124 46 Z " />
<glyph glyph-name="Agrave" unicode="&#xc0;" horiz-adv-x="739" d="M700 -3 Q668 -2 636.5 -1 Q605 0 574 0 Q541 0 507.5 -1 Q474 -2 438 -3 L447 32 L460 32 Q471 32 483.5 33 Q496 34 504 38 Q513 43 518.5 53 Q524 63 524 83 Q524 94 523 104 Q522 114 521 125 L506 291 L277 291 L158 110 Q152 101 146 91 Q140 81 140 70 Q140 45 156 37.5 Q172 30 195 30 Q200 30 206 30 Q212 30 220 31 L211 -4 Q178 -2 146.5 -1 Q115 0 83 0 Q54 0 24.5 -1 Q-5 -2 -37 -4 L-26 32 Q-6 33 10.5 40 Q27 47 41 58.5 Q55 70 67 84 Q79 98 91 113 Q136 172 177 232.5 Q218 293 261 353 Q325 444 389 536.5 Q453 629 519 724 L555 724 L614 116 Q617 90 621 73.5 Q625 57 634 48 Q643 39 659 35.5 Q675 32 701 32 L708 32 L700 -3 Z M503 333 Q496 400 490.5 466.5 Q485 533 480 600 Q388 468 303 333 L503 333 Z M590 767 Q548 781 509 801.5 Q470 822 447 860 Q440 873 435 886 Q430 899 425 912 L523 891 Q530 870 536.5 856.5 Q543 843 550.5 831.5 Q558 820 569 809.5 Q580 799 598 785 L590 767 Z " />
<glyph glyph-name="Aacute" unicode="&#xc1;" horiz-adv-x="739" d="M700 -3 Q668 -2 636.5 -1 Q605 0 574 0 Q541 0 507.5 -1 Q474 -2 438 -3 L447 32 L460 32 Q471 32 483.5 33 Q496 34 504 38 Q513 43 518.5 53 Q524 63 524 83 Q524 94 523 104 Q522 114 521 125 L506 291 L277 291 L158 110 Q152 101 146 91 Q140 81 140 70 Q140 45 156 37.5 Q172 30 195 30 Q200 30 206 30 Q212 30 220 31 L211 -4 Q178 -2 146.5 -1 Q115 0 83 0 Q54 0 24.5 -1 Q-5 -2 -37 -4 L-26 32 Q-6 33 10.5 40 Q27 47 41 58.5 Q55 70 67 84 Q79 98 91 113 Q136 172 177 232.5 Q218 293 261 353 Q325 444 389 536.5 Q453 629 519 724 L555 724 L614 116 Q617 90 621 73.5 Q625 57 634 48 Q643 39 659 35.5 Q675 32 701 32 L708 32 L700 -3 Z M503 333 Q496 400 490.5 466.5 Q485 533 480 600 Q388 468 303 333 L503 333 Z M623 912 Q615 898 609.5 886.5 Q604 875 598 865 Q582 841 556.5 818 Q531 795 505 783 Q495 778 485 776 Q475 774 464 769 L453 786 Q471 801 481.5 811.5 Q492 822 499.5 833 Q507 844 512.5 858 Q518 872 525 894 L623 912 L623 912 Z " />
<glyph glyph-name="Acircumflex" unicode="&#xc2;" horiz-adv-x="739" d="M700 -3 Q668 -2 636.5 -1 Q605 0 574 0 Q541 0 507.5 -1 Q474 -2 438 -3 L447 32 L460 32 Q471 32 483.5 33 Q496 34 504 38 Q513 43 518.5 53 Q524 63 524 83 Q524 94 523 104 Q522 114 521 125 L506 291 L277 291 L158 110 Q152 101 146 91 Q140 81 140 70 Q140 45 156 37.5 Q172 30 195 30 Q200 30 206 30 Q212 30 220 31 L211 -4 Q178 -2 146.5 -1 Q115 0 83 0 Q54 0 24.5 -1 Q-5 -2 -37 -4 L-26 32 Q-6 33 10.5 40 Q27 47 41 58.5 Q55 70 67 84 Q79 98 91 113 Q136 172 177 232.5 Q218 293 261 353 Q325 444 389 536.5 Q453 629 519 724 L555 724 L614 116 Q617 90 621 73.5 Q625 57 634 48 Q643 39 659 35.5 Q675 32 701 32 L708 32 L700 -3 Z M503 333 Q496 400 490.5 466.5 Q485 533 480 600 Q388 468 303 333 L503 333 Z M646 765 Q625 771 612.5 776.5 Q600 782 589.5 788.5 Q579 795 569 804 Q559 813 544 826 Q515 807 483 791.5 Q451 776 419 763 Q414 767 411 770 Q408 773 407 780 Q431 796 446.5 808.5 Q462 821 475 834 Q488 847 500 863 Q512 879 527 903 L576 903 Q585 882 592.5 866 Q600 850 609 836 Q618 822 629 808 Q640 794 656 778 L646 765 Z " />
<glyph glyph-name="Atilde" unicode="&#xc3;" horiz-adv-x="739" d="M700 -3 Q668 -2 636.5 -1 Q605 0 574 0 Q541 0 507.5 -1 Q474 -2 438 -3 L447 32 L460 32 Q471 32 483.5 33 Q496 34 504 38 Q513 43 518.5 53 Q524 63 524 83 Q524 94 523 104 Q522 114 521 125 L506 291 L277 291 L158 110 Q152 101 146 91 Q140 81 140 70 Q140 45 156 37.5 Q172 30 195 30 Q200 30 206 30 Q212 30 220 31 L211 -4 Q178 -2 146.5 -1 Q115 0 83 0 Q54 0 24.5 -1 Q-5 -2 -37 -4 L-26 32 Q-6 33 10.5 40 Q27 47 41 58.5 Q55 70 67 84 Q79 98 91 113 Q136 172 177 232.5 Q218 293 261 353 Q325 444 389 536.5 Q453 629 519 724 L555 724 L614 116 Q617 90 621 73.5 Q625 57 634 48 Q643 39 659 35.5 Q675 32 701 32 L708 32 L700 -3 Z M503 333 Q496 400 490.5 466.5 Q485 533 480 600 Q388 468 303 333 L503 333 Z M714 865 Q706 851 696.5 836.5 Q687 822 675.5 810 Q664 798 649.5 790.5 Q635 783 617 783 Q606 783 595.5 786 Q585 789 574 793 L507 818 Q491 824 483 825.5 Q475 827 467 827 Q446 827 436 816.5 Q426 806 416 790 L390 804 Q398 818 407 832.5 Q416 847 427.5 858.5 Q439 870 453 877 Q467 884 485 884 Q503 884 523.5 876.5 Q544 869 561 862 Q582 854 602 847 Q622 840 640 840 Q659 840 670 852.5 Q681 865 691 878 L714 865 L714 865 Z " />
<glyph glyph-name="Adieresis" unicode="&#xc4;" horiz-adv-x="739" d="M700 -3 Q668 -2 636.5 -1 Q605 0 574 0 Q541 0 507.5 -1 Q474 -2 438 -3 L447 32 L460 32 Q471 32 483.5 33 Q496 34 504 38 Q513 43 518.5 53 Q524 63 524 83 Q524 94 523 104 Q522 114 521 125 L506 291 L277 291 L158 110 Q152 101 146 91 Q140 81 140 70 Q140 45 156 37.5 Q172 30 195 30 Q200 30 206 30 Q212 30 220 31 L211 -4 Q178 -2 146.5 -1 Q115 0 83 0 Q54 0 24.5 -1 Q-5 -2 -37 -4 L-26 32 Q-6 33 10.5 40 Q27 47 41 58.5 Q55 70 67 84 Q79 98 91 113 Q136 172 177 232.5 Q218 293 261 353 Q325 444 389 536.5 Q453 629 519 724 L555 724 L614 116 Q617 90 621 73.5 Q625 57 634 48 Q643 39 659 35.5 Q675 32 701 32 L708 32 L700 -3 Z M503 333 Q496 400 490.5 466.5 Q485 533 480 600 Q388 468 303 333 L503 333 Z M690 842 Q690 831 685 819 Q680 807 671 797.5 Q662 788 651 782 Q640 776 628 776 Q611 776 601.5 787 Q592 798 592 815 Q592 826 597 838 Q602 850 610 860 Q618 870 629.5 876.5 Q641 883 653 883 Q671 883 680.5 870.5 Q690 858 690 842 Z M511 842 Q511 831 506 819 Q501 807 492 797.5 Q483 788 472 782 Q461 776 449 776 Q432 776 422.5 787 Q413 798 413 815 Q413 826 418 838 Q423 850 431 860 Q439 870 450.5 876.5 Q462 883 474 883 Q492 883 501.5 870.5 Q511 858 511 842 Z " />
<glyph glyph-name="Amacron" unicode="&#x100;" horiz-adv-x="739" d="M700 -3 Q668 -2 636.5 -1 Q605 0 574 0 Q541 0 507.5 -1 Q474 -2 438 -3 L447 32 L460 32 Q471 32 483.5 33 Q496 34 504 38 Q513 43 518.5 53 Q524 63 524 83 Q524 94 523 104 Q522 114 521 125 L506 291 L277 291 L158 110 Q152 101 146 91 Q140 81 140 70 Q140 45 156 37.5 Q172 30 195 30 Q200 30 206 30 Q212 30 220 31 L211 -4 Q178 -2 146.5 -1 Q115 0 83 0 Q54 0 24.5 -1 Q-5 -2 -37 -4 L-26 32 Q-6 33 10.5 40 Q27 47 41 58.5 Q55 70 67 84 Q79 98 91 113 Q136 172 177 232.5 Q218 293 261 353 Q325 444 389 536.5 Q453 629 519 724 L555 724 L614 116 Q617 90 621 73.5 Q625 57 634 48 Q643 39 659 35.5 Q675 32 701 32 L708 32 L700 -3 Z M503 333 Q496 400 490.5 466.5 Q485 533 480 600 Q388 468 303 333 L503 333 Z M677 798 L406 798 L417 852 L688 852 L677 798 Z " />
<glyph glyph-name="Abreve" unicode="&#x102;" horiz-adv-x="739" d="M700 -3 Q668 -2 636.5 -1 Q605 0 574 0 Q541 0 507.5 -1 Q474 -2 438 -3 L447 32 L460 32 Q471 32 483.5 33 Q496 34 504 38 Q513 43 518.5 53 Q524 63 524 83 Q524 94 523 104 Q522 114 521 125 L506 291 L277 291 L158 110 Q152 101 146 91 Q140 81 140 70 Q140 45 156 37.5 Q172 30 195 30 Q200 30 206 30 Q212 30 220 31 L211 -4 Q178 -2 146.5 -1 Q115 0 83 0 Q54 0 24.5 -1 Q-5 -2 -37 -4 L-26 32 Q-6 33 10.5 40 Q27 47 41 58.5 Q55 70 67 84 Q79 98 91 113 Q136 172 177 232.5 Q218 293 261 353 Q325 444 389 536.5 Q453 629 519 724 L555 724 L614 116 Q617 90 621 73.5 Q625 57 634 48 Q643 39 659 35.5 Q675 32 701 32 L708 32 L700 -3 Z M503 333 Q496 400 490.5 466.5 Q485 533 480 600 Q388 468 303 333 L503 333 Z M710 881 Q701 864 688 844.5 Q675 825 656.5 809 Q638 793 611.5 782.5 Q585 772 548 772 Q511 772 484.5 782.5 Q458 793 439 809 Q420 825 407.5 844.5 Q395 864 386 881 L417 892 Q449 855 482 844.5 Q515 834 548 834 Q581 834 614 844.5 Q647 855 679 892 L710 881 L710 881 Z " />
<glyph glyph-name="Aring" unicode="&#xc5;" horiz-adv-x="739" d="M647 820 Q647 799 639 781 Q631 763 617 749 Q603 735 585 727 Q571 721 555 719 L614 116 Q617 90 621 73.5 Q625 57 634 48 Q643 39 659 35.5 Q675 32 701 32 L708 32 L700 -3 Q668 -2 636.5 -1 Q605 0 574 0 Q541 0 507.5 -1 Q474 -2 438 -3 L447 32 L460 32 Q471 32 483.5 33 Q496 34 504 38 Q513 43 518.5 53 Q524 63 524 83 Q524 94 523 104 Q522 114 521 125 L506 291 L277 291 L158 110 Q152 101 146 91 Q140 81 140 70 Q140 45 156 37.5 Q172 30 195 30 L206 30 Q212 30 220 31 L211 -4 Q178 -2 146.5 -1 Q115 0 83 0 Q54 0 24.5 -1 Q-5 -2 -37 -4 L-26 32 Q-6 33 10.5 40 Q27 47 41 58.5 Q55 70 67 84 Q79 98 91 113 Q136 172 177 232.5 Q218 293 261 353 Q325 444 389 536 Q452 628 518 722 Q512 724 507 727 Q489 735 475 749 Q461 763 453 781 Q445 799 445 820 Q445 841 453 859 Q461 877 475 891 Q489 905 507 913 Q525 921 546 921 Q567 921 585 913 Q603 905 617 891 Q631 877 639 859 Q647 841 647 820 Z M503 333 Q496 400 490.5 466.5 Q485 533 480 600 Q388 468 303 333 L503 333 Z M608 820 Q608 847 590 864.5 Q572 882 546 882 Q520 882 502 864 Q484 846 484 820 Q484 794 502 776 Q520 758 546 758 Q572 758 590 776 Q608 794 608 820 Z " />
<glyph glyph-name="Aogonek" unicode="&#x104;" horiz-adv-x="739" d="M644 -198 Q626 -208 600.5 -214 Q575 -220 544 -220 Q529 -220 511.5 -215.5 Q494 -211 478.5 -201 Q463 -191 453 -174.5 Q443 -158 443 -135 Q443 -97 469.5 -61.5 Q496 -26 550 0 Q523 0 495 -1 Q467 -2 438 -3 L447 32 L460 32 Q471 32 483.5 33 Q496 34 504 38 Q513 43 518.5 53 Q524 63 524 83 Q524 94 523 104 Q522 114 521 125 L506 291 L277 291 L158 110 Q152 101 146 91 Q140 81 140 70 Q140 45 156 37.5 Q172 30 195 30 Q200 30 206 30 Q212 30 220 31 L211 -4 Q178 -2 146.5 -1 Q115 0 83 0 Q54 0 24.5 -1 Q-5 -2 -37 -4 L-26 32 Q-6 33 10.5 40 Q27 47 41 58.5 Q55 70 67 84 Q79 98 91 113 Q136 172 177 232.5 Q218 293 261 353 Q325 444 389 536.5 Q453 629 519 724 L555 724 L614 116 Q617 90 621 73.5 Q625 57 634 48 Q643 39 659 35.5 Q675 32 701 32 L708 32 L700 -3 Q676 -2 652.5 -1 Q629 0 606 0 Q566 -26 541.5 -55 Q517 -84 517 -123 Q517 -149 531.5 -164.5 Q546 -180 571 -180 Q590 -180 602.5 -175.5 Q615 -171 626 -165 L644 -198 Z M503 333 Q496 400 490.5 466.5 Q485 533 480 600 Q388 468 303 333 L503 333 Z " />
<glyph glyph-name="AE" unicode="&#xc6;" horiz-adv-x="912" d="M893 562 L862 562 Q863 574 863.5 584.5 Q864 595 864 605 Q864 623 860 634 Q856 645 848.5 650.5 Q841 656 830.5 658.5 Q820 661 806 663 Q797 664 784 665 Q771 666 756 666.5 Q741 667 725 667.5 Q709 668 696 668 L637 668 L584 391 L727 391 Q739 391 750 393 Q761 395 772 400 Q794 410 799.5 428.5 Q805 447 808 468 L843 468 L803 272 L772 272 Q773 282 773 289.5 Q773 297 773 305 Q773 331 761 339.5 Q749 348 724 348 L575 348 L526 101 Q525 96 524 89.5 Q523 83 523 78 Q523 61 533.5 53.5 Q544 46 561 43 Q580 39 608.5 38.5 Q637 38 657 38 Q676 38 697.5 40 Q719 42 740 47 Q761 52 779 62 Q797 72 809 88 Q820 102 825 119.5 Q830 137 835 154 L871 154 L839 0 L338 0 L346 35 Q373 35 389.5 41.5 Q406 48 416 60.5 Q426 73 431 91 Q436 109 441 133 L483 350 L328 350 L158 112 Q150 101 142 87 Q134 73 134 58 Q134 42 150 38 Q166 34 183 34 Q189 34 194 34.5 Q199 35 204 35 L198 0 L-43 0 L-33 35 Q-4 35 13 41 Q30 47 50 67 Q58 75 68 86 Q78 97 87 109 L457 602 Q478 630 482 638.5 Q486 647 486 651 Q486 664 477.5 668 Q469 672 457 672 L414 672 L420 706 L922 706 L893 562 Z M544 653 Q495 589 449 522.5 Q403 456 357 390 L494 390 L544 653 Z " />
<glyph glyph-name="Cacute" unicode="&#x106;" horiz-adv-x="765" d="M738 518 L708 518 Q706 536 703.5 549 Q701 562 696.5 573 Q692 584 684 595 Q676 606 664 618 Q632 650 587 664.5 Q542 679 493 679 Q427 679 370.5 658 Q314 637 272 596 Q230 555 206 495.5 Q182 436 182 359 Q182 302 197 249 Q212 196 246 151 Q289 95 353 65 Q417 35 487 35 Q531 35 577.5 48 Q624 61 658 88 Q673 100 684 115.5 Q695 131 706 146 L732 146 L717 40 Q653 14 595.5 -0.5 Q538 -15 469 -15 Q443 -15 416 -12 Q344 -6 282.5 23.5 Q221 53 176 100 Q131 147 106 210 Q81 273 81 346 Q81 393 92 438.5 Q103 484 125 526 Q153 580 194 617.5 Q235 655 284.5 678.5 Q334 702 390 713 Q446 724 503 724 Q541 724 574 719.5 Q607 715 638 706.5 Q669 698 698.5 686 Q728 674 759 659 L738 518 Z M605 912 Q597 898 591.5 886.5 Q586 875 580 865 Q564 841 538.5 818 Q513 795 487 783 Q477 778 467 776 Q457 774 446 769 L435 786 Q453 801 463.5 811.5 Q474 822 481.5 833 Q489 844 494.5 858 Q500 872 507 894 L605 912 L605 912 Z " />
<glyph glyph-name="Ccaron" unicode="&#x10c;" horiz-adv-x="765" d="M738 518 L708 518 Q706 536 703.5 549 Q701 562 696.5 573 Q692 584 684 595 Q676 606 664 618 Q632 650 587 664.5 Q542 679 493 679 Q427 679 370.5 658 Q314 637 272 596 Q230 555 206 495.5 Q182 436 182 359 Q182 302 197 249 Q212 196 246 151 Q289 95 353 65 Q417 35 487 35 Q531 35 577.5 48 Q624 61 658 88 Q673 100 684 115.5 Q695 131 706 146 L732 146 L717 40 Q653 14 595.5 -0.5 Q538 -15 469 -15 Q443 -15 416 -12 Q344 -6 282.5 23.5 Q221 53 176 100 Q131 147 106 210 Q81 273 81 346 Q81 393 92 438.5 Q103 484 125 526 Q153 580 194 617.5 Q235 655 284.5 678.5 Q334 702 390 713 Q446 724 503 724 Q541 724 574 719.5 Q607 715 638 706.5 Q669 698 698.5 686 Q728 674 759 659 L738 518 Z M648 898 Q609 867 582 839 Q555 811 529 770 L481 770 Q463 809 445.5 836.5 Q428 864 400 898 L413 909 Q432 903 445 897 Q458 891 468.5 884 Q479 877 489.5 868.5 Q500 860 515 849 Q544 869 574.5 882 Q605 895 639 909 L648 898 L648 898 Z " />
<glyph glyph-name="Ccedilla" unicode="&#xc7;" horiz-adv-x="765" d="M738 518 L708 518 Q706 536 703.5 549 Q701 562 696.5 573 Q692 584 684 595 Q676 606 664 618 Q632 650 587 664.5 Q542 679 493 679 Q427 679 370.5 658 Q314 637 272 596 Q230 555 206 495.5 Q182 436 182 359 Q182 302 197 249 Q212 196 246 151 Q289 95 353 65 Q417 35 487 35 Q531 35 577.5 48 Q624 61 658 88 Q673 100 684 115.5 Q695 131 706 146 L732 146 L717 40 Q653 14 595.5 -0.5 Q538 -15 469 -15 Q443 -15 416 -12 Q344 -6 282.5 23.5 Q221 53 176 100 Q131 147 106 210 Q81 273 81 346 Q81 393 92 438.5 Q103 484 125 526 Q153 580 194 617.5 Q235 655 284.5 678.5 Q334 702 390 713 Q446 724 503 724 Q541 724 574 719.5 Q607 715 638 706.5 Q669 698 698.5 686 Q728 674 759 659 L738 518 Z M473 -66 Q473 -117 446.5 -145.5 Q420 -174 375 -191 L363 -174 Q382 -153 391.5 -138 Q401 -123 401 -97 Q401 -90 400.5 -83 Q400 -76 399 -67 L473 -63 L473 -66 Z " />
<glyph glyph-name="Dcaron" unicode="&#x10e;" horiz-adv-x="781" d="M756 388 Q756 334 741.5 281.5 Q727 229 699.5 183.5 Q672 138 632.5 100.5 Q593 63 544 38 Q499 16 444.5 5 Q390 -6 323 -6 Q267 -6 210.5 -2.5 Q154 1 91 0 L-1 -1 L7 34 Q46 34 65.5 46 Q85 58 93 97 L189 597 Q190 602 191 608 Q192 614 192 621 Q192 637 185 646.5 Q178 656 167 661.5 Q156 667 141 669 Q126 671 111 671 L120 706 Q205 706 278 708 Q351 710 428 710 Q498 710 558 686.5 Q618 663 662 621 Q706 579 731 519.5 Q756 460 756 388 Z M659 394 Q659 427 654.5 458 Q650 489 637 520 Q620 560 593 588 Q566 616 532 634 Q498 652 458.5 660 Q419 668 379 668 Q357 668 335 666 Q313 664 291 662 L188 120 Q186 113 185 106 Q184 99 184 91 Q184 72 193.5 61 Q203 50 219 44.5 Q235 39 255 37.5 Q275 36 296 36 Q381 36 448.5 60.5 Q516 85 563 131.5 Q610 178 634.5 244 Q659 310 659 394 Z M525 898 Q486 867 459 839 Q432 811 406 770 L358 770 Q340 809 322.5 836.5 Q305 864 277 898 L290 909 Q309 903 322 897 Q335 891 345.5 884 Q356 877 366.5 868.5 Q377 860 392 849 Q421 869 451.5 882 Q482 895 516 909 L525 898 L525 898 Z " />
<glyph glyph-name="Dcroat" unicode="&#x110;" horiz-adv-x="781" d="M756 388 Q756 334 741.5 281.5 Q727 229 699.5 183.5 Q672 138 632.5 100.5 Q593 63 544 38 Q499 16 444.5 5 Q390 -6 323 -6 Q267 -6 210.5 -2.5 Q154 1 91 0 L-1 -1 L7 34 Q46 34 65.5 46 Q85 58 93 97 L141 350 L65 350 L74 394 L150 394 L189 597 Q190 602 191 608 Q192 614 192 621 Q192 637 185 646.5 Q178 656 167 661.5 Q156 667 141 669 Q126 671 111 671 L120 706 Q205 706 278 708 Q351 710 428 710 Q498 710 558 686.5 Q618 663 662 621 Q706 579 731 519.5 Q756 460 756 388 Z M659 394 Q659 427 654.5 458 Q650 489 637 520 Q620 560 593 588 Q566 616 532 634 Q498 652 458.5 660 Q419 668 379 668 Q357 668 335 666 Q313 664 291 662 L240 394 L438 394 L429 350 L231 350 L188 120 Q186 113 185 106 Q184 99 184 91 Q184 72 193.5 61 Q203 50 219 44.5 Q235 39 255 37.5 Q275 36 296 36 Q381 36 448.5 60.5 Q516 85 563 131.5 Q610 178 634.5 244 Q659 310 659 394 Z " />
<glyph glyph-name="Egrave" unicode="&#xc8;" horiz-adv-x="576" d="M553 549 L517 550 Q518 561 518.5 570.5 Q519 580 519 588 Q519 608 515 622 Q511 636 494 648 Q482 656 466 660.5 Q450 665 434 665 L291 665 Q280 595 266.5 526.5 Q253 458 239 389 L376 389 Q399 389 414.5 393 Q430 397 440.5 406.5 Q451 416 458.5 431 Q466 446 472 468 L507 468 L469 267 L435 268 Q435 274 435.5 278 Q436 282 436 286 Q436 325 413 335.5 Q390 346 355 346 L232 346 L194 147 Q190 129 188 116.5 Q186 104 186 92 Q186 68 204 56 Q222 44 244 44 L347 44 Q395 44 431 59.5 Q467 75 486 122 Q489 130 492 138.5 Q495 147 499 158 L535 158 L510 0 L-1 0 L8 35 Q22 36 33 37.5 Q44 39 55 44 Q71 52 80.5 68.5 Q90 85 94 103 L190 599 Q193 612 193 621 Q193 650 172.5 660.5 Q152 671 124 671 L113 671 L119 706 L582 706 L553 549 Z M440 767 Q398 781 359 801.5 Q320 822 297 860 Q290 873 285 886 Q280 899 275 912 L373 891 Q380 870 386.5 856.5 Q393 843 400.5 831.5 Q408 820 419 809.5 Q430 799 448 785 L440 767 Z " />
<glyph glyph-name="Eacute" unicode="&#xc9;" horiz-adv-x="576" d="M553 549 L517 550 Q518 561 518.5 570.5 Q519 580 519 588 Q519 608 515 622 Q511 636 494 648 Q482 656 466 660.5 Q450 665 434 665 L291 665 Q280 595 266.5 526.5 Q253 458 239 389 L376 389 Q399 389 414.5 393 Q430 397 440.5 406.5 Q451 416 458.5 431 Q466 446 472 468 L507 468 L469 267 L435 268 Q435 274 435.5 278 Q436 282 436 286 Q436 325 413 335.5 Q390 346 355 346 L232 346 L194 147 Q190 129 188 116.5 Q186 104 186 92 Q186 68 204 56 Q222 44 244 44 L347 44 Q395 44 431 59.5 Q467 75 486 122 Q489 130 492 138.5 Q495 147 499 158 L535 158 L510 0 L-1 0 L8 35 Q22 36 33 37.5 Q44 39 55 44 Q71 52 80.5 68.5 Q90 85 94 103 L190 599 Q193 612 193 621 Q193 650 172.5 660.5 Q152 671 124 671 L113 671 L119 706 L582 706 L553 549 Z M503 912 Q495 898 489.5 886.5 Q484 875 478 865 Q462 841 436.5 818 Q411 795 385 783 Q375 778 365 776 Q355 774 344 769 L333 786 Q351 801 361.5 811.5 Q372 822 379.5 833 Q387 844 392.5 858 Q398 872 405 894 L503 912 L503 912 Z " />
<glyph glyph-name="Ecircumflex" unicode="&#xca;" horiz-adv-x="576" d="M553 549 L517 550 Q518 561 518.5 570.5 Q519 580 519 588 Q519 608 515 622 Q511 636 494 648 Q482 656 466 660.5 Q450 665 434 665 L291 665 Q280 595 266.5 526.5 Q253 458 239 389 L376 389 Q399 389 414.5 393 Q430 397 440.5 406.5 Q451 416 458.5 431 Q466 446 472 468 L507 468 L469 267 L435 268 Q435 274 435.5 278 Q436 282 436 286 Q436 325 413 335.5 Q390 346 355 346 L232 346 L194 147 Q190 129 188 116.5 Q186 104 186 92 Q186 68 204 56 Q222 44 244 44 L347 44 Q395 44 431 59.5 Q467 75 486 122 Q489 130 492 138.5 Q495 147 499 158 L535 158 L510 0 L-1 0 L8 35 Q22 36 33 37.5 Q44 39 55 44 Q71 52 80.5 68.5 Q90 85 94 103 L190 599 Q193 612 193 621 Q193 650 172.5 660.5 Q152 671 124 671 L113 671 L119 706 L582 706 L553 549 Z M503 765 Q482 771 469.5 776.5 Q457 782 446.5 788.5 Q436 795 426 804 Q416 813 401 826 Q372 807 340 791.5 Q308 776 276 763 Q271 767 268 770 Q265 773 264 780 Q288 796 303.5 808.5 Q319 821 332 834 Q345 847 357 863 Q369 879 384 903 L433 903 Q442 882 449.5 866 Q457 850 466 836 Q475 822 486 808 Q497 794 513 778 L503 765 Z " />
<glyph glyph-name="Ecaron" unicode="&#x11a;" horiz-adv-x="576" d="M553 549 L517 550 Q518 561 518.5 570.5 Q519 580 519 588 Q519 608 515 622 Q511 636 494 648 Q482 656 466 660.5 Q450 665 434 665 L291 665 Q280 595 266.5 526.5 Q253 458 239 389 L376 389 Q399 389 414.5 393 Q430 397 440.5 406.5 Q451 416 458.5 431 Q466 446 472 468 L507 468 L469 267 L435 268 Q435 274 435.5 278 Q436 282 436 286 Q436 325 413 335.5 Q390 346 355 346 L232 346 L194 147 Q190 129 188 116.5 Q186 104 186 92 Q186 68 204 56 Q222 44 244 44 L347 44 Q395 44 431 59.5 Q467 75 486 122 Q489 130 492 138.5 Q495 147 499 158 L535 158 L510 0 L-1 0 L8 35 Q22 36 33 37.5 Q44 39 55 44 Q71 52 80.5 68.5 Q90 85 94 103 L190 599 Q193 612 193 621 Q193 650 172.5 660.5 Q152 671 124 671 L113 671 L119 706 L582 706 L553 549 Z M522 898 Q483 867 456 839 Q429 811 403 770 L355 770 Q337 809 319.5 836.5 Q302 864 274 898 L287 909 Q306 903 319 897 Q332 891 342.5 884 Q353 877 363.5 868.5 Q374 860 389 849 Q418 869 448.5 882 Q479 895 513 909 L522 898 L522 898 Z " />
<glyph glyph-name="Edieresis" unicode="&#xcb;" horiz-adv-x="576" d="M553 549 L517 550 Q518 561 518.5 570.5 Q519 580 519 588 Q519 608 515 622 Q511 636 494 648 Q482 656 466 660.5 Q450 665 434 665 L291 665 Q280 595 266.5 526.5 Q253 458 239 389 L376 389 Q399 389 414.5 393 Q430 397 440.5 406.5 Q451 416 458.5 431 Q466 446 472 468 L507 468 L469 267 L435 268 Q435 274 435.5 278 Q436 282 436 286 Q436 325 413 335.5 Q390 346 355 346 L232 346 L194 147 Q190 129 188 116.5 Q186 104 186 92 Q186 68 204 56 Q222 44 244 44 L347 44 Q395 44 431 59.5 Q467 75 486 122 Q489 130 492 138.5 Q495 147 499 158 L535 158 L510 0 L-1 0 L8 35 Q22 36 33 37.5 Q44 39 55 44 Q71 52 80.5 68.5 Q90 85 94 103 L190 599 Q193 612 193 621 Q193 650 172.5 660.5 Q152 671 124 671 L113 671 L119 706 L582 706 L553 549 Z M533 842 Q533 831 528 819 Q523 807 514 797.5 Q505 788 494 782 Q483 776 471 776 Q454 776 444.5 787 Q435 798 435 815 Q435 826 440 838 Q445 850 453 860 Q461 870 472.5 876.5 Q484 883 496 883 Q514 883 523.5 870.5 Q533 858 533 842 Z M354 842 Q354 831 349 819 Q344 807 335 797.5 Q326 788 315 782 Q304 776 292 776 Q275 776 265.5 787 Q256 798 256 815 Q256 826 261 838 Q266 850 274 860 Q282 870 293.5 876.5 Q305 883 317 883 Q335 883 344.5 870.5 Q354 858 354 842 Z " />
<glyph glyph-name="Emacron" unicode="&#x112;" horiz-adv-x="576" d="M553 549 L517 550 Q518 561 518.5 570.5 Q519 580 519 588 Q519 608 515 622 Q511 636 494 648 Q482 656 466 660.5 Q450 665 434 665 L291 665 Q280 595 266.5 526.5 Q253 458 239 389 L376 389 Q399 389 414.5 393 Q430 397 440.5 406.5 Q451 416 458.5 431 Q466 446 472 468 L507 468 L469 267 L435 268 Q435 274 435.5 278 Q436 282 436 286 Q436 325 413 335.5 Q390 346 355 346 L232 346 L194 147 Q190 129 188 116.5 Q186 104 186 92 Q186 68 204 56 Q222 44 244 44 L347 44 Q395 44 431 59.5 Q467 75 486 122 Q489 130 492 138.5 Q495 147 499 158 L535 158 L510 0 L-1 0 L8 35 Q22 36 33 37.5 Q44 39 55 44 Q71 52 80.5 68.5 Q90 85 94 103 L190 599 Q193 612 193 621 Q193 650 172.5 660.5 Q152 671 124 671 L113 671 L119 706 L582 706 L553 549 Z M528 798 L257 798 L268 852 L539 852 L528 798 Z " />
<glyph glyph-name="Edotaccent" unicode="&#x116;" horiz-adv-x="576" d="M553 549 L517 550 Q518 561 518.5 570.5 Q519 580 519 588 Q519 608 515 622 Q511 636 494 648 Q482 656 466 660.5 Q450 665 434 665 L291 665 Q280 595 266.5 526.5 Q253 458 239 389 L376 389 Q399 389 414.5 393 Q430 397 440.5 406.5 Q451 416 458.5 431 Q466 446 472 468 L507 468 L469 267 L435 268 Q435 274 435.5 278 Q436 282 436 286 Q436 325 413 335.5 Q390 346 355 346 L232 346 L194 147 Q190 129 188 116.5 Q186 104 186 92 Q186 68 204 56 Q222 44 244 44 L347 44 Q395 44 431 59.5 Q467 75 486 122 Q489 130 492 138.5 Q495 147 499 158 L535 158 L510 0 L-1 0 L8 35 Q22 36 33 37.5 Q44 39 55 44 Q71 52 80.5 68.5 Q90 85 94 103 L190 599 Q193 612 193 621 Q193 650 172.5 660.5 Q152 671 124 671 L113 671 L119 706 L582 706 L553 549 Z M447 845 Q447 834 442 822 Q437 810 428 800.5 Q419 791 408 785 Q397 779 385 779 Q368 779 358.5 790 Q349 801 349 818 Q349 829 354 841 Q359 853 367 863 Q375 873 386.5 879.5 Q398 886 410 886 Q428 886 437.5 873.5 Q447 861 447 845 Z " />
<glyph glyph-name="Eogonek" unicode="&#x118;" horiz-adv-x="576" d="M497 -198 Q479 -208 453.5 -214 Q428 -220 397 -220 Q382 -220 364.5 -215.5 Q347 -211 331.5 -201 Q316 -191 306 -174.5 Q296 -158 296 -135 Q296 -97 322.5 -61.5 Q349 -26 403 0 L-1 0 L8 35 Q22 36 33 37.5 Q44 39 55 44 Q71 52 80.5 68.5 Q90 85 94 103 L190 599 Q193 612 193 621 Q193 650 172.5 660.5 Q152 671 124 671 L113 671 L119 706 L582 706 L553 549 L517 550 Q518 561 518.5 570.5 Q519 580 519 588 Q519 608 515 622 Q511 636 494 648 Q482 656 466 660.5 Q450 665 434 665 L291 665 Q280 595 266.5 526.5 Q253 458 239 389 L376 389 Q399 389 414.5 393 Q430 397 440.5 406.5 Q451 416 458.5 431 Q466 446 472 468 L507 468 L469 267 L435 268 Q435 274 435.5 278 Q436 282 436 286 Q436 325 413 335.5 Q390 346 355 346 L232 346 L194 147 Q190 129 188 116.5 Q186 104 186 92 Q186 68 204 56 Q222 44 244 44 L347 44 Q395 44 431 59.5 Q467 75 486 122 L499 158 L535 158 L510 0 L460 0 Q419 -26 394.5 -55 Q370 -84 370 -123 Q370 -149 384.5 -164.5 Q399 -180 424 -180 Q443 -180 455.5 -175.5 Q468 -171 479 -165 L497 -198 L497 -198 Z " />
<glyph glyph-name="Gbreve" unicode="&#x11e;" horiz-adv-x="864" d="M837 281 L821 281 Q802 281 790 275 Q778 269 770.5 258.5 Q763 248 758.5 233 Q754 218 751 201 L713 9 Q666 -5 621 -10 Q576 -15 528 -15 Q475 -15 423.5 -8.5 Q372 -2 324.5 15 Q277 32 234 60 Q191 88 156 132 Q117 180 99 233.5 Q81 287 81 348 Q81 405 97 456.5 Q113 508 142.5 551 Q172 594 214 628 Q256 662 308 684 Q338 697 387 709.5 Q436 722 516 722 Q559 722 595.5 718.5 Q632 715 666.5 707.5 Q701 700 736 687.5 Q771 675 812 658 Q806 619 799.5 582 Q793 545 785 507 L751 507 Q751 514 751.5 518.5 Q752 523 752 528 Q752 571 728 600 Q704 629 669 646 Q634 663 593 670.5 Q552 678 518 678 Q442 678 379.5 652.5 Q317 627 273 582.5 Q229 538 204.5 476.5 Q180 415 180 343 Q180 275 202 219 Q224 163 265.5 122.5 Q307 82 365.5 59.5 Q424 37 498 37 Q516 37 536 39 Q556 41 571 43 Q594 46 611.5 53.5 Q629 61 637 76 Q641 84 643 96.5 Q645 109 649 132 Q654 166 658 194 Q662 222 662 238 Q662 263 651.5 272 Q641 281 619 281 L587 281 L590 316 L841 316 L837 281 Z M708 881 Q699 864 686 844.5 Q673 825 654.5 809 Q636 793 609.5 782.5 Q583 772 546 772 Q509 772 482.5 782.5 Q456 793 437 809 Q418 825 405.5 844.5 Q393 864 384 881 L415 892 Q447 855 480 844.5 Q513 834 546 834 Q579 834 612 844.5 Q645 855 677 892 L708 881 L708 881 Z " />
<glyph glyph-name="Gcommaaccent" unicode="&#x122;" horiz-adv-x="864" d="M837 281 L821 281 Q802 281 790 275 Q778 269 770.5 258.5 Q763 248 758.5 233 Q754 218 751 201 L713 9 Q666 -5 621 -10 Q576 -15 528 -15 Q475 -15 423.5 -8.5 Q372 -2 324.5 15 Q277 32 234 60 Q191 88 156 132 Q117 180 99 233.5 Q81 287 81 348 Q81 405 97 456.5 Q113 508 142.5 551 Q172 594 214 628 Q256 662 308 684 Q338 697 387 709.5 Q436 722 516 722 Q559 722 595.5 718.5 Q632 715 666.5 707.5 Q701 700 736 687.5 Q771 675 812 658 Q806 619 799.5 582 Q793 545 785 507 L751 507 Q751 514 751.5 518.5 Q752 523 752 528 Q752 571 728 600 Q704 629 669 646 Q634 663 593 670.5 Q552 678 518 678 Q442 678 379.5 652.5 Q317 627 273 582.5 Q229 538 204.5 476.5 Q180 415 180 343 Q180 275 202 219 Q224 163 265.5 122.5 Q307 82 365.5 59.5 Q424 37 498 37 Q516 37 536 39 Q556 41 571 43 Q594 46 611.5 53.5 Q629 61 637 76 Q641 84 643 96.5 Q645 109 649 132 Q654 166 658 194 Q662 222 662 238 Q662 263 651.5 272 Q641 281 619 281 L587 281 L590 316 L841 316 L837 281 Z M505 -66 Q505 -117 478.5 -145.5 Q452 -174 407 -191 L395 -174 Q414 -153 423.5 -138 Q433 -123 433 -97 Q433 -90 432.5 -83 Q432 -76 431 -67 L505 -63 L505 -66 Z " />
<glyph glyph-name="Igrave" unicode="&#xcc;" horiz-adv-x="323" d="M369 673 Q346 673 331 671 Q316 669 306.5 660.5 Q297 652 291 638 Q285 624 281 603 L191 125 Q186 102 186 82 Q186 50 201 40 Q216 30 243 30 L266 30 L259 -3 Q223 -3 188.5 -1.5 Q154 0 119 0 Q91 0 62.5 -0.5 Q34 -1 2 -2 L9 33 L22 33 Q43 33 56 39 Q69 45 77 56 Q85 67 90 82 Q95 97 98 115 L185 574 Q192 608 192 622 Q192 656 169 665.5 Q146 675 113 674 L121 708 Q152 707 181.5 706.5 Q211 706 240 706 Q274 706 307.5 706 Q341 706 378 708 L369 673 Z M300 767 Q258 781 219 801.5 Q180 822 157 860 Q150 873 145 886 Q140 899 135 912 L233 891 Q240 870 246.5 856.5 Q253 843 260.5 831.5 Q268 820 279 809.5 Q290 799 308 785 L300 767 Z " />
<glyph glyph-name="Iacute" unicode="&#xcd;" horiz-adv-x="323" d="M369 673 Q346 673 331 671 Q316 669 306.5 660.5 Q297 652 291 638 Q285 624 281 603 L191 125 Q186 102 186 82 Q186 50 201 40 Q216 30 243 30 L266 30 L259 -3 Q223 -3 188.5 -1.5 Q154 0 119 0 Q91 0 62.5 -0.5 Q34 -1 2 -2 L9 33 L22 33 Q43 33 56 39 Q69 45 77 56 Q85 67 90 82 Q95 97 98 115 L185 574 Q192 608 192 622 Q192 656 169 665.5 Q146 675 113 674 L121 708 Q152 707 181.5 706.5 Q211 706 240 706 Q274 706 307.5 706 Q341 706 378 708 L369 673 Z M374 912 Q366 898 360.5 886.5 Q355 875 349 865 Q333 841 307.5 818 Q282 795 256 783 Q246 778 236 776 Q226 774 215 769 L204 786 Q222 801 232.5 811.5 Q243 822 250.5 833 Q258 844 263.5 858 Q269 872 276 894 L374 912 L374 912 Z " />
<glyph glyph-name="Icircumflex" unicode="&#xce;" horiz-adv-x="323" d="M369 673 Q346 673 331 671 Q316 669 306.5 660.5 Q297 652 291 638 Q285 624 281 603 L191 125 Q186 102 186 82 Q186 50 201 40 Q216 30 243 30 L266 30 L259 -3 Q223 -3 188.5 -1.5 Q154 0 119 0 Q91 0 62.5 -0.5 Q34 -1 2 -2 L9 33 L22 33 Q43 33 56 39 Q69 45 77 56 Q85 67 90 82 Q95 97 98 115 L185 574 Q192 608 192 622 Q192 656 169 665.5 Q146 675 113 674 L121 708 Q152 707 181.5 706.5 Q211 706 240 706 Q274 706 307.5 706 Q341 706 378 708 L369 673 Z M370 765 Q349 771 336.5 776.5 Q324 782 313.5 788.5 Q303 795 293 804 Q283 813 268 826 Q239 807 207 791.5 Q175 776 143 763 Q138 767 135 770 Q132 773 131 780 Q155 796 170.5 808.5 Q186 821 199 834 Q212 847 224 863 Q236 879 251 903 L300 903 Q309 882 316.5 866 Q324 850 333 836 Q342 822 353 808 Q364 794 380 778 L370 765 Z " />
<glyph glyph-name="Idieresis" unicode="&#xcf;" horiz-adv-x="323" d="M369 673 Q346 673 331 671 Q316 669 306.5 660.5 Q297 652 291 638 Q285 624 281 603 L191 125 Q186 102 186 82 Q186 50 201 40 Q216 30 243 30 L266 30 L259 -3 Q223 -3 188.5 -1.5 Q154 0 119 0 Q91 0 62.5 -0.5 Q34 -1 2 -2 L9 33 L22 33 Q43 33 56 39 Q69 45 77 56 Q85 67 90 82 Q95 97 98 115 L185 574 Q192 608 192 622 Q192 656 169 665.5 Q146 675 113 674 L121 708 Q152 707 181.5 706.5 Q211 706 240 706 Q274 706 307.5 706 Q341 706 378 708 L369 673 Z M405 842 Q405 831 400 819 Q395 807 386 797.5 Q377 788 366 782 Q355 776 343 776 Q326 776 316.5 787 Q307 798 307 815 Q307 826 312 838 Q317 850 325 860 Q333 870 344.5 876.5 Q356 883 368 883 Q386 883 395.5 870.5 Q405 858 405 842 Z M226 842 Q226 831 221 819 Q216 807 207 797.5 Q198 788 187 782 Q176 776 164 776 Q147 776 137.5 787 Q128 798 128 815 Q128 826 133 838 Q138 850 146 860 Q154 870 165.5 876.5 Q177 883 189 883 Q207 883 216.5 870.5 Q226 858 226 842 Z " />
<glyph glyph-name="Imacron" unicode="&#x12a;" horiz-adv-x="323" d="M369 673 Q346 673 331 671 Q316 669 306.5 660.5 Q297 652 291 638 Q285 624 281 603 L191 125 Q186 102 186 82 Q186 50 201 40 Q216 30 243 30 L266 30 L259 -3 Q223 -3 188.5 -1.5 Q154 0 119 0 Q91 0 62.5 -0.5 Q34 -1 2 -2 L9 33 L22 33 Q43 33 56 39 Q69 45 77 56 Q85 67 90 82 Q95 97 98 115 L185 574 Q192 608 192 622 Q192 656 169 665.5 Q146 675 113 674 L121 708 Q152 707 181.5 706.5 Q211 706 240 706 Q274 706 307.5 706 Q341 706 378 708 L369 673 Z M393 798 L122 798 L133 852 L404 852 L393 798 Z " />
<glyph glyph-name="Idotaccent" unicode="&#x130;" horiz-adv-x="323" d="M369 673 Q346 673 331 671 Q316 669 306.5 660.5 Q297 652 291 638 Q285 624 281 603 L191 125 Q186 102 186 82 Q186 50 201 40 Q216 30 243 30 L266 30 L259 -3 Q223 -3 188.5 -1.5 Q154 0 119 0 Q91 0 62.5 -0.5 Q34 -1 2 -2 L9 33 L22 33 Q43 33 56 39 Q69 45 77 56 Q85 67 90 82 Q95 97 98 115 L185 574 Q192 608 192 622 Q192 656 169 665.5 Q146 675 113 674 L121 708 Q152 707 181.5 706.5 Q211 706 240 706 Q274 706 307.5 706 Q341 706 378 708 L369 673 Z M321 845 Q321 834 316 822 Q311 810 302 800.5 Q293 791 282 785 Q271 779 259 779 Q242 779 232.5 790 Q223 801 223 818 Q223 829 228 841 Q233 853 241 863 Q249 873 260.5 879.5 Q272 886 284 886 Q302 886 311.5 873.5 Q321 861 321 845 Z " />
<glyph glyph-name="Iogonek" unicode="&#x12e;" horiz-adv-x="323" d="M200 -198 Q182 -208 156.5 -214 Q131 -220 100 -220 Q85 -220 67.5 -215.5 Q50 -211 34.5 -201 Q19 -191 9 -174.5 Q-1 -158 -1 -135 Q-1 -97 25.5 -61.5 Q52 -26 106 0 Q81 0 55.5 -0.5 Q30 -1 2 -2 L9 33 L22 33 Q43 33 56 39 Q69 45 77 56 Q85 67 90 82 Q95 97 98 115 L185 574 Q192 608 192 622 Q192 656 169 666 Q146 676 113 676 L121 710 Q152 708 181.5 707 Q211 706 240 706 Q274 706 307.5 707 Q341 708 378 710 L369 675 Q346 675 331 672 Q316 669 306.5 660.5 Q297 652 291 638 Q285 624 281 603 L191 125 Q186 102 186 82 Q186 50 201 40 Q216 30 243 30 L266 30 L259 -5 Q234 -3 210 -2 Q186 -1 162 0 Q122 -26 97.5 -55 Q73 -84 73 -123 Q73 -149 87.5 -164.5 Q102 -180 127 -180 Q146 -180 158.5 -175.5 Q171 -171 182 -165 L200 -198 L200 -198 Z " />
<glyph glyph-name="Kcommaaccent" unicode="&#x136;" horiz-adv-x="718" d="M685 -4 Q654 -2 624 -1 Q594 0 565 0 Q536 0 505.5 -1 Q475 -2 443 -4 L451 30 L458 30 Q473 30 483 36 Q493 42 493 53 Q493 62 488 72 Q483 82 478 90 L293 362 L223 299 L190 121 Q187 106 185.5 97.5 Q184 89 184 81 Q184 55 202 43 Q220 31 246 31 L261 31 L252 -4 Q220 -2 189.5 -1 Q159 0 128 0 Q96 0 65 -1 Q34 -2 -1 -4 L7 31 Q18 32 29.5 33 Q41 34 52 39 Q69 47 77.5 63 Q86 79 91 97 Q98 118 103.5 149.5 Q109 181 114 204 L185 573 Q189 591 190.5 601.5 Q192 612 192 620 Q192 636 186 646.5 Q180 657 169 662.5 Q158 668 143 670.5 Q128 673 110 673 L120 708 Q155 707 188.5 706.5 Q222 706 255 706 Q284 706 313 706.5 Q342 707 374 708 L365 673 Q343 670 329 666 Q315 662 306 654 Q297 646 291 632 Q285 618 281 595 L235 362 L504 620 Q512 628 520.5 638.5 Q529 649 529 660 Q529 671 516.5 674 Q504 677 492 677 L499 709 Q550 706 598 706 Q619 706 640.5 706 Q662 706 686 708 L677 673 Q656 670 645 666.5 Q634 663 627 659 Q620 655 606.5 643.5 Q593 632 568 609 L356 420 L589 91 Q602 73 611.5 62.5 Q621 52 632 45.5 Q643 39 657 35.5 Q671 32 694 30 L685 -4 Z M362 -66 Q362 -117 335.5 -145.5 Q309 -174 264 -191 L252 -174 Q271 -153 280.5 -138 Q290 -123 290 -97 Q290 -90 289.5 -83 Q289 -76 288 -67 L362 -63 L362 -66 Z " />
<glyph glyph-name="Lacute" unicode="&#x139;" horiz-adv-x="593" d="M533 0 L-4 0 L4 35 L19 35 Q57 35 72.5 58 Q88 81 95 115 L183 561 Q189 590 190 602.5 Q191 615 191 620 Q191 654 171 664 Q151 674 120 674 L112 674 L118 709 Q163 707 200 706.5 Q237 706 263 706 Q304 706 335 706 Q366 706 393 707 L384 672 Q359 672 342 669.5 Q325 667 313 659.5 Q301 652 294 637 Q287 622 282 597 L195 144 Q189 115 189 102 Q189 79 202.5 67 Q216 55 235.5 50 Q255 45 277 44 Q299 43 317 43 Q360 43 393.5 47.5 Q427 52 452 65.5 Q477 79 495.5 104 Q514 129 527 170 L560 170 L533 0 Z M419 912 Q411 898 405.5 886.5 Q400 875 394 865 Q378 841 352.5 818 Q327 795 301 783 Q291 778 281 776 Q271 774 260 769 L249 786 Q267 801 277.5 811.5 Q288 822 295.5 833 Q303 844 308.5 858 Q314 872 321 894 L419 912 L419 912 Z " />
<glyph glyph-name="Lcaron" unicode="&#x13d;" horiz-adv-x="593" d="M533 0 L-4 0 L4 35 L19 35 Q57 35 72.5 58 Q88 81 95 115 L183 561 Q189 590 190 602.5 Q191 615 191 620 Q191 654 171 664 Q151 674 120 674 L112 674 L118 709 Q163 707 200 706.5 Q237 706 263 706 Q304 706 335 706 Q366 706 393 707 L384 672 Q359 672 342 669.5 Q325 667 313 659.5 Q301 652 294 637 Q287 622 282 597 L195 144 Q189 115 189 102 Q189 79 202.5 67 Q216 55 235.5 50 Q255 45 277 44 Q299 43 317 43 Q360 43 393.5 47.5 Q427 52 452 65.5 Q477 79 495.5 104 Q514 129 527 170 L560 170 L533 0 Z M540 660 Q540 615 521.5 578 Q503 541 477 508 Q464 492 449.5 475.5 Q435 459 421 442 L394 455 Q418 490 438 526 Q458 562 458 601 Q458 618 452 633 Q446 648 437 666 L529 715 Q533 701 536.5 687.5 Q540 674 540 660 Z " />
<glyph glyph-name="Lcommaaccent" unicode="&#x13b;" horiz-adv-x="593" d="M533 0 L-4 0 L4 35 L19 35 Q57 35 72.5 58 Q88 81 95 115 L183 561 Q189 590 190 602.5 Q191 615 191 620 Q191 654 171 664 Q151 674 120 674 L112 674 L118 709 Q163 707 200 706.5 Q237 706 263 706 Q304 706 335 706 Q366 706 393 707 L384 672 Q359 672 342 669.5 Q325 667 313 659.5 Q301 652 294 637 Q287 622 282 597 L195 144 Q189 115 189 102 Q189 79 202.5 67 Q216 55 235.5 50 Q255 45 277 44 Q299 43 317 43 Q360 43 393.5 47.5 Q427 52 452 65.5 Q477 79 495.5 104 Q514 129 527 170 L560 170 L533 0 Z M309 -66 Q309 -117 282.5 -145.5 Q256 -174 211 -191 L199 -174 Q218 -153 227.5 -138 Q237 -123 237 -97 Q237 -90 236.5 -83 Q236 -76 235 -67 L309 -63 L309 -66 Z " />
<glyph glyph-name="Lslash" unicode="&#x141;" horiz-adv-x="593" d="M533 0 L-4 0 L4 35 L19 35 Q57 35 72.5 58 Q88 81 95 115 L129 289 L36 239 L45 293 L140 344 L183 561 Q189 590 190 602.5 Q191 615 191 620 Q191 654 171 664 Q151 674 120 674 L112 674 L118 709 Q163 707 200 706.5 Q237 706 263 706 Q304 706 335 706 Q366 706 393 707 L384 672 Q359 672 342 669.5 Q325 667 313 659.5 Q301 652 294 637 Q287 622 282 597 L244 400 L450 511 L441 457 L233 345 L195 144 Q189 115 189 102 Q189 79 202.5 67 Q216 55 235.5 50 Q255 45 277 44 Q299 43 317 43 Q360 43 393.5 47.5 Q427 52 452 65.5 Q477 79 495.5 104 Q514 129 527 170 L560 170 L533 0 Z " />
<glyph glyph-name="Nacute" unicode="&#x143;" horiz-adv-x="822" d="M867 675 Q848 675 836 671 Q789 658 777 592 L663 -16 L625 -16 L230 574 L156 122 Q153 105 152.5 96.5 Q152 88 152 81 Q152 53 172 44.5 Q192 36 220 36 L216 1 L-2 1 L8 36 Q18 37 28.5 38 Q39 39 50 43 Q73 51 82 69.5 Q91 88 96 111 L177 537 Q187 593 187 605 Q187 629 175 645 Q158 667 131.5 670 Q105 673 76 673 L84 708 Q108 707 130 706.5 Q152 706 175 706 Q192 706 209 706.5 Q226 707 245 708 L639 120 L712 550 Q717 582 718.5 594 Q720 606 720 616 Q720 624 717.5 634 Q715 644 709 652 Q695 669 677.5 671 Q660 673 636 673 L642 708 Q672 707 700.5 706.5 Q729 706 757 706 Q810 706 872 709 L867 675 Z M605 912 Q597 898 591.5 886.5 Q586 875 580 865 Q564 841 538.5 818 Q513 795 487 783 Q477 778 467 776 Q457 774 446 769 L435 786 Q453 801 463.5 811.5 Q474 822 481.5 833 Q489 844 494.5 858 Q500 872 507 894 L605 912 L605 912 Z " />
<glyph glyph-name="Ncaron" unicode="&#x147;" horiz-adv-x="822" d="M867 675 Q848 675 836 671 Q789 658 777 592 L663 -16 L625 -16 L230 574 L156 122 Q153 105 152.5 96.5 Q152 88 152 81 Q152 53 172 44.5 Q192 36 220 36 L216 1 L-2 1 L8 36 Q18 37 28.5 38 Q39 39 50 43 Q73 51 82 69.5 Q91 88 96 111 L177 537 Q187 593 187 605 Q187 629 175 645 Q158 667 131.5 670 Q105 673 76 673 L84 708 Q108 707 130 706.5 Q152 706 175 706 Q192 706 209 706.5 Q226 707 245 708 L639 120 L712 550 Q717 582 718.5 594 Q720 606 720 616 Q720 624 717.5 634 Q715 644 709 652 Q695 669 677.5 671 Q660 673 636 673 L642 708 Q672 707 700.5 706.5 Q729 706 757 706 Q810 706 872 709 L867 675 Z M613 898 Q574 867 547 839 Q520 811 494 770 L446 770 Q428 809 410.5 836.5 Q393 864 365 898 L378 909 Q397 903 410 897 Q423 891 433.5 884 Q444 877 454.5 868.5 Q465 860 480 849 Q509 869 539.5 882 Q570 895 604 909 L613 898 L613 898 Z " />
<glyph glyph-name="Ntilde" unicode="&#xd1;" horiz-adv-x="822" d="M867 675 Q848 675 836 671 Q789 658 777 592 L663 -16 L625 -16 L230 574 L156 122 Q153 105 152.5 96.5 Q152 88 152 81 Q152 53 172 44.5 Q192 36 220 36 L216 1 L-2 1 L8 36 Q18 37 28.5 38 Q39 39 50 43 Q73 51 82 69.5 Q91 88 96 111 L177 537 Q187 593 187 605 Q187 629 175 645 Q158 667 131.5 670 Q105 673 76 673 L84 708 Q108 707 130 706.5 Q152 706 175 706 Q192 706 209 706.5 Q226 707 245 708 L639 120 L712 550 Q717 582 718.5 594 Q720 606 720 616 Q720 624 717.5 634 Q715 644 709 652 Q695 669 677.5 671 Q660 673 636 673 L642 708 Q672 707 700.5 706.5 Q729 706 757 706 Q810 706 872 709 L867 675 Z M666 865 Q658 851 648.5 836.5 Q639 822 627.5 810 Q616 798 601.5 790.5 Q587 783 569 783 Q558 783 547.5 786 Q537 789 526 793 L459 818 Q443 824 435 825.5 Q427 827 419 827 Q398 827 388 816.5 Q378 806 368 790 L342 804 Q350 818 359 832.5 Q368 847 379.5 858.5 Q391 870 405 877 Q419 884 437 884 Q455 884 475.5 876.5 Q496 869 513 862 Q534 854 554 847 Q574 840 592 840 Q611 840 622 852.5 Q633 865 643 878 L666 865 L666 865 Z " />
<glyph glyph-name="Ncommaaccent" unicode="&#x145;" horiz-adv-x="822" d="M867 675 Q848 675 836 671 Q789 658 777 592 L663 -16 L625 -16 L230 574 L156 122 Q153 105 152.5 96.5 Q152 88 152 81 Q152 53 172 44.5 Q192 36 220 36 L216 1 L-2 1 L8 36 Q18 37 28.5 38 Q39 39 50 43 Q73 51 82 69.5 Q91 88 96 111 L177 537 Q187 593 187 605 Q187 629 175 645 Q158 667 131.5 670 Q105 673 76 673 L84 708 Q108 707 130 706.5 Q152 706 175 706 Q192 706 209 706.5 Q226 707 245 708 L639 120 L712 550 Q717 582 718.5 594 Q720 606 720 616 Q720 624 717.5 634 Q715 644 709 652 Q695 669 677.5 671 Q660 673 636 673 L642 708 Q672 707 700.5 706.5 Q729 706 757 706 Q810 706 872 709 L867 675 Z M428 -66 Q428 -117 401.5 -145.5 Q375 -174 330 -191 L318 -174 Q337 -153 346.5 -138 Q356 -123 356 -97 Q356 -90 355.5 -83 Q355 -76 354 -67 L428 -63 L428 -66 Z " />
<glyph glyph-name="Ograve" unicode="&#xd2;" horiz-adv-x="864" d="M838 356 Q838 309 826.5 264 Q815 219 793.5 178 Q772 137 741 102 Q710 67 670 42 Q622 12 571 -1 Q520 -14 464 -14 Q382 -14 312 12 Q242 38 190.5 86 Q139 134 110 202 Q81 270 81 354 Q81 416 100 473 Q119 530 153.5 577.5 Q188 625 237 659.5 Q286 694 347 710 Q373 717 398.5 719 Q424 721 450 721 Q522 721 592 700.5 Q662 680 717 631 Q777 579 807.5 506.5 Q838 434 838 356 Z M737 367 Q737 428 719.5 483.5 Q702 539 668.5 582 Q635 625 584.5 650.5 Q534 676 468 676 Q401 676 347.5 647 Q294 618 256.5 571.5 Q219 525 199 465 Q179 405 179 344 Q179 299 189.5 254.5 Q200 210 221 170.5 Q242 131 273.5 99.5 Q305 68 347 50 Q372 39 401.5 35 Q431 31 457 31 Q502 31 538.5 46 Q575 61 610 89 Q673 140 705 214 Q737 288 737 367 Z M549 767 Q507 781 468 801.5 Q429 822 406 860 Q399 873 394 886 Q389 899 384 912 L482 891 Q489 870 495.5 856.5 Q502 843 509.5 831.5 Q517 820 528 809.5 Q539 799 557 785 L549 767 Z " />
<glyph glyph-name="Oacute" unicode="&#xd3;" horiz-adv-x="864" d="M838 356 Q838 309 826.5 264 Q815 219 793.5 178 Q772 137 741 102 Q710 67 670 42 Q622 12 571 -1 Q520 -14 464 -14 Q382 -14 312 12 Q242 38 190.5 86 Q139 134 110 202 Q81 270 81 354 Q81 416 100 473 Q119 530 153.5 577.5 Q188 625 237 659.5 Q286 694 347 710 Q373 717 398.5 719 Q424 721 450 721 Q522 721 592 700.5 Q662 680 717 631 Q777 579 807.5 506.5 Q838 434 838 356 Z M737 367 Q737 428 719.5 483.5 Q702 539 668.5 582 Q635 625 584.5 650.5 Q534 676 468 676 Q401 676 347.5 647 Q294 618 256.5 571.5 Q219 525 199 465 Q179 405 179 344 Q179 299 189.5 254.5 Q200 210 221 170.5 Q242 131 273.5 99.5 Q305 68 347 50 Q372 39 401.5 35 Q431 31 457 31 Q502 31 538.5 46 Q575 61 610 89 Q673 140 705 214 Q737 288 737 367 Z M624 912 Q616 898 610.5 886.5 Q605 875 599 865 Q583 841 557.5 818 Q532 795 506 783 Q496 778 486 776 Q476 774 465 769 L454 786 Q472 801 482.5 811.5 Q493 822 500.5 833 Q508 844 513.5 858 Q519 872 526 894 L624 912 L624 912 Z " />
<glyph glyph-name="Ocircumflex" unicode="&#xd4;" horiz-adv-x="864" d="M838 356 Q838 309 826.5 264 Q815 219 793.5 178 Q772 137 741 102 Q710 67 670 42 Q622 12 571 -1 Q520 -14 464 -14 Q382 -14 312 12 Q242 38 190.5 86 Q139 134 110 202 Q81 270 81 354 Q81 416 100 473 Q119 530 153.5 577.5 Q188 625 237 659.5 Q286 694 347 710 Q373 717 398.5 719 Q424 721 450 721 Q522 721 592 700.5 Q662 680 717 631 Q777 579 807.5 506.5 Q838 434 838 356 Z M737 367 Q737 428 719.5 483.5 Q702 539 668.5 582 Q635 625 584.5 650.5 Q534 676 468 676 Q401 676 347.5 647 Q294 618 256.5 571.5 Q219 525 199 465 Q179 405 179 344 Q179 299 189.5 254.5 Q200 210 221 170.5 Q242 131 273.5 99.5 Q305 68 347 50 Q372 39 401.5 35 Q431 31 457 31 Q502 31 538.5 46 Q575 61 610 89 Q673 140 705 214 Q737 288 737 367 Z M617 765 Q596 771 583.5 776.5 Q571 782 560.5 788.5 Q550 795 540 804 Q530 813 515 826 Q486 807 454 791.5 Q422 776 390 763 Q385 767 382 770 Q379 773 378 780 Q402 796 417.5 808.5 Q433 821 446 834 Q459 847 471 863 Q483 879 498 903 L547 903 Q556 882 563.5 866 Q571 850 580 836 Q589 822 600 808 Q611 794 627 778 L617 765 Z " />
<glyph glyph-name="Otilde" unicode="&#xd5;" horiz-adv-x="864" d="M838 356 Q838 309 826.5 264 Q815 219 793.5 178 Q772 137 741 102 Q710 67 670 42 Q622 12 571 -1 Q520 -14 464 -14 Q382 -14 312 12 Q242 38 190.5 86 Q139 134 110 202 Q81 270 81 354 Q81 416 100 473 Q119 530 153.5 577.5 Q188 625 237 659.5 Q286 694 347 710 Q373 717 398.5 719 Q424 721 450 721 Q522 721 592 700.5 Q662 680 717 631 Q777 579 807.5 506.5 Q838 434 838 356 Z M737 367 Q737 428 719.5 483.5 Q702 539 668.5 582 Q635 625 584.5 650.5 Q534 676 468 676 Q401 676 347.5 647 Q294 618 256.5 571.5 Q219 525 199 465 Q179 405 179 344 Q179 299 189.5 254.5 Q200 210 221 170.5 Q242 131 273.5 99.5 Q305 68 347 50 Q372 39 401.5 35 Q431 31 457 31 Q502 31 538.5 46 Q575 61 610 89 Q673 140 705 214 Q737 288 737 367 Z M664 865 Q656 851 646.5 836.5 Q637 822 625.5 810 Q614 798 599.5 790.5 Q585 783 567 783 Q556 783 545.5 786 Q535 789 524 793 L457 818 Q441 824 433 825.5 Q425 827 417 827 Q396 827 386 816.5 Q376 806 366 790 L340 804 Q348 818 357 832.5 Q366 847 377.5 858.5 Q389 870 403 877 Q417 884 435 884 Q453 884 473.5 876.5 Q494 869 511 862 Q532 854 552 847 Q572 840 590 840 Q609 840 620 852.5 Q631 865 641 878 L664 865 L664 865 Z " />
<glyph glyph-name="Odieresis" unicode="&#xd6;" horiz-adv-x="864" d="M838 356 Q838 309 826.5 264 Q815 219 793.5 178 Q772 137 741 102 Q710 67 670 42 Q622 12 571 -1 Q520 -14 464 -14 Q382 -14 312 12 Q242 38 190.5 86 Q139 134 110 202 Q81 270 81 354 Q81 416 100 473 Q119 530 153.5 577.5 Q188 625 237 659.5 Q286 694 347 710 Q373 717 398.5 719 Q424 721 450 721 Q522 721 592 700.5 Q662 680 717 631 Q777 579 807.5 506.5 Q838 434 838 356 Z M737 367 Q737 428 719.5 483.5 Q702 539 668.5 582 Q635 625 584.5 650.5 Q534 676 468 676 Q401 676 347.5 647 Q294 618 256.5 571.5 Q219 525 199 465 Q179 405 179 344 Q179 299 189.5 254.5 Q200 210 221 170.5 Q242 131 273.5 99.5 Q305 68 347 50 Q372 39 401.5 35 Q431 31 457 31 Q502 31 538.5 46 Q575 61 610 89 Q673 140 705 214 Q737 288 737 367 Z M647 842 Q647 831 642 819 Q637 807 628 797.5 Q619 788 608 782 Q597 776 585 776 Q568 776 558.5 787 Q549 798 549 815 Q549 826 554 838 Q559 850 567 860 Q575 870 586.5 876.5 Q598 883 610 883 Q628 883 637.5 870.5 Q647 858 647 842 Z M468 842 Q468 831 463 819 Q458 807 449 797.5 Q440 788 429 782 Q418 776 406 776 Q389 776 379.5 787 Q370 798 370 815 Q370 826 375 838 Q380 850 388 860 Q396 870 407.5 876.5 Q419 883 431 883 Q449 883 458.5 870.5 Q468 858 468 842 Z " />
<glyph glyph-name="Omacron" unicode="&#x14c;" horiz-adv-x="864" d="M838 356 Q838 309 826.5 264 Q815 219 793.5 178 Q772 137 741 102 Q710 67 670 42 Q622 12 571 -1 Q520 -14 464 -14 Q382 -14 312 12 Q242 38 190.5 86 Q139 134 110 202 Q81 270 81 354 Q81 416 100 473 Q119 530 153.5 577.5 Q188 625 237 659.5 Q286 694 347 710 Q373 717 398.5 719 Q424 721 450 721 Q522 721 592 700.5 Q662 680 717 631 Q777 579 807.5 506.5 Q838 434 838 356 Z M737 367 Q737 428 719.5 483.5 Q702 539 668.5 582 Q635 625 584.5 650.5 Q534 676 468 676 Q401 676 347.5 647 Q294 618 256.5 571.5 Q219 525 199 465 Q179 405 179 344 Q179 299 189.5 254.5 Q200 210 221 170.5 Q242 131 273.5 99.5 Q305 68 347 50 Q372 39 401.5 35 Q431 31 457 31 Q502 31 538.5 46 Q575 61 610 89 Q673 140 705 214 Q737 288 737 367 Z M622 798 L351 798 L362 852 L633 852 L622 798 Z " />
<glyph glyph-name="Ohungarumlaut" unicode="&#x150;" horiz-adv-x="864" d="M838 356 Q838 309 826.5 264 Q815 219 793.5 178 Q772 137 741 102 Q710 67 670 42 Q622 12 571 -1 Q520 -14 464 -14 Q382 -14 312 12 Q242 38 190.5 86 Q139 134 110 202 Q81 270 81 354 Q81 416 100 473 Q119 530 153.5 577.5 Q188 625 237 659.5 Q286 694 347 710 Q373 717 398.5 719 Q424 721 450 721 Q522 721 592 700.5 Q662 680 717 631 Q777 579 807.5 506.5 Q838 434 838 356 Z M737 367 Q737 428 719.5 483.5 Q702 539 668.5 582 Q635 625 584.5 650.5 Q534 676 468 676 Q401 676 347.5 647 Q294 618 256.5 571.5 Q219 525 199 465 Q179 405 179 344 Q179 299 189.5 254.5 Q200 210 221 170.5 Q242 131 273.5 99.5 Q305 68 347 50 Q372 39 401.5 35 Q431 31 457 31 Q502 31 538.5 46 Q575 61 610 89 Q673 140 705 214 Q737 288 737 367 Z M695 926 Q688 898 672.5 873 Q657 848 635.5 828 Q614 808 587.5 794 Q561 780 532 773 L517 792 Q541 809 562 835.5 Q583 862 592 905 L695 926 Z M521 925 Q514 897 498.5 872.5 Q483 848 461.5 828 Q440 808 413.5 794 Q387 780 358 773 L343 792 Q367 809 388 835.5 Q409 862 418 905 L516 925 L521 925 Z " />
<glyph glyph-name="Oslash" unicode="&#xd8;" horiz-adv-x="864" d="M838 356 Q838 309 826.5 264 Q815 219 793.5 178 Q772 137 741 102 Q710 67 670 42 Q622 12 571 -1 Q520 -14 464 -14 Q367 -14 287.5 21.5 Q208 57 156 123 L56 53 L29 89 L131 160 Q107 202 94 250 Q81 298 81 354 Q81 416 100 473 Q119 530 153.5 577.5 Q188 625 237 659.5 Q286 694 347 710 Q373 717 398.5 719 Q424 721 450 721 Q522 721 592 700.5 Q662 680 717 631 Q727 623 735.5 614 Q744 605 752 595 L859 669 L884 634 L778 560 Q807 515 822.5 462.5 Q838 410 838 356 Z M737 367 Q737 443 709 511 L221 169 Q242 130 273.5 99 Q305 68 347 50 Q372 39 401.5 35 Q431 31 457 31 Q502 31 538.5 46 Q575 61 610 89 Q673 140 705 214 Q737 288 737 367 Z M179 344 Q179 274 203 210 L690 551 Q657 607 601.5 641.5 Q546 676 468 676 Q401 676 347.5 647 Q294 618 256.5 571.5 Q219 525 199 465 Q179 405 179 344 Z " />
<glyph glyph-name="OE" unicode="&#x152;" horiz-adv-x="994" d="M977 567 L945 568 Q946 578 946.5 586 Q947 594 947 602 Q947 638 927.5 651 Q908 664 873 664 L718 664 L668 393 L795 393 Q816 393 839.5 397.5 Q863 402 876 420 Q884 431 886.5 444 Q889 457 892 469 L928 469 L893 274 L852 274 Q858 293 858 306 Q858 322 850.5 330.5 Q843 339 831.5 343.5 Q820 348 806 349 Q792 350 779 350 L661 350 L625 171 Q618 139 616.5 125.5 Q615 112 615 104 Q615 71 635.5 57.5 Q656 44 687 44 L780 44 Q836 44 867.5 70.5 Q899 97 923 149 L956 149 L931 0 L831 0 Q765 0 701 -0.5 Q637 -1 573 -4 Q536 -6 499.5 -9 Q463 -12 426 -12 Q349 -12 286 12.5 Q223 37 169 94 Q123 143 102 202 Q81 261 81 327 Q81 398 102 460 Q123 522 160.5 571.5 Q198 621 249 655 Q300 689 360 704 Q397 713 424.5 716 Q452 719 475 719 Q513 719 551 716 Q570 714 591 712.5 Q612 711 638 709.5 Q664 708 698.5 707 Q733 706 780 706 L1004 706 L977 567 Z M618 611 Q618 634 605 647.5 Q592 661 572 667.5 Q552 674 528.5 675.5 Q505 677 484 677 Q430 677 375.5 661 Q321 645 281 605 Q228 551 204 476 Q180 401 180 326 Q180 267 196 214 Q212 161 243.5 120.5 Q275 80 322.5 56 Q370 32 433 32 Q473 32 492 47.5 Q511 63 520 98 Q523 108 526 123.5 Q529 139 536 174 L601 511 Q606 537 612 561 Q618 585 618 611 Z " />
<glyph glyph-name="Racute" unicode="&#x154;" horiz-adv-x="656" d="M649 4 Q631 -1 614 -3.5 Q597 -6 580 -6 Q545 -6 520 7 Q495 20 476 40.5 Q457 61 443 87.5 Q429 114 416 141 L347 292 Q339 309 333.5 316.5 Q328 324 320 328 Q315 330 306.5 330.5 Q298 331 285 331 L230 331 L196 154 Q190 122 187.5 107 Q185 92 185 84 Q185 52 207.5 42 Q230 32 264 31 L253 -3 Q229 -2 211.5 -1 Q194 0 179 0 Q164 0 150 0 Q136 0 118 0 Q83 0 57 -1 Q31 -2 -1 -4 L7 31 Q28 33 42 36.5 Q56 40 65.5 48 Q75 56 81.5 70 Q88 84 94 107 Q97 119 102 140 Q107 161 110 178 L185 569 Q190 595 191 604 Q192 613 192 619 Q192 636 185.5 646 Q179 656 168 661.5 Q157 667 142.5 669 Q128 671 112 671 L118 706 L397 706 Q459 706 492 692 Q525 678 548 650 Q565 629 572.5 602.5 Q580 576 580 550 Q580 494 558 450.5 Q536 407 489 378 Q473 368 455.5 360 Q438 352 421 344 Q445 292 469.5 239 Q494 186 519 135 Q530 112 541 93.5 Q552 75 567 61.5 Q582 48 601.5 40.5 Q621 33 649 33 L649 4 Z M491 538 Q491 609 451 639 Q411 669 344 669 L293 669 L237 369 L268 369 Q311 369 349.5 375 Q388 381 424 405 Q459 429 475 462.5 Q491 496 491 538 Z M474 912 Q466 898 460.5 886.5 Q455 875 449 865 Q433 841 407.5 818 Q382 795 356 783 Q346 778 336 776 Q326 774 315 769 L304 786 Q322 801 332.5 811.5 Q343 822 350.5 833 Q358 844 363.5 858 Q369 872 376 894 L474 912 L474 912 Z " />
<glyph glyph-name="Rcaron" unicode="&#x158;" horiz-adv-x="656" d="M649 4 Q631 -1 614 -3.5 Q597 -6 580 -6 Q545 -6 520 7 Q495 20 476 40.5 Q457 61 443 87.5 Q429 114 416 141 L347 292 Q339 309 333.5 316.5 Q328 324 320 328 Q315 330 306.5 330.5 Q298 331 285 331 L230 331 L196 154 Q190 122 187.5 107 Q185 92 185 84 Q185 52 207.5 42 Q230 32 264 31 L253 -3 Q229 -2 211.5 -1 Q194 0 179 0 Q164 0 150 0 Q136 0 118 0 Q83 0 57 -1 Q31 -2 -1 -4 L7 31 Q28 33 42 36.5 Q56 40 65.5 48 Q75 56 81.5 70 Q88 84 94 107 Q97 119 102 140 Q107 161 110 178 L185 569 Q190 595 191 604 Q192 613 192 619 Q192 636 185.5 646 Q179 656 168 661.5 Q157 667 142.5 669 Q128 671 112 671 L118 706 L397 706 Q459 706 492 692 Q525 678 548 650 Q565 629 572.5 602.5 Q580 576 580 550 Q580 494 558 450.5 Q536 407 489 378 Q473 368 455.5 360 Q438 352 421 344 Q445 292 469.5 239 Q494 186 519 135 Q530 112 541 93.5 Q552 75 567 61.5 Q582 48 601.5 40.5 Q621 33 649 33 L649 4 Z M491 538 Q491 609 451 639 Q411 669 344 669 L293 669 L237 369 L268 369 Q311 369 349.5 375 Q388 381 424 405 Q459 429 475 462.5 Q491 496 491 538 Z M490 898 Q451 867 424 839 Q397 811 371 770 L323 770 Q305 809 287.5 836.5 Q270 864 242 898 L255 909 Q274 903 287 897 Q300 891 310.5 884 Q321 877 331.5 868.5 Q342 860 357 849 Q386 869 416.5 882 Q447 895 481 909 L490 898 L490 898 Z " />
<glyph glyph-name="Rcommaaccent" unicode="&#x156;" horiz-adv-x="656" d="M649 4 Q631 -1 614 -3.5 Q597 -6 580 -6 Q545 -6 520 7 Q495 20 476 40.5 Q457 61 443 87.5 Q429 114 416 141 L347 292 Q339 309 333.5 316.5 Q328 324 320 328 Q315 330 306.5 330.5 Q298 331 285 331 L230 331 L196 154 Q190 122 187.5 107 Q185 92 185 84 Q185 52 207.5 42 Q230 32 264 31 L253 -3 Q229 -2 211.5 -1 Q194 0 179 0 Q164 0 150 0 Q136 0 118 0 Q83 0 57 -1 Q31 -2 -1 -4 L7 31 Q28 33 42 36.5 Q56 40 65.5 48 Q75 56 81.5 70 Q88 84 94 107 Q97 119 102 140 Q107 161 110 178 L185 569 Q190 595 191 604 Q192 613 192 619 Q192 636 185.5 646 Q179 656 168 661.5 Q157 667 142.5 669 Q128 671 112 671 L118 706 L397 706 Q459 706 492 692 Q525 678 548 650 Q565 629 572.5 602.5 Q580 576 580 550 Q580 494 558 450.5 Q536 407 489 378 Q473 368 455.5 360 Q438 352 421 344 Q445 292 469.5 239 Q494 186 519 135 Q530 112 541 93.5 Q552 75 567 61.5 Q582 48 601.5 40.5 Q621 33 649 33 L649 4 Z M491 538 Q491 609 451 639 Q411 669 344 669 L293 669 L237 369 L268 369 Q311 369 349.5 375 Q388 381 424 405 Q459 429 475 462.5 Q491 496 491 538 Z M383 -66 Q383 -117 356.5 -145.5 Q330 -174 285 -191 L273 -174 Q292 -153 301.5 -138 Q311 -123 311 -97 Q311 -90 310.5 -83 Q310 -76 309 -67 L383 -63 L383 -66 Z " />
<glyph glyph-name="Sacute" unicode="&#x15a;" horiz-adv-x="531" d="M503 555 L475 555 Q473 572 469.5 586 Q466 600 459 613 Q441 646 405.5 662 Q370 678 329 678 Q303 678 279.5 670.5 Q256 663 239 648.5 Q222 634 212 612.5 Q202 591 202 564 Q202 526 220.5 498 Q239 470 268 448 L396 352 Q445 315 463.5 276 Q482 237 482 201 Q482 143 448 94 Q428 64 399.5 43.5 Q371 23 338.5 10.5 Q306 -2 271 -7 Q236 -12 202 -12 Q160 -12 121 -4.5 Q82 3 40 16 L67 156 L97 155 Q101 129 107 110.5 Q113 92 130 75 Q150 57 178 47 Q206 37 232 37 Q263 37 292 45 Q321 53 343.5 69.5 Q366 86 380 111 Q394 136 394 170 Q394 191 386 210.5 Q378 230 365 246.5 Q352 263 336.5 277 Q321 291 305 303 L254 340 Q228 359 203 378.5 Q178 398 158 420.5 Q138 443 126 469 Q114 495 114 527 Q114 576 132.5 612.5 Q151 649 182.5 673 Q214 697 255.5 709 Q297 721 342 721 Q369 721 391.5 718 Q414 715 435 709.5 Q456 704 477.5 696 Q499 688 524 678 L503 555 Z M461 912 Q453 898 447.5 886.5 Q442 875 436 865 Q420 841 394.5 818 Q369 795 343 783 Q333 778 323 776 Q313 774 302 769 L291 786 Q309 801 319.5 811.5 Q330 822 337.5 833 Q345 844 350.5 858 Q356 872 363 894 L461 912 L461 912 Z " />
<glyph glyph-name="Scaron" unicode="&#x160;" horiz-adv-x="531" d="M503 555 L475 555 Q473 572 469.5 586 Q466 600 459 613 Q441 646 405.5 662 Q370 678 329 678 Q303 678 279.5 670.5 Q256 663 239 648.5 Q222 634 212 612.5 Q202 591 202 564 Q202 526 220.5 498 Q239 470 268 448 L396 352 Q445 315 463.5 276 Q482 237 482 201 Q482 143 448 94 Q428 64 399.5 43.5 Q371 23 338.5 10.5 Q306 -2 271 -7 Q236 -12 202 -12 Q160 -12 121 -4.5 Q82 3 40 16 L67 156 L97 155 Q101 129 107 110.5 Q113 92 130 75 Q150 57 178 47 Q206 37 232 37 Q263 37 292 45 Q321 53 343.5 69.5 Q366 86 380 111 Q394 136 394 170 Q394 191 386 210.5 Q378 230 365 246.5 Q352 263 336.5 277 Q321 291 305 303 L254 340 Q228 359 203 378.5 Q178 398 158 420.5 Q138 443 126 469 Q114 495 114 527 Q114 576 132.5 612.5 Q151 649 182.5 673 Q214 697 255.5 709 Q297 721 342 721 Q369 721 391.5 718 Q414 715 435 709.5 Q456 704 477.5 696 Q499 688 524 678 L503 555 Z M487 898 Q448 867 421 839 Q394 811 368 770 L320 770 Q302 809 284.5 836.5 Q267 864 239 898 L252 909 Q271 903 284 897 Q297 891 307.5 884 Q318 877 328.5 868.5 Q339 860 354 849 Q383 869 413.5 882 Q444 895 478 909 L487 898 L487 898 Z " />
<glyph glyph-name="Scedilla" unicode="&#x15e;" horiz-adv-x="531" d="M503 555 L475 555 Q473 572 469.5 586 Q466 600 459 613 Q441 646 405.5 662 Q370 678 329 678 Q303 678 279.5 670.5 Q256 663 239 648.5 Q222 634 212 612.5 Q202 591 202 564 Q202 526 220.5 498 Q239 470 268 448 L396 352 Q445 315 463.5 276 Q482 237 482 201 Q482 143 448 94 Q428 64 399.5 43.5 Q371 23 338.5 10.5 Q306 -2 271 -7 Q236 -12 202 -12 Q160 -12 121 -4.5 Q82 3 40 16 L67 156 L97 155 Q101 129 107 110.5 Q113 92 130 75 Q150 57 178 47 Q206 37 232 37 Q263 37 292 45 Q321 53 343.5 69.5 Q366 86 380 111 Q394 136 394 170 Q394 191 386 210.5 Q378 230 365 246.5 Q352 263 336.5 277 Q321 291 305 303 L254 340 Q228 359 203 378.5 Q178 398 158 420.5 Q138 443 126 469 Q114 495 114 527 Q114 576 132.5 612.5 Q151 649 182.5 673 Q214 697 255.5 709 Q297 721 342 721 Q369 721 391.5 718 Q414 715 435 709.5 Q456 704 477.5 696 Q499 688 524 678 L503 555 Z M268 -66 Q268 -117 241.5 -145.5 Q215 -174 170 -191 L158 -174 Q177 -153 186.5 -138 Q196 -123 196 -97 Q196 -90 195.5 -83 Q195 -76 194 -67 L268 -63 L268 -66 Z " />
<glyph glyph-name="Scommaaccent" unicode="&#x218;" horiz-adv-x="531" d="M503 555 L475 555 Q473 572 469.5 586 Q466 600 459 613 Q441 646 405.5 662 Q370 678 329 678 Q303 678 279.5 670.5 Q256 663 239 648.5 Q222 634 212 612.5 Q202 591 202 564 Q202 526 220.5 498 Q239 470 268 448 L396 352 Q445 315 463.5 276 Q482 237 482 201 Q482 143 448 94 Q428 64 399.5 43.5 Q371 23 338.5 10.5 Q306 -2 271 -7 Q236 -12 202 -12 Q160 -12 121 -4.5 Q82 3 40 16 L67 156 L97 155 Q101 129 107 110.5 Q113 92 130 75 Q150 57 178 47 Q206 37 232 37 Q263 37 292 45 Q321 53 343.5 69.5 Q366 86 380 111 Q394 136 394 170 Q394 191 386 210.5 Q378 230 365 246.5 Q352 263 336.5 277 Q321 291 305 303 L254 340 Q228 359 203 378.5 Q178 398 158 420.5 Q138 443 126 469 Q114 495 114 527 Q114 576 132.5 612.5 Q151 649 182.5 673 Q214 697 255.5 709 Q297 721 342 721 Q369 721 391.5 718 Q414 715 435 709.5 Q456 704 477.5 696 Q499 688 524 678 L503 555 Z M268 -66 Q268 -117 241.5 -145.5 Q215 -174 170 -191 L158 -174 Q177 -153 186.5 -138 Q196 -123 196 -97 Q196 -90 195.5 -83 Q195 -76 194 -67 L268 -63 L268 -66 Z " />
<glyph glyph-name="Tcaron" unicode="&#x164;" horiz-adv-x="614" d="M668 540 L633 540 Q635 554 636 565.5 Q637 577 637 588 Q637 634 616 652 Q595 670 551 670 L440 670 L346 162 Q342 141 339.5 127 Q337 113 336 105 Q335 97 335 92.5 Q335 88 335 85 Q335 68 341.5 58 Q348 48 358.5 42.5 Q369 37 383 35 Q397 33 413 32 L405 -3 Q387 -2 366.5 -1.5 Q346 -1 326.5 -0.5 Q307 0 290 0 Q273 0 261 0 Q240 0 209 0 Q178 0 147 -2 L156 34 L174 34 Q193 34 205 40.5 Q217 47 224.5 58 Q232 69 236.5 84 Q241 99 244 116 L349 669 L294 669 Q261 669 229 664 Q197 659 169 642 Q139 623 127 595 Q115 567 105 533 L71 533 L99 706 L696 706 L668 540 Z M549 898 Q510 867 483 839 Q456 811 430 770 L382 770 Q364 809 346.5 836.5 Q329 864 301 898 L314 909 Q333 903 346 897 Q359 891 369.5 884 Q380 877 390.5 868.5 Q401 860 416 849 Q445 869 475.5 882 Q506 895 540 909 L549 898 L549 898 Z " />
<glyph glyph-name="Tcommaaccent" unicode="&#x162;" horiz-adv-x="614" d="M668 540 L633 540 Q635 554 636 565.5 Q637 577 637 588 Q637 634 616 652 Q595 670 551 670 L440 670 L346 162 Q342 141 339.5 127 Q337 113 336 105 Q335 97 335 92.5 Q335 88 335 85 Q335 68 341.5 58 Q348 48 358.5 42.5 Q369 37 383 35 Q397 33 413 32 L405 -3 Q387 -2 366.5 -1.5 Q346 -1 326.5 -0.5 Q307 0 290 0 Q273 0 261 0 Q240 0 209 0 Q178 0 147 -2 L156 34 L174 34 Q193 34 205 40.5 Q217 47 224.5 58 Q232 69 236.5 84 Q241 99 244 116 L349 669 L294 669 Q261 669 229 664 Q197 659 169 642 Q139 623 127 595 Q115 567 105 533 L71 533 L99 706 L696 706 L668 540 Z M299 -66 Q299 -117 272.5 -145.5 Q246 -174 201 -191 L189 -174 Q208 -153 217.5 -138 Q227 -123 227 -97 Q227 -90 226.5 -83 Q226 -76 225 -67 L299 -63 L299 -66 Z " />
<glyph glyph-name="uni021A" unicode="&#x21a;" horiz-adv-x="614" d="M668 540 L633 540 Q635 554 636 565.5 Q637 577 637 588 Q637 634 616 652 Q595 670 551 670 L440 670 L346 162 Q342 141 339.5 127 Q337 113 336 105 Q335 97 335 92.5 Q335 88 335 85 Q335 68 341.5 58 Q348 48 358.5 42.5 Q369 37 383 35 Q397 33 413 32 L405 -3 Q387 -2 366.5 -1.5 Q346 -1 326.5 -0.5 Q307 0 290 0 Q273 0 261 0 Q240 0 209 0 Q178 0 147 -2 L156 34 L174 34 Q193 34 205 40.5 Q217 47 224.5 58 Q232 69 236.5 84 Q241 99 244 116 L349 669 L294 669 Q261 669 229 664 Q197 659 169 642 Q139 623 127 595 Q115 567 105 533 L71 533 L99 706 L696 706 L668 540 Z M299 -66 Q299 -117 272.5 -145.5 Q246 -174 201 -191 L189 -174 Q208 -153 217.5 -138 Q227 -123 227 -97 Q227 -90 226.5 -83 Q226 -76 225 -67 L299 -63 L299 -66 Z " />
<glyph glyph-name="Ugrave" unicode="&#xd9;" horiz-adv-x="781" d="M852 675 Q827 674 805.5 669.5 Q784 665 770 645 Q765 638 761 627.5 Q757 617 753.5 605 Q750 593 747.5 581 Q745 569 743 560 L686 274 Q675 219 656 167.5 Q637 116 598 74 Q554 26 493.5 5.5 Q433 -15 369 -15 Q317 -15 270.5 0 Q224 15 188.5 44 Q153 73 132 116.5 Q111 160 111 216 Q111 236 113.5 257 Q116 278 120 299 L168 547 Q172 566 174 578.5 Q176 591 177 598.5 Q178 606 178.5 611 Q179 616 179 621 Q179 656 160 665.5 Q141 675 109 675 L100 675 L110 710 Q141 708 171 707 Q201 706 230 706 Q263 706 296.5 707.5 Q330 709 366 711 L359 675 Q337 672 321.5 668 Q306 664 295.5 655.5 Q285 647 278.5 633.5 Q272 620 268 599 L212 309 Q207 285 205 261.5 Q203 238 203 227 Q203 135 254.5 88 Q306 41 390 41 Q453 41 495.5 61 Q538 81 566 115.5 Q594 150 610 196.5 Q626 243 637 296 L678 509 Q686 549 688.5 572.5 Q691 596 691 610 Q691 650 673 662.5 Q655 675 618 675 L605 675 L614 710 Q646 708 676.5 707 Q707 706 737 706 Q766 706 795 707 Q824 708 856 710 L852 675 Z M530 767 Q488 781 449 801.5 Q410 822 387 860 Q380 873 375 886 Q370 899 365 912 L463 891 Q470 870 476.5 856.5 Q483 843 490.5 831.5 Q498 820 509 809.5 Q520 799 538 785 L530 767 Z " />
<glyph glyph-name="Uacute" unicode="&#xda;" horiz-adv-x="781" d="M852 675 Q827 674 805.5 669.5 Q784 665 770 645 Q765 638 761 627.5 Q757 617 753.5 605 Q750 593 747.5 581 Q745 569 743 560 L686 274 Q675 219 656 167.5 Q637 116 598 74 Q554 26 493.5 5.5 Q433 -15 369 -15 Q317 -15 270.5 0 Q224 15 188.5 44 Q153 73 132 116.5 Q111 160 111 216 Q111 236 113.5 257 Q116 278 120 299 L168 547 Q172 566 174 578.5 Q176 591 177 598.5 Q178 606 178.5 611 Q179 616 179 621 Q179 656 160 665.5 Q141 675 109 675 L100 675 L110 710 Q141 708 171 707 Q201 706 230 706 Q263 706 296.5 707.5 Q330 709 366 711 L359 675 Q337 672 321.5 668 Q306 664 295.5 655.5 Q285 647 278.5 633.5 Q272 620 268 599 L212 309 Q207 285 205 261.5 Q203 238 203 227 Q203 135 254.5 88 Q306 41 390 41 Q453 41 495.5 61 Q538 81 566 115.5 Q594 150 610 196.5 Q626 243 637 296 L678 509 Q686 549 688.5 572.5 Q691 596 691 610 Q691 650 673 662.5 Q655 675 618 675 L605 675 L614 710 Q646 708 676.5 707 Q707 706 737 706 Q766 706 795 707 Q824 708 856 710 L852 675 Z M614 912 Q606 898 600.5 886.5 Q595 875 589 865 Q573 841 547.5 818 Q522 795 496 783 Q486 778 476 776 Q466 774 455 769 L444 786 Q462 801 472.5 811.5 Q483 822 490.5 833 Q498 844 503.5 858 Q509 872 516 894 L614 912 L614 912 Z " />
<glyph glyph-name="Ucircumflex" unicode="&#xdb;" horiz-adv-x="781" d="M852 675 Q827 674 805.5 669.5 Q784 665 770 645 Q765 638 761 627.5 Q757 617 753.5 605 Q750 593 747.5 581 Q745 569 743 560 L686 274 Q675 219 656 167.5 Q637 116 598 74 Q554 26 493.5 5.5 Q433 -15 369 -15 Q317 -15 270.5 0 Q224 15 188.5 44 Q153 73 132 116.5 Q111 160 111 216 Q111 236 113.5 257 Q116 278 120 299 L168 547 Q172 566 174 578.5 Q176 591 177 598.5 Q178 606 178.5 611 Q179 616 179 621 Q179 656 160 665.5 Q141 675 109 675 L100 675 L110 710 Q141 708 171 707 Q201 706 230 706 Q263 706 296.5 707.5 Q330 709 366 711 L359 675 Q337 672 321.5 668 Q306 664 295.5 655.5 Q285 647 278.5 633.5 Q272 620 268 599 L212 309 Q207 285 205 261.5 Q203 238 203 227 Q203 135 254.5 88 Q306 41 390 41 Q453 41 495.5 61 Q538 81 566 115.5 Q594 150 610 196.5 Q626 243 637 296 L678 509 Q686 549 688.5 572.5 Q691 596 691 610 Q691 650 673 662.5 Q655 675 618 675 L605 675 L614 710 Q646 708 676.5 707 Q707 706 737 706 Q766 706 795 707 Q824 708 856 710 L852 675 Z M603 765 Q582 771 569.5 776.5 Q557 782 546.5 788.5 Q536 795 526 804 Q516 813 501 826 Q472 807 440 791.5 Q408 776 376 763 Q371 767 368 770 Q365 773 364 780 Q388 796 403.5 808.5 Q419 821 432 834 Q445 847 457 863 Q469 879 484 903 L533 903 Q542 882 549.5 866 Q557 850 566 836 Q575 822 586 808 Q597 794 613 778 L603 765 Z " />
<glyph glyph-name="Udieresis" unicode="&#xdc;" horiz-adv-x="781" d="M852 675 Q827 674 805.5 669.5 Q784 665 770 645 Q765 638 761 627.5 Q757 617 753.5 605 Q750 593 747.5 581 Q745 569 743 560 L686 274 Q675 219 656 167.5 Q637 116 598 74 Q554 26 493.5 5.5 Q433 -15 369 -15 Q317 -15 270.5 0 Q224 15 188.5 44 Q153 73 132 116.5 Q111 160 111 216 Q111 236 113.5 257 Q116 278 120 299 L168 547 Q172 566 174 578.5 Q176 591 177 598.5 Q178 606 178.5 611 Q179 616 179 621 Q179 656 160 665.5 Q141 675 109 675 L100 675 L110 710 Q141 708 171 707 Q201 706 230 706 Q263 706 296.5 707.5 Q330 709 366 711 L359 675 Q337 672 321.5 668 Q306 664 295.5 655.5 Q285 647 278.5 633.5 Q272 620 268 599 L212 309 Q207 285 205 261.5 Q203 238 203 227 Q203 135 254.5 88 Q306 41 390 41 Q453 41 495.5 61 Q538 81 566 115.5 Q594 150 610 196.5 Q626 243 637 296 L678 509 Q686 549 688.5 572.5 Q691 596 691 610 Q691 650 673 662.5 Q655 675 618 675 L605 675 L614 710 Q646 708 676.5 707 Q707 706 737 706 Q766 706 795 707 Q824 708 856 710 L852 675 Z M647 842 Q647 831 642 819 Q637 807 628 797.5 Q619 788 608 782 Q597 776 585 776 Q568 776 558.5 787 Q549 798 549 815 Q549 826 554 838 Q559 850 567 860 Q575 870 586.5 876.5 Q598 883 610 883 Q628 883 637.5 870.5 Q647 858 647 842 Z M468 842 Q468 831 463 819 Q458 807 449 797.5 Q440 788 429 782 Q418 776 406 776 Q389 776 379.5 787 Q370 798 370 815 Q370 826 375 838 Q380 850 388 860 Q396 870 407.5 876.5 Q419 883 431 883 Q449 883 458.5 870.5 Q468 858 468 842 Z " />
<glyph glyph-name="Umacron" unicode="&#x16a;" horiz-adv-x="781" d="M852 675 Q827 674 805.5 669.5 Q784 665 770 645 Q765 638 761 627.5 Q757 617 753.5 605 Q750 593 747.5 581 Q745 569 743 560 L686 274 Q675 219 656 167.5 Q637 116 598 74 Q554 26 493.5 5.5 Q433 -15 369 -15 Q317 -15 270.5 0 Q224 15 188.5 44 Q153 73 132 116.5 Q111 160 111 216 Q111 236 113.5 257 Q116 278 120 299 L168 547 Q172 566 174 578.5 Q176 591 177 598.5 Q178 606 178.5 611 Q179 616 179 621 Q179 656 160 665.5 Q141 675 109 675 L100 675 L110 710 Q141 708 171 707 Q201 706 230 706 Q263 706 296.5 707.5 Q330 709 366 711 L359 675 Q337 672 321.5 668 Q306 664 295.5 655.5 Q285 647 278.5 633.5 Q272 620 268 599 L212 309 Q207 285 205 261.5 Q203 238 203 227 Q203 135 254.5 88 Q306 41 390 41 Q453 41 495.5 61 Q538 81 566 115.5 Q594 150 610 196.5 Q626 243 637 296 L678 509 Q686 549 688.5 572.5 Q691 596 691 610 Q691 650 673 662.5 Q655 675 618 675 L605 675 L614 710 Q646 708 676.5 707 Q707 706 737 706 Q766 706 795 707 Q824 708 856 710 L852 675 Z M640 798 L369 798 L380 852 L651 852 L640 798 Z " />
<glyph glyph-name="Uring" unicode="&#x16e;" horiz-adv-x="781" d="M852 675 Q827 674 805.5 669.5 Q784 665 770 645 Q765 638 761 627.5 Q757 617 753.5 605 Q750 593 747.5 581 Q745 569 743 560 L686 274 Q675 219 656 167.5 Q637 116 598 74 Q554 26 493.5 5.5 Q433 -15 369 -15 Q317 -15 270.5 0 Q224 15 188.5 44 Q153 73 132 116.5 Q111 160 111 216 Q111 236 113.5 257 Q116 278 120 299 L168 547 Q172 566 174 578.5 Q176 591 177 598.5 Q178 606 178.5 611 Q179 616 179 621 Q179 656 160 665.5 Q141 675 109 675 L100 675 L110 710 Q141 708 171 707 Q201 706 230 706 Q263 706 296.5 707.5 Q330 709 366 711 L359 675 Q337 672 321.5 668 Q306 664 295.5 655.5 Q285 647 278.5 633.5 Q272 620 268 599 L212 309 Q207 285 205 261.5 Q203 238 203 227 Q203 135 254.5 88 Q306 41 390 41 Q453 41 495.5 61 Q538 81 566 115.5 Q594 150 610 196.5 Q626 243 637 296 L678 509 Q686 549 688.5 572.5 Q691 596 691 610 Q691 650 673 662.5 Q655 675 618 675 L605 675 L614 710 Q646 708 676.5 707 Q707 706 737 706 Q766 706 795 707 Q824 708 856 710 L852 675 Z M592 820 Q592 799 584 781 Q576 763 562 749 Q548 735 530 727 Q512 719 491 719 Q470 719 452 727 Q434 735 420 749 Q406 763 398 781 Q390 799 390 820 Q390 841 398 859 Q406 877 420 891 Q434 905 452 913 Q470 921 491 921 Q512 921 530 913 Q548 905 562 891 Q576 877 584 859 Q592 841 592 820 Z M553 820 Q553 847 535 864.5 Q517 882 491 882 Q465 882 447 864 Q429 846 429 820 Q429 794 447 776 Q465 758 491 758 Q517 758 535 776 Q553 794 553 820 Z " />
<glyph glyph-name="Uhungarumlaut" unicode="&#x170;" horiz-adv-x="781" d="M852 675 Q827 674 805.5 669.5 Q784 665 770 645 Q765 638 761 627.5 Q757 617 753.5 605 Q750 593 747.5 581 Q745 569 743 560 L686 274 Q675 219 656 167.5 Q637 116 598 74 Q554 26 493.5 5.5 Q433 -15 369 -15 Q317 -15 270.5 0 Q224 15 188.5 44 Q153 73 132 116.5 Q111 160 111 216 Q111 236 113.5 257 Q116 278 120 299 L168 547 Q172 566 174 578.5 Q176 591 177 598.5 Q178 606 178.5 611 Q179 616 179 621 Q179 656 160 665.5 Q141 675 109 675 L100 675 L110 710 Q141 708 171 707 Q201 706 230 706 Q263 706 296.5 707.5 Q330 709 366 711 L359 675 Q337 672 321.5 668 Q306 664 295.5 655.5 Q285 647 278.5 633.5 Q272 620 268 599 L212 309 Q207 285 205 261.5 Q203 238 203 227 Q203 135 254.5 88 Q306 41 390 41 Q453 41 495.5 61 Q538 81 566 115.5 Q594 150 610 196.5 Q626 243 637 296 L678 509 Q686 549 688.5 572.5 Q691 596 691 610 Q691 650 673 662.5 Q655 675 618 675 L605 675 L614 710 Q646 708 676.5 707 Q707 706 737 706 Q766 706 795 707 Q824 708 856 710 L852 675 Z M720 926 Q713 898 697.5 873 Q682 848 660.5 828 Q639 808 612.5 794 Q586 780 557 773 L542 792 Q566 809 587 835.5 Q608 862 617 905 L720 926 Z M546 925 Q539 897 523.5 872.5 Q508 848 486.5 828 Q465 808 438.5 794 Q412 780 383 773 L368 792 Q392 809 413 835.5 Q434 862 443 905 L541 925 L546 925 Z " />
<glyph glyph-name="Uogonek" unicode="&#x172;" horiz-adv-x="781" d="M454 -198 Q436 -208 410.5 -214 Q385 -220 354 -220 Q339 -220 321.5 -215.5 Q304 -211 288.5 -201 Q273 -191 263 -174.5 Q253 -158 253 -135 Q253 -102 273.5 -70.5 Q294 -39 335 -13 Q289 -9 248 8 Q207 25 176.5 54 Q146 83 128.5 123.5 Q111 164 111 216 Q111 236 113.5 257 Q116 278 120 299 L168 547 Q172 566 174 578.5 Q176 591 177 598.5 Q178 606 178.5 611 Q179 616 179 621 Q179 656 160 665.5 Q141 675 109 675 L100 675 L110 710 Q141 708 171 707 Q201 706 230 706 Q263 706 296.5 707.5 Q330 709 366 711 L359 675 Q337 672 321.5 668 Q306 664 295.5 655.5 Q285 647 278.5 633.5 Q272 620 268 599 L212 309 Q207 285 205 261.5 Q203 238 203 227 Q203 135 254.5 88 Q306 41 390 41 Q453 41 495.5 61 Q538 81 566 115.5 Q594 150 610 196.5 Q626 243 637 296 L678 509 Q686 549 688.5 572.5 Q691 596 691 610 Q691 650 673 662.5 Q655 675 618 675 L605 675 L614 710 Q646 708 676.5 707 Q707 706 737 706 Q766 706 795 707 Q824 708 856 710 L852 675 Q827 674 805.5 669.5 Q784 665 770 645 Q765 638 761 627.5 Q757 617 753.5 605 Q750 593 747.5 581 Q745 569 743 560 L686 274 Q675 219 656 167.5 Q637 116 598 74 Q559 31 506 10.5 Q453 -10 396 -14 Q364 -37 345.5 -63 Q327 -89 327 -123 Q327 -149 341.5 -164.5 Q356 -180 381 -180 Q400 -180 412.5 -175.5 Q425 -171 436 -165 L454 -198 L454 -198 Z " />
<glyph glyph-name="Yacute" unicode="&#xdd;" horiz-adv-x="656" d="M737 673 Q714 670 699 667 Q684 664 672.5 657.5 Q661 651 651 640 Q641 629 627 611 L395 306 L359 113 Q355 93 355 77 Q355 62 360.5 53 Q366 44 375.5 39.5 Q385 35 397.5 33.5 Q410 32 424 32 L436 32 L430 -3 Q395 -2 361.5 -1 Q328 0 295 0 Q236 0 170 -3 L179 32 Q204 33 219.5 37 Q235 41 244.5 50 Q254 59 259 74.5 Q264 90 269 115 L307 309 L187 588 Q180 605 169.5 626.5 Q159 648 145 660 Q134 670 119.5 672 Q105 674 90 674 L72 674 L78 709 Q138 706 193 706 Q222 706 250 707 Q278 708 310 709 L302 676 Q289 675 274 671 Q259 667 259 652 Q259 644 262 634 Q265 624 269 616 L380 356 L548 595 Q557 608 565.5 624 Q574 640 574 650 Q574 667 559.5 670.5 Q545 674 531 674 L507 674 L517 709 Q580 706 638 706 Q664 706 690.5 706.5 Q717 707 746 708 L737 673 Z M560 912 Q552 898 546.5 886.5 Q541 875 535 865 Q519 841 493.5 818 Q468 795 442 783 Q432 778 422 776 Q412 774 401 769 L390 786 Q408 801 418.5 811.5 Q429 822 436.5 833 Q444 844 449.5 858 Q455 872 462 894 L560 912 L560 912 Z " />
<glyph glyph-name="Ydieresis" unicode="&#x178;" horiz-adv-x="656" d="M737 673 Q714 670 699 667 Q684 664 672.5 657.5 Q661 651 651 640 Q641 629 627 611 L395 306 L359 113 Q355 93 355 77 Q355 62 360.5 53 Q366 44 375.5 39.5 Q385 35 397.5 33.5 Q410 32 424 32 L436 32 L430 -3 Q395 -2 361.5 -1 Q328 0 295 0 Q236 0 170 -3 L179 32 Q204 33 219.5 37 Q235 41 244.5 50 Q254 59 259 74.5 Q264 90 269 115 L307 309 L187 588 Q180 605 169.5 626.5 Q159 648 145 660 Q134 670 119.5 672 Q105 674 90 674 L72 674 L78 709 Q138 706 193 706 Q222 706 250 707 Q278 708 310 709 L302 676 Q289 675 274 671 Q259 667 259 652 Q259 644 262 634 Q265 624 269 616 L380 356 L548 595 Q557 608 565.5 624 Q574 640 574 650 Q574 667 559.5 670.5 Q545 674 531 674 L507 674 L517 709 Q580 706 638 706 Q664 706 690.5 706.5 Q717 707 746 708 L737 673 Z M587 842 Q587 831 582 819 Q577 807 568 797.5 Q559 788 548 782 Q537 776 525 776 Q508 776 498.5 787 Q489 798 489 815 Q489 826 494 838 Q499 850 507 860 Q515 870 526.5 876.5 Q538 883 550 883 Q568 883 577.5 870.5 Q587 858 587 842 Z M408 842 Q408 831 403 819 Q398 807 389 797.5 Q380 788 369 782 Q358 776 346 776 Q329 776 319.5 787 Q310 798 310 815 Q310 826 315 838 Q320 850 328 860 Q336 870 347.5 876.5 Q359 883 371 883 Q389 883 398.5 870.5 Q408 858 408 842 Z " />
<glyph glyph-name="Zacute" unicode="&#x179;" horiz-adv-x="593" d="M124 46 L386 46 Q418 46 445.5 56 Q473 66 487 88 Q496 102 501 118.5 Q506 135 509 155 L549 155 L530 0 L-26 0 L496 663 L343 663 Q327 663 307.5 662.5 Q288 662 268.5 659 Q249 656 231 650.5 Q213 645 200 635 Q177 617 168 590.5 Q159 564 154 533 L113 533 L142 706 L646 706 L124 46 Z M522 912 Q514 898 508.5 886.5 Q503 875 497 865 Q481 841 455.5 818 Q430 795 404 783 Q394 778 384 776 Q374 774 363 769 L352 786 Q370 801 380.5 811.5 Q391 822 398.5 833 Q406 844 411.5 858 Q417 872 424 894 L522 912 L522 912 Z " />
<glyph glyph-name="Zcaron" unicode="&#x17d;" horiz-adv-x="593" d="M124 46 L386 46 Q418 46 445.5 56 Q473 66 487 88 Q496 102 501 118.5 Q506 135 509 155 L549 155 L530 0 L-26 0 L496 663 L343 663 Q327 663 307.5 662.5 Q288 662 268.5 659 Q249 656 231 650.5 Q213 645 200 635 Q177 617 168 590.5 Q159 564 154 533 L113 533 L142 706 L646 706 L124 46 Z M548 898 Q509 867 482 839 Q455 811 429 770 L381 770 Q363 809 345.5 836.5 Q328 864 300 898 L313 909 Q332 903 345 897 Q358 891 368.5 884 Q379 877 389.5 868.5 Q400 860 415 849 Q444 869 474.5 882 Q505 895 539 909 L548 898 L548 898 Z " />
<glyph glyph-name="Zdotaccent" unicode="&#x17b;" horiz-adv-x="593" d="M124 46 L386 46 Q418 46 445.5 56 Q473 66 487 88 Q496 102 501 118.5 Q506 135 509 155 L549 155 L530 0 L-26 0 L496 663 L343 663 Q327 663 307.5 662.5 Q288 662 268.5 659 Q249 656 231 650.5 Q213 645 200 635 Q177 617 168 590.5 Q159 564 154 533 L113 533 L142 706 L646 706 L124 46 Z M455 845 Q455 834 450 822 Q445 810 436 800.5 Q427 791 416 785 Q405 779 393 779 Q376 779 366.5 790 Q357 801 357 818 Q357 829 362 841 Q367 853 375 863 Q383 873 394.5 879.5 Q406 886 418 886 Q436 886 445.5 873.5 Q455 861 455 845 Z " />
<glyph glyph-name="Eth" unicode="&#xd0;" horiz-adv-x="781" d="M756 388 Q756 334 741.5 281.5 Q727 229 699.5 183.5 Q672 138 632.5 100.5 Q593 63 544 38 Q499 16 444.5 5 Q390 -6 323 -6 Q267 -6 210.5 -2.5 Q154 1 91 0 L-1 -1 L7 34 Q46 34 65.5 46 Q85 58 93 97 L141 350 L65 350 L74 394 L150 394 L189 597 Q190 602 191 608 Q192 614 192 621 Q192 637 185 646.5 Q178 656 167 661.5 Q156 667 141 669 Q126 671 111 671 L120 706 Q205 706 278 708 Q351 710 428 710 Q498 710 558 686.5 Q618 663 662 621 Q706 579 731 519.5 Q756 460 756 388 Z M659 394 Q659 427 654.5 458 Q650 489 637 520 Q620 560 593 588 Q566 616 532 634 Q498 652 458.5 660 Q419 668 379 668 Q357 668 335 666 Q313 664 291 662 L240 394 L438 394 L429 350 L231 350 L188 120 Q186 113 185 106 Q184 99 184 91 Q184 72 193.5 61 Q203 50 219 44.5 Q235 39 255 37.5 Q275 36 296 36 Q381 36 448.5 60.5 Q516 85 563 131.5 Q610 178 634.5 244 Q659 310 659 394 Z " />
<glyph glyph-name="Thorn" unicode="&#xde;" horiz-adv-x="552" d="M564 410 Q564 369 545 333 Q526 297 496 271 Q448 229 387 212 Q326 195 264 195 Q250 195 235.5 195.5 Q221 196 207 197 Q201 171 194.5 142 Q188 113 188 87 Q188 67 194.5 56 Q201 45 213 39.5 Q225 34 240.5 32 Q256 30 274 30 L266 -5 Q234 -3 204.5 -1.5 Q175 0 145 0 Q110 0 74 -1 Q38 -2 0 -4 L9 31 Q19 32 29 32.5 Q39 33 48 36 Q75 45 85 70.5 Q95 96 100 123 L193 591 Q195 598 195.5 606 Q196 614 196 622 Q196 656 173 665.5 Q150 675 117 675 L125 710 Q156 708 185.5 707 Q215 706 244 706 Q278 706 311.5 707 Q345 708 382 710 L373 676 Q341 676 325 669.5 Q309 663 301 650 Q291 636 286.5 614 Q282 592 279 575 L368 575 Q407 575 442.5 565.5 Q478 556 505 536 Q532 516 548 484.5 Q564 453 564 410 Z M475 401 Q475 435 463 461 Q451 487 430 504.5 Q409 522 380.5 531 Q352 540 319 540 Q296 540 272 537 L215 246 Q235 244 255.5 241.5 Q276 239 296 239 Q335 239 367.5 249 Q400 259 424 279.5 Q448 300 461.5 330 Q475 360 475 401 Z " />
<glyph glyph-name="a" unicode="a" horiz-adv-x="537" d="M527 119 Q519 109 512.5 99 Q506 89 498 78 Q488 65 475.5 49.5 Q463 34 448 20.5 Q433 7 416.5 -2 Q400 -11 382 -11 Q349 -11 337.5 6.5 Q326 24 326 53 Q326 88 334.5 130.5 Q343 173 353 212 Q332 176 306.5 136 Q281 96 251 63 Q221 30 186.5 8.5 Q152 -13 113 -13 Q89 -13 71.5 -3.5 Q54 6 43.5 22 Q33 38 28 58 Q23 78 23 99 Q23 152 45 208.5 Q67 265 103 315 Q139 365 185 403.5 Q231 442 279 459 Q302 467 323.5 469 Q345 471 368 471 L488 471 L420 146 Q416 128 413.5 112 Q411 96 411 88 Q411 80 413 71 Q415 62 426 62 Q435 62 445.5 70 Q456 78 465.5 89.5 Q475 101 483.5 112.5 Q492 124 497 132 L527 119 Z M401 428 Q389 430 376 431 Q363 432 351 432 Q303 432 267 410.5 Q231 389 200 351 Q182 329 165.5 298 Q149 267 136 233.5 Q123 200 115.5 165.5 Q108 131 108 102 Q108 91 109.5 80 Q111 69 115 60.5 Q119 52 126.5 46.5 Q134 41 147 41 Q164 41 184 54.5 Q204 68 224.5 89.5 Q245 111 265 137.5 Q285 164 302 190.5 Q319 217 332 240 Q345 263 352 278 Q361 299 368 317 Q375 335 380 352.5 Q385 370 390 388 Q395 406 401 428 Z " />
<glyph glyph-name="b" unicode="b" horiz-adv-x="516" d="M493 374 Q493 347 484.5 316 Q476 285 463 254 Q450 223 434 195 Q418 167 403 146 Q368 98 323.5 58.5 Q279 19 222 -1 Q207 -6 189.5 -9.5 Q172 -13 156 -13 Q124 -13 97 0 Q63 17 53 43.5 Q43 70 43 104 Q43 117 45.5 136 Q48 155 53 178 L150 620 Q155 641 156.5 652.5 Q158 664 158 671 Q158 690 150 698.5 Q142 707 122 707 Q114 707 107 705.5 Q100 704 89 701 L89 731 Q133 737 174 748.5 Q215 760 260 769 L169 352 Q188 374 210.5 398 Q233 422 259 442 Q285 462 315 475 Q345 488 379 488 Q493 488 493 374 Z M408 361 Q408 395 396 416.5 Q384 438 349 438 Q321 438 294 420.5 Q267 403 236 372 Q183 319 151.5 251 Q120 183 120 115 Q120 84 137.5 60.5 Q155 37 186 37 Q200 37 210.5 40.5 Q221 44 231 48 Q264 61 296 98.5 Q328 136 352.5 182.5 Q377 229 392.5 277.5 Q408 326 408 361 Z " />
<glyph glyph-name="c" unicode="c" horiz-adv-x="421" d="M402 348 L372 357 L372 361 Q372 379 369 394 Q366 409 358.5 420.5 Q351 432 338 438.5 Q325 445 305 445 Q266 445 232 414.5 Q198 384 173 340 Q148 296 134 246.5 Q120 197 120 159 Q120 105 141 72.5 Q162 40 206 40 Q226 40 244.5 50 Q263 60 279.5 75 Q296 90 311 107 Q326 124 338 138 L369 116 Q361 105 354.5 96.5 Q348 88 341 80 Q310 40 267 13.5 Q224 -13 171 -13 Q138 -13 113 0 Q88 13 70.5 35.5 Q53 58 44.5 88.5 Q36 119 36 155 Q36 189 47 227.5 Q58 266 76.5 303 Q95 340 121 373 Q147 406 177 430 Q212 457 244.5 470 Q277 483 325 483 Q356 483 381.5 475 Q407 467 436 447 L402 348 Z " />
<glyph glyph-name="d" unicode="d" horiz-adv-x="540" d="M425 174 Q417 138 415 118 Q413 98 413 93 Q413 82 415 74 Q417 66 427 66 Q436 66 446.5 74 Q457 82 466.5 92.5 Q476 103 484.5 114 Q493 125 499 132 L526 118 Q514 100 498 77.5 Q482 55 463 34.5 Q444 14 422 0.5 Q400 -13 376 -13 Q361 -13 351 -6.5 Q341 0 336 9.5 Q331 19 329 31 Q327 43 327 54 Q327 85 334.5 126.5 Q342 168 351 202 Q333 172 308.5 134.5 Q284 97 254 64.5 Q224 32 188.5 9.5 Q153 -13 113 -13 Q90 -13 73 -4 Q56 5 45 20 Q34 35 28.5 54.5 Q23 74 23 95 Q23 146 43.5 202.5 Q64 259 98 310.5 Q132 362 176.5 402.5 Q221 443 269 463 Q295 474 320.5 477 Q346 480 372 480 Q381 480 390.5 480 Q400 480 410 479 L442 628 Q451 670 451 684 Q451 698 440.5 702.5 Q430 707 416 707 Q407 707 398 705.5 Q389 704 377 701 L381 731 L550 769 L425 174 Z M402 436 Q390 438 377 439 Q364 440 352 440 Q313 440 280 421 Q247 402 220 372 Q193 342 173 306 Q153 270 139 236 Q127 207 117 172 Q107 137 107 107 Q107 83 113.5 62.5 Q120 42 147 42 Q161 42 176 50 Q191 58 204.5 70 Q218 82 230 95.5 Q242 109 251 120 Q301 181 340 256 Q379 331 402 436 Z " />
<glyph glyph-name="e" unicode="e" horiz-adv-x="434" d="M419 386 Q419 369 414.5 355.5 Q410 342 402 328 Q387 304 363.5 284.5 Q340 265 312.5 251.5 Q285 238 256 231 Q227 224 200 224 Q183 224 165.5 225 Q148 226 130 229 Q115 190 115 130 Q115 113 119.5 96 Q124 79 133 65.5 Q142 52 155.5 43.5 Q169 35 187 35 Q206 35 226 45.5 Q246 56 265 71.5 Q284 87 300.5 104.5 Q317 122 330 136 L361 114 Q341 91 319.5 68 Q298 45 274 27 Q250 9 222 -2 Q194 -13 161 -13 Q130 -13 106.5 -1.5 Q83 10 66.5 29.5 Q50 49 41.5 74.5 Q33 100 33 129 Q33 160 43 197 Q53 234 68.5 270 Q84 306 104 338 Q124 370 144 393 Q178 431 218.5 458.5 Q259 486 313 486 Q359 486 389 460 Q419 434 419 386 Z M342 405 Q342 447 299 447 Q280 447 264.5 436.5 Q249 426 235 414 Q202 384 180.5 345 Q159 306 141 266 Q160 262 188 262 Q215 262 242.5 274 Q270 286 292 305.5 Q314 325 328 351 Q342 377 342 405 Z " />
<glyph glyph-name="f" unicode="f" horiz-adv-x="297" d="M231 471 L337 471 L329 427 L225 427 L204 270 Q197 219 189 167 Q181 115 167 65.5 Q153 16 129 -30 Q105 -76 67 -114 Q40 -141 8 -157 Q-9 -165 -28.5 -168 Q-48 -171 -68 -173 L-56 -83 L-39 -75 Q-31 -89 -25 -96.5 Q-19 -104 -6 -104 Q8 -104 25 -94 Q48 -81 61 -52 Q74 -23 81 3 Q96 63 103.5 122.5 Q111 182 119 242 L145 427 L48 427 L83 471 L151 471 L159 520 Q163 546 166.5 562.5 Q170 579 174 591 Q188 636 210.5 674 Q233 712 271 741 Q292 758 318 768 Q344 778 371 778 Q383 778 393.5 776 Q404 774 417 769 L407 681 L386 682 Q379 703 371 716.5 Q363 730 340 730 Q314 730 293 707 Q272 684 263 655.5 Q254 627 249 595 L231 471 Z " />
<glyph glyph-name="g" unicode="g" horiz-adv-x="448" d="M498 517 Q498 493 491 476.5 Q484 460 471.5 448.5 Q459 437 442.5 428 Q426 419 407 410 Q409 397 411 384 Q413 371 413 357 Q413 325 401.5 299 Q390 273 370.5 252.5 Q351 232 326.5 216 Q302 200 277 187 Q252 173 228.5 163 Q205 153 186 143 Q142 121 142 107 Q142 94 152.5 87 Q163 80 175 75 L323 19 Q341 12 359 2 Q377 -8 392 -21.5 Q407 -35 416 -53 Q425 -71 425 -93 Q425 -112 417.5 -128.5 Q410 -145 398 -159 Q381 -179 356.5 -191 Q332 -203 305 -209.5 Q278 -216 250.5 -218.5 Q223 -221 199 -221 Q173 -221 136 -215.5 Q99 -210 65 -196 Q31 -182 7 -158 Q-17 -134 -17 -98 Q-17 -74 -6 -56 Q5 -38 21.5 -23.5 Q38 -9 58 1.5 Q78 12 96 20 Q81 31 64.5 46.5 Q48 62 48 83 Q48 100 63 115.5 Q78 131 99 143.5 Q120 156 141.5 165.5 Q163 175 176 181 Q156 188 138.5 197 Q121 206 108 219.5 Q95 233 87.5 251.5 Q80 270 80 296 Q80 335 97 369.5 Q114 404 142.5 430.5 Q171 457 206.5 472 Q242 487 280 487 Q316 487 340.5 473.5 Q365 460 392 438 Q411 447 411 465 Q411 477 405.5 488.5 Q400 500 391 512 L497 540 Q497 532 497.5 527 Q498 522 498 517 Z M325 380 Q325 408 314 430 Q303 452 273 452 Q248 452 227.5 433.5 Q207 415 192.5 388 Q178 361 170 330.5 Q162 300 162 276 Q162 250 176 229 Q190 208 219 208 Q246 208 266 225.5 Q286 243 299 269 Q312 295 318.5 325 Q325 355 325 380 Z M342 -110 Q342 -92 330 -79 Q318 -66 301 -56 Q293 -52 283 -47.5 Q273 -43 257.5 -37 Q242 -31 217.5 -23 Q193 -15 156 -3 Q139 -7 122 -14 Q105 -21 90.5 -31.5 Q76 -42 67 -57 Q58 -72 58 -92 Q58 -119 74 -136 Q90 -153 113.5 -163 Q137 -173 163.5 -176.5 Q190 -180 212 -180 Q230 -180 253 -177.5 Q276 -175 295.5 -167.5 Q315 -160 328.5 -146.5 Q342 -133 342 -110 Z " />
<glyph glyph-name="h" unicode="h" horiz-adv-x="531" d="M510 112 Q500 93 487 71.5 Q474 50 457.5 31.5 Q441 13 421 1 Q401 -11 377 -11 Q347 -11 331 11.5 Q315 34 315 61 Q315 77 318 95 Q321 113 328 140 L381 351 Q383 361 387 376.5 Q391 392 391 400 Q391 408 386 414 Q381 420 369 420 Q360 420 350.5 415.5 Q341 411 333 406 Q287 371 251.5 324.5 Q216 278 186 218 Q166 179 150 129 Q134 79 120 7 L35 -14 L179 644 Q185 671 185 686 Q185 695 178 701.5 Q171 708 160 708 Q147 708 136 706.5 Q125 705 113 703 L113 732 Q155 740 196 750 Q237 760 282 769 Q269 699 256 638.5 Q243 578 230.5 519.5 Q218 461 204.5 401 Q191 341 177 273 Q209 322 245.5 372 Q282 422 334 460 Q348 471 367 479 Q386 487 404 487 Q431 487 452 468.5 Q473 450 473 421 Q473 410 471 399 Q469 388 466 377 L412 150 Q406 124 402 107 Q398 90 398 83 Q398 73 402 65 Q406 57 416 57 Q428 57 437.5 63 Q447 69 454.5 78.5 Q462 88 468.5 99 Q475 110 480 121 L510 112 L510 112 Z " />
<glyph glyph-name="i" unicode="i" horiz-adv-x="297" d="M277 108 Q266 91 252.5 70.5 Q239 50 221.5 32 Q204 14 184 1.5 Q164 -11 142 -11 Q127 -11 116 -4.5 Q105 2 97 12.5 Q89 23 85 35.5 Q81 48 81 61 Q81 81 85 98 L144 360 Q147 374 149.5 386.5 Q152 399 152 404 Q152 420 138 420 Q131 420 120.5 412 Q110 404 99 393 Q88 382 78.5 370 Q69 358 64 351 L40 369 Q52 386 67 406 Q82 426 100 443.5 Q118 461 138.5 473 Q159 485 182 485 Q211 485 223 468 Q235 451 235 425 Q235 419 233.5 406 Q232 393 227 373 L169 113 Q166 99 164.5 91 Q163 83 163 77 Q163 69 168 62 Q173 55 181 55 Q192 55 202.5 62.5 Q213 70 222 80.5 Q231 91 238.5 102.5 Q246 114 251 122 L277 108 L277 108 Z M269 648 Q269 636 264 623.5 Q259 611 250 601.5 Q241 592 229.5 586 Q218 580 205 580 Q185 580 175.5 591 Q166 602 166 620 Q166 631 171 643 Q176 655 184.5 664.5 Q193 674 204 680.5 Q215 687 228 687 Q247 687 258 676 Q269 665 269 648 Z " />
<glyph glyph-name="j" unicode="j" horiz-adv-x="307" d="M300 657 Q300 646 295.5 634 Q291 622 283 611.5 Q275 601 264 594 Q253 587 241 587 Q221 587 206.5 599.5 Q192 612 192 633 Q192 644 196.5 656.5 Q201 669 209.5 679.5 Q218 690 229 697 Q240 704 253 704 Q272 704 286 690 Q300 676 300 657 Z M267 444 Q267 433 264 420 Q257 388 249 351 Q241 314 233 276 Q225 238 216.5 201 Q208 164 200 132 Q183 69 167 5.5 Q151 -58 124 -119 Q116 -136 105.5 -153 Q95 -170 80.5 -183.5 Q66 -197 48.5 -205 Q31 -213 9 -213 Q-2 -213 -14 -210.5 Q-26 -208 -40 -204 L-15 -109 L0 -109 Q5 -122 16.5 -133.5 Q28 -145 39 -145 Q46 -145 54 -140 Q65 -132 70 -122 Q75 -112 78 -98 Q102 4 121 113 Q140 222 160 329 Q163 345 165 358.5 Q167 372 167 379 Q167 388 160.5 395.5 Q154 403 145 403 Q139 403 129 397 Q119 391 108.5 382.5 Q98 374 88 365.5 Q78 357 72 352 L49 371 Q64 387 85 407 Q106 427 129.5 445 Q153 463 178 475 Q203 487 225 487 Q245 487 256 475.5 Q267 464 267 444 Z " />
<glyph glyph-name="k" unicode="k" horiz-adv-x="537" d="M517 98 Q503 79 488.5 59.5 Q474 40 458 24 Q442 8 423 -2.5 Q404 -13 380 -13 Q347 -13 325.5 8 Q304 29 281 78 L228 191 L164 176 L124 2 L41 -14 L183 640 Q186 654 187 661 Q188 668 188 673 Q188 706 155 706 Q146 706 137 704.5 Q128 703 115 700 L121 728 L290 769 L198 334 Q217 358 240.5 384 Q264 410 291.5 432 Q319 454 350 468 Q381 482 414 482 Q450 482 475.5 463.5 Q501 445 501 405 Q501 370 479.5 341.5 Q458 313 426.5 289.5 Q395 266 360 248 Q325 230 298 217 L342 121 Q361 80 374.5 62 Q388 44 408 44 Q420 44 431.5 50.5 Q443 57 454 67.5 Q465 78 475 90 Q485 102 494 113 L517 98 Z M423 397 Q423 437 383 437 Q362 437 341.5 425 Q321 413 304 399 Q266 368 233 330.5 Q200 293 180 243 Q176 234 174 227.5 Q172 221 169 213 Q195 217 217 223.5 Q239 230 259 238.5 Q279 247 298.5 259 Q318 271 341 286 Q354 295 368.5 308 Q383 321 395 336 Q407 351 415 366.5 Q423 382 423 397 Z " />
<glyph glyph-name="l" unicode="l" horiz-adv-x="278" d="M275 769 Q271 752 267.5 739 Q264 726 262 713 L143 134 Q137 108 137 83 Q137 72 143 63 Q149 54 160 54 Q170 54 183 62 Q196 70 209.5 81 Q223 92 234.5 103.5 Q246 115 253 122 L275 99 Q260 83 241 64 Q222 45 200 28.5 Q178 12 154.5 0.5 Q131 -11 107 -11 Q80 -11 65 11 Q50 33 50 57 Q50 71 52 84.5 Q54 98 57 112 L166 621 Q171 647 172.5 656.5 Q174 666 174 671 Q174 691 163 698 Q152 705 134 705 Q120 705 104 701 L106 733 Q135 735 163.5 742 Q192 749 219 756 L275 769 L275 769 Z " />
<glyph glyph-name="m" unicode="m" horiz-adv-x="797" d="M784 96 Q776 87 769.5 78 Q763 69 755 60 Q744 47 731.5 34 Q719 21 705 10.5 Q691 0 675 -6.5 Q659 -13 641 -13 Q611 -13 599.5 6 Q588 25 588 51 Q588 68 591.5 90.5 Q595 113 600 133 L643 329 Q649 358 651 371.5 Q653 385 653 391 Q653 402 649.5 408 Q646 414 634 414 Q621 414 604.5 402 Q588 390 572.5 373.5 Q557 357 543.5 339.5 Q530 322 524 312 Q501 277 480 238.5 Q459 200 445 162 Q426 112 417.5 73.5 Q409 35 403 -1 L319 -15 L384 285 Q385 292 388 307.5 Q391 323 394 340 Q397 357 399.5 372.5 Q402 388 402 394 Q402 405 397 412.5 Q392 420 380 420 Q365 420 351 407.5 Q337 395 327 383 Q279 322 248 265.5 Q217 209 198 164 Q186 136 178.5 114 Q171 92 165.5 73 Q160 54 155.5 36 Q151 18 147 -2 L65 -14 L125 246 Q128 258 131.5 276.5 Q135 295 139 315 Q143 335 145.5 353 Q148 371 148 382 Q148 390 144 398.5 Q140 407 132 407 Q124 407 113 400 Q102 393 91 383.5 Q80 374 70 364 Q60 354 55 349 L36 368 Q48 384 66 404.5 Q84 425 105.5 443 Q127 461 150 473.5 Q173 486 194 486 Q222 486 229.5 470.5 Q237 455 237 432 Q237 417 233.5 394.5 Q230 372 224.5 347 Q219 322 213 297 Q207 272 201 251 Q217 281 240 322 Q263 363 292.5 399.5 Q322 436 356 461.5 Q390 487 428 487 Q456 487 472.5 473.5 Q489 460 489 431 Q489 417 486.5 399 Q484 381 480 360.5 Q476 340 471.5 320 Q467 300 463 283 Q480 310 503.5 345.5 Q527 381 556 412 Q585 443 617.5 464.5 Q650 486 685 486 Q711 486 726.5 471.5 Q742 457 742 430 Q742 423 741 410.5 Q740 398 733 366 L683 135 Q679 118 676 101.5 Q673 85 673 76 Q673 69 676 62.5 Q679 56 690 56 Q699 56 709 63 Q719 70 728.5 79.5 Q738 89 746 99.5 Q754 110 760 117 L784 96 L784 96 Z " />
<glyph glyph-name="n" unicode="n" horiz-adv-x="547" d="M534 112 Q526 103 518.5 93.5 Q511 84 502 74 Q491 61 476.5 46 Q462 31 445.5 18 Q429 5 411.5 -3.5 Q394 -12 376 -12 Q353 -12 338.5 2.5 Q324 17 324 41 Q324 50 325.5 62.5 Q327 75 331 91 L396 347 Q402 372 404 383 Q406 394 406 403 Q406 412 401.5 420.5 Q397 429 384 429 Q368 429 348 412 Q328 395 305 366 Q276 330 256 299.5 Q236 269 222.5 243.5 Q209 218 200.5 197 Q192 176 185 158 Q171 121 160 82.5 Q149 44 139 3 L54 -13 L109 211 Q118 247 126.5 284.5 Q135 322 141 361 Q142 366 142.5 373 Q143 380 143 386 Q143 392 141.5 403 Q140 414 130 414 Q123 414 113 406 Q103 398 92.5 387.5 Q82 377 73 366 Q64 355 59 350 L36 366 Q49 386 63 402 Q77 418 91 433 Q99 442 109 451.5 Q119 461 130 469 Q141 477 153 482 Q165 487 179 487 Q193 487 201.5 480.5 Q210 474 215 464.5 Q220 455 222 443 Q224 431 224 421 Q224 403 220 380.5 Q216 358 211 335 Q207 318 203 301 Q199 284 195 268 Q213 297 236.5 335 Q260 373 289.5 407 Q319 441 352.5 464.5 Q386 488 423 488 Q452 488 469.5 471 Q487 454 487 425 Q487 422 487 417.5 Q487 413 485.5 405.5 Q484 398 481.5 386.5 Q479 375 475 356 L416 116 Q414 110 412.5 99 Q411 88 411 81 Q411 61 427 61 Q432 61 437.5 62.5 Q443 64 446 66 Q454 70 463 78 Q472 86 480.5 95.5 Q489 105 497.5 115 Q506 125 512 133 L534 112 L534 112 Z " />
<glyph glyph-name="o" unicode="o" horiz-adv-x="489" d="M461 329 Q461 254 432.5 192 Q404 130 365 82 Q334 44 292.5 16 Q251 -12 199 -12 Q161 -12 131.5 2.5 Q102 17 81 41.5 Q60 66 49 98 Q38 130 38 165 Q38 215 55 263 Q72 311 99.5 351.5 Q127 392 161 422.5 Q195 453 230 468 Q270 485 316 485 Q351 485 378 473.5 Q405 462 423.5 441 Q442 420 451.5 391.5 Q461 363 461 329 Z M380 360 Q380 376 376 392 Q372 408 364 421 Q356 434 342.5 442 Q329 450 311 450 Q279 450 254.5 434.5 Q230 419 206 391 Q189 373 173.5 343.5 Q158 314 146 279.5 Q134 245 127 207.5 Q120 170 120 135 Q120 116 123.5 96.5 Q127 77 135.5 61.5 Q144 46 158.5 36 Q173 26 196 26 Q216 26 233 35 Q250 44 264 59 Q278 74 290.5 92.5 Q303 111 314 131 Q323 147 334.5 174 Q346 201 356 232.5 Q366 264 373 297.5 Q380 331 380 360 Z " />
<glyph glyph-name="p" unicode="p" horiz-adv-x="518" d="M491 343 Q491 308 478.5 268 Q466 228 444.5 188.5 Q423 149 394 113 Q365 77 332 49.5 Q299 22 264 5.5 Q229 -11 195 -11 Q166 -11 141 4 L114 -113 Q112 -119 110 -128 Q108 -137 108 -147 Q108 -166 127 -173 Q146 -180 166 -180 L188 -180 L179 -213 Q146 -212 115 -211 Q84 -210 52 -210 Q25 -210 -2 -210.5 Q-29 -211 -59 -213 L-53 -179 Q-15 -174 5.5 -160.5 Q26 -147 34 -110 L150 382 L46 327 L36 358 L160 425 L187 537 L273 567 L248 458 Q276 469 307.5 477 Q339 485 370 485 Q399 485 421.5 473 Q444 461 459.5 441.5 Q475 422 483 396 Q491 370 491 343 Z M406 333 Q406 354 401 373 Q396 392 386 406.5 Q376 421 360 430 Q344 439 322 439 Q301 439 281 433.5 Q261 428 241 421 L173 135 Q168 115 167 105 Q166 95 166 89 Q166 66 179 50.5 Q192 35 215 35 Q233 35 249 42 Q265 49 280 60 Q295 71 307.5 84.5 Q320 98 331 112 Q346 133 360 160.5 Q374 188 384 217.5 Q394 247 400 277 Q406 307 406 333 Z " />
<glyph glyph-name="q" unicode="q" horiz-adv-x="541" d="M397 -99 Q393 -119 391.5 -127.5 Q390 -136 390 -142 Q390 -163 401 -170.5 Q412 -178 430 -178 L456 -178 L447 -213 Q385 -210 329 -210 Q299 -210 269 -210.5 Q239 -211 206 -212 L214 -177 L239 -177 Q247 -177 255 -176.5 Q263 -176 271 -174 Q285 -170 293.5 -158 Q302 -146 306 -129 L372 205 Q352 175 325.5 137.5 Q299 100 267.5 66.5 Q236 33 200.5 10.5 Q165 -12 128 -12 Q73 -12 49 14.5 Q25 41 25 95 Q25 149 49 208 Q73 267 112 319.5 Q151 372 201.5 412.5 Q252 453 305 469 Q335 478 363.5 480.5 Q392 483 415 483 Q439 483 460.5 481 Q482 479 502 473 L397 -99 Z M414 431 Q400 434 385 436 Q370 438 356 438 Q320 438 288.5 423.5 Q257 409 230 383 Q209 363 188 328 Q167 293 149.5 253.5 Q132 214 121 175 Q110 136 110 107 Q110 82 118.5 64 Q127 46 154 46 Q178 46 205 65.5 Q232 85 257.5 112.5 Q283 140 304.5 170 Q326 200 338 220 Q355 248 366 271.5 Q377 295 385.5 319 Q394 343 400.5 369.5 Q407 396 414 431 Z " />
<glyph glyph-name="r" unicode="r" horiz-adv-x="413" d="M426 387 Q412 392 401 393 Q390 394 379 394 Q346 394 319.5 374 Q293 354 275 331 Q252 302 232.5 261 Q213 220 197.5 175 Q182 130 170 85 Q158 40 151 3 L66 -13 L157 364 Q159 371 160.5 380.5 Q162 390 162 398 Q162 406 160 411.5 Q158 417 149 417 Q140 417 128 409 Q116 401 105 389.5 Q94 378 83.5 366.5 Q73 355 67 348 L43 368 Q57 384 75 404.5 Q93 425 113.5 443 Q134 461 156.5 473.5 Q179 486 201 486 Q227 486 236 472.5 Q245 459 245 442 Q245 409 230 349 L220 308 Q235 335 255 366.5 Q275 398 299.5 424 Q324 450 353.5 467.5 Q383 485 416 485 Q422 485 429 485 Q436 485 445 484 L426 387 Z " />
<glyph glyph-name="s" unicode="s" horiz-adv-x="387" d="M390 447 Q376 403 362 360 L333 370 Q334 386 330.5 396.5 Q327 407 316 418 Q300 434 283.5 438.5 Q267 443 248 443 Q217 443 196.5 425.5 Q176 408 176 375 Q176 351 186 332 Q196 313 216 292 Q231 275 249 255.5 Q267 236 282 214 Q297 192 307.5 168.5 Q318 145 318 120 Q318 88 304.5 63 Q291 38 269 21.5 Q247 5 219 -3.5 Q191 -12 162 -12 Q139 -12 120 -9 Q101 -6 83.5 0 Q66 6 48 15 Q30 24 10 35 Q18 60 25 83.5 Q32 107 40 133 L71 122 L71 109 Q71 93 75 83 Q79 73 90 62 Q107 47 129.5 39.5 Q152 32 175 32 Q203 32 225 47 Q247 62 247 92 Q247 120 230.5 142.5 Q214 165 201 180 Q182 202 165 221.5 Q148 241 135.5 260 Q123 279 116 299.5 Q109 320 109 345 Q109 378 123.5 404 Q138 430 161 448 Q184 466 213.5 475 Q243 484 273 484 Q308 484 333.5 475 Q359 466 390 447 Z " />
<glyph glyph-name="t" unicode="t" horiz-adv-x="311" d="M328 427 L222 427 L153 110 Q149 93 148 86 Q147 79 147 74 Q147 64 153 57.5 Q159 51 168 51 Q178 51 189.5 60.5 Q201 70 211.5 83 Q222 96 230.5 109 Q239 122 244 130 L274 115 Q270 109 266.5 102.5 Q263 96 258 90 Q246 73 232.5 55 Q219 37 202.5 22 Q186 7 167 -2.5 Q148 -12 125 -12 Q111 -12 100 -5.5 Q89 1 81 11.5 Q73 22 69 35 Q65 48 65 60 Q65 73 67.5 87 Q70 101 75 125 L142 427 L44 427 L79 471 L151 471 L172 558 L253 575 L230 471 L336 471 L328 427 Z " />
<glyph glyph-name="u" unicode="u" horiz-adv-x="552" d="M536 110 Q525 96 507 75.5 Q489 55 468 35.5 Q447 16 425.5 2 Q404 -12 385 -12 Q362 -12 351.5 6.5 Q341 25 341 44 Q341 82 350.5 125.5 Q360 169 370 206 L314 118 Q301 98 283 75.5 Q265 53 243 33.5 Q221 14 195.5 1 Q170 -12 143 -12 Q110 -12 92 8.5 Q74 29 74 60 Q74 70 75.5 83 Q77 96 82 114 L138 334 Q146 366 149 379 Q152 392 152 397 Q152 406 149 410 Q146 414 137 414 Q128 414 115.5 405 Q103 396 90.5 384 Q78 372 67.5 360 Q57 348 52 342 L28 365 Q41 381 59.5 402 Q78 423 99.5 442 Q121 461 144.5 474 Q168 487 190 487 Q215 487 227 471.5 Q239 456 239 433 Q239 426 237.5 413.5 Q236 401 231 381 L165 122 Q159 99 157 88.5 Q155 78 155 71 Q155 61 160.5 54 Q166 47 177 47 Q188 47 201.5 55 Q215 63 227.5 74.5 Q240 86 251.5 99 Q263 112 270 121 Q296 156 323.5 196 Q351 236 369 276 Q379 298 387 319.5 Q395 341 402.5 364.5 Q410 388 417.5 415.5 Q425 443 434 476 L518 488 L448 221 Q433 163 427.5 132 Q422 101 422 85 Q422 77 424.5 69 Q427 61 436 61 Q442 61 452 69.5 Q462 78 473 89 Q484 100 493.5 111 Q503 122 507 127 L536 110 L536 110 Z " />
<glyph glyph-name="v" unicode="v" horiz-adv-x="502" d="M504 432 Q504 412 498 389.5 Q492 367 482.5 343.5 Q473 320 461 296 Q449 272 437 250 Q411 204 379 162 Q347 120 313 86 Q297 71 278 53.5 Q259 36 237.5 22 Q216 8 192.5 -1.5 Q169 -11 144 -11 Q111 -11 93.5 9 Q76 29 76 61 Q76 76 79 92.5 Q82 109 87 129 L138 341 Q144 367 146 377 Q148 387 148 392 Q148 405 137 405 Q129 405 117 396.5 Q105 388 93 377 Q81 366 70 354.5 Q59 343 53 337 L32 357 Q52 382 74.5 405 Q97 428 121 451 Q135 464 151 473.5 Q167 483 187 483 Q199 483 207.5 477.5 Q216 472 221 463.5 Q226 455 228 444.5 Q230 434 230 425 Q230 414 228 401 Q226 388 219 359 L169 153 Q160 117 157.5 102 Q155 87 155 77 Q155 62 162.5 53 Q170 44 182 44 Q194 44 203 47.5 Q212 51 224 58 Q255 75 284 107 Q313 139 337 176.5 Q361 214 379 252 Q397 290 407 320 Q424 366 424 394 Q424 405 419.5 413 Q415 421 404 421 Q391 421 376 408 L362 433 Q371 440 383 449 Q395 458 407.5 465.5 Q420 473 433 478 Q446 483 457 483 Q477 483 490.5 469 Q504 455 504 432 Z " />
<glyph glyph-name="w" unicode="w" horiz-adv-x="729" d="M718 410 Q718 375 705 332.5 Q692 290 670.5 246.5 Q649 203 620.5 160.5 Q592 118 560.5 83 Q529 48 496.5 23.5 Q464 -1 434 -8 Q414 -13 396 -13 Q359 -13 340 11 Q321 35 321 70 Q321 98 332 139 L344 187 Q321 146 295 107 Q269 68 233 36 Q213 18 189.5 3.5 Q166 -11 137 -11 Q107 -11 89 7.5 Q71 26 71 56 Q71 80 76.5 103 Q82 126 87 149 L137 358 Q140 372 142.5 383.5 Q145 395 145 402 Q145 410 140.5 415 Q136 420 129 420 Q121 420 111.5 412.5 Q102 405 92 394.5 Q82 384 73.5 373.5 Q65 363 60 356 L37 376 Q48 389 63.5 407.5 Q79 426 97 443 Q115 460 135 471.5 Q155 483 174 483 Q200 483 212.5 467 Q225 451 225 428 Q225 408 220.5 384.5 Q216 361 210 338 L156 115 Q154 104 152 94 Q150 84 150 76 Q150 65 157.5 55 Q165 45 176 45 Q188 45 203.5 58 Q219 71 235 90.5 Q251 110 267.5 134.5 Q284 159 298 182.5 Q312 206 322 225 Q332 244 337 254 Q358 299 376 355.5 Q394 412 406 461 L483 482 L409 148 Q404 128 401.5 107 Q399 86 399 74 Q399 57 406 44.5 Q413 32 430 32 Q441 32 453 37.5 Q465 43 476 51.5 Q487 60 496.5 70 Q506 80 513 88 Q534 112 557.5 148 Q581 184 601 224 Q621 264 634 304.5 Q647 345 647 380 Q647 395 639 407.5 Q631 420 615 420 Q608 420 602 417.5 Q596 415 589 413 L580 439 Q588 445 599 453.5 Q610 462 621.5 469 Q633 476 644.5 481 Q656 486 666 486 Q679 486 689 478 Q699 470 705.5 458 Q712 446 715 433 Q718 420 718 410 Z " />
<glyph glyph-name="x" unicode="x" horiz-adv-x="527" d="M512 411 Q501 413 493 413.5 Q485 414 476 414 Q446 414 421 398.5 Q396 383 376 360 Q356 337 339 310.5 Q322 284 308 263 L350 128 Q354 114 359 99 Q364 84 370 72 Q376 60 383.5 52.5 Q391 45 401 45 Q414 45 426 56.5 Q438 68 448.5 84 Q459 100 467.5 116.5 Q476 133 482 142 L513 133 Q508 123 500.5 108 Q493 93 485 79 Q475 63 464 47 Q453 31 438.5 18 Q424 5 407 -3.5 Q390 -12 368 -12 Q330 -12 313 10 Q296 32 286 64 L250 177 Q233 153 211 120.5 Q189 88 162.5 58.5 Q136 29 106 9 Q76 -11 43 -11 Q33 -11 22.5 -8.5 Q12 -6 0 -2 L29 65 Q37 64 43 63.5 Q49 63 55 63 Q86 63 113 78.5 Q140 94 163 118 Q186 142 204.5 170 Q223 198 238 223 L196 360 Q193 369 188.5 381.5 Q184 394 178 405 Q172 416 164 423.5 Q156 431 145 431 Q131 431 117 419.5 Q103 408 90 392 Q77 376 66.5 358.5 Q56 341 49 330 L24 342 Q34 363 49 387.5 Q64 412 83 433.5 Q102 455 125 469.5 Q148 484 175 484 Q200 484 217 472.5 Q234 461 245 443.5 Q256 426 263 405.5 Q270 385 276 366 L295 304 Q302 315 312 329 Q322 343 332 358 Q342 373 352 386.5 Q362 400 370 411 Q394 443 420 464 Q446 485 489 485 Q510 485 536 482 L512 411 Z " />
<glyph glyph-name="y" unicode="y" horiz-adv-x="531" d="M524 434 Q524 420 517.5 397 Q511 374 494 339 Q471 291 441 230.5 Q411 170 376.5 107.5 Q342 45 305 -14 Q268 -73 232 -118 Q192 -168 146 -189.5 Q100 -211 50 -211 Q30 -211 11.5 -204.5 Q-7 -198 -27 -190 L-10 -105 L11 -105 Q14 -114 17.5 -119 Q21 -124 26 -130 Q36 -141 54.5 -145.5 Q73 -150 87 -150 Q120 -150 148.5 -135 Q177 -120 200 -97 Q204 -92 210.5 -84.5 Q217 -77 223 -68.5 Q229 -60 233 -52 Q237 -44 237 -38 Q237 -34 236 -30.5 Q235 -27 234 -24 L175 243 Q172 254 166 281.5 Q160 309 150.5 337.5 Q141 366 128.5 388 Q116 410 101 410 Q91 410 81 403 Q71 396 62 386 Q53 376 45 364.5 Q37 353 31 345 L5 366 Q23 389 37 406 Q51 423 68 441 Q83 457 100.5 470.5 Q118 484 142 484 Q173 484 190 461 Q201 447 212 417 Q223 387 233 348 Q243 309 252.5 265.5 Q262 222 270 181 Q278 140 284.5 105.5 Q291 71 296 51 Q309 75 334 121 Q359 167 384 218.5 Q409 270 427.5 317.5 Q446 365 446 392 Q446 403 441 412 Q436 421 424 421 Q417 421 404.5 415.5 Q392 410 388 406 L381 429 Q390 436 402 446 Q414 456 427.5 465 Q441 474 454.5 480 Q468 486 480 486 Q504 486 514 470 Q524 454 524 434 Z " />
<glyph glyph-name="z" unicode="z" horiz-adv-x="430" d="M437 459 Q401 416 361 369 Q321 322 280 273 Q239 224 198 175 Q157 126 118 79 Q161 77 204 75 Q247 73 291 73 Q307 73 318 75.5 Q329 78 337.5 84 Q346 90 352.5 99.5 Q359 109 368 123 L401 123 Q391 96 378 68.5 Q365 41 346 23 Q329 6 312 1 Q295 -4 273 -4 Q230 -4 187 1 Q144 6 100 6 Q81 6 63 2.5 Q45 -1 27 -5 L14 17 Q17 21 21 25 Q25 29 32.5 37.5 Q40 46 51.5 60 Q63 74 83 97 L336 399 Q297 400 257.5 400.5 Q218 401 178 401 Q161 401 148.5 400 Q136 399 127 395 Q118 391 111 382.5 Q104 374 97 358 L68 359 Q79 397 94.5 427.5 Q110 458 139 470 Q150 475 161 476.5 Q172 478 181 478 Q218 478 258.5 474.5 Q299 471 341 471 Q363 471 384.5 472 Q406 473 429 476 L437 459 L437 459 Z " />
<glyph glyph-name="agrave" unicode="&#xe0;" horiz-adv-x="537" d="M527 119 Q519 109 512.5 99 Q506 89 498 78 Q488 65 475.5 49.5 Q463 34 448 20.5 Q433 7 416.5 -2 Q400 -11 382 -11 Q349 -11 337.5 6.5 Q326 24 326 53 Q326 88 334.5 130.5 Q343 173 353 212 Q332 176 306.5 136 Q281 96 251 63 Q221 30 186.5 8.5 Q152 -13 113 -13 Q89 -13 71.5 -3.5 Q54 6 43.5 22 Q33 38 28 58 Q23 78 23 99 Q23 152 45 208.5 Q67 265 103 315 Q139 365 185 403.5 Q231 442 279 459 Q302 467 323.5 469 Q345 471 368 471 L488 471 L420 146 Q416 128 413.5 112 Q411 96 411 88 Q411 80 413 71 Q415 62 426 62 Q435 62 445.5 70 Q456 78 465.5 89.5 Q475 101 483.5 112.5 Q492 124 497 132 L527 119 Z M401 428 Q389 430 376 431 Q363 432 351 432 Q303 432 267 410.5 Q231 389 200 351 Q182 329 165.5 298 Q149 267 136 233.5 Q123 200 115.5 165.5 Q108 131 108 102 Q108 91 109.5 80 Q111 69 115 60.5 Q119 52 126.5 46.5 Q134 41 147 41 Q164 41 184 54.5 Q204 68 224.5 89.5 Q245 111 265 137.5 Q285 164 302 190.5 Q319 217 332 240 Q345 263 352 278 Q361 299 368 317 Q375 335 380 352.5 Q385 370 390 388 Q395 406 401 428 Z M430 546 Q388 559 348.5 580 Q309 601 287 639 Q279 652 274.5 665 Q270 678 265 691 L363 670 Q370 649 376.5 635.5 Q383 622 390.5 610.5 Q398 599 409 588.5 Q420 578 438 564 L430 546 Z " />
<glyph glyph-name="aacute" unicode="&#xe1;" horiz-adv-x="537" d="M527 119 Q519 109 512.5 99 Q506 89 498 78 Q488 65 475.5 49.5 Q463 34 448 20.5 Q433 7 416.5 -2 Q400 -11 382 -11 Q349 -11 337.5 6.5 Q326 24 326 53 Q326 88 334.5 130.5 Q343 173 353 212 Q332 176 306.5 136 Q281 96 251 63 Q221 30 186.5 8.5 Q152 -13 113 -13 Q89 -13 71.5 -3.5 Q54 6 43.5 22 Q33 38 28 58 Q23 78 23 99 Q23 152 45 208.5 Q67 265 103 315 Q139 365 185 403.5 Q231 442 279 459 Q302 467 323.5 469 Q345 471 368 471 L488 471 L420 146 Q416 128 413.5 112 Q411 96 411 88 Q411 80 413 71 Q415 62 426 62 Q435 62 445.5 70 Q456 78 465.5 89.5 Q475 101 483.5 112.5 Q492 124 497 132 L527 119 Z M401 428 Q389 430 376 431 Q363 432 351 432 Q303 432 267 410.5 Q231 389 200 351 Q182 329 165.5 298 Q149 267 136 233.5 Q123 200 115.5 165.5 Q108 131 108 102 Q108 91 109.5 80 Q111 69 115 60.5 Q119 52 126.5 46.5 Q134 41 147 41 Q164 41 184 54.5 Q204 68 224.5 89.5 Q245 111 265 137.5 Q285 164 302 190.5 Q319 217 332 240 Q345 263 352 278 Q361 299 368 317 Q375 335 380 352.5 Q385 370 390 388 Q395 406 401 428 Z M488 691 Q480 677 474.5 665.5 Q469 654 463 644 Q447 620 421.5 597 Q396 574 370 562 Q360 557 350 555 Q340 553 329 548 L318 565 Q336 580 346.5 590.5 Q357 601 364.5 612 Q372 623 377.5 637 Q383 651 390 673 L488 691 L488 691 Z " />
<glyph glyph-name="acircumflex" unicode="&#xe2;" horiz-adv-x="537" d="M527 119 Q519 109 512.5 99 Q506 89 498 78 Q488 65 475.5 49.5 Q463 34 448 20.5 Q433 7 416.5 -2 Q400 -11 382 -11 Q349 -11 337.5 6.5 Q326 24 326 53 Q326 88 334.5 130.5 Q343 173 353 212 Q332 176 306.5 136 Q281 96 251 63 Q221 30 186.5 8.5 Q152 -13 113 -13 Q89 -13 71.5 -3.5 Q54 6 43.5 22 Q33 38 28 58 Q23 78 23 99 Q23 152 45 208.5 Q67 265 103 315 Q139 365 185 403.5 Q231 442 279 459 Q302 467 323.5 469 Q345 471 368 471 L488 471 L420 146 Q416 128 413.5 112 Q411 96 411 88 Q411 80 413 71 Q415 62 426 62 Q435 62 445.5 70 Q456 78 465.5 89.5 Q475 101 483.5 112.5 Q492 124 497 132 L527 119 Z M401 428 Q389 430 376 431 Q363 432 351 432 Q303 432 267 410.5 Q231 389 200 351 Q182 329 165.5 298 Q149 267 136 233.5 Q123 200 115.5 165.5 Q108 131 108 102 Q108 91 109.5 80 Q111 69 115 60.5 Q119 52 126.5 46.5 Q134 41 147 41 Q164 41 184 54.5 Q204 68 224.5 89.5 Q245 111 265 137.5 Q285 164 302 190.5 Q319 217 332 240 Q345 263 352 278 Q361 299 368 317 Q375 335 380 352.5 Q385 370 390 388 Q395 406 401 428 Z M472 554 Q451 560 438.5 565.5 Q426 571 415.5 577.5 Q405 584 395 593 Q385 602 370 615 Q341 596 309 580.5 Q277 565 245 552 Q240 556 237 559 Q234 562 233 569 Q257 585 272.5 597.5 Q288 610 301 623 Q314 636 326 652 Q338 668 353 692 L402 692 Q411 671 418.5 655 Q426 639 435 625 Q444 611 455 597 Q466 583 482 567 L472 554 Z " />
<glyph glyph-name="atilde" unicode="&#xe3;" horiz-adv-x="537" d="M527 119 Q519 109 512.5 99 Q506 89 498 78 Q488 65 475.5 49.5 Q463 34 448 20.5 Q433 7 416.5 -2 Q400 -11 382 -11 Q349 -11 337.5 6.5 Q326 24 326 53 Q326 88 334.5 130.5 Q343 173 353 212 Q332 176 306.5 136 Q281 96 251 63 Q221 30 186.5 8.5 Q152 -13 113 -13 Q89 -13 71.5 -3.5 Q54 6 43.5 22 Q33 38 28 58 Q23 78 23 99 Q23 152 45 208.5 Q67 265 103 315 Q139 365 185 403.5 Q231 442 279 459 Q302 467 323.5 469 Q345 471 368 471 L488 471 L420 146 Q416 128 413.5 112 Q411 96 411 88 Q411 80 413 71 Q415 62 426 62 Q435 62 445.5 70 Q456 78 465.5 89.5 Q475 101 483.5 112.5 Q492 124 497 132 L527 119 Z M401 428 Q389 430 376 431 Q363 432 351 432 Q303 432 267 410.5 Q231 389 200 351 Q182 329 165.5 298 Q149 267 136 233.5 Q123 200 115.5 165.5 Q108 131 108 102 Q108 91 109.5 80 Q111 69 115 60.5 Q119 52 126.5 46.5 Q134 41 147 41 Q164 41 184 54.5 Q204 68 224.5 89.5 Q245 111 265 137.5 Q285 164 302 190.5 Q319 217 332 240 Q345 263 352 278 Q361 299 368 317 Q375 335 380 352.5 Q385 370 390 388 Q395 406 401 428 Z M521 652 Q513 638 503.5 623.5 Q494 609 482.5 597 Q471 585 456.5 577.5 Q442 570 424 570 Q413 570 402.5 573 Q392 576 381 580 L314 605 Q298 611 290 612.5 Q282 614 274 614 Q253 614 243 603.5 Q233 593 223 577 L197 591 Q205 605 214 619.5 Q223 634 234.5 645.5 Q246 657 260 664 Q274 671 292 671 Q310 671 330.5 663.5 Q351 656 368 649 Q389 641 409 634 Q429 627 447 627 Q466 627 477 639.5 Q488 652 498 665 L521 652 L521 652 Z " />
<glyph glyph-name="adieresis" unicode="&#xe4;" horiz-adv-x="537" d="M527 119 Q519 109 512.5 99 Q506 89 498 78 Q488 65 475.5 49.5 Q463 34 448 20.5 Q433 7 416.5 -2 Q400 -11 382 -11 Q349 -11 337.5 6.5 Q326 24 326 53 Q326 88 334.5 130.5 Q343 173 353 212 Q332 176 306.5 136 Q281 96 251 63 Q221 30 186.5 8.5 Q152 -13 113 -13 Q89 -13 71.5 -3.5 Q54 6 43.5 22 Q33 38 28 58 Q23 78 23 99 Q23 152 45 208.5 Q67 265 103 315 Q139 365 185 403.5 Q231 442 279 459 Q302 467 323.5 469 Q345 471 368 471 L488 471 L420 146 Q416 128 413.5 112 Q411 96 411 88 Q411 80 413 71 Q415 62 426 62 Q435 62 445.5 70 Q456 78 465.5 89.5 Q475 101 483.5 112.5 Q492 124 497 132 L527 119 Z M401 428 Q389 430 376 431 Q363 432 351 432 Q303 432 267 410.5 Q231 389 200 351 Q182 329 165.5 298 Q149 267 136 233.5 Q123 200 115.5 165.5 Q108 131 108 102 Q108 91 109.5 80 Q111 69 115 60.5 Q119 52 126.5 46.5 Q134 41 147 41 Q164 41 184 54.5 Q204 68 224.5 89.5 Q245 111 265 137.5 Q285 164 302 190.5 Q319 217 332 240 Q345 263 352 278 Q361 299 368 317 Q375 335 380 352.5 Q385 370 390 388 Q395 406 401 428 Z M512 643 Q512 632 507 620 Q502 608 493 598.5 Q484 589 473 583 Q462 577 450 577 Q433 577 423.5 588 Q414 599 414 616 Q414 627 419 639 Q424 651 432 661 Q440 671 451.5 677.5 Q463 684 475 684 Q493 684 502.5 671.5 Q512 659 512 643 Z M333 643 Q333 632 328 620 Q323 608 314 598.5 Q305 589 294 583 Q283 577 271 577 Q254 577 244.5 588 Q235 599 235 616 Q235 627 240 639 Q245 651 253 661 Q261 671 272.5 677.5 Q284 684 296 684 Q314 684 323.5 671.5 Q333 659 333 643 Z " />
<glyph glyph-name="amacron" unicode="&#x101;" horiz-adv-x="537" d="M527 119 Q519 109 512.5 99 Q506 89 498 78 Q488 65 475.5 49.5 Q463 34 448 20.5 Q433 7 416.5 -2 Q400 -11 382 -11 Q349 -11 337.5 6.5 Q326 24 326 53 Q326 88 334.5 130.5 Q343 173 353 212 Q332 176 306.5 136 Q281 96 251 63 Q221 30 186.5 8.5 Q152 -13 113 -13 Q89 -13 71.5 -3.5 Q54 6 43.5 22 Q33 38 28 58 Q23 78 23 99 Q23 152 45 208.5 Q67 265 103 315 Q139 365 185 403.5 Q231 442 279 459 Q302 467 323.5 469 Q345 471 368 471 L488 471 L420 146 Q416 128 413.5 112 Q411 96 411 88 Q411 80 413 71 Q415 62 426 62 Q435 62 445.5 70 Q456 78 465.5 89.5 Q475 101 483.5 112.5 Q492 124 497 132 L527 119 Z M401 428 Q389 430 376 431 Q363 432 351 432 Q303 432 267 410.5 Q231 389 200 351 Q182 329 165.5 298 Q149 267 136 233.5 Q123 200 115.5 165.5 Q108 131 108 102 Q108 91 109.5 80 Q111 69 115 60.5 Q119 52 126.5 46.5 Q134 41 147 41 Q164 41 184 54.5 Q204 68 224.5 89.5 Q245 111 265 137.5 Q285 164 302 190.5 Q319 217 332 240 Q345 263 352 278 Q361 299 368 317 Q375 335 380 352.5 Q385 370 390 388 Q395 406 401 428 Z M512 603 L241 603 L252 657 L523 657 L512 603 Z " />
<glyph glyph-name="abreve" unicode="&#x103;" horiz-adv-x="537" d="M527 119 Q519 109 512.5 99 Q506 89 498 78 Q488 65 475.5 49.5 Q463 34 448 20.5 Q433 7 416.5 -2 Q400 -11 382 -11 Q349 -11 337.5 6.5 Q326 24 326 53 Q326 88 334.5 130.5 Q343 173 353 212 Q332 176 306.5 136 Q281 96 251 63 Q221 30 186.5 8.5 Q152 -13 113 -13 Q89 -13 71.5 -3.5 Q54 6 43.5 22 Q33 38 28 58 Q23 78 23 99 Q23 152 45 208.5 Q67 265 103 315 Q139 365 185 403.5 Q231 442 279 459 Q302 467 323.5 469 Q345 471 368 471 L488 471 L420 146 Q416 128 413.5 112 Q411 96 411 88 Q411 80 413 71 Q415 62 426 62 Q435 62 445.5 70 Q456 78 465.5 89.5 Q475 101 483.5 112.5 Q492 124 497 132 L527 119 Z M401 428 Q389 430 376 431 Q363 432 351 432 Q303 432 267 410.5 Q231 389 200 351 Q182 329 165.5 298 Q149 267 136 233.5 Q123 200 115.5 165.5 Q108 131 108 102 Q108 91 109.5 80 Q111 69 115 60.5 Q119 52 126.5 46.5 Q134 41 147 41 Q164 41 184 54.5 Q204 68 224.5 89.5 Q245 111 265 137.5 Q285 164 302 190.5 Q319 217 332 240 Q345 263 352 278 Q361 299 368 317 Q375 335 380 352.5 Q385 370 390 388 Q395 406 401 428 Z M544 681 Q535 664 522 644.5 Q509 625 490.5 609 Q472 593 445.5 582.5 Q419 572 382 572 Q345 572 318.5 582.5 Q292 593 273 609 Q254 625 241.5 644.5 Q229 664 220 681 L251 692 Q283 655 316 644.5 Q349 634 382 634 Q415 634 448 644.5 Q481 655 513 692 L544 681 L544 681 Z " />
<glyph glyph-name="aring" unicode="&#xe5;" horiz-adv-x="537" d="M527 119 Q519 109 512.5 99 Q506 89 498 78 Q488 65 475.5 49.5 Q463 34 448 20.5 Q433 7 416.5 -2 Q400 -11 382 -11 Q349 -11 337.5 6.5 Q326 24 326 53 Q326 88 334.5 130.5 Q343 173 353 212 Q332 176 306.5 136 Q281 96 251 63 Q221 30 186.5 8.5 Q152 -13 113 -13 Q89 -13 71.5 -3.5 Q54 6 43.5 22 Q33 38 28 58 Q23 78 23 99 Q23 152 45 208.5 Q67 265 103 315 Q139 365 185 403.5 Q231 442 279 459 Q302 467 323.5 469 Q345 471 368 471 L488 471 L420 146 Q416 128 413.5 112 Q411 96 411 88 Q411 80 413 71 Q415 62 426 62 Q435 62 445.5 70 Q456 78 465.5 89.5 Q475 101 483.5 112.5 Q492 124 497 132 L527 119 Z M401 428 Q389 430 376 431 Q363 432 351 432 Q303 432 267 410.5 Q231 389 200 351 Q182 329 165.5 298 Q149 267 136 233.5 Q123 200 115.5 165.5 Q108 131 108 102 Q108 91 109.5 80 Q111 69 115 60.5 Q119 52 126.5 46.5 Q134 41 147 41 Q164 41 184 54.5 Q204 68 224.5 89.5 Q245 111 265 137.5 Q285 164 302 190.5 Q319 217 332 240 Q345 263 352 278 Q361 299 368 317 Q375 335 380 352.5 Q385 370 390 388 Q395 406 401 428 Z M470 640 Q470 619 462 601 Q454 583 440 569 Q426 555 408 547 Q390 539 369 539 Q348 539 330 547 Q312 555 298 569 Q284 583 276 601 Q268 619 268 640 Q268 661 276 679 Q284 697 298 711 Q312 725 330 733 Q348 741 369 741 Q390 741 408 733 Q426 725 440 711 Q454 697 462 679 Q470 661 470 640 Z M431 640 Q431 667 413 684.5 Q395 702 369 702 Q343 702 325 684 Q307 666 307 640 Q307 614 325 596 Q343 578 369 578 Q395 578 413 596 Q431 614 431 640 Z " />
<glyph glyph-name="aogonek" unicode="&#x105;" horiz-adv-x="537" d="M456 -198 Q438 -208 412.5 -214 Q387 -220 356 -220 Q341 -220 323.5 -215.5 Q306 -211 290.5 -201 Q275 -191 265 -174.5 Q255 -158 255 -135 Q255 -100 279.5 -65.5 Q304 -31 352 -5 Q337 2 331.5 17 Q326 32 326 53 Q326 88 334.5 130.5 Q343 173 353 212 Q332 176 306.5 136 Q281 96 251 63 Q221 30 186.5 8.5 Q152 -13 113 -13 Q89 -13 71.5 -3.5 Q54 6 43.5 22 Q33 38 28 58 Q23 78 23 99 Q23 152 45 208.5 Q67 265 103 315 Q139 365 185 403.5 Q231 442 279 459 Q302 467 323.5 469 Q345 471 368 471 L488 471 L420 146 Q416 128 413.5 112 Q411 96 411 88 Q411 80 413 71 Q415 62 426 62 Q435 62 445.5 70 Q456 78 465.5 89.5 Q475 101 483.5 112.5 Q492 124 497 132 L527 119 Q519 109 512.5 99 Q506 89 498 78 Q483 58 461.5 33 Q440 8 414 -3 Q376 -29 352.5 -57 Q329 -85 329 -123 Q329 -149 343.5 -164.5 Q358 -180 383 -180 Q402 -180 414.5 -175.5 Q427 -171 438 -165 L456 -198 Z M401 428 Q389 430 376 431 Q363 432 351 432 Q303 432 267 410.5 Q231 389 200 351 Q182 329 165.5 298 Q149 267 136 233.5 Q123 200 115.5 165.5 Q108 131 108 102 Q108 91 109.5 80 Q111 69 115 60.5 Q119 52 126.5 46.5 Q134 41 147 41 Q164 41 184 54.5 Q204 68 224.5 89.5 Q245 111 265 137.5 Q285 164 302 190.5 Q319 217 332 240 Q345 263 352 278 Q361 299 368 317 Q375 335 380 352.5 Q385 370 390 388 Q395 406 401 428 Z " />
<glyph glyph-name="ae" unicode="&#xe6;" horiz-adv-x="739" d="M724 386 Q724 369 719.5 355.5 Q715 342 707 328 Q692 304 668.5 284.5 Q645 265 617.5 251.5 Q590 238 561 231 Q532 224 505 224 Q488 224 470.5 225 Q453 226 435 229 Q420 190 420 130 Q420 113 424.5 96 Q429 79 438 65.5 Q447 52 460.5 43.5 Q474 35 492 35 Q511 35 531 45.5 Q551 56 570 71.5 Q589 87 605.5 104.5 Q622 122 635 136 L666 114 Q646 91 624.5 68 Q603 45 579 27 Q555 9 527 -2 Q499 -13 466 -13 Q435 -13 411.5 -1.5 Q388 10 371.5 29.5 Q355 49 346.5 74.5 Q338 100 338 129 Q338 155 346 189 Q324 151 298 115 Q272 79 243 50.5 Q214 22 181 4.5 Q148 -13 113 -13 Q89 -13 71.5 -3.5 Q54 6 43.5 22 Q33 38 28 58 Q23 78 23 99 Q23 152 45 208.5 Q67 265 103 315 Q139 365 185 403.5 Q231 442 279 459 Q302 467 323.5 469 Q345 471 368 471 L488 471 L478 423 Q507 451 541 468.5 Q575 486 618 486 Q664 486 694 460 Q724 434 724 386 Z M401 428 Q389 430 376 431 Q363 432 351 432 Q303 432 267 410.5 Q231 389 200 351 Q182 329 165.5 298 Q149 267 136 233.5 Q123 200 115.5 165.5 Q108 131 108 102 Q108 91 109.5 80 Q111 69 115 60.5 Q119 52 126.5 46.5 Q134 41 147 41 Q164 41 184 54.5 Q204 68 224.5 89.5 Q245 111 265 137.5 Q285 164 302 190.5 Q319 217 332 240 Q345 263 352 278 Q361 299 368 317 Q375 335 380 352.5 Q385 370 390 388 Q395 406 401 428 Z M647 405 Q647 447 604 447 Q585 447 569.5 436.5 Q554 426 540 414 Q507 384 485.5 345 Q464 306 446 266 Q465 262 493 262 Q520 262 547.5 274 Q575 286 597 305.5 Q619 325 633 351 Q647 377 647 405 Z " />
<glyph glyph-name="cacute" unicode="&#x107;" horiz-adv-x="421" d="M402 348 L372 357 L372 361 Q372 379 369 394 Q366 409 358.5 420.5 Q351 432 338 438.5 Q325 445 305 445 Q266 445 232 414.5 Q198 384 173 340 Q148 296 134 246.5 Q120 197 120 159 Q120 105 141 72.5 Q162 40 206 40 Q226 40 244.5 50 Q263 60 279.5 75 Q296 90 311 107 Q326 124 338 138 L369 116 Q361 105 354.5 96.5 Q348 88 341 80 Q310 40 267 13.5 Q224 -13 171 -13 Q138 -13 113 0 Q88 13 70.5 35.5 Q53 58 44.5 88.5 Q36 119 36 155 Q36 189 47 227.5 Q58 266 76.5 303 Q95 340 121 373 Q147 406 177 430 Q212 457 244.5 470 Q277 483 325 483 Q356 483 381.5 475 Q407 467 436 447 L402 348 Z M448 691 Q440 677 434.5 665.5 Q429 654 423 644 Q407 620 381.5 597 Q356 574 330 562 Q320 557 310 555 Q300 553 289 548 L278 565 Q296 580 306.5 590.5 Q317 601 324.5 612 Q332 623 337.5 637 Q343 651 350 673 L448 691 L448 691 Z " />
<glyph glyph-name="ccaron" unicode="&#x10d;" horiz-adv-x="421" d="M402 348 L372 357 L372 361 Q372 379 369 394 Q366 409 358.5 420.5 Q351 432 338 438.5 Q325 445 305 445 Q266 445 232 414.5 Q198 384 173 340 Q148 296 134 246.5 Q120 197 120 159 Q120 105 141 72.5 Q162 40 206 40 Q226 40 244.5 50 Q263 60 279.5 75 Q296 90 311 107 Q326 124 338 138 L369 116 Q361 105 354.5 96.5 Q348 88 341 80 Q310 40 267 13.5 Q224 -13 171 -13 Q138 -13 113 0 Q88 13 70.5 35.5 Q53 58 44.5 88.5 Q36 119 36 155 Q36 189 47 227.5 Q58 266 76.5 303 Q95 340 121 373 Q147 406 177 430 Q212 457 244.5 470 Q277 483 325 483 Q356 483 381.5 475 Q407 467 436 447 L402 348 Z M462 682 Q423 651 396 623 Q369 595 343 554 L295 554 Q277 593 259.5 620.5 Q242 648 214 682 L227 693 Q246 687 259 681 Q272 675 282.5 668 Q293 661 303.5 652.5 Q314 644 329 633 Q358 653 388.5 666 Q419 679 453 693 L462 682 L462 682 Z " />
<glyph glyph-name="ccedilla" unicode="&#xe7;" horiz-adv-x="421" d="M402 348 L372 357 L372 361 Q372 379 369 394 Q366 409 358.5 420.5 Q351 432 338 438.5 Q325 445 305 445 Q266 445 232 414.5 Q198 384 173 340 Q148 296 134 246.5 Q120 197 120 159 Q120 105 141 72.5 Q162 40 206 40 Q226 40 244.5 50 Q263 60 279.5 75 Q296 90 311 107 Q326 124 338 138 L369 116 Q361 105 354.5 96.5 Q348 88 341 80 Q310 40 267 13.5 Q224 -13 171 -13 Q138 -13 113 0 Q88 13 70.5 35.5 Q53 58 44.5 88.5 Q36 119 36 155 Q36 189 47 227.5 Q58 266 76.5 303 Q95 340 121 373 Q147 406 177 430 Q212 457 244.5 470 Q277 483 325 483 Q356 483 381.5 475 Q407 467 436 447 L402 348 Z M205 -66 Q205 -117 178.5 -145.5 Q152 -174 107 -191 L95 -174 Q114 -153 123.5 -138 Q133 -123 133 -97 Q133 -90 132.5 -83 Q132 -76 131 -67 L205 -63 L205 -66 Z " />
<glyph glyph-name="dcaron" unicode="&#x10f;" horiz-adv-x="540" d="M425 174 Q417 138 415 118 Q413 98 413 93 Q413 82 415 74 Q417 66 427 66 Q436 66 446.5 74 Q457 82 466.5 92.5 Q476 103 484.5 114 Q493 125 499 132 L526 118 Q514 100 498 77.5 Q482 55 463 34.5 Q444 14 422 0.5 Q400 -13 376 -13 Q361 -13 351 -6.5 Q341 0 336 9.5 Q331 19 329 31 Q327 43 327 54 Q327 85 334.5 126.5 Q342 168 351 202 Q333 172 308.5 134.5 Q284 97 254 64.5 Q224 32 188.5 9.5 Q153 -13 113 -13 Q90 -13 73 -4 Q56 5 45 20 Q34 35 28.5 54.5 Q23 74 23 95 Q23 146 43.5 202.5 Q64 259 98 310.5 Q132 362 176.5 402.5 Q221 443 269 463 Q295 474 320.5 477 Q346 480 372 480 Q381 480 390.5 480 Q400 480 410 479 L442 628 Q451 670 451 684 Q451 698 440.5 702.5 Q430 707 416 707 Q407 707 398 705.5 Q389 704 377 701 L381 731 L550 769 L425 174 Z M402 436 Q390 438 377 439 Q364 440 352 440 Q313 440 280 421 Q247 402 220 372 Q193 342 173 306 Q153 270 139 236 Q127 207 117 172 Q107 137 107 107 Q107 83 113.5 62.5 Q120 42 147 42 Q161 42 176 50 Q191 58 204.5 70 Q218 82 230 95.5 Q242 109 251 120 Q301 181 340 256 Q379 331 402 436 Z M696 740 Q696 695 677.5 658 Q659 621 633 588 Q620 572 605.5 555.5 Q591 539 577 522 L550 535 Q574 570 594 606 Q614 642 614 681 Q614 698 608 713 Q602 728 593 746 L685 795 Q689 781 692.5 767.5 Q696 754 696 740 Z " />
<glyph glyph-name="dcroat" unicode="&#x111;" horiz-adv-x="540" d="M517 612 L570 612 L559 567 L507 567 L425 174 Q417 138 415 118 Q413 98 413 93 Q413 82 415 74 Q417 66 427 66 Q436 66 446.5 74 Q457 82 466.5 92.5 Q476 103 484.5 114 Q493 125 499 132 L526 118 Q514 100 498 77.5 Q482 55 463 34.5 Q444 14 422 0.5 Q400 -13 376 -13 Q361 -13 351 -6.5 Q341 0 336 9.5 Q331 19 329 31 Q327 43 327 54 Q327 85 334.5 126.5 Q342 168 351 202 Q333 172 308.5 134.5 Q284 97 254 64.5 Q224 32 188.5 9.5 Q153 -13 113 -13 Q90 -13 73 -4 Q56 5 45 20 Q34 35 28.5 54.5 Q23 74 23 95 Q23 146 43.5 202.5 Q64 259 98 310.5 Q132 362 176.5 402.5 Q221 443 269 463 Q295 474 320.5 477 Q346 480 372 480 Q381 480 390.5 480 Q400 480 410 479 L429 567 L298 567 L308 612 L438 612 L442 628 Q451 670 451 684 Q451 698 440.5 702.5 Q430 707 416 707 Q407 707 398 705.5 Q389 704 377 701 L381 731 L550 769 L517 612 Z M402 436 Q390 438 377 439 Q364 440 352 440 Q313 440 280 421 Q247 402 220 372 Q193 342 173 306 Q153 270 139 236 Q127 207 117 172 Q107 137 107 107 Q107 83 113.5 62.5 Q120 42 147 42 Q161 42 176 50 Q191 58 204.5 70 Q218 82 230 95.5 Q242 109 251 120 Q301 181 340 256 Q379 331 402 436 Z " />
<glyph glyph-name="egrave" unicode="&#xe8;" horiz-adv-x="434" d="M419 386 Q419 369 414.5 355.5 Q410 342 402 328 Q387 304 363.5 284.5 Q340 265 312.5 251.5 Q285 238 256 231 Q227 224 200 224 Q183 224 165.5 225 Q148 226 130 229 Q115 190 115 130 Q115 113 119.5 96 Q124 79 133 65.5 Q142 52 155.5 43.5 Q169 35 187 35 Q206 35 226 45.5 Q246 56 265 71.5 Q284 87 300.5 104.5 Q317 122 330 136 L361 114 Q341 91 319.5 68 Q298 45 274 27 Q250 9 222 -2 Q194 -13 161 -13 Q130 -13 106.5 -1.5 Q83 10 66.5 29.5 Q50 49 41.5 74.5 Q33 100 33 129 Q33 160 43 197 Q53 234 68.5 270 Q84 306 104 338 Q124 370 144 393 Q178 431 218.5 458.5 Q259 486 313 486 Q359 486 389 460 Q419 434 419 386 Z M342 405 Q342 447 299 447 Q280 447 264.5 436.5 Q249 426 235 414 Q202 384 180.5 345 Q159 306 141 266 Q160 262 188 262 Q215 262 242.5 274 Q270 286 292 305.5 Q314 325 328 351 Q342 377 342 405 Z M355 546 Q313 559 273.5 580 Q234 601 212 639 Q204 652 199.5 665 Q195 678 190 691 L288 670 Q295 649 301.5 635.5 Q308 622 315.5 610.5 Q323 599 334 588.5 Q345 578 363 564 L355 546 Z " />
<glyph glyph-name="eacute" unicode="&#xe9;" horiz-adv-x="434" d="M419 386 Q419 369 414.5 355.5 Q410 342 402 328 Q387 304 363.5 284.5 Q340 265 312.5 251.5 Q285 238 256 231 Q227 224 200 224 Q183 224 165.5 225 Q148 226 130 229 Q115 190 115 130 Q115 113 119.5 96 Q124 79 133 65.5 Q142 52 155.5 43.5 Q169 35 187 35 Q206 35 226 45.5 Q246 56 265 71.5 Q284 87 300.5 104.5 Q317 122 330 136 L361 114 Q341 91 319.5 68 Q298 45 274 27 Q250 9 222 -2 Q194 -13 161 -13 Q130 -13 106.5 -1.5 Q83 10 66.5 29.5 Q50 49 41.5 74.5 Q33 100 33 129 Q33 160 43 197 Q53 234 68.5 270 Q84 306 104 338 Q124 370 144 393 Q178 431 218.5 458.5 Q259 486 313 486 Q359 486 389 460 Q419 434 419 386 Z M342 405 Q342 447 299 447 Q280 447 264.5 436.5 Q249 426 235 414 Q202 384 180.5 345 Q159 306 141 266 Q160 262 188 262 Q215 262 242.5 274 Q270 286 292 305.5 Q314 325 328 351 Q342 377 342 405 Z M452 691 Q444 677 438.5 665.5 Q433 654 427 644 Q411 620 385.5 597 Q360 574 334 562 Q324 557 314 555 Q304 553 293 548 L282 565 Q300 580 310.5 590.5 Q321 601 328.5 612 Q336 623 341.5 637 Q347 651 354 673 L452 691 L452 691 Z " />
<glyph glyph-name="ecircumflex" unicode="&#xea;" horiz-adv-x="434" d="M419 386 Q419 369 414.5 355.5 Q410 342 402 328 Q387 304 363.5 284.5 Q340 265 312.5 251.5 Q285 238 256 231 Q227 224 200 224 Q183 224 165.5 225 Q148 226 130 229 Q115 190 115 130 Q115 113 119.5 96 Q124 79 133 65.5 Q142 52 155.5 43.5 Q169 35 187 35 Q206 35 226 45.5 Q246 56 265 71.5 Q284 87 300.5 104.5 Q317 122 330 136 L361 114 Q341 91 319.5 68 Q298 45 274 27 Q250 9 222 -2 Q194 -13 161 -13 Q130 -13 106.5 -1.5 Q83 10 66.5 29.5 Q50 49 41.5 74.5 Q33 100 33 129 Q33 160 43 197 Q53 234 68.5 270 Q84 306 104 338 Q124 370 144 393 Q178 431 218.5 458.5 Q259 486 313 486 Q359 486 389 460 Q419 434 419 386 Z M342 405 Q342 447 299 447 Q280 447 264.5 436.5 Q249 426 235 414 Q202 384 180.5 345 Q159 306 141 266 Q160 262 188 262 Q215 262 242.5 274 Q270 286 292 305.5 Q314 325 328 351 Q342 377 342 405 Z M428 554 Q407 560 394.5 565.5 Q382 571 371.5 577.5 Q361 584 351 593 Q341 602 326 615 Q297 596 265 580.5 Q233 565 201 552 Q196 556 193 559 Q190 562 189 569 Q213 585 228.5 597.5 Q244 610 257 623 Q270 636 282 652 Q294 668 309 692 L358 692 Q367 671 374.5 655 Q382 639 391 625 Q400 611 411 597 Q422 583 438 567 L428 554 Z " />
<glyph glyph-name="ecaron" unicode="&#x11b;" horiz-adv-x="434" d="M419 386 Q419 369 414.5 355.5 Q410 342 402 328 Q387 304 363.5 284.5 Q340 265 312.5 251.5 Q285 238 256 231 Q227 224 200 224 Q183 224 165.5 225 Q148 226 130 229 Q115 190 115 130 Q115 113 119.5 96 Q124 79 133 65.5 Q142 52 155.5 43.5 Q169 35 187 35 Q206 35 226 45.5 Q246 56 265 71.5 Q284 87 300.5 104.5 Q317 122 330 136 L361 114 Q341 91 319.5 68 Q298 45 274 27 Q250 9 222 -2 Q194 -13 161 -13 Q130 -13 106.5 -1.5 Q83 10 66.5 29.5 Q50 49 41.5 74.5 Q33 100 33 129 Q33 160 43 197 Q53 234 68.5 270 Q84 306 104 338 Q124 370 144 393 Q178 431 218.5 458.5 Q259 486 313 486 Q359 486 389 460 Q419 434 419 386 Z M342 405 Q342 447 299 447 Q280 447 264.5 436.5 Q249 426 235 414 Q202 384 180.5 345 Q159 306 141 266 Q160 262 188 262 Q215 262 242.5 274 Q270 286 292 305.5 Q314 325 328 351 Q342 377 342 405 Z M451 682 Q412 651 385 623 Q358 595 332 554 L284 554 Q266 593 248.5 620.5 Q231 648 203 682 L216 693 Q235 687 248 681 Q261 675 271.5 668 Q282 661 292.5 652.5 Q303 644 318 633 Q347 653 377.5 666 Q408 679 442 693 L451 682 L451 682 Z " />
<glyph glyph-name="edieresis" unicode="&#xeb;" horiz-adv-x="434" d="M419 386 Q419 369 414.5 355.5 Q410 342 402 328 Q387 304 363.5 284.5 Q340 265 312.5 251.5 Q285 238 256 231 Q227 224 200 224 Q183 224 165.5 225 Q148 226 130 229 Q115 190 115 130 Q115 113 119.5 96 Q124 79 133 65.5 Q142 52 155.5 43.5 Q169 35 187 35 Q206 35 226 45.5 Q246 56 265 71.5 Q284 87 300.5 104.5 Q317 122 330 136 L361 114 Q341 91 319.5 68 Q298 45 274 27 Q250 9 222 -2 Q194 -13 161 -13 Q130 -13 106.5 -1.5 Q83 10 66.5 29.5 Q50 49 41.5 74.5 Q33 100 33 129 Q33 160 43 197 Q53 234 68.5 270 Q84 306 104 338 Q124 370 144 393 Q178 431 218.5 458.5 Q259 486 313 486 Q359 486 389 460 Q419 434 419 386 Z M342 405 Q342 447 299 447 Q280 447 264.5 436.5 Q249 426 235 414 Q202 384 180.5 345 Q159 306 141 266 Q160 262 188 262 Q215 262 242.5 274 Q270 286 292 305.5 Q314 325 328 351 Q342 377 342 405 Z M472 643 Q472 632 467 620 Q462 608 453 598.5 Q444 589 433 583 Q422 577 410 577 Q393 577 383.5 588 Q374 599 374 616 Q374 627 379 639 Q384 651 392 661 Q400 671 411.5 677.5 Q423 684 435 684 Q453 684 462.5 671.5 Q472 659 472 643 Z M293 643 Q293 632 288 620 Q283 608 274 598.5 Q265 589 254 583 Q243 577 231 577 Q214 577 204.5 588 Q195 599 195 616 Q195 627 200 639 Q205 651 213 661 Q221 671 232.5 677.5 Q244 684 256 684 Q274 684 283.5 671.5 Q293 659 293 643 Z " />
<glyph glyph-name="emacron" unicode="&#x113;" horiz-adv-x="434" d="M419 386 Q419 369 414.5 355.5 Q410 342 402 328 Q387 304 363.5 284.5 Q340 265 312.5 251.5 Q285 238 256 231 Q227 224 200 224 Q183 224 165.5 225 Q148 226 130 229 Q115 190 115 130 Q115 113 119.5 96 Q124 79 133 65.5 Q142 52 155.5 43.5 Q169 35 187 35 Q206 35 226 45.5 Q246 56 265 71.5 Q284 87 300.5 104.5 Q317 122 330 136 L361 114 Q341 91 319.5 68 Q298 45 274 27 Q250 9 222 -2 Q194 -13 161 -13 Q130 -13 106.5 -1.5 Q83 10 66.5 29.5 Q50 49 41.5 74.5 Q33 100 33 129 Q33 160 43 197 Q53 234 68.5 270 Q84 306 104 338 Q124 370 144 393 Q178 431 218.5 458.5 Q259 486 313 486 Q359 486 389 460 Q419 434 419 386 Z M342 405 Q342 447 299 447 Q280 447 264.5 436.5 Q249 426 235 414 Q202 384 180.5 345 Q159 306 141 266 Q160 262 188 262 Q215 262 242.5 274 Q270 286 292 305.5 Q314 325 328 351 Q342 377 342 405 Z M457 603 L186 603 L197 657 L468 657 L457 603 Z " />
<glyph glyph-name="edotaccent" unicode="&#x117;" horiz-adv-x="434" d="M419 386 Q419 369 414.5 355.5 Q410 342 402 328 Q387 304 363.5 284.5 Q340 265 312.5 251.5 Q285 238 256 231 Q227 224 200 224 Q183 224 165.5 225 Q148 226 130 229 Q115 190 115 130 Q115 113 119.5 96 Q124 79 133 65.5 Q142 52 155.5 43.5 Q169 35 187 35 Q206 35 226 45.5 Q246 56 265 71.5 Q284 87 300.5 104.5 Q317 122 330 136 L361 114 Q341 91 319.5 68 Q298 45 274 27 Q250 9 222 -2 Q194 -13 161 -13 Q130 -13 106.5 -1.5 Q83 10 66.5 29.5 Q50 49 41.5 74.5 Q33 100 33 129 Q33 160 43 197 Q53 234 68.5 270 Q84 306 104 338 Q124 370 144 393 Q178 431 218.5 458.5 Q259 486 313 486 Q359 486 389 460 Q419 434 419 386 Z M342 405 Q342 447 299 447 Q280 447 264.5 436.5 Q249 426 235 414 Q202 384 180.5 345 Q159 306 141 266 Q160 262 188 262 Q215 262 242.5 274 Q270 286 292 305.5 Q314 325 328 351 Q342 377 342 405 Z M385 648 Q385 636 380 623.5 Q375 611 366 601.5 Q357 592 345.5 586 Q334 580 321 580 Q301 580 291.5 591 Q282 602 282 620 Q282 631 287 643 Q292 655 300.5 664.5 Q309 674 320 680.5 Q331 687 344 687 Q363 687 374 676 Q385 665 385 648 Z " />
<glyph glyph-name="eogonek" unicode="&#x119;" horiz-adv-x="434" d="M266 -198 Q248 -208 222.5 -214 Q197 -220 166 -220 Q151 -220 133.5 -215.5 Q116 -211 100.5 -201 Q85 -191 75 -174.5 Q65 -158 65 -135 Q65 -102 86 -70 Q107 -38 149 -12 Q92 -7 62.5 33.5 Q33 74 33 129 Q33 160 43 197 Q53 234 68.5 270 Q84 306 104 338 Q124 370 144 393 Q178 431 218.5 458.5 Q259 486 313 486 Q359 486 389 460 Q419 434 419 386 Q419 369 414.5 355.5 Q410 342 402 328 Q387 304 363.5 284.5 Q340 265 312.5 251.5 Q285 238 256 231 Q227 224 200 224 Q183 224 165.5 225 Q148 226 130 229 Q115 190 115 130 Q115 113 119.5 96 Q124 79 133 65.5 Q142 52 155.5 43.5 Q169 35 187 35 Q206 35 226 45.5 Q246 56 265 71.5 Q284 87 300.5 104.5 Q317 122 330 136 L361 114 Q332 81 301 50 Q270 19 231 2 Q189 -24 164 -53.5 Q139 -83 139 -123 Q139 -149 153.5 -164.5 Q168 -180 193 -180 Q212 -180 224.5 -175.5 Q237 -171 248 -165 L266 -198 Z M342 405 Q342 447 299 447 Q280 447 264.5 436.5 Q249 426 235 414 Q202 384 180.5 345 Q159 306 141 266 Q160 262 188 262 Q215 262 242.5 274 Q270 286 292 305.5 Q314 325 328 351 Q342 377 342 405 Z " />
<glyph glyph-name="gbreve" unicode="&#x11f;" horiz-adv-x="448" d="M498 517 Q498 493 491 476.5 Q484 460 471.5 448.5 Q459 437 442.5 428 Q426 419 407 410 Q409 397 411 384 Q413 371 413 357 Q413 325 401.5 299 Q390 273 370.5 252.5 Q351 232 326.5 216 Q302 200 277 187 Q252 173 228.5 163 Q205 153 186 143 Q142 121 142 107 Q142 94 152.5 87 Q163 80 175 75 L323 19 Q341 12 359 2 Q377 -8 392 -21.5 Q407 -35 416 -53 Q425 -71 425 -93 Q425 -112 417.5 -128.5 Q410 -145 398 -159 Q381 -179 356.5 -191 Q332 -203 305 -209.5 Q278 -216 250.5 -218.5 Q223 -221 199 -221 Q173 -221 136 -215.5 Q99 -210 65 -196 Q31 -182 7 -158 Q-17 -134 -17 -98 Q-17 -74 -6 -56 Q5 -38 21.5 -23.5 Q38 -9 58 1.5 Q78 12 96 20 Q81 31 64.5 46.5 Q48 62 48 83 Q48 100 63 115.5 Q78 131 99 143.5 Q120 156 141.5 165.5 Q163 175 176 181 Q156 188 138.5 197 Q121 206 108 219.5 Q95 233 87.5 251.5 Q80 270 80 296 Q80 335 97 369.5 Q114 404 142.5 430.5 Q171 457 206.5 472 Q242 487 280 487 Q316 487 340.5 473.5 Q365 460 392 438 Q411 447 411 465 Q411 477 405.5 488.5 Q400 500 391 512 L497 540 Q497 532 497.5 527 Q498 522 498 517 Z M325 380 Q325 408 314 430 Q303 452 273 452 Q248 452 227.5 433.5 Q207 415 192.5 388 Q178 361 170 330.5 Q162 300 162 276 Q162 250 176 229 Q190 208 219 208 Q246 208 266 225.5 Q286 243 299 269 Q312 295 318.5 325 Q325 355 325 380 Z M342 -110 Q342 -92 330 -79 Q318 -66 301 -56 Q293 -52 283 -47.5 Q273 -43 257.5 -37 Q242 -31 217.5 -23 Q193 -15 156 -3 Q139 -7 122 -14 Q105 -21 90.5 -31.5 Q76 -42 67 -57 Q58 -72 58 -92 Q58 -119 74 -136 Q90 -153 113.5 -163 Q137 -173 163.5 -176.5 Q190 -180 212 -180 Q230 -180 253 -177.5 Q276 -175 295.5 -167.5 Q315 -160 328.5 -146.5 Q342 -133 342 -110 Z M471 681 Q462 664 449 644.5 Q436 625 417.5 609 Q399 593 372.5 582.5 Q346 572 309 572 Q272 572 245.5 582.5 Q219 593 200 609 Q181 625 168.5 644.5 Q156 664 147 681 L178 692 Q210 655 243 644.5 Q276 634 309 634 Q342 634 375 644.5 Q408 655 440 692 L471 681 L471 681 Z " />
<glyph glyph-name="gcommaaccent" unicode="&#x123;" horiz-adv-x="448" d="M498 517 Q498 493 491 476.5 Q484 460 471.5 448.5 Q459 437 442.5 428 Q426 419 407 410 Q409 397 411 384 Q413 371 413 357 Q413 325 401.5 299 Q390 273 370.5 252.5 Q351 232 326.5 216 Q302 200 277 187 Q252 173 228.5 163 Q205 153 186 143 Q142 121 142 107 Q142 94 152.5 87 Q163 80 175 75 L323 19 Q341 12 359 2 Q377 -8 392 -21.5 Q407 -35 416 -53 Q425 -71 425 -93 Q425 -112 417.5 -128.5 Q410 -145 398 -159 Q381 -179 356.5 -191 Q332 -203 305 -209.5 Q278 -216 250.5 -218.5 Q223 -221 199 -221 Q173 -221 136 -215.5 Q99 -210 65 -196 Q31 -182 7 -158 Q-17 -134 -17 -98 Q-17 -74 -6 -56 Q5 -38 21.5 -23.5 Q38 -9 58 1.5 Q78 12 96 20 Q81 31 64.5 46.5 Q48 62 48 83 Q48 100 63 115.5 Q78 131 99 143.5 Q120 156 141.5 165.5 Q163 175 176 181 Q156 188 138.5 197 Q121 206 108 219.5 Q95 233 87.5 251.5 Q80 270 80 296 Q80 335 97 369.5 Q114 404 142.5 430.5 Q171 457 206.5 472 Q242 487 280 487 Q316 487 340.5 473.5 Q365 460 392 438 Q411 447 411 465 Q411 477 405.5 488.5 Q400 500 391 512 L497 540 Q497 532 497.5 527 Q498 522 498 517 Z M325 380 Q325 408 314 430 Q303 452 273 452 Q248 452 227.5 433.5 Q207 415 192.5 388 Q178 361 170 330.5 Q162 300 162 276 Q162 250 176 229 Q190 208 219 208 Q246 208 266 225.5 Q286 243 299 269 Q312 295 318.5 325 Q325 355 325 380 Z M342 -110 Q342 -92 330 -79 Q318 -66 301 -56 Q293 -52 283 -47.5 Q273 -43 257.5 -37 Q242 -31 217.5 -23 Q193 -15 156 -3 Q139 -7 122 -14 Q105 -21 90.5 -31.5 Q76 -42 67 -57 Q58 -72 58 -92 Q58 -119 74 -136 Q90 -153 113.5 -163 Q137 -173 163.5 -176.5 Q190 -180 212 -180 Q230 -180 253 -177.5 Q276 -175 295.5 -167.5 Q315 -160 328.5 -146.5 Q342 -133 342 -110 Z M253 548 Q253 599 279.5 627.5 Q306 656 351 673 L363 656 Q344 635 334.5 620 Q325 605 325 579 Q325 572 325.5 565 Q326 558 327 549 L253 545 L253 548 Z " />
<glyph glyph-name="igrave" unicode="&#xec;" horiz-adv-x="297" d="M277 108 Q266 91 252.5 70.5 Q239 50 221.5 32 Q204 14 184 1.5 Q164 -11 142 -11 Q127 -11 116 -4.5 Q105 2 97 12.5 Q89 23 85 35.5 Q81 48 81 61 Q81 81 85 98 L144 360 Q147 374 149.5 386.5 Q152 399 152 404 Q152 420 138 420 Q131 420 120.5 412 Q110 404 99 393 Q88 382 78.5 370 Q69 358 64 351 L40 369 Q52 386 67 406 Q82 426 100 443.5 Q118 461 138.5 473 Q159 485 182 485 Q211 485 223 468 Q235 451 235 425 Q235 419 233.5 406 Q232 393 227 373 L169 113 Q166 99 164.5 91 Q163 83 163 77 Q163 69 168 62 Q173 55 181 55 Q192 55 202.5 62.5 Q213 70 222 80.5 Q231 91 238.5 102.5 Q246 114 251 122 L277 108 L277 108 Z M239 546 Q197 559 157.5 580 Q118 601 96 639 Q88 652 83.5 665 Q79 678 74 691 L172 670 Q179 649 185.5 635.5 Q192 622 199.5 610.5 Q207 599 218 588.5 Q229 578 247 564 L239 546 Z " />
<glyph glyph-name="iacute" unicode="&#xed;" horiz-adv-x="297" d="M277 108 Q266 91 252.5 70.5 Q239 50 221.5 32 Q204 14 184 1.5 Q164 -11 142 -11 Q127 -11 116 -4.5 Q105 2 97 12.5 Q89 23 85 35.5 Q81 48 81 61 Q81 81 85 98 L144 360 Q147 374 149.5 386.5 Q152 399 152 404 Q152 420 138 420 Q131 420 120.5 412 Q110 404 99 393 Q88 382 78.5 370 Q69 358 64 351 L40 369 Q52 386 67 406 Q82 426 100 443.5 Q118 461 138.5 473 Q159 485 182 485 Q211 485 223 468 Q235 451 235 425 Q235 419 233.5 406 Q232 393 227 373 L169 113 Q166 99 164.5 91 Q163 83 163 77 Q163 69 168 62 Q173 55 181 55 Q192 55 202.5 62.5 Q213 70 222 80.5 Q231 91 238.5 102.5 Q246 114 251 122 L277 108 L277 108 Z M302 691 Q294 677 288.5 665.5 Q283 654 277 644 Q261 620 235.5 597 Q210 574 184 562 Q174 557 164 555 Q154 553 143 548 L132 565 Q150 580 160.5 590.5 Q171 601 178.5 612 Q186 623 191.5 637 Q197 651 204 673 L302 691 L302 691 Z " />
<glyph glyph-name="icircumflex" unicode="&#xee;" horiz-adv-x="297" d="M277 108 Q266 91 252.5 70.5 Q239 50 221.5 32 Q204 14 184 1.5 Q164 -11 142 -11 Q127 -11 116 -4.5 Q105 2 97 12.5 Q89 23 85 35.5 Q81 48 81 61 Q81 81 85 98 L144 360 Q147 374 149.5 386.5 Q152 399 152 404 Q152 420 138 420 Q131 420 120.5 412 Q110 404 99 393 Q88 382 78.5 370 Q69 358 64 351 L40 369 Q52 386 67 406 Q82 426 100 443.5 Q118 461 138.5 473 Q159 485 182 485 Q211 485 223 468 Q235 451 235 425 Q235 419 233.5 406 Q232 393 227 373 L169 113 Q166 99 164.5 91 Q163 83 163 77 Q163 69 168 62 Q173 55 181 55 Q192 55 202.5 62.5 Q213 70 222 80.5 Q231 91 238.5 102.5 Q246 114 251 122 L277 108 L277 108 Z M319 554 Q298 560 285.5 565.5 Q273 571 262.5 577.5 Q252 584 242 593 Q232 602 217 615 Q188 596 156 580.5 Q124 565 92 552 Q87 556 84 559 Q81 562 80 569 Q104 585 119.5 597.5 Q135 610 148 623 Q161 636 173 652 Q185 668 200 692 L249 692 Q258 671 265.5 655 Q273 639 282 625 Q291 611 302 597 Q313 583 329 567 L319 554 Z " />
<glyph glyph-name="idieresis" unicode="&#xef;" horiz-adv-x="297" d="M277 108 Q266 91 252.5 70.5 Q239 50 221.5 32 Q204 14 184 1.5 Q164 -11 142 -11 Q127 -11 116 -4.5 Q105 2 97 12.5 Q89 23 85 35.5 Q81 48 81 61 Q81 81 85 98 L144 360 Q147 374 149.5 386.5 Q152 399 152 404 Q152 420 138 420 Q131 420 120.5 412 Q110 404 99 393 Q88 382 78.5 370 Q69 358 64 351 L40 369 Q52 386 67 406 Q82 426 100 443.5 Q118 461 138.5 473 Q159 485 182 485 Q211 485 223 468 Q235 451 235 425 Q235 419 233.5 406 Q232 393 227 373 L169 113 Q166 99 164.5 91 Q163 83 163 77 Q163 69 168 62 Q173 55 181 55 Q192 55 202.5 62.5 Q213 70 222 80.5 Q231 91 238.5 102.5 Q246 114 251 122 L277 108 L277 108 Z M356 643 Q356 632 351 620 Q346 608 337 598.5 Q328 589 317 583 Q306 577 294 577 Q277 577 267.5 588 Q258 599 258 616 Q258 627 263 639 Q268 651 276 661 Q284 671 295.5 677.5 Q307 684 319 684 Q337 684 346.5 671.5 Q356 659 356 643 Z M177 643 Q177 632 172 620 Q167 608 158 598.5 Q149 589 138 583 Q127 577 115 577 Q98 577 88.5 588 Q79 599 79 616 Q79 627 84 639 Q89 651 97 661 Q105 671 116.5 677.5 Q128 684 140 684 Q158 684 167.5 671.5 Q177 659 177 643 Z " />
<glyph glyph-name="imacron" unicode="&#x12b;" horiz-adv-x="297" d="M277 108 Q266 91 252.5 70.5 Q239 50 221.5 32 Q204 14 184 1.5 Q164 -11 142 -11 Q127 -11 116 -4.5 Q105 2 97 12.5 Q89 23 85 35.5 Q81 48 81 61 Q81 81 85 98 L144 360 Q147 374 149.5 386.5 Q152 399 152 404 Q152 420 138 420 Q131 420 120.5 412 Q110 404 99 393 Q88 382 78.5 370 Q69 358 64 351 L40 369 Q52 386 67 406 Q82 426 100 443.5 Q118 461 138.5 473 Q159 485 182 485 Q211 485 223 468 Q235 451 235 425 Q235 419 233.5 406 Q232 393 227 373 L169 113 Q166 99 164.5 91 Q163 83 163 77 Q163 69 168 62 Q173 55 181 55 Q192 55 202.5 62.5 Q213 70 222 80.5 Q231 91 238.5 102.5 Q246 114 251 122 L277 108 L277 108 Z M343 603 L72 603 L83 657 L354 657 L343 603 Z " />
<glyph glyph-name="iogonek" unicode="&#x12f;" horiz-adv-x="297" d="M277 108 Q268 94 257 77.5 Q246 61 233 45 Q220 29 204.5 15.5 Q189 2 172 -5 Q135 -30 112.5 -58 Q90 -86 90 -123 Q90 -149 104.5 -164.5 Q119 -180 144 -180 Q163 -180 175.5 -175.5 Q188 -171 199 -165 L217 -198 Q199 -208 173.5 -214 Q148 -220 117 -220 Q102 -220 84.5 -215.5 Q67 -211 51.5 -201 Q36 -191 26 -174.5 Q16 -158 16 -135 Q16 -99 40.5 -64.5 Q65 -30 115 -4 Q98 5 89.5 23.5 Q81 42 81 61 Q81 81 85 98 L144 360 Q147 374 149.5 386.5 Q152 399 152 404 Q152 420 138 420 Q131 420 120.5 412 Q110 404 99 393 Q88 382 78.5 370 Q69 358 64 351 L40 369 Q52 386 67 406 Q82 426 100 443.5 Q118 461 138.5 473 Q159 485 182 485 Q211 485 223 468 Q235 451 235 425 Q235 419 233.5 406 Q232 393 227 373 L169 113 Q166 99 164.5 91 Q163 83 163 77 Q163 69 168 62 Q173 55 181 55 Q192 55 202.5 62.5 Q213 70 222 80.5 Q231 91 238.5 102.5 Q246 114 251 122 L277 108 Z M268 648 Q268 636 263 623.5 Q258 611 249 601.5 Q240 592 228.5 586 Q217 580 204 580 Q184 580 174.5 591 Q165 602 165 620 Q165 631 170 643 Q175 655 183.5 664.5 Q192 674 203 680.5 Q214 687 227 687 Q246 687 257 676 Q268 665 268 648 Z " />
<glyph glyph-name="dotlessi" unicode="&#x131;" horiz-adv-x="297" d="M277 108 Q266 91 252.5 70.5 Q239 50 221.5 32 Q204 14 184 1.5 Q164 -11 142 -11 Q127 -11 116 -4.5 Q105 2 97 12.5 Q89 23 85 35.5 Q81 48 81 61 Q81 81 85 98 L144 360 Q147 374 149.5 386.5 Q152 399 152 404 Q152 420 138 420 Q131 420 120.5 412 Q110 404 99 393 Q88 382 78.5 370 Q69 358 64 351 L40 369 Q52 386 67 406 Q82 426 100 443.5 Q118 461 138.5 473 Q159 485 182 485 Q211 485 223 468 Q235 451 235 425 Q235 419 233.5 406 Q232 393 227 373 L169 113 Q166 99 164.5 91 Q163 83 163 77 Q163 69 168 62 Q173 55 181 55 Q192 55 202.5 62.5 Q213 70 222 80.5 Q231 91 238.5 102.5 Q246 114 251 122 L277 108 L277 108 Z " />
<glyph glyph-name="kcommaaccent" unicode="&#x137;" horiz-adv-x="537" d="M517 98 Q503 79 488.5 59.5 Q474 40 458 24 Q442 8 423 -2.5 Q404 -13 380 -13 Q347 -13 325.5 8 Q304 29 281 78 L228 191 L164 176 L124 2 L41 -14 L183 640 Q186 654 187 661 Q188 668 188 673 Q188 706 155 706 Q146 706 137 704.5 Q128 703 115 700 L121 728 L290 769 L198 334 Q217 358 240.5 384 Q264 410 291.5 432 Q319 454 350 468 Q381 482 414 482 Q450 482 475.5 463.5 Q501 445 501 405 Q501 370 479.5 341.5 Q458 313 426.5 289.5 Q395 266 360 248 Q325 230 298 217 L342 121 Q361 80 374.5 62 Q388 44 408 44 Q420 44 431.5 50.5 Q443 57 454 67.5 Q465 78 475 90 Q485 102 494 113 L517 98 Z M423 397 Q423 437 383 437 Q362 437 341.5 425 Q321 413 304 399 Q266 368 233 330.5 Q200 293 180 243 Q176 234 174 227.5 Q172 221 169 213 Q195 217 217 223.5 Q239 230 259 238.5 Q279 247 298.5 259 Q318 271 341 286 Q354 295 368.5 308 Q383 321 395 336 Q407 351 415 366.5 Q423 382 423 397 Z M258 -66 Q258 -117 231.5 -145.5 Q205 -174 160 -191 L148 -174 Q167 -153 176.5 -138 Q186 -123 186 -97 Q186 -90 185.5 -83 Q185 -76 184 -67 L258 -63 L258 -66 Z " />
<glyph glyph-name="lacute" unicode="&#x13a;" horiz-adv-x="278" d="M275 769 Q271 752 267.5 739 Q264 726 262 713 L143 134 Q137 108 137 83 Q137 72 143 63 Q149 54 160 54 Q170 54 183 62 Q196 70 209.5 81 Q223 92 234.5 103.5 Q246 115 253 122 L275 99 Q260 83 241 64 Q222 45 200 28.5 Q178 12 154.5 0.5 Q131 -11 107 -11 Q80 -11 65 11 Q50 33 50 57 Q50 71 52 84.5 Q54 98 57 112 L166 621 Q171 647 172.5 656.5 Q174 666 174 671 Q174 691 163 698 Q152 705 134 705 Q120 705 104 701 L106 733 Q135 735 163.5 742 Q192 749 219 756 L275 769 L275 769 Z M349 987 Q341 973 335.5 961.5 Q330 950 324 940 Q308 916 282.5 893 Q257 870 231 858 Q221 853 211 851 Q201 849 190 844 L179 861 Q197 876 207.5 886.5 Q218 897 225.5 908 Q233 919 238.5 933 Q244 947 251 969 L349 987 L349 987 Z " />
<glyph glyph-name="lcaron" unicode="&#x13e;" horiz-adv-x="278" d="M275 769 Q271 752 267.5 739 Q264 726 262 713 L143 134 Q137 108 137 83 Q137 72 143 63 Q149 54 160 54 Q170 54 183 62 Q196 70 209.5 81 Q223 92 234.5 103.5 Q246 115 253 122 L275 99 Q260 83 241 64 Q222 45 200 28.5 Q178 12 154.5 0.5 Q131 -11 107 -11 Q80 -11 65 11 Q50 33 50 57 Q50 71 52 84.5 Q54 98 57 112 L166 621 Q171 647 172.5 656.5 Q174 666 174 671 Q174 691 163 698 Q152 705 134 705 Q120 705 104 701 L106 733 Q135 735 163.5 742 Q192 749 219 756 L275 769 L275 769 Z M427 740 Q427 695 408.5 658 Q390 621 364 588 Q351 572 336.5 555.5 Q322 539 308 522 L281 535 Q305 570 325 606 Q345 642 345 681 Q345 698 339 713 Q333 728 324 746 L416 795 Q420 781 423.5 767.5 Q427 754 427 740 Z " />
<glyph glyph-name="lcommaaccent" unicode="&#x13c;" horiz-adv-x="278" d="M275 769 Q271 752 267.5 739 Q264 726 262 713 L143 134 Q137 108 137 83 Q137 72 143 63 Q149 54 160 54 Q170 54 183 62 Q196 70 209.5 81 Q223 92 234.5 103.5 Q246 115 253 122 L275 99 Q260 83 241 64 Q222 45 200 28.5 Q178 12 154.5 0.5 Q131 -11 107 -11 Q80 -11 65 11 Q50 33 50 57 Q50 71 52 84.5 Q54 98 57 112 L166 621 Q171 647 172.5 656.5 Q174 666 174 671 Q174 691 163 698 Q152 705 134 705 Q120 705 104 701 L106 733 Q135 735 163.5 742 Q192 749 219 756 L275 769 L275 769 Z M129 -66 Q129 -117 102.5 -145.5 Q76 -174 31 -191 L19 -174 Q38 -153 47.5 -138 Q57 -123 57 -97 Q57 -90 56.5 -83 Q56 -76 55 -67 L129 -63 L129 -66 Z " />
<glyph glyph-name="lslash" unicode="&#x142;" horiz-adv-x="278" d="M275 769 Q271 752 267.5 739 Q264 726 262 713 L210 460 L300 514 L290 460 L199 406 L143 134 Q137 108 137 83 Q137 72 143 63 Q149 54 160 54 Q170 54 183 62 Q196 70 209.5 81 Q223 92 234.5 103.5 Q246 115 253 122 L275 99 Q260 83 241 64 Q222 45 200 28.5 Q178 12 154.5 0.5 Q131 -11 107 -11 Q80 -11 65 11 Q50 33 50 57 Q50 71 52 84.5 Q54 98 57 112 L108 352 L23 302 L33 356 L120 407 L166 621 Q171 647 172.5 656.5 Q174 666 174 671 Q174 691 163 698 Q152 705 134 705 Q120 705 104 701 L106 733 Q135 735 163.5 742 Q192 749 219 756 L275 769 L275 769 Z " />
<glyph glyph-name="nacute" unicode="&#x144;" horiz-adv-x="547" d="M534 112 Q526 103 518.5 93.5 Q511 84 502 74 Q491 61 476.5 46 Q462 31 445.5 18 Q429 5 411.5 -3.5 Q394 -12 376 -12 Q353 -12 338.5 2.5 Q324 17 324 41 Q324 50 325.5 62.5 Q327 75 331 91 L396 347 Q402 372 404 383 Q406 394 406 403 Q406 412 401.5 420.5 Q397 429 384 429 Q368 429 348 412 Q328 395 305 366 Q276 330 256 299.5 Q236 269 222.5 243.5 Q209 218 200.5 197 Q192 176 185 158 Q171 121 160 82.5 Q149 44 139 3 L54 -13 L109 211 Q118 247 126.5 284.5 Q135 322 141 361 Q142 366 142.5 373 Q143 380 143 386 Q143 392 141.5 403 Q140 414 130 414 Q123 414 113 406 Q103 398 92.5 387.5 Q82 377 73 366 Q64 355 59 350 L36 366 Q49 386 63 402 Q77 418 91 433 Q99 442 109 451.5 Q119 461 130 469 Q141 477 153 482 Q165 487 179 487 Q193 487 201.5 480.5 Q210 474 215 464.5 Q220 455 222 443 Q224 431 224 421 Q224 403 220 380.5 Q216 358 211 335 Q207 318 203 301 Q199 284 195 268 Q213 297 236.5 335 Q260 373 289.5 407 Q319 441 352.5 464.5 Q386 488 423 488 Q452 488 469.5 471 Q487 454 487 425 Q487 422 487 417.5 Q487 413 485.5 405.5 Q484 398 481.5 386.5 Q479 375 475 356 L416 116 Q414 110 412.5 99 Q411 88 411 81 Q411 61 427 61 Q432 61 437.5 62.5 Q443 64 446 66 Q454 70 463 78 Q472 86 480.5 95.5 Q489 105 497.5 115 Q506 125 512 133 L534 112 L534 112 Z M459 691 Q451 677 445.5 665.5 Q440 654 434 644 Q418 620 392.5 597 Q367 574 341 562 Q331 557 321 555 Q311 553 300 548 L289 565 Q307 580 317.5 590.5 Q328 601 335.5 612 Q343 623 348.5 637 Q354 651 361 673 L459 691 L459 691 Z " />
<glyph glyph-name="ncaron" unicode="&#x148;" horiz-adv-x="547" d="M534 112 Q526 103 518.5 93.5 Q511 84 502 74 Q491 61 476.5 46 Q462 31 445.5 18 Q429 5 411.5 -3.5 Q394 -12 376 -12 Q353 -12 338.5 2.5 Q324 17 324 41 Q324 50 325.5 62.5 Q327 75 331 91 L396 347 Q402 372 404 383 Q406 394 406 403 Q406 412 401.5 420.5 Q397 429 384 429 Q368 429 348 412 Q328 395 305 366 Q276 330 256 299.5 Q236 269 222.5 243.5 Q209 218 200.5 197 Q192 176 185 158 Q171 121 160 82.5 Q149 44 139 3 L54 -13 L109 211 Q118 247 126.5 284.5 Q135 322 141 361 Q142 366 142.5 373 Q143 380 143 386 Q143 392 141.5 403 Q140 414 130 414 Q123 414 113 406 Q103 398 92.5 387.5 Q82 377 73 366 Q64 355 59 350 L36 366 Q49 386 63 402 Q77 418 91 433 Q99 442 109 451.5 Q119 461 130 469 Q141 477 153 482 Q165 487 179 487 Q193 487 201.5 480.5 Q210 474 215 464.5 Q220 455 222 443 Q224 431 224 421 Q224 403 220 380.5 Q216 358 211 335 Q207 318 203 301 Q199 284 195 268 Q213 297 236.5 335 Q260 373 289.5 407 Q319 441 352.5 464.5 Q386 488 423 488 Q452 488 469.5 471 Q487 454 487 425 Q487 422 487 417.5 Q487 413 485.5 405.5 Q484 398 481.5 386.5 Q479 375 475 356 L416 116 Q414 110 412.5 99 Q411 88 411 81 Q411 61 427 61 Q432 61 437.5 62.5 Q443 64 446 66 Q454 70 463 78 Q472 86 480.5 95.5 Q489 105 497.5 115 Q506 125 512 133 L534 112 L534 112 Z M481 682 Q442 651 415 623 Q388 595 362 554 L314 554 Q296 593 278.5 620.5 Q261 648 233 682 L246 693 Q265 687 278 681 Q291 675 301.5 668 Q312 661 322.5 652.5 Q333 644 348 633 Q377 653 407.5 666 Q438 679 472 693 L481 682 L481 682 Z " />
<glyph glyph-name="ntilde" unicode="&#xf1;" horiz-adv-x="547" d="M534 112 Q526 103 518.5 93.5 Q511 84 502 74 Q491 61 476.5 46 Q462 31 445.5 18 Q429 5 411.5 -3.5 Q394 -12 376 -12 Q353 -12 338.5 2.5 Q324 17 324 41 Q324 50 325.5 62.5 Q327 75 331 91 L396 347 Q402 372 404 383 Q406 394 406 403 Q406 412 401.5 420.5 Q397 429 384 429 Q368 429 348 412 Q328 395 305 366 Q276 330 256 299.5 Q236 269 222.5 243.5 Q209 218 200.5 197 Q192 176 185 158 Q171 121 160 82.5 Q149 44 139 3 L54 -13 L109 211 Q118 247 126.5 284.5 Q135 322 141 361 Q142 366 142.5 373 Q143 380 143 386 Q143 392 141.5 403 Q140 414 130 414 Q123 414 113 406 Q103 398 92.5 387.5 Q82 377 73 366 Q64 355 59 350 L36 366 Q49 386 63 402 Q77 418 91 433 Q99 442 109 451.5 Q119 461 130 469 Q141 477 153 482 Q165 487 179 487 Q193 487 201.5 480.5 Q210 474 215 464.5 Q220 455 222 443 Q224 431 224 421 Q224 403 220 380.5 Q216 358 211 335 Q207 318 203 301 Q199 284 195 268 Q213 297 236.5 335 Q260 373 289.5 407 Q319 441 352.5 464.5 Q386 488 423 488 Q452 488 469.5 471 Q487 454 487 425 Q487 422 487 417.5 Q487 413 485.5 405.5 Q484 398 481.5 386.5 Q479 375 475 356 L416 116 Q414 110 412.5 99 Q411 88 411 81 Q411 61 427 61 Q432 61 437.5 62.5 Q443 64 446 66 Q454 70 463 78 Q472 86 480.5 95.5 Q489 105 497.5 115 Q506 125 512 133 L534 112 L534 112 Z M519 652 Q511 638 501.5 623.5 Q492 609 480.5 597 Q469 585 454.5 577.5 Q440 570 422 570 Q411 570 400.5 573 Q390 576 379 580 L312 605 Q296 611 288 612.5 Q280 614 272 614 Q251 614 241 603.5 Q231 593 221 577 L195 591 Q203 605 212 619.5 Q221 634 232.5 645.5 Q244 657 258 664 Q272 671 290 671 Q308 671 328.5 663.5 Q349 656 366 649 Q387 641 407 634 Q427 627 445 627 Q464 627 475 639.5 Q486 652 496 665 L519 652 L519 652 Z " />
<glyph glyph-name="ncommaaccent" unicode="&#x146;" horiz-adv-x="547" d="M534 112 Q526 103 518.5 93.5 Q511 84 502 74 Q491 61 476.5 46 Q462 31 445.5 18 Q429 5 411.5 -3.5 Q394 -12 376 -12 Q353 -12 338.5 2.5 Q324 17 324 41 Q324 50 325.5 62.5 Q327 75 331 91 L396 347 Q402 372 404 383 Q406 394 406 403 Q406 412 401.5 420.5 Q397 429 384 429 Q368 429 348 412 Q328 395 305 366 Q276 330 256 299.5 Q236 269 222.5 243.5 Q209 218 200.5 197 Q192 176 185 158 Q171 121 160 82.5 Q149 44 139 3 L54 -13 L109 211 Q118 247 126.5 284.5 Q135 322 141 361 Q142 366 142.5 373 Q143 380 143 386 Q143 392 141.5 403 Q140 414 130 414 Q123 414 113 406 Q103 398 92.5 387.5 Q82 377 73 366 Q64 355 59 350 L36 366 Q49 386 63 402 Q77 418 91 433 Q99 442 109 451.5 Q119 461 130 469 Q141 477 153 482 Q165 487 179 487 Q193 487 201.5 480.5 Q210 474 215 464.5 Q220 455 222 443 Q224 431 224 421 Q224 403 220 380.5 Q216 358 211 335 Q207 318 203 301 Q199 284 195 268 Q213 297 236.5 335 Q260 373 289.5 407 Q319 441 352.5 464.5 Q386 488 423 488 Q452 488 469.5 471 Q487 454 487 425 Q487 422 487 417.5 Q487 413 485.5 405.5 Q484 398 481.5 386.5 Q479 375 475 356 L416 116 Q414 110 412.5 99 Q411 88 411 81 Q411 61 427 61 Q432 61 437.5 62.5 Q443 64 446 66 Q454 70 463 78 Q472 86 480.5 95.5 Q489 105 497.5 115 Q506 125 512 133 L534 112 L534 112 Z M272 -66 Q272 -117 245.5 -145.5 Q219 -174 174 -191 L162 -174 Q181 -153 190.5 -138 Q200 -123 200 -97 Q200 -90 199.5 -83 Q199 -76 198 -67 L272 -63 L272 -66 Z " />
<glyph glyph-name="ograve" unicode="&#xf2;" horiz-adv-x="489" d="M461 329 Q461 254 432.5 192 Q404 130 365 82 Q334 44 292.5 16 Q251 -12 199 -12 Q161 -12 131.5 2.5 Q102 17 81 41.5 Q60 66 49 98 Q38 130 38 165 Q38 215 55 263 Q72 311 99.5 351.5 Q127 392 161 422.5 Q195 453 230 468 Q270 485 316 485 Q351 485 378 473.5 Q405 462 423.5 441 Q442 420 451.5 391.5 Q461 363 461 329 Z M380 360 Q380 376 376 392 Q372 408 364 421 Q356 434 342.5 442 Q329 450 311 450 Q279 450 254.5 434.5 Q230 419 206 391 Q189 373 173.5 343.5 Q158 314 146 279.5 Q134 245 127 207.5 Q120 170 120 135 Q120 116 123.5 96.5 Q127 77 135.5 61.5 Q144 46 158.5 36 Q173 26 196 26 Q216 26 233 35 Q250 44 264 59 Q278 74 290.5 92.5 Q303 111 314 131 Q323 147 334.5 174 Q346 201 356 232.5 Q366 264 373 297.5 Q380 331 380 360 Z M390 546 Q348 559 308.5 580 Q269 601 247 639 Q239 652 234.5 665 Q230 678 225 691 L323 670 Q330 649 336.5 635.5 Q343 622 350.5 610.5 Q358 599 369 588.5 Q380 578 398 564 L390 546 Z " />
<glyph glyph-name="oacute" unicode="&#xf3;" horiz-adv-x="489" d="M461 329 Q461 254 432.5 192 Q404 130 365 82 Q334 44 292.5 16 Q251 -12 199 -12 Q161 -12 131.5 2.5 Q102 17 81 41.5 Q60 66 49 98 Q38 130 38 165 Q38 215 55 263 Q72 311 99.5 351.5 Q127 392 161 422.5 Q195 453 230 468 Q270 485 316 485 Q351 485 378 473.5 Q405 462 423.5 441 Q442 420 451.5 391.5 Q461 363 461 329 Z M380 360 Q380 376 376 392 Q372 408 364 421 Q356 434 342.5 442 Q329 450 311 450 Q279 450 254.5 434.5 Q230 419 206 391 Q189 373 173.5 343.5 Q158 314 146 279.5 Q134 245 127 207.5 Q120 170 120 135 Q120 116 123.5 96.5 Q127 77 135.5 61.5 Q144 46 158.5 36 Q173 26 196 26 Q216 26 233 35 Q250 44 264 59 Q278 74 290.5 92.5 Q303 111 314 131 Q323 147 334.5 174 Q346 201 356 232.5 Q366 264 373 297.5 Q380 331 380 360 Z M447 691 Q439 677 433.5 665.5 Q428 654 422 644 Q406 620 380.5 597 Q355 574 329 562 Q319 557 309 555 Q299 553 288 548 L277 565 Q295 580 305.5 590.5 Q316 601 323.5 612 Q331 623 336.5 637 Q342 651 349 673 L447 691 L447 691 Z " />
<glyph glyph-name="ocircumflex" unicode="&#xf4;" horiz-adv-x="489" d="M461 329 Q461 254 432.5 192 Q404 130 365 82 Q334 44 292.5 16 Q251 -12 199 -12 Q161 -12 131.5 2.5 Q102 17 81 41.5 Q60 66 49 98 Q38 130 38 165 Q38 215 55 263 Q72 311 99.5 351.5 Q127 392 161 422.5 Q195 453 230 468 Q270 485 316 485 Q351 485 378 473.5 Q405 462 423.5 441 Q442 420 451.5 391.5 Q461 363 461 329 Z M380 360 Q380 376 376 392 Q372 408 364 421 Q356 434 342.5 442 Q329 450 311 450 Q279 450 254.5 434.5 Q230 419 206 391 Q189 373 173.5 343.5 Q158 314 146 279.5 Q134 245 127 207.5 Q120 170 120 135 Q120 116 123.5 96.5 Q127 77 135.5 61.5 Q144 46 158.5 36 Q173 26 196 26 Q216 26 233 35 Q250 44 264 59 Q278 74 290.5 92.5 Q303 111 314 131 Q323 147 334.5 174 Q346 201 356 232.5 Q366 264 373 297.5 Q380 331 380 360 Z M446 554 Q425 560 412.5 565.5 Q400 571 389.5 577.5 Q379 584 369 593 Q359 602 344 615 Q315 596 283 580.5 Q251 565 219 552 Q214 556 211 559 Q208 562 207 569 Q231 585 246.5 597.5 Q262 610 275 623 Q288 636 300 652 Q312 668 327 692 L376 692 Q385 671 392.5 655 Q400 639 409 625 Q418 611 429 597 Q440 583 456 567 L446 554 Z " />
<glyph glyph-name="otilde" unicode="&#xf5;" horiz-adv-x="489" d="M461 329 Q461 254 432.5 192 Q404 130 365 82 Q334 44 292.5 16 Q251 -12 199 -12 Q161 -12 131.5 2.5 Q102 17 81 41.5 Q60 66 49 98 Q38 130 38 165 Q38 215 55 263 Q72 311 99.5 351.5 Q127 392 161 422.5 Q195 453 230 468 Q270 485 316 485 Q351 485 378 473.5 Q405 462 423.5 441 Q442 420 451.5 391.5 Q461 363 461 329 Z M380 360 Q380 376 376 392 Q372 408 364 421 Q356 434 342.5 442 Q329 450 311 450 Q279 450 254.5 434.5 Q230 419 206 391 Q189 373 173.5 343.5 Q158 314 146 279.5 Q134 245 127 207.5 Q120 170 120 135 Q120 116 123.5 96.5 Q127 77 135.5 61.5 Q144 46 158.5 36 Q173 26 196 26 Q216 26 233 35 Q250 44 264 59 Q278 74 290.5 92.5 Q303 111 314 131 Q323 147 334.5 174 Q346 201 356 232.5 Q366 264 373 297.5 Q380 331 380 360 Z M512 652 Q504 638 494.5 623.5 Q485 609 473.5 597 Q462 585 447.5 577.5 Q433 570 415 570 Q404 570 393.5 573 Q383 576 372 580 L305 605 Q289 611 281 612.5 Q273 614 265 614 Q244 614 234 603.5 Q224 593 214 577 L188 591 Q196 605 205 619.5 Q214 634 225.5 645.5 Q237 657 251 664 Q265 671 283 671 Q301 671 321.5 663.5 Q342 656 359 649 Q380 641 400 634 Q420 627 438 627 Q457 627 468 639.5 Q479 652 489 665 L512 652 L512 652 Z " />
<glyph glyph-name="odieresis" unicode="&#xf6;" horiz-adv-x="489" d="M461 329 Q461 254 432.5 192 Q404 130 365 82 Q334 44 292.5 16 Q251 -12 199 -12 Q161 -12 131.5 2.5 Q102 17 81 41.5 Q60 66 49 98 Q38 130 38 165 Q38 215 55 263 Q72 311 99.5 351.5 Q127 392 161 422.5 Q195 453 230 468 Q270 485 316 485 Q351 485 378 473.5 Q405 462 423.5 441 Q442 420 451.5 391.5 Q461 363 461 329 Z M380 360 Q380 376 376 392 Q372 408 364 421 Q356 434 342.5 442 Q329 450 311 450 Q279 450 254.5 434.5 Q230 419 206 391 Q189 373 173.5 343.5 Q158 314 146 279.5 Q134 245 127 207.5 Q120 170 120 135 Q120 116 123.5 96.5 Q127 77 135.5 61.5 Q144 46 158.5 36 Q173 26 196 26 Q216 26 233 35 Q250 44 264 59 Q278 74 290.5 92.5 Q303 111 314 131 Q323 147 334.5 174 Q346 201 356 232.5 Q366 264 373 297.5 Q380 331 380 360 Z M489 643 Q489 632 484 620 Q479 608 470 598.5 Q461 589 450 583 Q439 577 427 577 Q410 577 400.5 588 Q391 599 391 616 Q391 627 396 639 Q401 651 409 661 Q417 671 428.5 677.5 Q440 684 452 684 Q470 684 479.5 671.5 Q489 659 489 643 Z M310 643 Q310 632 305 620 Q300 608 291 598.5 Q282 589 271 583 Q260 577 248 577 Q231 577 221.5 588 Q212 599 212 616 Q212 627 217 639 Q222 651 230 661 Q238 671 249.5 677.5 Q261 684 273 684 Q291 684 300.5 671.5 Q310 659 310 643 Z " />
<glyph glyph-name="omacron" unicode="&#x14d;" horiz-adv-x="489" d="M461 329 Q461 254 432.5 192 Q404 130 365 82 Q334 44 292.5 16 Q251 -12 199 -12 Q161 -12 131.5 2.5 Q102 17 81 41.5 Q60 66 49 98 Q38 130 38 165 Q38 215 55 263 Q72 311 99.5 351.5 Q127 392 161 422.5 Q195 453 230 468 Q270 485 316 485 Q351 485 378 473.5 Q405 462 423.5 441 Q442 420 451.5 391.5 Q461 363 461 329 Z M380 360 Q380 376 376 392 Q372 408 364 421 Q356 434 342.5 442 Q329 450 311 450 Q279 450 254.5 434.5 Q230 419 206 391 Q189 373 173.5 343.5 Q158 314 146 279.5 Q134 245 127 207.5 Q120 170 120 135 Q120 116 123.5 96.5 Q127 77 135.5 61.5 Q144 46 158.5 36 Q173 26 196 26 Q216 26 233 35 Q250 44 264 59 Q278 74 290.5 92.5 Q303 111 314 131 Q323 147 334.5 174 Q346 201 356 232.5 Q366 264 373 297.5 Q380 331 380 360 Z M469 603 L198 603 L209 657 L480 657 L469 603 Z " />
<glyph glyph-name="ohungarumlaut" unicode="&#x151;" horiz-adv-x="489" d="M461 329 Q461 254 432.5 192 Q404 130 365 82 Q334 44 292.5 16 Q251 -12 199 -12 Q161 -12 131.5 2.5 Q102 17 81 41.5 Q60 66 49 98 Q38 130 38 165 Q38 215 55 263 Q72 311 99.5 351.5 Q127 392 161 422.5 Q195 453 230 468 Q270 485 316 485 Q351 485 378 473.5 Q405 462 423.5 441 Q442 420 451.5 391.5 Q461 363 461 329 Z M380 360 Q380 376 376 392 Q372 408 364 421 Q356 434 342.5 442 Q329 450 311 450 Q279 450 254.5 434.5 Q230 419 206 391 Q189 373 173.5 343.5 Q158 314 146 279.5 Q134 245 127 207.5 Q120 170 120 135 Q120 116 123.5 96.5 Q127 77 135.5 61.5 Q144 46 158.5 36 Q173 26 196 26 Q216 26 233 35 Q250 44 264 59 Q278 74 290.5 92.5 Q303 111 314 131 Q323 147 334.5 174 Q346 201 356 232.5 Q366 264 373 297.5 Q380 331 380 360 Z M546 705 Q539 677 523.5 652 Q508 627 486.5 607 Q465 587 438.5 573 Q412 559 383 552 L368 571 Q392 588 413 614.5 Q434 641 443 684 L546 705 Z M372 704 Q365 676 349.5 651.5 Q334 627 312.5 607 Q291 587 264.5 573 Q238 559 209 552 L194 571 Q218 588 239 614.5 Q260 641 269 684 L367 704 L372 704 Z " />
<glyph glyph-name="oslash" unicode="&#xf8;" horiz-adv-x="489" d="M461 329 Q461 254 432.5 192 Q404 130 365 82 Q334 44 292.5 16 Q251 -12 199 -12 Q162 -12 132.5 2 Q103 16 83 39 L35 -10 L10 17 L61 70 Q38 113 38 165 Q38 215 55 263 Q72 311 99.5 351.5 Q127 392 161 422.5 Q195 453 230 468 Q270 485 316 485 Q351 485 378 473 Q405 461 424 441 L472 490 L496 462 L444 409 Q461 373 461 329 Z M120 130 L376 392 Q370 415 354.5 432.5 Q339 450 311 450 Q279 450 255 434.5 Q231 419 206 391 Q189 372 173.5 343 Q158 314 146 279.5 Q134 245 127 207.5 Q120 170 120 135 L120 130 Z M314 131 Q322 146 332.5 170.5 Q343 195 353 223.5 Q363 252 370 283 Q377 314 379 342 L126 83 Q134 59 150 42.5 Q166 26 196 26 Q216 26 233 35 Q250 44 264 59 Q278 74 290.5 92.5 Q303 111 314 131 Z " />
<glyph glyph-name="oe" unicode="&#x153;" horiz-adv-x="753" d="M738 386 Q738 369 733.5 355.5 Q729 342 721 328 Q706 304 682.5 284.5 Q659 265 631.5 251.5 Q604 238 575 231 Q546 224 519 224 Q502 224 484.5 225 Q467 226 449 229 Q434 190 434 130 Q434 113 438.5 96 Q443 79 452 65.5 Q461 52 474.5 43.5 Q488 35 506 35 Q525 35 545 45.5 Q565 56 584 71.5 Q603 87 619.5 104.5 Q636 122 649 136 L680 114 Q660 91 638.5 68 Q617 45 593 27 Q569 9 541 -2 Q513 -13 480 -13 Q433 -13 402.5 12 Q372 37 360 76 Q329 40 289 14 Q249 -12 199 -12 Q161 -12 131.5 2.5 Q102 17 81 41.5 Q60 66 49 98 Q38 130 38 165 Q38 215 55 263 Q72 311 99.5 351.5 Q127 392 161 422.5 Q195 453 230 468 Q270 485 316 485 Q372 485 407 457 Q442 429 454 382 L463 393 Q497 431 537.5 458.5 Q578 486 632 486 Q678 486 708 460 Q738 434 738 386 Z M380 360 Q380 376 376 392 Q372 408 364 421 Q356 434 342.5 442 Q329 450 311 450 Q279 450 255 434.5 Q231 419 206 391 Q189 372 173.5 343 Q158 314 146 279.5 Q134 245 127 207.5 Q120 170 120 135 Q120 116 123.5 96.5 Q127 77 135.5 61.5 Q144 46 158.5 36 Q173 26 196 26 Q216 26 233 35 Q250 44 264 59 Q278 74 290.5 92.5 Q303 111 314 131 Q323 147 334.5 174 Q346 201 356 232.5 Q366 264 373 297.5 Q380 331 380 360 Z M661 405 Q661 447 618 447 Q599 447 583.5 436.5 Q568 426 554 414 Q521 384 499.5 345 Q478 306 460 266 Q479 262 507 262 Q534 262 561.5 274 Q589 286 611 305.5 Q633 325 647 351 Q661 377 661 405 Z " />
<glyph glyph-name="racute" unicode="&#x155;" horiz-adv-x="413" d="M426 387 Q412 392 401 393 Q390 394 379 394 Q346 394 319.5 374 Q293 354 275 331 Q252 302 232.5 261 Q213 220 197.5 175 Q182 130 170 85 Q158 40 151 3 L66 -13 L157 364 Q159 371 160.5 380.5 Q162 390 162 398 Q162 406 160 411.5 Q158 417 149 417 Q140 417 128 409 Q116 401 105 389.5 Q94 378 83.5 366.5 Q73 355 67 348 L43 368 Q57 384 75 404.5 Q93 425 113.5 443 Q134 461 156.5 473.5 Q179 486 201 486 Q227 486 236 472.5 Q245 459 245 442 Q245 409 230 349 L220 308 Q235 335 255 366.5 Q275 398 299.5 424 Q324 450 353.5 467.5 Q383 485 416 485 Q422 485 429 485 Q436 485 445 484 L426 387 Z M402 691 Q394 677 388.5 665.5 Q383 654 377 644 Q361 620 335.5 597 Q310 574 284 562 Q274 557 264 555 Q254 553 243 548 L232 565 Q250 580 260.5 590.5 Q271 601 278.5 612 Q286 623 291.5 637 Q297 651 304 673 L402 691 L402 691 Z " />
<glyph glyph-name="rcaron" unicode="&#x159;" horiz-adv-x="413" d="M426 387 Q412 392 401 393 Q390 394 379 394 Q346 394 319.5 374 Q293 354 275 331 Q252 302 232.5 261 Q213 220 197.5 175 Q182 130 170 85 Q158 40 151 3 L66 -13 L157 364 Q159 371 160.5 380.5 Q162 390 162 398 Q162 406 160 411.5 Q158 417 149 417 Q140 417 128 409 Q116 401 105 389.5 Q94 378 83.5 366.5 Q73 355 67 348 L43 368 Q57 384 75 404.5 Q93 425 113.5 443 Q134 461 156.5 473.5 Q179 486 201 486 Q227 486 236 472.5 Q245 459 245 442 Q245 409 230 349 L220 308 Q235 335 255 366.5 Q275 398 299.5 424 Q324 450 353.5 467.5 Q383 485 416 485 Q422 485 429 485 Q436 485 445 484 L426 387 Z M431 682 Q392 651 365 623 Q338 595 312 554 L264 554 Q246 593 228.5 620.5 Q211 648 183 682 L196 693 Q215 687 228 681 Q241 675 251.5 668 Q262 661 272.5 652.5 Q283 644 298 633 Q327 653 357.5 666 Q388 679 422 693 L431 682 L431 682 Z " />
<glyph glyph-name="rcommaaccent" unicode="&#x157;" horiz-adv-x="413" d="M426 387 Q412 392 401 393 Q390 394 379 394 Q346 394 319.5 374 Q293 354 275 331 Q252 302 232.5 261 Q213 220 197.5 175 Q182 130 170 85 Q158 40 151 3 L66 -13 L157 364 Q159 371 160.5 380.5 Q162 390 162 398 Q162 406 160 411.5 Q158 417 149 417 Q140 417 128 409 Q116 401 105 389.5 Q94 378 83.5 366.5 Q73 355 67 348 L43 368 Q57 384 75 404.5 Q93 425 113.5 443 Q134 461 156.5 473.5 Q179 486 201 486 Q227 486 236 472.5 Q245 459 245 442 Q245 409 230 349 L220 308 Q235 335 255 366.5 Q275 398 299.5 424 Q324 450 353.5 467.5 Q383 485 416 485 Q422 485 429 485 Q436 485 445 484 L426 387 Z M136 -66 Q136 -117 109.5 -145.5 Q83 -174 38 -191 L26 -174 Q45 -153 54.5 -138 Q64 -123 64 -97 Q64 -90 63.5 -83 Q63 -76 62 -67 L136 -63 L136 -66 Z " />
<glyph glyph-name="sacute" unicode="&#x15b;" horiz-adv-x="387" d="M390 447 Q376 403 362 360 L333 370 Q334 386 330.5 396.5 Q327 407 316 418 Q300 434 283.5 438.5 Q267 443 248 443 Q217 443 196.5 425.5 Q176 408 176 375 Q176 351 186 332 Q196 313 216 292 Q231 275 249 255.5 Q267 236 282 214 Q297 192 307.5 168.5 Q318 145 318 120 Q318 88 304.5 63 Q291 38 269 21.5 Q247 5 219 -3.5 Q191 -12 162 -12 Q139 -12 120 -9 Q101 -6 83.5 0 Q66 6 48 15 Q30 24 10 35 Q18 60 25 83.5 Q32 107 40 133 L71 122 L71 109 Q71 93 75 83 Q79 73 90 62 Q107 47 129.5 39.5 Q152 32 175 32 Q203 32 225 47 Q247 62 247 92 Q247 120 230.5 142.5 Q214 165 201 180 Q182 202 165 221.5 Q148 241 135.5 260 Q123 279 116 299.5 Q109 320 109 345 Q109 378 123.5 404 Q138 430 161 448 Q184 466 213.5 475 Q243 484 273 484 Q308 484 333.5 475 Q359 466 390 447 Z M390 691 Q382 677 376.5 665.5 Q371 654 365 644 Q349 620 323.5 597 Q298 574 272 562 Q262 557 252 555 Q242 553 231 548 L220 565 Q238 580 248.5 590.5 Q259 601 266.5 612 Q274 623 279.5 637 Q285 651 292 673 L390 691 L390 691 Z " />
<glyph glyph-name="scaron" unicode="&#x161;" horiz-adv-x="387" d="M390 447 Q376 403 362 360 L333 370 Q334 386 330.5 396.5 Q327 407 316 418 Q300 434 283.5 438.5 Q267 443 248 443 Q217 443 196.5 425.5 Q176 408 176 375 Q176 351 186 332 Q196 313 216 292 Q231 275 249 255.5 Q267 236 282 214 Q297 192 307.5 168.5 Q318 145 318 120 Q318 88 304.5 63 Q291 38 269 21.5 Q247 5 219 -3.5 Q191 -12 162 -12 Q139 -12 120 -9 Q101 -6 83.5 0 Q66 6 48 15 Q30 24 10 35 Q18 60 25 83.5 Q32 107 40 133 L71 122 L71 109 Q71 93 75 83 Q79 73 90 62 Q107 47 129.5 39.5 Q152 32 175 32 Q203 32 225 47 Q247 62 247 92 Q247 120 230.5 142.5 Q214 165 201 180 Q182 202 165 221.5 Q148 241 135.5 260 Q123 279 116 299.5 Q109 320 109 345 Q109 378 123.5 404 Q138 430 161 448 Q184 466 213.5 475 Q243 484 273 484 Q308 484 333.5 475 Q359 466 390 447 Z M424 682 Q385 651 358 623 Q331 595 305 554 L257 554 Q239 593 221.5 620.5 Q204 648 176 682 L189 693 Q208 687 221 681 Q234 675 244.5 668 Q255 661 265.5 652.5 Q276 644 291 633 Q320 653 350.5 666 Q381 679 415 693 L424 682 L424 682 Z " />
<glyph glyph-name="scedilla" unicode="&#x15f;" horiz-adv-x="387" d="M390 447 Q376 403 362 360 L333 370 Q334 386 330.5 396.5 Q327 407 316 418 Q300 434 283.5 438.5 Q267 443 248 443 Q217 443 196.5 425.5 Q176 408 176 375 Q176 351 186 332 Q196 313 216 292 Q231 275 249 255.5 Q267 236 282 214 Q297 192 307.5 168.5 Q318 145 318 120 Q318 88 304.5 63 Q291 38 269 21.5 Q247 5 219 -3.5 Q191 -12 162 -12 Q139 -12 120 -9 Q101 -6 83.5 0 Q66 6 48 15 Q30 24 10 35 Q18 60 25 83.5 Q32 107 40 133 L71 122 L71 109 Q71 93 75 83 Q79 73 90 62 Q107 47 129.5 39.5 Q152 32 175 32 Q203 32 225 47 Q247 62 247 92 Q247 120 230.5 142.5 Q214 165 201 180 Q182 202 165 221.5 Q148 241 135.5 260 Q123 279 116 299.5 Q109 320 109 345 Q109 378 123.5 404 Q138 430 161 448 Q184 466 213.5 475 Q243 484 273 484 Q308 484 333.5 475 Q359 466 390 447 Z M186 -66 Q186 -117 159.5 -145.5 Q133 -174 88 -191 L76 -174 Q95 -153 104.5 -138 Q114 -123 114 -97 Q114 -90 113.5 -83 Q113 -76 112 -67 L186 -63 L186 -66 Z " />
<glyph glyph-name="scommaaccent" unicode="&#x219;" horiz-adv-x="387" d="M390 447 Q376 403 362 360 L333 370 Q334 386 330.5 396.5 Q327 407 316 418 Q300 434 283.5 438.5 Q267 443 248 443 Q217 443 196.5 425.5 Q176 408 176 375 Q176 351 186 332 Q196 313 216 292 Q231 275 249 255.5 Q267 236 282 214 Q297 192 307.5 168.5 Q318 145 318 120 Q318 88 304.5 63 Q291 38 269 21.5 Q247 5 219 -3.5 Q191 -12 162 -12 Q139 -12 120 -9 Q101 -6 83.5 0 Q66 6 48 15 Q30 24 10 35 Q18 60 25 83.5 Q32 107 40 133 L71 122 L71 109 Q71 93 75 83 Q79 73 90 62 Q107 47 129.5 39.5 Q152 32 175 32 Q203 32 225 47 Q247 62 247 92 Q247 120 230.5 142.5 Q214 165 201 180 Q182 202 165 221.5 Q148 241 135.5 260 Q123 279 116 299.5 Q109 320 109 345 Q109 378 123.5 404 Q138 430 161 448 Q184 466 213.5 475 Q243 484 273 484 Q308 484 333.5 475 Q359 466 390 447 Z M186 -66 Q186 -117 159.5 -145.5 Q133 -174 88 -191 L76 -174 Q95 -153 104.5 -138 Q114 -123 114 -97 Q114 -90 113.5 -83 Q113 -76 112 -67 L186 -63 L186 -66 Z " />
<glyph glyph-name="germandbls" unicode="&#xdf;" horiz-adv-x="510" d="M502 658 Q502 634 494.5 610 Q487 586 474.5 563.5 Q462 541 446.5 521 Q431 501 416 484 Q404 471 390.5 456.5 Q377 442 365 426 Q353 410 345 392.5 Q337 375 337 357 Q337 334 351.5 313.5 Q366 293 381 277 Q397 261 414.5 244 Q432 227 446.5 208 Q461 189 470.5 168 Q480 147 480 122 Q480 95 467.5 67.5 Q455 40 434 23 Q410 3 381 -4 Q352 -11 323 -11 Q277 -11 244.5 -0.5 Q212 10 176 39 L206 134 L235 122 Q235 101 238 89 Q241 77 254 63 Q271 46 294.5 36.5 Q318 27 342 27 Q370 27 389 42.5 Q408 58 408 87 Q408 110 394 130 Q380 150 365 166 Q350 183 333.5 200.5 Q317 218 303 237.5 Q289 257 280 278.5 Q271 300 271 324 Q271 371 295.5 411.5 Q320 452 350 490 Q380 528 404.5 565 Q429 602 429 641 Q429 683 402 707 Q375 731 334 731 Q302 731 280.5 718 Q259 705 244.5 684 Q230 663 222.5 636.5 Q215 610 211 583 L149 152 Q143 107 132 54.5 Q121 2 100.5 -46.5 Q80 -95 47 -133.5 Q14 -172 -35 -189 Q-52 -194 -69.5 -197.5 Q-87 -201 -107 -203 L-91 -108 L-71 -108 Q-64 -121 -57 -128 Q-50 -135 -37 -135 Q-16 -135 -1.5 -119 Q13 -103 22 -80.5 Q31 -58 36 -34 Q41 -10 44 6 L65 135 Q73 181 78 227 Q83 273 90 320 Q96 366 102 411.5 Q108 457 116 502 Q122 536 131 571 Q140 606 155 638.5 Q170 671 192 699 Q214 727 246 745 Q272 759 300.5 767 Q329 775 358 775 Q386 775 412.5 769 Q439 763 458.5 749 Q478 735 490 713 Q502 691 502 658 Z " />
<glyph glyph-name="tcaron" unicode="&#x165;" horiz-adv-x="311" d="M328 427 L222 427 L153 110 Q149 93 148 86 Q147 79 147 74 Q147 64 153 57.5 Q159 51 168 51 Q178 51 189.5 60.5 Q201 70 211.5 83 Q222 96 230.5 109 Q239 122 244 130 L274 115 Q270 109 266.5 102.5 Q263 96 258 90 Q246 73 232.5 55 Q219 37 202.5 22 Q186 7 167 -2.5 Q148 -12 125 -12 Q111 -12 100 -5.5 Q89 1 81 11.5 Q73 22 69 35 Q65 48 65 60 Q65 73 67.5 87 Q70 101 75 125 L142 427 L44 427 L79 471 L151 471 L172 558 L253 575 L230 471 L336 471 L328 427 Z M428 740 Q428 695 409.5 658 Q391 621 365 588 Q352 572 337.5 555.5 Q323 539 309 522 L282 535 Q306 570 326 606 Q346 642 346 681 Q346 698 340 713 Q334 728 325 746 L417 795 Q421 781 424.5 767.5 Q428 754 428 740 Z " />
<glyph glyph-name="tcommaaccent" unicode="&#x163;" horiz-adv-x="311" d="M328 427 L222 427 L153 110 Q149 93 148 86 Q147 79 147 74 Q147 64 153 57.5 Q159 51 168 51 Q178 51 189.5 60.5 Q201 70 211.5 83 Q222 96 230.5 109 Q239 122 244 130 L274 115 Q270 109 266.5 102.5 Q263 96 258 90 Q246 73 232.5 55 Q219 37 202.5 22 Q186 7 167 -2.5 Q148 -12 125 -12 Q111 -12 100 -5.5 Q89 1 81 11.5 Q73 22 69 35 Q65 48 65 60 Q65 73 67.5 87 Q70 101 75 125 L142 427 L44 427 L79 471 L151 471 L172 558 L253 575 L230 471 L336 471 L328 427 Z M159 -66 Q159 -117 132.5 -145.5 Q106 -174 61 -191 L49 -174 Q68 -153 77.5 -138 Q87 -123 87 -97 Q87 -90 86.5 -83 Q86 -76 85 -67 L159 -63 L159 -66 Z " />
<glyph glyph-name="uni021B" unicode="&#x21b;" horiz-adv-x="311" d="M328 427 L222 427 L153 110 Q149 93 148 86 Q147 79 147 74 Q147 64 153 57.5 Q159 51 168 51 Q178 51 189.5 60.5 Q201 70 211.5 83 Q222 96 230.5 109 Q239 122 244 130 L274 115 Q270 109 266.5 102.5 Q263 96 258 90 Q246 73 232.5 55 Q219 37 202.5 22 Q186 7 167 -2.5 Q148 -12 125 -12 Q111 -12 100 -5.5 Q89 1 81 11.5 Q73 22 69 35 Q65 48 65 60 Q65 73 67.5 87 Q70 101 75 125 L142 427 L44 427 L79 471 L151 471 L172 558 L253 575 L230 471 L336 471 L328 427 Z M159 -66 Q159 -117 132.5 -145.5 Q106 -174 61 -191 L49 -174 Q68 -153 77.5 -138 Q87 -123 87 -97 Q87 -90 86.5 -83 Q86 -76 85 -67 L159 -63 L159 -66 Z " />
<glyph glyph-name="ugrave" unicode="&#xf9;" horiz-adv-x="552" d="M536 110 Q525 96 507 75.5 Q489 55 468 35.5 Q447 16 425.5 2 Q404 -12 385 -12 Q362 -12 351.5 6.5 Q341 25 341 44 Q341 82 350.5 125.5 Q360 169 370 206 L314 118 Q301 98 283 75.5 Q265 53 243 33.5 Q221 14 195.5 1 Q170 -12 143 -12 Q110 -12 92 8.5 Q74 29 74 60 Q74 70 75.5 83 Q77 96 82 114 L138 334 Q146 366 149 379 Q152 392 152 397 Q152 406 149 410 Q146 414 137 414 Q128 414 115.5 405 Q103 396 90.5 384 Q78 372 67.5 360 Q57 348 52 342 L28 365 Q41 381 59.5 402 Q78 423 99.5 442 Q121 461 144.5 474 Q168 487 190 487 Q215 487 227 471.5 Q239 456 239 433 Q239 426 237.5 413.5 Q236 401 231 381 L165 122 Q159 99 157 88.5 Q155 78 155 71 Q155 61 160.5 54 Q166 47 177 47 Q188 47 201.5 55 Q215 63 227.5 74.5 Q240 86 251.5 99 Q263 112 270 121 Q296 156 323.5 196 Q351 236 369 276 Q379 298 387 319.5 Q395 341 402.5 364.5 Q410 388 417.5 415.5 Q425 443 434 476 L518 488 L448 221 Q433 163 427.5 132 Q422 101 422 85 Q422 77 424.5 69 Q427 61 436 61 Q442 61 452 69.5 Q462 78 473 89 Q484 100 493.5 111 Q503 122 507 127 L536 110 L536 110 Z M387 546 Q345 559 305.5 580 Q266 601 244 639 Q236 652 231.5 665 Q227 678 222 691 L320 670 Q327 649 333.5 635.5 Q340 622 347.5 610.5 Q355 599 366 588.5 Q377 578 395 564 L387 546 Z " />
<glyph glyph-name="uacute" unicode="&#xfa;" horiz-adv-x="552" d="M536 110 Q525 96 507 75.5 Q489 55 468 35.5 Q447 16 425.5 2 Q404 -12 385 -12 Q362 -12 351.5 6.5 Q341 25 341 44 Q341 82 350.5 125.5 Q360 169 370 206 L314 118 Q301 98 283 75.5 Q265 53 243 33.5 Q221 14 195.5 1 Q170 -12 143 -12 Q110 -12 92 8.5 Q74 29 74 60 Q74 70 75.5 83 Q77 96 82 114 L138 334 Q146 366 149 379 Q152 392 152 397 Q152 406 149 410 Q146 414 137 414 Q128 414 115.5 405 Q103 396 90.5 384 Q78 372 67.5 360 Q57 348 52 342 L28 365 Q41 381 59.5 402 Q78 423 99.5 442 Q121 461 144.5 474 Q168 487 190 487 Q215 487 227 471.5 Q239 456 239 433 Q239 426 237.5 413.5 Q236 401 231 381 L165 122 Q159 99 157 88.5 Q155 78 155 71 Q155 61 160.5 54 Q166 47 177 47 Q188 47 201.5 55 Q215 63 227.5 74.5 Q240 86 251.5 99 Q263 112 270 121 Q296 156 323.5 196 Q351 236 369 276 Q379 298 387 319.5 Q395 341 402.5 364.5 Q410 388 417.5 415.5 Q425 443 434 476 L518 488 L448 221 Q433 163 427.5 132 Q422 101 422 85 Q422 77 424.5 69 Q427 61 436 61 Q442 61 452 69.5 Q462 78 473 89 Q484 100 493.5 111 Q503 122 507 127 L536 110 L536 110 Z M473 691 Q465 677 459.5 665.5 Q454 654 448 644 Q432 620 406.5 597 Q381 574 355 562 Q345 557 335 555 Q325 553 314 548 L303 565 Q321 580 331.5 590.5 Q342 601 349.5 612 Q357 623 362.5 637 Q368 651 375 673 L473 691 L473 691 Z " />
<glyph glyph-name="ucircumflex" unicode="&#xfb;" horiz-adv-x="552" d="M536 110 Q525 96 507 75.5 Q489 55 468 35.5 Q447 16 425.5 2 Q404 -12 385 -12 Q362 -12 351.5 6.5 Q341 25 341 44 Q341 82 350.5 125.5 Q360 169 370 206 L314 118 Q301 98 283 75.5 Q265 53 243 33.5 Q221 14 195.5 1 Q170 -12 143 -12 Q110 -12 92 8.5 Q74 29 74 60 Q74 70 75.5 83 Q77 96 82 114 L138 334 Q146 366 149 379 Q152 392 152 397 Q152 406 149 410 Q146 414 137 414 Q128 414 115.5 405 Q103 396 90.5 384 Q78 372 67.5 360 Q57 348 52 342 L28 365 Q41 381 59.5 402 Q78 423 99.5 442 Q121 461 144.5 474 Q168 487 190 487 Q215 487 227 471.5 Q239 456 239 433 Q239 426 237.5 413.5 Q236 401 231 381 L165 122 Q159 99 157 88.5 Q155 78 155 71 Q155 61 160.5 54 Q166 47 177 47 Q188 47 201.5 55 Q215 63 227.5 74.5 Q240 86 251.5 99 Q263 112 270 121 Q296 156 323.5 196 Q351 236 369 276 Q379 298 387 319.5 Q395 341 402.5 364.5 Q410 388 417.5 415.5 Q425 443 434 476 L518 488 L448 221 Q433 163 427.5 132 Q422 101 422 85 Q422 77 424.5 69 Q427 61 436 61 Q442 61 452 69.5 Q462 78 473 89 Q484 100 493.5 111 Q503 122 507 127 L536 110 L536 110 Z M453 554 Q432 560 419.5 565.5 Q407 571 396.5 577.5 Q386 584 376 593 Q366 602 351 615 Q322 596 290 580.5 Q258 565 226 552 Q221 556 218 559 Q215 562 214 569 Q238 585 253.5 597.5 Q269 610 282 623 Q295 636 307 652 Q319 668 334 692 L383 692 Q392 671 399.5 655 Q407 639 416 625 Q425 611 436 597 Q447 583 463 567 L453 554 Z " />
<glyph glyph-name="udieresis" unicode="&#xfc;" horiz-adv-x="552" d="M536 110 Q525 96 507 75.5 Q489 55 468 35.5 Q447 16 425.5 2 Q404 -12 385 -12 Q362 -12 351.5 6.5 Q341 25 341 44 Q341 82 350.5 125.5 Q360 169 370 206 L314 118 Q301 98 283 75.5 Q265 53 243 33.5 Q221 14 195.5 1 Q170 -12 143 -12 Q110 -12 92 8.5 Q74 29 74 60 Q74 70 75.5 83 Q77 96 82 114 L138 334 Q146 366 149 379 Q152 392 152 397 Q152 406 149 410 Q146 414 137 414 Q128 414 115.5 405 Q103 396 90.5 384 Q78 372 67.5 360 Q57 348 52 342 L28 365 Q41 381 59.5 402 Q78 423 99.5 442 Q121 461 144.5 474 Q168 487 190 487 Q215 487 227 471.5 Q239 456 239 433 Q239 426 237.5 413.5 Q236 401 231 381 L165 122 Q159 99 157 88.5 Q155 78 155 71 Q155 61 160.5 54 Q166 47 177 47 Q188 47 201.5 55 Q215 63 227.5 74.5 Q240 86 251.5 99 Q263 112 270 121 Q296 156 323.5 196 Q351 236 369 276 Q379 298 387 319.5 Q395 341 402.5 364.5 Q410 388 417.5 415.5 Q425 443 434 476 L518 488 L448 221 Q433 163 427.5 132 Q422 101 422 85 Q422 77 424.5 69 Q427 61 436 61 Q442 61 452 69.5 Q462 78 473 89 Q484 100 493.5 111 Q503 122 507 127 L536 110 L536 110 Z M500 643 Q500 632 495 620 Q490 608 481 598.5 Q472 589 461 583 Q450 577 438 577 Q421 577 411.5 588 Q402 599 402 616 Q402 627 407 639 Q412 651 420 661 Q428 671 439.5 677.5 Q451 684 463 684 Q481 684 490.5 671.5 Q500 659 500 643 Z M321 643 Q321 632 316 620 Q311 608 302 598.5 Q293 589 282 583 Q271 577 259 577 Q242 577 232.5 588 Q223 599 223 616 Q223 627 228 639 Q233 651 241 661 Q249 671 260.5 677.5 Q272 684 284 684 Q302 684 311.5 671.5 Q321 659 321 643 Z " />
<glyph glyph-name="umacron" unicode="&#x16b;" horiz-adv-x="552" d="M536 110 Q525 96 507 75.5 Q489 55 468 35.5 Q447 16 425.5 2 Q404 -12 385 -12 Q362 -12 351.5 6.5 Q341 25 341 44 Q341 82 350.5 125.5 Q360 169 370 206 L314 118 Q301 98 283 75.5 Q265 53 243 33.5 Q221 14 195.5 1 Q170 -12 143 -12 Q110 -12 92 8.5 Q74 29 74 60 Q74 70 75.5 83 Q77 96 82 114 L138 334 Q146 366 149 379 Q152 392 152 397 Q152 406 149 410 Q146 414 137 414 Q128 414 115.5 405 Q103 396 90.5 384 Q78 372 67.5 360 Q57 348 52 342 L28 365 Q41 381 59.5 402 Q78 423 99.5 442 Q121 461 144.5 474 Q168 487 190 487 Q215 487 227 471.5 Q239 456 239 433 Q239 426 237.5 413.5 Q236 401 231 381 L165 122 Q159 99 157 88.5 Q155 78 155 71 Q155 61 160.5 54 Q166 47 177 47 Q188 47 201.5 55 Q215 63 227.5 74.5 Q240 86 251.5 99 Q263 112 270 121 Q296 156 323.5 196 Q351 236 369 276 Q379 298 387 319.5 Q395 341 402.5 364.5 Q410 388 417.5 415.5 Q425 443 434 476 L518 488 L448 221 Q433 163 427.5 132 Q422 101 422 85 Q422 77 424.5 69 Q427 61 436 61 Q442 61 452 69.5 Q462 78 473 89 Q484 100 493.5 111 Q503 122 507 127 L536 110 L536 110 Z M481 603 L210 603 L221 657 L492 657 L481 603 Z " />
<glyph glyph-name="uring" unicode="&#x16f;" horiz-adv-x="552" d="M536 110 Q525 96 507 75.5 Q489 55 468 35.5 Q447 16 425.5 2 Q404 -12 385 -12 Q362 -12 351.5 6.5 Q341 25 341 44 Q341 82 350.5 125.5 Q360 169 370 206 L314 118 Q301 98 283 75.5 Q265 53 243 33.5 Q221 14 195.5 1 Q170 -12 143 -12 Q110 -12 92 8.5 Q74 29 74 60 Q74 70 75.5 83 Q77 96 82 114 L138 334 Q146 366 149 379 Q152 392 152 397 Q152 406 149 410 Q146 414 137 414 Q128 414 115.5 405 Q103 396 90.5 384 Q78 372 67.5 360 Q57 348 52 342 L28 365 Q41 381 59.5 402 Q78 423 99.5 442 Q121 461 144.5 474 Q168 487 190 487 Q215 487 227 471.5 Q239 456 239 433 Q239 426 237.5 413.5 Q236 401 231 381 L165 122 Q159 99 157 88.5 Q155 78 155 71 Q155 61 160.5 54 Q166 47 177 47 Q188 47 201.5 55 Q215 63 227.5 74.5 Q240 86 251.5 99 Q263 112 270 121 Q296 156 323.5 196 Q351 236 369 276 Q379 298 387 319.5 Q395 341 402.5 364.5 Q410 388 417.5 415.5 Q425 443 434 476 L518 488 L448 221 Q433 163 427.5 132 Q422 101 422 85 Q422 77 424.5 69 Q427 61 436 61 Q442 61 452 69.5 Q462 78 473 89 Q484 100 493.5 111 Q503 122 507 127 L536 110 L536 110 Z M449 640 Q449 619 441 601 Q433 583 419 569 Q405 555 387 547 Q369 539 348 539 Q327 539 309 547 Q291 555 277 569 Q263 583 255 601 Q247 619 247 640 Q247 661 255 679 Q263 697 277 711 Q291 725 309 733 Q327 741 348 741 Q369 741 387 733 Q405 725 419 711 Q433 697 441 679 Q449 661 449 640 Z M410 640 Q410 667 392 684.5 Q374 702 348 702 Q322 702 304 684 Q286 666 286 640 Q286 614 304 596 Q322 578 348 578 Q374 578 392 596 Q410 614 410 640 Z " />
<glyph glyph-name="uhungarumlaut" unicode="&#x171;" horiz-adv-x="552" d="M536 110 Q525 96 507 75.5 Q489 55 468 35.5 Q447 16 425.5 2 Q404 -12 385 -12 Q362 -12 351.5 6.5 Q341 25 341 44 Q341 82 350.5 125.5 Q360 169 370 206 L314 118 Q301 98 283 75.5 Q265 53 243 33.5 Q221 14 195.5 1 Q170 -12 143 -12 Q110 -12 92 8.5 Q74 29 74 60 Q74 70 75.5 83 Q77 96 82 114 L138 334 Q146 366 149 379 Q152 392 152 397 Q152 406 149 410 Q146 414 137 414 Q128 414 115.5 405 Q103 396 90.5 384 Q78 372 67.5 360 Q57 348 52 342 L28 365 Q41 381 59.5 402 Q78 423 99.5 442 Q121 461 144.5 474 Q168 487 190 487 Q215 487 227 471.5 Q239 456 239 433 Q239 426 237.5 413.5 Q236 401 231 381 L165 122 Q159 99 157 88.5 Q155 78 155 71 Q155 61 160.5 54 Q166 47 177 47 Q188 47 201.5 55 Q215 63 227.5 74.5 Q240 86 251.5 99 Q263 112 270 121 Q296 156 323.5 196 Q351 236 369 276 Q379 298 387 319.5 Q395 341 402.5 364.5 Q410 388 417.5 415.5 Q425 443 434 476 L518 488 L448 221 Q433 163 427.5 132 Q422 101 422 85 Q422 77 424.5 69 Q427 61 436 61 Q442 61 452 69.5 Q462 78 473 89 Q484 100 493.5 111 Q503 122 507 127 L536 110 L536 110 Z M544 705 Q537 677 521.5 652 Q506 627 484.5 607 Q463 587 436.5 573 Q410 559 381 552 L366 571 Q390 588 411 614.5 Q432 641 441 684 L544 705 Z M370 704 Q363 676 347.5 651.5 Q332 627 310.5 607 Q289 587 262.5 573 Q236 559 207 552 L192 571 Q216 588 237 614.5 Q258 641 267 684 L365 704 L370 704 Z " />
<glyph glyph-name="uogonek" unicode="&#x173;" horiz-adv-x="552" d="M455 -198 Q437 -208 411.5 -214 Q386 -220 355 -220 Q340 -220 322.5 -215.5 Q305 -211 289.5 -201 Q274 -191 264 -174.5 Q254 -158 254 -135 Q254 -98 280 -62.5 Q306 -27 358 -1 Q349 7 345 19.5 Q341 32 341 44 Q341 82 350.5 125.5 Q360 169 370 206 L314 118 Q301 98 283 75.5 Q265 53 243 33.5 Q221 14 195.5 1 Q170 -12 143 -12 Q110 -12 92 8.5 Q74 29 74 60 Q74 70 75.5 83 Q77 96 82 114 L138 334 Q146 366 149 379 Q152 392 152 397 Q152 406 149 410 Q146 414 137 414 Q128 414 115.5 405 Q103 396 90.5 384 Q78 372 67.5 360 Q57 348 52 342 L28 365 Q41 381 59.5 402 Q78 423 99.5 442 Q121 461 144.5 474 Q168 487 190 487 Q215 487 227 471.5 Q239 456 239 433 Q239 426 237.5 413.5 Q236 401 231 381 L165 122 Q159 99 157 88.5 Q155 78 155 71 Q155 61 160.5 54 Q166 47 177 47 Q188 47 201.5 55 Q215 63 227.5 74.5 Q240 86 251.5 99 Q263 112 270 121 Q296 156 323.5 196 Q351 236 369 276 Q379 298 387 319.5 Q395 341 402.5 364.5 Q410 388 417.5 415.5 Q425 443 434 476 L518 488 L448 221 Q433 163 427.5 132 Q422 101 422 85 Q422 77 424.5 69 Q427 61 436 61 Q442 61 452 69.5 Q462 78 473 89 Q484 100 493.5 111 Q503 122 507 127 L536 110 Q526 98 511.5 81 Q497 64 479.5 46.5 Q462 29 443.5 14.5 Q425 0 407 -7 Q372 -32 350 -59.5 Q328 -87 328 -123 Q328 -149 342.5 -164.5 Q357 -180 382 -180 Q401 -180 413.5 -175.5 Q426 -171 437 -165 L455 -198 L455 -198 Z " />
</font>
</svg>
