<?xml version="1.0" encoding="UTF-8"?>
<svg xmlns="http://www.w3.org/2000/svg" xmlns:xlink="http://www.w3.org/1999/xlink" version="1.2" >
<font id="VolvoSerifWebBold">
<font-face  font-family="Volvo Serif Web" units-per-em="1000" ascent="750" descent="-250" font-style="normal" font-weight="700" font-stretch="normal" cap-height="706" x-height="486" underline-position="-75" underline-thickness="50" />
<missing-glyph  horiz-adv-x="500" d="M12 950 L487 950 L487 -250 L12 -250 L12 950 Z " />
<glyph glyph-name=".null" d="" />
<glyph glyph-name="nonmarkingreturn" unicode="&#xd;" horiz-adv-x="277" d="" />
<glyph glyph-name="space" unicode="&#x20;" horiz-adv-x="277" d="" />
<glyph glyph-name="A" unicode="A" horiz-adv-x="764" d="M2 34 Q14 35 27 35.5 Q40 36 52 40 Q68 45 81.5 58 Q95 71 106 87.5 Q117 104 125 122.5 Q133 141 139 156 L361 724 L393 724 L661 101 Q670 81 678.5 69 Q687 57 698 49.5 Q709 42 724.5 38.5 Q740 35 762 34 L762 -4 Q721 -2 683 -1 Q645 0 607 0 Q569 0 530 -1 Q491 -2 450 -4 L450 34 Q462 34 474.5 34.5 Q487 35 498 38 Q509 41 515.5 47.5 Q522 54 522 67 Q522 75 517.5 88 Q513 101 510 109 L459 234 L228 234 L184 109 Q180 99 177.5 89.5 Q175 80 175 69 Q175 58 180 51.5 Q185 45 192.5 41.5 Q200 38 209 36.5 Q218 35 226 35 Q233 34 239 34 Q245 34 253 34 L253 -4 Q220 -2 189 -1 Q158 0 127 0 Q96 0 65.5 -1 Q35 -2 2 -4 L2 34 Z M245 280 L440 280 L336 536 L245 280 Z " />
<glyph glyph-name="B" unicode="B" horiz-adv-x="652" d="M23 34 Q45 36 61 39.5 Q77 43 86.5 51 Q96 59 100.5 73 Q105 87 105 110 L105 595 Q105 634 90 650.5 Q75 667 37 670 L23 671 L24 709 Q58 708 89 707 Q120 706 152 706 Q200 706 246 709 Q292 712 340 712 Q390 712 437.5 700 Q485 688 522 649 Q544 626 555.5 596 Q567 566 567 534 Q567 500 554 470.5 Q541 441 515 419 Q493 399 467.5 389.5 Q442 380 416 372 Q453 365 486 352.5 Q519 340 543.5 318.5 Q568 297 582.5 265.5 Q597 234 597 189 Q597 173 594.5 156.5 Q592 140 587 125 Q573 83 547 57 Q521 31 488 16.5 Q455 2 416.5 -3 Q378 -8 340 -8 Q292 -8 245 -4 Q198 0 150 0 Q119 0 87.5 -1 Q56 -2 23 -4 L23 34 Z M271 378 Q292 378 313 379 Q334 380 354 387 Q395 401 415.5 434.5 Q436 468 436 510 Q436 547 422.5 580.5 Q409 614 380 639 Q357 658 330 664 Q303 670 273 670 Q264 670 255 670 Q246 670 236 669 L236 378 L271 378 Z M235 106 Q235 83 240 69 Q245 55 255 47.5 Q265 40 281 37.5 Q297 35 319 35 Q382 35 418.5 71.5 Q455 108 455 171 Q455 197 447.5 221 Q440 245 426 266 Q409 293 388 308.5 Q367 324 342.5 332 Q318 340 291 342 Q264 344 235 344 L235 106 Z " />
<glyph glyph-name="C" unicode="C" horiz-adv-x="803" d="M763 90 Q685 33 603.5 7.5 Q522 -18 426 -18 Q348 -18 281 2.5 Q214 23 154 79 Q94 133 69.5 200.5 Q45 268 45 347 Q45 439 77.5 509.5 Q110 580 166 627.5 Q222 675 298 699.5 Q374 724 460 724 Q533 724 604 709 Q675 694 745 669 L745 486 L713 486 Q709 534 685.5 570.5 Q662 607 626.5 631 Q591 655 547.5 667 Q504 679 461 679 Q396 679 347 655 Q298 631 265 590.5 Q232 550 215.5 495.5 Q199 441 199 381 Q199 321 213 267 Q227 213 256 162 Q291 102 346.5 65.5 Q402 29 471 29 Q504 29 536 38.5 Q568 48 598 64.5 Q628 81 655 102.5 Q682 124 703 148 Q717 164 729 181.5 Q741 199 752 217 L763 90 Z " />
<glyph glyph-name="D" unicode="D" horiz-adv-x="824" d="M21 35 Q44 37 60 40.5 Q76 44 86 52 Q96 60 100.5 74 Q105 88 105 111 L105 595 Q105 619 100 633.5 Q95 648 85 655.5 Q75 663 59 666 Q43 669 21 671 L22 709 Q58 708 92 707 Q126 706 160 706 Q220 706 279 709 Q338 712 398 712 Q433 712 468.5 709.5 Q504 707 539 697 Q598 680 647.5 643.5 Q697 607 729 555 Q758 508 768.5 457.5 Q779 407 779 353 Q779 261 743.5 187 Q708 113 632 61 Q573 20 508.5 7 Q444 -6 375 -6 Q318 -6 262.5 -3 Q207 0 150 0 Q118 0 86.5 -1 Q55 -2 21 -3 L21 35 Z M236 113 Q236 88 244.5 74 Q253 60 267.5 53 Q282 46 301 44 Q320 42 341 42 Q407 42 459.5 62.5 Q512 83 548.5 120.5 Q585 158 604.5 211.5 Q624 265 624 330 Q624 375 616 422 Q608 469 590 511.5 Q572 554 542 588.5 Q512 623 468 641 Q430 657 389.5 661 Q349 665 308 665 Q290 665 272 664 Q254 663 236 662 L236 113 Z " />
<glyph glyph-name="E" unicode="E" horiz-adv-x="610" d="M21 35 Q44 36 60 39.5 Q76 43 86 51.5 Q96 60 100.5 74 Q105 88 105 111 L105 595 Q105 619 100 633 Q95 647 84.5 655 Q74 663 58.5 666 Q43 669 21 671 L22 709 Q72 708 119.5 707 Q167 706 215 706 Q292 706 369 707 Q446 708 525 709 Q527 665 529 623 Q531 581 533 537 L495 537 Q490 576 474.5 601 Q459 626 436 640 Q413 654 382.5 659 Q352 664 318 664 Q298 664 277.5 663.5 Q257 663 237 662 L237 385 L325 385 Q376 385 396.5 408 Q417 431 417 481 L456 481 Q455 453 455 427 Q455 401 455 375 Q455 343 455.5 310.5 Q456 278 456 243 L417 243 Q417 273 412.5 292.5 Q408 312 397 323 Q386 334 367 338.5 Q348 343 320 343 L237 343 L237 118 Q237 101 239.5 85.5 Q242 70 255 58 Q262 51 274 47.5 Q286 44 299 42 Q312 40 325 39.5 Q338 39 349 39 Q389 39 421 46 Q453 53 476.5 69.5 Q500 86 515.5 114.5 Q531 143 538 185 L577 185 Q572 137 569 91 Q566 45 564 -3 Q481 -2 400.5 -1 Q320 0 239 0 Q133 0 21 -3 L21 35 Z " />
<glyph glyph-name="F" unicode="F" horiz-adv-x="572" d="M20 35 Q30 36 40 36 Q50 36 60 39 Q86 46 94 65.5 Q102 85 102 111 L102 595 Q102 634 87 650.5 Q72 667 34 670 L20 671 L21 709 Q71 708 118 707 Q165 706 213 706 Q295 706 376 707 Q457 708 542 709 Q544 664 546.5 620.5 Q549 577 552 532 L511 533 Q508 576 487 609 Q476 627 460.5 638 Q445 649 426.5 655 Q408 661 388 662.5 Q368 664 348 664 Q319 664 291 663 Q263 662 234 661 L234 385 L318 385 L319 385 Q340 385 364.5 387.5 Q389 390 406 404 Q423 418 426.5 435.5 Q430 453 430 473 L430 481 L468 481 Q467 449 466.5 419 Q466 389 466 360 Q466 331 466.5 302 Q467 273 468 242 L430 242 Q430 268 425.5 285.5 Q421 303 401 319 Q384 332 365.5 337 Q347 342 325 342 L234 342 L234 111 Q234 72 248.5 55 Q263 38 301 36 L317 35 L316 -3 Q278 -2 241 -1 Q204 0 168 0 Q132 0 95 -1 Q58 -2 20 -3 L20 35 Z " />
<glyph glyph-name="G" unicode="G" horiz-adv-x="844" d="M618 208 Q618 230 614 242.5 Q610 255 601 261.5 Q592 268 577.5 270 Q563 272 542 273 L543 311 Q580 310 614 309.5 Q648 309 683 309 Q717 309 751 309.5 Q785 310 821 311 L820 273 L802 273 Q770 273 758.5 255 Q747 237 747 208 L746 49 Q674 11 603 -3.5 Q532 -18 453 -18 Q387 -18 321.5 -5 Q256 8 200 46 Q122 99 83.5 180.5 Q45 262 45 356 Q45 423 65 482.5 Q85 542 131 593 Q197 666 283.5 695 Q370 724 466 724 Q497 724 532.5 721.5 Q568 719 604 714 Q640 709 675 700.5 Q710 692 740 680 Q740 657 739.5 635 Q739 613 739 590 Q739 567 739.5 544.5 Q740 522 740 499 L703 499 Q698 548 676 582.5 Q654 617 621.5 638 Q589 659 547.5 668.5 Q506 678 462 678 Q392 678 337 652.5 Q282 627 243 567 Q217 528 208 482 Q199 436 199 370 Q199 341 206 304.5 Q213 268 227.5 230 Q242 192 265 156.5 Q288 121 320.5 93 Q353 65 396 48 Q439 31 493 31 Q527 31 560.5 41.5 Q594 52 618 74 L618 208 Z " />
<glyph glyph-name="H" unicode="H" horiz-adv-x="840" d="M20 35 Q43 37 59 40.5 Q75 44 84.5 52 Q94 60 98.5 74 Q103 88 103 111 L103 595 Q103 619 98 633.5 Q93 648 83 655.5 Q73 663 57.5 666 Q42 669 20 671 L21 709 Q60 708 97 707 Q134 706 171 706 Q241 706 316 709 L316 671 Q296 669 281 666 Q266 663 255.5 656 Q245 649 240 636 Q235 623 235 601 L235 400 L605 400 L605 595 Q605 620 600 634.5 Q595 649 584.5 656.5 Q574 664 557.5 666.5 Q541 669 519 671 L519 709 Q559 708 596 707 Q633 706 671 706 Q708 706 744.5 707 Q781 708 820 709 L820 671 Q809 670 798.5 670 Q788 670 778 667 Q752 660 744 640.5 Q736 621 736 595 L736 111 Q736 87 741 72.5 Q746 58 756 50.5 Q766 43 782 39.5 Q798 36 820 35 L820 -3 Q782 -2 745 -1 Q708 0 672 0 Q635 0 598 -1 Q561 -2 522 -3 L522 35 Q545 36 561.5 39.5 Q578 43 588.5 50.5 Q599 58 603.5 72 Q608 86 608 109 L606 355 L235 355 L235 111 Q235 88 239.5 74 Q244 60 253.5 52 Q263 44 278.5 40.5 Q294 37 316 35 L316 -3 Q278 -2 241 -1 Q204 0 168 0 Q132 0 95 -1 Q58 -2 20 -3 L20 35 Z " />
<glyph glyph-name="I" unicode="I" horiz-adv-x="339" d="M21 34 Q30 35 39.5 35.5 Q49 36 58 38 Q83 45 92.5 63 Q102 81 102 105 L102 595 Q102 619 97 633 Q92 647 82.5 655 Q73 663 57.5 666 Q42 669 21 671 L22 709 Q60 708 97 707 Q134 706 170 706 Q206 706 242 707 Q278 708 316 709 L316 671 Q306 670 295.5 669.5 Q285 669 275 666 Q250 658 243 639 Q236 620 236 595 L236 110 Q236 72 251.5 55 Q267 38 303 35 L316 34 L316 -4 Q278 -2 241.5 -1 Q205 0 169 0 Q133 0 96 -1 Q59 -2 21 -4 L21 34 Z " />
<glyph glyph-name="J" unicode="J" horiz-adv-x="423" d="M59 155 Q60 134 64.5 111.5 Q69 89 78.5 71 Q88 53 103.5 41 Q119 29 143 29 Q160 29 170.5 35.5 Q181 42 187 52.5 Q193 63 195 75.5 Q197 88 198 101 L198 125 L198 137 L198 595 Q198 620 193 634.5 Q188 649 178 656.5 Q168 664 151.5 666.5 Q135 669 113 671 L113 709 Q153 708 190.5 707 Q228 706 266 706 Q302 706 339 707 Q376 708 414 709 L414 671 Q391 669 376 665.5 Q361 662 351.5 654 Q342 646 338 632 Q334 618 334 595 L334 196 Q334 149 324 110.5 Q314 72 278 37 Q244 5 206 -4.5 Q168 -14 124 -14 Q95 -14 71.5 -10.5 Q48 -7 19 4 Q19 23 19.5 41.5 Q20 60 20 79 Q20 98 19.5 116.5 Q19 135 19 155 L59 155 Z " />
<glyph glyph-name="K" unicode="K" horiz-adv-x="756" d="M24 34 Q46 37 61.5 40 Q77 43 86.5 51 Q96 59 100 72.5 Q104 86 104 110 L104 594 Q104 618 99.5 632 Q95 646 85.5 654 Q76 662 60.5 665 Q45 668 24 670 L24 708 Q62 707 98 706.5 Q134 706 170 706 Q206 706 242.5 706.5 Q279 707 317 708 L317 670 Q296 668 280.5 665 Q265 662 255.5 654 Q246 646 241 632 Q236 618 236 594 L236 360 L467 596 Q478 607 488.5 619.5 Q499 632 499 649 Q499 658 493 662.5 Q487 667 478 668.5 Q469 670 459 670.5 Q449 671 442 671 L442 709 Q476 708 508 707 Q540 706 572 706 Q603 706 634.5 707 Q666 708 699 709 L698 671 Q653 671 622.5 660 Q592 649 561 618 L369 428 L640 97 Q653 81 664 69.5 Q675 58 687 50.5 Q699 43 714 39 Q729 35 752 34 L751 -4 Q720 -2 691 -1 Q662 0 633 0 Q605 0 576.5 -1 Q548 -2 518 -4 Q516 25 509 41 Q502 57 485 77 L273 333 L236 296 L236 110 Q236 86 241 72 Q246 58 255.5 50 Q265 42 280.5 39 Q296 36 317 34 L317 -4 Q279 -2 242.5 -1 Q206 0 170 0 Q134 0 98 -1 Q62 -2 24 -4 L24 34 Z " />
<glyph glyph-name="L" unicode="L" horiz-adv-x="610" d="M22 34 Q44 36 59.5 40 Q75 44 85 52 Q95 60 99 73.5 Q103 87 103 110 L103 595 Q103 603 102 612 Q101 621 99 629 Q94 644 86.5 652 Q79 660 69 664 Q59 668 47 669 Q35 670 22 671 L22 709 Q61 708 98 707 Q135 706 172 706 Q209 706 246 707 Q283 708 322 709 L322 671 Q311 670 297.5 669.5 Q284 669 274 665 Q251 657 244 637.5 Q237 618 237 595 L237 110 Q237 87 246.5 73.5 Q256 60 272 53 Q288 46 307 44 Q326 42 346 42 Q388 42 423.5 45.5 Q459 49 486 63 Q513 77 531 105 Q549 133 557 182 L600 182 Q594 134 590 89 Q586 44 583 -4 Q492 -3 404.5 -1.5 Q317 0 229 0 Q178 0 127 -1 Q76 -2 22 -4 L22 34 Z " />
<glyph glyph-name="M" unicode="M" horiz-adv-x="944" d="M8 35 Q19 36 29 36.5 Q39 37 49 40 Q75 48 83 66.5 Q91 85 92 111 L106 626 Q99 643 92.5 651.5 Q86 660 78 664 Q69 668 54.5 669 Q40 670 29 671 L29 709 Q56 708 81 707 Q106 706 131 706 Q156 706 181.5 707 Q207 708 233 709 L466 171 L703 709 Q730 708 755.5 707 Q781 706 807 706 Q832 706 856.5 707 Q881 708 908 709 L908 672 Q900 669 892 669 Q884 669 876 667 Q851 659 842.5 642 Q834 625 835 601 L846 110 Q846 86 851 72 Q856 58 865.5 50.5 Q875 43 890.5 39.5 Q906 36 928 34 L928 -4 Q890 -2 853.5 -1 Q817 0 781 0 Q744 0 707 -1 Q670 -2 631 -4 L631 34 Q651 35 666.5 38 Q682 41 692.5 48 Q703 55 708.5 67.5 Q714 80 714 100 L702 599 L441 -10 L409 -10 L151 569 L151 111 Q151 87 155.5 72.5 Q160 58 170 50.5 Q180 43 195.5 40 Q211 37 234 35 L234 -3 Q204 -2 176 -1 Q148 0 120 0 Q93 0 65 -1 Q37 -2 8 -3 L8 35 Z " />
<glyph glyph-name="N" unicode="N" horiz-adv-x="818" d="M15 35 Q38 37 53.5 40.5 Q69 44 79 52 Q89 60 93 74 Q97 88 97 111 L97 626 Q87 646 77 655.5 Q67 665 46 668 Q40 669 33 669.5 Q26 670 15 671 L15 709 Q41 708 66 707 Q91 706 115 706 Q137 706 158.5 707 Q180 708 203 709 L670 191 L664 595 Q663 625 653 644 Q643 663 611 668 Q604 669 597 669.5 Q590 670 580 671 L580 709 Q609 708 636.5 707 Q664 706 691 706 Q718 706 745 707 Q772 708 801 709 L801 671 Q794 671 789.5 670.5 Q785 670 780 670 Q745 667 732.5 648 Q720 629 720 595 L720 -12 L681 -12 L147 577 L153 111 Q153 101 155 90.5 Q157 80 160 71 Q164 58 172.5 51.5 Q181 45 191.5 41.5 Q202 38 213.5 37 Q225 36 236 35 L236 -3 Q207 -2 179 -1 Q151 0 124 0 Q98 0 71 -1 Q44 -2 15 -3 L15 35 Z " />
<glyph glyph-name="O" unicode="O" horiz-adv-x="891" d="M155 89 Q97 141 71 207 Q45 273 45 350 Q45 435 76 504 Q107 573 160.5 622 Q214 671 285.5 697.5 Q357 724 439 724 Q530 724 607.5 694 Q685 664 748 597 Q799 543 822.5 481.5 Q846 420 846 347 Q846 287 828 232 Q810 177 777 131 Q744 85 697.5 51 Q651 17 594 -1 Q562 -11 527.5 -14.5 Q493 -18 460 -18 Q373 -18 297 5.5 Q221 29 155 89 Z M260 158 Q297 95 349.5 60 Q402 25 475 25 Q540 25 593 61 Q623 82 642 109 Q661 136 672 167 Q683 198 687 232 Q691 266 691 301 Q691 364 675 431.5 Q659 499 625 554 Q591 609 538.5 644.5 Q486 680 413 680 Q355 680 314 657 Q273 634 246.5 596 Q220 558 208 509 Q196 460 196 408 Q196 339 210.5 278.5 Q225 218 260 158 Z " />
<glyph glyph-name="P" unicode="P" horiz-adv-x="593" d="M21 34 Q32 35 44.5 35.5 Q57 36 67 40 Q90 48 97 67.5 Q104 87 104 110 L104 594 Q104 618 99.5 632.5 Q95 647 85.5 654.5 Q76 662 60 665 Q44 668 21 670 L22 708 Q61 707 97.5 706.5 Q134 706 171 706 Q203 706 235.5 708.5 Q268 711 300 711 Q332 711 363.5 708.5 Q395 706 424 697.5 Q453 689 479.5 673.5 Q506 658 529 632 Q553 605 563 573 Q573 541 573 506 Q573 450 551 413.5 Q529 377 493 356 Q457 335 411.5 327 Q366 319 319 319 Q298 319 277 319.5 Q256 320 235 321 L235 107 Q235 84 240.5 70.5 Q246 57 256 49.5 Q266 42 281 39 Q296 36 316 34 L316 -4 Q278 -2 241 -1 Q204 0 168 0 Q132 0 95.5 -1 Q59 -2 21 -4 L21 34 Z M235 367 Q265 361 297 361 Q363 361 400 393.5 Q437 426 437 493 Q437 529 425.5 561.5 Q414 594 393 618 Q372 642 341.5 656 Q311 670 274 670 Q264 670 254.5 669 Q245 668 235 667 L235 367 Z " />
<glyph glyph-name="Q" unicode="Q" horiz-adv-x="891" d="M750 -218 Q700 -218 645.5 -207.5 Q591 -197 542 -173.5 Q493 -150 456 -111.5 Q419 -73 405 -16 Q335 -10 272.5 14.5 Q210 39 155 89 Q97 141 71 207 Q45 273 45 350 Q45 435 76 504 Q107 573 160.5 622 Q214 671 285.5 697.5 Q357 724 439 724 Q530 724 607.5 694 Q685 664 748 597 Q799 543 822.5 481.5 Q846 420 846 347 Q846 287 828 232 Q810 177 777 131 Q744 85 697.5 51 Q651 17 594 -1 Q586 -3 579 -4.5 Q572 -6 564 -8 Q571 -48 597 -82.5 Q623 -117 654 -139 Q687 -162 724.5 -169.5 Q762 -177 805 -179 L805 -216 Q791 -217 779.5 -217.5 Q768 -218 757 -218 L750 -218 Z M260 158 Q297 95 349.5 60 Q402 25 475 25 Q540 25 593 61 Q623 82 642 109 Q661 136 672 167 Q683 198 687 232 Q691 266 691 301 Q691 364 675 431.5 Q659 499 625 554 Q591 609 538.5 644.5 Q486 680 413 680 Q355 680 314 657 Q273 634 246.5 596 Q220 558 208 509 Q196 460 196 408 Q196 339 210.5 278.5 Q225 218 260 158 Z " />
<glyph glyph-name="R" unicode="R" horiz-adv-x="694" d="M22 34 Q45 36 61 39 Q77 42 87 50 Q97 58 101.5 72 Q106 86 106 110 L106 595 Q106 619 101 633.5 Q96 648 85.5 655.5 Q75 663 59.5 666 Q44 669 22 671 L23 709 Q58 708 90 707 Q122 706 154 706 Q200 706 245 709 Q290 712 336 712 Q348 712 360 711.5 Q372 711 384 710 Q425 707 461 694.5 Q497 682 523.5 658.5 Q550 635 565.5 601.5 Q581 568 581 524 Q581 491 570.5 462 Q560 433 541.5 410.5 Q523 388 496.5 372 Q470 356 439 349 L563 122 Q573 103 585 85 Q597 67 612 52.5 Q627 38 646 29.5 Q665 21 689 21 L688 -8 Q664 -14 644 -14 Q588 -14 539.5 -0.5 Q491 13 450 56 Q435 72 424 90.5 Q413 109 403 129 L357 223 Q352 233 345 247.5 Q338 262 330 276 Q322 290 312.5 302 Q303 314 293 319 Q280 325 266.5 325 Q253 325 239 327 L239 110 Q239 93 242 76.5 Q245 60 259 49 Q273 38 287.5 37 Q302 36 319 34 L319 -4 Q280 -2 243.5 -1 Q207 0 170 0 Q134 0 97 -1 Q60 -2 22 -4 L22 34 Z M239 368 Q258 365 277 365 Q299 365 320.5 367 Q342 369 361.5 375.5 Q381 382 397 394 Q413 406 425 426 Q436 443 440 461.5 Q444 480 444 501 Q444 535 433.5 566 Q423 597 403.5 620.5 Q384 644 356 658 Q328 672 292 672 Q278 672 265.5 671.5 Q253 671 239 670 L239 368 Z " />
<glyph glyph-name="S" unicode="S" horiz-adv-x="548" d="M73 193 Q80 157 97.5 127 Q115 97 140.5 74.5 Q166 52 198 39.5 Q230 27 266 27 Q304 27 335 41 Q363 54 382.5 83 Q402 112 402 143 Q402 168 389.5 188 Q377 208 358.5 223.5 Q340 239 318 251 Q296 263 277 273 L226 300 Q192 318 158.5 337 Q125 356 98.5 380.5 Q72 405 55.5 437.5 Q39 470 39 515 Q39 549 49.5 579.5 Q60 610 79 635.5 Q98 661 124.5 680 Q151 699 183 710 Q211 719 242 721.5 Q273 724 302 724 Q347 724 390.5 718 Q434 712 478 698 Q480 652 481 608 Q482 564 485 517 L442 518 Q442 554 427.5 584.5 Q413 615 388.5 636.5 Q364 658 332.5 670.5 Q301 683 267 683 Q245 683 222.5 676 Q200 669 181.5 655.5 Q163 642 151 623 Q139 604 139 580 Q139 554 153 533.5 Q167 513 188 496.5 Q209 480 233 467 Q257 454 276 444 L328 416 Q339 410 353 402 Q367 394 381.5 385 Q396 376 409.5 367 Q423 358 433 351 Q508 295 508 200 Q508 154 493 117 Q478 80 444 48 Q404 10 355.5 -4 Q307 -18 253 -18 Q202 -18 146 -9.5 Q90 -1 40 16 Q38 61 36 104.5 Q34 148 31 193 L73 193 Z " />
<glyph glyph-name="T" unicode="T" horiz-adv-x="673" d="M187 34 Q198 35 210 35.5 Q222 36 233 40 Q256 48 262.5 67.5 Q269 87 269 110 L269 650 L204 650 Q164 650 136.5 643.5 Q109 637 91 620.5 Q73 604 63.5 576 Q54 548 51 506 L10 506 L19 709 Q98 708 175 707 Q252 706 329 706 Q410 706 491 707 Q572 708 656 709 L663 506 L622 506 Q616 547 607.5 574.5 Q599 602 582 619 Q565 636 538 643 Q511 650 469 650 L403 650 L403 110 Q403 86 408 72 Q413 58 422.5 50 Q432 42 447 39 Q462 36 483 34 L482 -4 Q444 -2 407 -1 Q370 0 334 0 Q298 0 261.5 -1 Q225 -2 187 -4 L187 34 Z " />
<glyph glyph-name="U" unicode="U" horiz-adv-x="818" d="M102 595 Q102 615 96.5 635.5 Q91 656 69 664 Q58 669 44.5 669.5 Q31 670 19 671 L19 709 Q58 708 95 707 Q132 706 169 706 Q205 706 242 707 Q279 708 317 709 L317 671 Q294 669 278 665.5 Q262 662 252.5 654 Q243 646 238.5 632 Q234 618 234 595 L234 268 Q234 244 236 220.5 Q238 197 245 174 Q255 141 274.5 114 Q294 87 320.5 68 Q347 49 378.5 38.5 Q410 28 445 28 Q493 28 537.5 46.5 Q582 65 614 101 Q646 138 655.5 182 Q665 226 665 274 Q665 355 664 434.5 Q663 514 662 595 Q662 616 657 633.5 Q652 651 633 661 Q620 668 605.5 669 Q591 670 577 671 L577 709 Q607 708 635 707 Q663 706 691 706 Q718 706 746 707 Q774 708 803 709 L803 671 Q780 669 764.5 665.5 Q749 662 739 654 Q729 646 724.5 632 Q720 618 720 595 L715 287 Q715 275 714.5 263.5 Q714 252 713 240 Q708 150 662 86 Q616 22 528 -5 Q501 -13 473.5 -15.5 Q446 -18 419 -18 Q350 -18 292 0 Q234 18 191.5 54 Q149 90 125.5 144.5 Q102 199 102 272 L102 595 Z " />
<glyph glyph-name="V" unicode="V" horiz-adv-x="777" d="M93 609 Q79 641 58.5 655.5 Q38 670 0 672 L1 709 Q43 708 82.5 707 Q122 706 161 706 Q201 706 241.5 707 Q282 708 324 709 L324 671 L293 671 Q285 671 274.5 670.5 Q264 670 255 667 Q246 664 239.5 657.5 Q233 651 233 640 Q233 628 237 617.5 Q241 607 246 596 L444 159 L600 596 Q603 605 605.5 615 Q608 625 608 635 Q608 655 595 663 Q582 671 566 671 L541 671 L541 709 Q573 708 603 707 Q633 706 662 706 Q691 706 720 707 Q749 708 781 709 L781 672 Q757 671 739 667.5 Q721 664 707.5 656 Q694 648 683.5 634 Q673 620 664 599 L414 -15 L382 -15 L93 609 Z " />
<glyph glyph-name="W" unicode="W" horiz-adv-x="1048" d="M99 599 Q95 610 90 619.5 Q85 629 80 638 Q72 650 64.5 656.5 Q57 663 48.5 666 Q40 669 30 669.5 Q20 670 8 670 L8 709 Q46 708 83 707 Q120 706 156 706 Q193 706 230.5 707 Q268 708 307 709 L307 671 L293 671 Q283 671 273 670.5 Q263 670 254 668 Q243 665 236 657.5 Q229 650 229 635 Q229 626 231.5 614.5 Q234 603 241 585 L349 291 Q358 266 365.5 241.5 Q373 217 380 192 L550 717 L572 717 L764 191 L885 596 Q888 605 890 614 Q892 623 892 631 Q892 654 878 660.5 Q864 667 846 669 Q839 670 832.5 670.5 Q826 671 818 671 L818 709 Q848 708 876.5 707 Q905 706 933 706 Q961 706 989 707 Q1017 708 1047 709 L1047 670 Q1021 668 1004.5 665 Q988 662 976.5 654.5 Q965 647 957 633 Q949 619 941 595 L737 -14 L706 -14 L549 409 Q541 429 534.5 449.5 Q528 470 523 492 L356 -14 L323 -14 L99 599 Z " />
<glyph glyph-name="X" unicode="X" horiz-adv-x="777" d="M-5 35 Q52 35 91 59 Q130 83 165 124 L336 327 L162 570 Q153 583 143.5 595.5 Q134 608 123 619 Q109 634 96.5 644 Q84 654 71 660 Q58 666 42.5 668.5 Q27 671 6 672 L7 709 Q52 708 95 707 Q138 706 181 706 Q223 706 265.5 707 Q308 708 353 709 L353 671 L309 670 Q295 670 284 665.5 Q273 661 273 647 Q273 642 276 635 Q279 628 283 621 Q287 614 291.5 607.5 Q296 601 299 597 L423 426 L564 597 Q572 607 581.5 620.5 Q591 634 591 647 Q591 655 586.5 660 Q582 665 576 667 Q570 669 562.5 670 Q555 671 549 671 L528 671 L528 709 Q560 708 590 707 Q620 706 650 706 Q679 706 708 707 Q737 708 768 709 L768 672 Q755 670 742 669.5 Q729 669 717 665 Q692 657 669 638 Q646 619 629 599 L449 388 L616 157 Q624 146 631 137 Q638 128 646 117 Q661 96 674 81 Q687 66 701.5 56.5 Q716 47 734.5 41.5 Q753 36 780 34 L780 -4 Q736 -2 695.5 -1 Q655 0 613 0 Q572 0 531 -1 Q490 -2 447 -4 L447 34 Q458 35 469 34.5 Q480 34 491 36 Q516 41 516 58 Q516 69 506.5 85 Q497 101 491 109 L366 287 L219 109 Q211 99 201.5 85.5 Q192 72 192 59 Q192 50 198 45 Q204 40 212 38 Q220 36 229.5 35.5 Q239 35 245 35 L245 -3 Q212 -2 180.5 -1 Q149 0 118 0 Q88 0 57 -1 Q26 -2 -6 -3 L-5 35 Z " />
<glyph glyph-name="Y" unicode="Y" horiz-adv-x="694" d="M184 35 Q192 35 198.5 34.5 Q205 34 210 34 Q244 34 260 54 Q276 74 276 106 L276 252 L128 568 Q123 577 118.5 586.5 Q114 596 109 605 Q100 623 87.5 640.5 Q75 658 56 665 Q45 670 29 670 Q13 670 1 671 L1 709 Q44 708 84 707 Q124 706 165 706 Q206 706 246 707 Q286 708 329 709 L329 671 Q316 670 303 670.5 Q290 671 277 668 Q264 666 256 659 Q248 652 248 639 Q248 629 252 617 Q256 605 261 595 L391 313 L517 574 Q524 588 531 603 Q538 618 538 633 Q538 646 531.5 654 Q525 662 514.5 665.5 Q504 669 491.5 670 Q479 671 468 671 L468 709 Q498 708 526.5 707 Q555 706 583 706 Q611 706 638.5 707 Q666 708 696 709 L695 671 Q686 670 676.5 669.5 Q667 669 659 667 Q638 662 625.5 647 Q613 632 603 614 L409 252 L409 104 Q409 59 428 47 Q447 35 488 35 L501 35 L500 -4 Q458 -2 418.5 -1 Q379 0 340 0 Q302 0 263 -1 Q224 -2 183 -4 L184 35 Z " />
<glyph glyph-name="Z" unicode="Z" horiz-adv-x="673" d="M16 17 L459 650 L222 650 Q194 650 166.5 646.5 Q139 643 119 623 Q96 600 88.5 568.5 Q81 537 76 507 L39 507 Q41 558 42.5 607.5 Q44 657 44 709 Q138 708 230 707 Q322 706 414 706 Q474 706 534 707 Q594 708 659 709 L200 52 L445 52 Q489 52 518 59.5 Q547 67 565 84.5 Q583 102 593.5 131 Q604 160 610 203 L652 203 Q648 150 645.5 100 Q643 50 641 -3 Q539 -2 440.5 -1 Q342 0 242 0 Q131 0 16 -3 L16 17 Z " />
<glyph glyph-name="Agrave" unicode="&#xc0;" horiz-adv-x="764" d="M2 34 Q14 35 27 35.5 Q40 36 52 40 Q68 45 81.5 58 Q95 71 106 87.5 Q117 104 125 122.5 Q133 141 139 156 L361 724 L393 724 L661 101 Q670 81 678.5 69 Q687 57 698 49.5 Q709 42 724.5 38.5 Q740 35 762 34 L762 -4 Q721 -2 683 -1 Q645 0 607 0 Q569 0 530 -1 Q491 -2 450 -4 L450 34 Q462 34 474.5 34.5 Q487 35 498 38 Q509 41 515.5 47.5 Q522 54 522 67 Q522 75 517.5 88 Q513 101 510 109 L459 234 L228 234 L184 109 Q180 99 177.5 89.5 Q175 80 175 69 Q175 58 180 51.5 Q185 45 192.5 41.5 Q200 38 209 36.5 Q218 35 226 35 Q233 34 239 34 Q245 34 253 34 L253 -4 Q220 -2 189 -1 Q158 0 127 0 Q96 0 65.5 -1 Q35 -2 2 -4 L2 34 Z M245 280 L440 280 L336 536 L245 280 Z M447 747 Q414 757 379.5 772.5 Q345 788 312.5 809 Q280 830 251 855 Q222 880 200 909 Q248 903 283 903 Q303 903 322.5 904.5 Q342 906 363 908 Q370 888 378.5 869 Q387 850 398.5 833 Q410 816 425.5 802.5 Q441 789 461 780 L447 747 Z " />
<glyph glyph-name="Aacute" unicode="&#xc1;" horiz-adv-x="764" d="M2 34 Q14 35 27 35.5 Q40 36 52 40 Q68 45 81.5 58 Q95 71 106 87.5 Q117 104 125 122.5 Q133 141 139 156 L361 724 L393 724 L661 101 Q670 81 678.5 69 Q687 57 698 49.5 Q709 42 724.5 38.5 Q740 35 762 34 L762 -4 Q721 -2 683 -1 Q645 0 607 0 Q569 0 530 -1 Q491 -2 450 -4 L450 34 Q462 34 474.5 34.5 Q487 35 498 38 Q509 41 515.5 47.5 Q522 54 522 67 Q522 75 517.5 88 Q513 101 510 109 L459 234 L228 234 L184 109 Q180 99 177.5 89.5 Q175 80 175 69 Q175 58 180 51.5 Q185 45 192.5 41.5 Q200 38 209 36.5 Q218 35 226 35 Q233 34 239 34 Q245 34 253 34 L253 -4 Q220 -2 189 -1 Q158 0 127 0 Q96 0 65.5 -1 Q35 -2 2 -4 L2 34 Z M245 280 L440 280 L336 536 L245 280 Z M273 780 Q315 800 335.5 833 Q356 866 371 908 Q392 906 411.5 904.5 Q431 903 451 903 Q486 903 534 909 Q512 881 483 855.5 Q454 830 421 809 Q388 788 353.5 772 Q319 756 286 747 L273 780 Z " />
<glyph glyph-name="Acircumflex" unicode="&#xc2;" horiz-adv-x="764" d="M2 34 Q14 35 27 35.5 Q40 36 52 40 Q68 45 81.5 58 Q95 71 106 87.5 Q117 104 125 122.5 Q133 141 139 156 L361 724 L393 724 L661 101 Q670 81 678.5 69 Q687 57 698 49.5 Q709 42 724.5 38.5 Q740 35 762 34 L762 -4 Q721 -2 683 -1 Q645 0 607 0 Q569 0 530 -1 Q491 -2 450 -4 L450 34 Q462 34 474.5 34.5 Q487 35 498 38 Q509 41 515.5 47.5 Q522 54 522 67 Q522 75 517.5 88 Q513 101 510 109 L459 234 L228 234 L184 109 Q180 99 177.5 89.5 Q175 80 175 69 Q175 58 180 51.5 Q185 45 192.5 41.5 Q200 38 209 36.5 Q218 35 226 35 Q233 34 239 34 Q245 34 253 34 L253 -4 Q220 -2 189 -1 Q158 0 127 0 Q96 0 65.5 -1 Q35 -2 2 -4 L2 34 Z M245 280 L440 280 L336 536 L245 280 Z M217 781 Q259 804 278 835 Q297 866 306 911 Q320 910 331.5 909.5 Q343 909 355 909 Q375 909 394.5 911 Q414 913 435 915 Q446 868 470.5 837 Q495 806 535 779 L519 750 Q477 764 441 783.5 Q405 803 373 829 Q347 803 307 782.5 Q267 762 232 751 L217 781 Z " />
<glyph glyph-name="Atilde" unicode="&#xc3;" horiz-adv-x="764" d="M2 34 Q14 35 27 35.5 Q40 36 52 40 Q68 45 81.5 58 Q95 71 106 87.5 Q117 104 125 122.5 Q133 141 139 156 L361 724 L393 724 L661 101 Q670 81 678.5 69 Q687 57 698 49.5 Q709 42 724.5 38.5 Q740 35 762 34 L762 -4 Q721 -2 683 -1 Q645 0 607 0 Q569 0 530 -1 Q491 -2 450 -4 L450 34 Q462 34 474.5 34.5 Q487 35 498 38 Q509 41 515.5 47.5 Q522 54 522 67 Q522 75 517.5 88 Q513 101 510 109 L459 234 L228 234 L184 109 Q180 99 177.5 89.5 Q175 80 175 69 Q175 58 180 51.5 Q185 45 192.5 41.5 Q200 38 209 36.5 Q218 35 226 35 Q233 34 239 34 Q245 34 253 34 L253 -4 Q220 -2 189 -1 Q158 0 127 0 Q96 0 65.5 -1 Q35 -2 2 -4 L2 34 Z M245 280 L440 280 L336 536 L245 280 Z M210 784 Q217 801 225.5 821.5 Q234 842 246 859.5 Q258 877 274 889 Q290 901 313 901 Q328 901 344.5 896 Q361 891 377.5 884 Q394 877 410 869.5 Q426 862 441 857 Q462 849 479 849 Q496 849 506 858.5 Q516 868 524 885 L556 868 Q551 858 547.5 848.5 Q544 839 539 830 Q533 817 524.5 803.5 Q516 790 505.5 779.5 Q495 769 482 762.5 Q469 756 452 756 Q437 756 421 760.5 Q405 765 388.5 772 Q372 779 356 786 Q340 793 326 798 Q304 806 288 806 Q271 806 262.5 797.5 Q254 789 246 772 L210 784 Z " />
<glyph glyph-name="Adieresis" unicode="&#xc4;" horiz-adv-x="764" d="M2 34 Q14 35 27 35.5 Q40 36 52 40 Q68 45 81.5 58 Q95 71 106 87.5 Q117 104 125 122.5 Q133 141 139 156 L361 724 L393 724 L661 101 Q670 81 678.5 69 Q687 57 698 49.5 Q709 42 724.5 38.5 Q740 35 762 34 L762 -4 Q721 -2 683 -1 Q645 0 607 0 Q569 0 530 -1 Q491 -2 450 -4 L450 34 Q462 34 474.5 34.5 Q487 35 498 38 Q509 41 515.5 47.5 Q522 54 522 67 Q522 75 517.5 88 Q513 101 510 109 L459 234 L228 234 L184 109 Q180 99 177.5 89.5 Q175 80 175 69 Q175 58 180 51.5 Q185 45 192.5 41.5 Q200 38 209 36.5 Q218 35 226 35 Q233 34 239 34 Q245 34 253 34 L253 -4 Q220 -2 189 -1 Q158 0 127 0 Q96 0 65.5 -1 Q35 -2 2 -4 L2 34 Z M245 280 L440 280 L336 536 L245 280 Z M483 758 Q454 758 434 779 Q414 800 414 828 Q414 857 434 877 Q454 897 483 897 Q512 897 532 877.5 Q552 858 552 829 Q552 800 532 779 Q512 758 483 758 Z M279 758 Q250 758 230 779 Q210 800 210 828 Q210 857 230 877 Q250 897 279 897 Q308 897 328 877.5 Q348 858 348 829 Q348 800 328 779 Q308 758 279 758 Z " />
<glyph glyph-name="Amacron" unicode="&#x100;" horiz-adv-x="764" d="M2 34 Q14 35 27 35.5 Q40 36 52 40 Q68 45 81.5 58 Q95 71 106 87.5 Q117 104 125 122.5 Q133 141 139 156 L361 724 L393 724 L661 101 Q670 81 678.5 69 Q687 57 698 49.5 Q709 42 724.5 38.5 Q740 35 762 34 L762 -4 Q721 -2 683 -1 Q645 0 607 0 Q569 0 530 -1 Q491 -2 450 -4 L450 34 Q462 34 474.5 34.5 Q487 35 498 38 Q509 41 515.5 47.5 Q522 54 522 67 Q522 75 517.5 88 Q513 101 510 109 L459 234 L228 234 L184 109 Q180 99 177.5 89.5 Q175 80 175 69 Q175 58 180 51.5 Q185 45 192.5 41.5 Q200 38 209 36.5 Q218 35 226 35 Q233 34 239 34 Q245 34 253 34 L253 -4 Q220 -2 189 -1 Q158 0 127 0 Q96 0 65.5 -1 Q35 -2 2 -4 L2 34 Z M245 280 L440 280 L336 536 L245 280 Z M208 858 L544 858 L544 772 L208 772 L208 858 Z " />
<glyph glyph-name="Abreve" unicode="&#x102;" horiz-adv-x="764" d="M2 34 Q14 35 27 35.5 Q40 36 52 40 Q68 45 81.5 58 Q95 71 106 87.5 Q117 104 125 122.5 Q133 141 139 156 L361 724 L393 724 L661 101 Q670 81 678.5 69 Q687 57 698 49.5 Q709 42 724.5 38.5 Q740 35 762 34 L762 -4 Q721 -2 683 -1 Q645 0 607 0 Q569 0 530 -1 Q491 -2 450 -4 L450 34 Q462 34 474.5 34.5 Q487 35 498 38 Q509 41 515.5 47.5 Q522 54 522 67 Q522 75 517.5 88 Q513 101 510 109 L459 234 L228 234 L184 109 Q180 99 177.5 89.5 Q175 80 175 69 Q175 58 180 51.5 Q185 45 192.5 41.5 Q200 38 209 36.5 Q218 35 226 35 Q233 34 239 34 Q245 34 253 34 L253 -4 Q220 -2 189 -1 Q158 0 127 0 Q96 0 65.5 -1 Q35 -2 2 -4 L2 34 Z M245 280 L440 280 L336 536 L245 280 Z M242 912 Q263 883 300.5 868.5 Q338 854 380 854 Q422 854 459.5 868.5 Q497 883 518 912 L547 897 Q529 854 510 827 Q491 800 471 784.5 Q451 769 428.5 763.5 Q406 758 380 758 Q354 758 331.5 763.5 Q309 769 289 784.5 Q269 800 250 827 Q231 854 213 897 L242 912 Z " />
<glyph glyph-name="Aring" unicode="&#xc5;" horiz-adv-x="764" d="M267 824 Q267 846 275.5 865.5 Q284 885 298.5 899.5 Q313 914 332.5 922.5 Q352 931 374 931 Q396 931 415.5 922.5 Q435 914 449.5 899.5 Q464 885 472.5 865.5 Q481 846 481 824 Q481 802 472.5 782.5 Q464 763 449.5 748.5 Q435 734 415 725 Q405 721 395 719 L661 101 Q670 81 678.5 69 Q687 57 698 49.5 Q709 42 724.5 38.5 Q740 35 762 34 L762 -4 Q721 -2 683 -1 Q645 0 607 0 Q569 0 530 -1 Q491 -2 450 -4 L450 34 Q462 34 474.5 34.5 Q487 35 498 38 Q509 41 515.5 47.5 Q522 54 522 67 Q522 75 517.5 88 Q513 101 510 109 L459 234 L228 234 L184 109 Q180 99 177.5 89.5 Q175 80 175 69 Q175 58 180 51.5 Q185 45 192.5 41.5 Q200 38 209 36.5 Q218 35 226 35 Q233 34 239 34 L253 34 L253 -4 Q220 -2 189 -1 Q158 0 127 0 Q96 0 65.5 -1 Q35 -2 2 -4 L2 34 Q14 35 27 35.5 Q40 36 52 40 Q68 45 81.5 58 Q95 71 106 87.5 Q117 104 125 122.5 Q133 141 139 156 L358 718 Q345 720 332 725 Q313 734 298.5 748.5 Q284 763 275.5 782.5 Q267 802 267 824 Z M245 280 L440 280 L336 536 L245 280 Z M374 769 Q397 769 413 785 Q429 801 429 824 Q429 847 413 863 Q397 879 374 879 Q351 879 335 863 Q319 847 319 824 Q319 801 335 785 Q351 769 374 769 Z " />
<glyph glyph-name="Aogonek" unicode="&#x104;" horiz-adv-x="764" d="M669 -171 Q661 -181 648 -190 Q635 -199 619.5 -205.5 Q604 -212 586 -216 Q568 -220 552 -220 Q505 -220 476.5 -201 Q448 -182 448 -136 Q448 -110 464.5 -86 Q481 -62 504 -43.5 Q527 -25 553 -12 Q567 -5 579 0 Q555 0 530 -1 Q491 -2 450 -4 L450 34 Q462 34 474.5 34.5 Q487 35 498 38 Q509 41 515.5 47.5 Q522 54 522 67 Q522 75 517.5 88 Q513 101 510 109 L459 234 L228 234 L184 109 Q180 99 177.5 89.5 Q175 80 175 69 Q175 58 180 51.5 Q185 45 192.5 41.5 Q200 38 209 36.5 Q218 35 226 35 Q233 34 239 34 L253 34 L253 -4 Q220 -2 189 -1 Q158 0 127 0 Q96 0 65.5 -1 Q35 -2 2 -4 L2 34 Q14 35 27 35.5 Q40 36 52 40 Q68 45 81.5 58 Q95 71 106 87.5 Q117 104 125 122.5 Q133 141 139 156 L361 724 L393 724 L661 101 Q670 81 678.5 69 Q687 57 698 49.5 Q709 42 724.5 38.5 Q740 35 762 34 L762 -4 Q721 -2 683 -1 Q659 0 636 0 Q610 -21 594 -38 Q575 -58 565 -74 Q555 -90 551.5 -103 Q548 -116 548 -127 Q548 -150 557.5 -161 Q567 -172 581 -172 Q600 -172 617.5 -164.5 Q635 -157 647 -146 L669 -171 Z M245 280 L440 280 L336 536 L245 280 Z " />
<glyph glyph-name="AE" unicode="&#xc6;" horiz-adv-x="965" d="M0 35 Q24 37 40 40.5 Q56 44 73 59 Q87 72 100 93 Q113 114 122 130 L383 596 Q389 607 395 618.5 Q401 630 401 643 Q401 647 399 651 Q397 655 395 659 Q387 669 378 669 Q369 669 359 669 L335 670 L335 708 Q471 707 603 707 Q738 707 879 709 Q881 663 883.5 619.5 Q886 576 891 530 L853 530 Q848 570 834.5 595.5 Q821 621 799.5 636 Q778 651 749 656.5 Q720 662 684 662 L590 662 L590 366 L680 366 Q725 366 748.5 384.5 Q772 403 772 448 L772 457 L811 457 Q810 425 809.5 395 Q809 365 809 336 Q809 307 809.5 278 Q810 249 811 218 L772 218 L772 238 Q772 280 747 301.5 Q722 323 681 323 L590 323 L590 122 Q590 108 591.5 95 Q593 82 601 70 Q608 59 620 52.5 Q632 46 645.5 43 Q659 40 673.5 39.5 Q688 39 701 39 L717 39 Q792 39 834.5 71.5 Q877 104 897 181 L932 177 Q925 128 920.5 87 Q916 46 913 -2 Q840 -2 770 -1 Q700 0 629 0 Q564 0 499.5 -1 Q435 -2 368 -4 L368 34 Q380 35 392 34.5 Q404 34 415 37 Q445 45 453 69 Q461 93 461 121 L461 323 L290 323 L185 122 Q179 110 173.5 96 Q168 82 168 69 Q168 47 182.5 42 Q197 37 214 36 Q220 35 226 35 Q232 35 240 35 L239 -3 Q207 -1 178 -0.5 Q149 0 120 0 Q91 0 61.5 -1 Q32 -2 0 -3 L0 35 Z M461 366 L461 647 L311 366 L461 366 Z " />
<glyph glyph-name="Cacute" unicode="&#x106;" horiz-adv-x="803" d="M763 90 Q685 33 603.5 7.5 Q522 -18 426 -18 Q348 -18 281 2.5 Q214 23 154 79 Q94 133 69.5 200.5 Q45 268 45 347 Q45 439 77.5 509.5 Q110 580 166 627.5 Q222 675 298 699.5 Q374 724 460 724 Q533 724 604 709 Q675 694 745 669 L745 486 L713 486 Q709 534 685.5 570.5 Q662 607 626.5 631 Q591 655 547.5 667 Q504 679 461 679 Q396 679 347 655 Q298 631 265 590.5 Q232 550 215.5 495.5 Q199 441 199 381 Q199 321 213 267 Q227 213 256 162 Q291 102 346.5 65.5 Q402 29 471 29 Q504 29 536 38.5 Q568 48 598 64.5 Q628 81 655 102.5 Q682 124 703 148 Q717 164 729 181.5 Q741 199 752 217 L763 90 Z M381 780 Q423 800 443.5 833 Q464 866 479 908 Q500 906 519.5 904.5 Q539 903 559 903 Q594 903 642 909 Q620 881 591 855.5 Q562 830 529 809 Q496 788 461.5 772 Q427 756 394 747 L381 780 Z " />
<glyph glyph-name="Ccaron" unicode="&#x10c;" horiz-adv-x="803" d="M763 90 Q685 33 603.5 7.5 Q522 -18 426 -18 Q348 -18 281 2.5 Q214 23 154 79 Q94 133 69.5 200.5 Q45 268 45 347 Q45 439 77.5 509.5 Q110 580 166 627.5 Q222 675 298 699.5 Q374 724 460 724 Q533 724 604 709 Q675 694 745 669 L745 486 L713 486 Q709 534 685.5 570.5 Q662 607 626.5 631 Q591 655 547.5 667 Q504 679 461 679 Q396 679 347 655 Q298 631 265 590.5 Q232 550 215.5 495.5 Q199 441 199 381 Q199 321 213 267 Q227 213 256 162 Q291 102 346.5 65.5 Q402 29 471 29 Q504 29 536 38.5 Q568 48 598 64.5 Q628 81 655 102.5 Q682 124 703 148 Q717 164 729 181.5 Q741 199 752 217 L763 90 Z M307 912 Q347 902 384.5 880 Q422 858 454 835 Q481 861 519.5 880.5 Q558 900 595 913 L610 882 Q569 862 549 829 Q529 796 522 753 Q508 754 496.5 754.5 Q485 755 474 755 Q454 755 433.5 753 Q413 751 392 748 Q387 757 385.5 766 Q384 775 381 784 Q370 816 346 840 Q322 864 292 884 L307 912 Z " />
<glyph glyph-name="Ccedilla" unicode="&#xc7;" horiz-adv-x="803" d="M763 90 Q685 33 603.5 7.5 Q522 -18 426 -18 Q348 -18 281 2.5 Q214 23 154 79 Q94 133 69.5 200.5 Q45 268 45 347 Q45 439 77.5 509.5 Q110 580 166 627.5 Q222 675 298 699.5 Q374 724 460 724 Q533 724 604 709 Q675 694 745 669 L745 486 L713 486 Q709 534 685.5 570.5 Q662 607 626.5 631 Q591 655 547.5 667 Q504 679 461 679 Q396 679 347 655 Q298 631 265 590.5 Q232 550 215.5 495.5 Q199 441 199 381 Q199 321 213 267 Q227 213 256 162 Q291 102 346.5 65.5 Q402 29 471 29 Q504 29 536 38.5 Q568 48 598 64.5 Q628 81 655 102.5 Q682 124 703 148 Q717 164 729 181.5 Q741 199 752 217 L763 90 Z M399 -226 Q411 -215 419 -203.5 Q427 -192 427 -177 Q427 -159 409.5 -139.5 Q392 -120 375 -107 L473 -47 Q488 -64 497.5 -84.5 Q507 -105 507 -126 Q507 -146 499 -163.5 Q491 -181 480 -195 Q467 -211 453 -224 Q439 -237 425 -250 L399 -226 Z " />
<glyph glyph-name="Dcaron" unicode="&#x10e;" horiz-adv-x="824" d="M21 35 Q44 37 60 40.5 Q76 44 86 52 Q96 60 100.5 74 Q105 88 105 111 L105 595 Q105 619 100 633.5 Q95 648 85 655.5 Q75 663 59 666 Q43 669 21 671 L22 709 Q58 708 92 707 Q126 706 160 706 Q220 706 279 709 Q338 712 398 712 Q433 712 468.5 709.5 Q504 707 539 697 Q598 680 647.5 643.5 Q697 607 729 555 Q758 508 768.5 457.5 Q779 407 779 353 Q779 261 743.5 187 Q708 113 632 61 Q573 20 508.5 7 Q444 -6 375 -6 Q318 -6 262.5 -3 Q207 0 150 0 Q118 0 86.5 -1 Q55 -2 21 -3 L21 35 Z M236 113 Q236 88 244.5 74 Q253 60 267.5 53 Q282 46 301 44 Q320 42 341 42 Q407 42 459.5 62.5 Q512 83 548.5 120.5 Q585 158 604.5 211.5 Q624 265 624 330 Q624 375 616 422 Q608 469 590 511.5 Q572 554 542 588.5 Q512 623 468 641 Q430 657 389.5 661 Q349 665 308 665 Q290 665 272 664 Q254 663 236 662 L236 113 Z M228 912 Q268 902 305.5 880 Q343 858 375 835 Q402 861 440.5 880.5 Q479 900 516 913 L531 882 Q490 862 470 829 Q450 796 443 753 Q429 754 417.5 754.5 Q406 755 395 755 Q375 755 354.5 753 Q334 751 313 748 Q308 757 306.5 766 Q305 775 302 784 Q291 816 267 840 Q243 864 213 884 L228 912 Z " />
<glyph glyph-name="Dcroat" unicode="&#x110;" horiz-adv-x="824" d="M20 414 L105 414 L105 595 Q105 619 100 633.5 Q95 648 85 655.5 Q75 663 59 666 Q43 669 21 671 L22 709 Q58 708 92 707 Q126 706 160 706 Q220 706 279 709 Q338 712 398 712 Q433 712 468.5 709.5 Q504 707 539 697 Q598 680 647.5 643.5 Q697 607 729 555 Q758 508 768.5 457.5 Q779 407 779 353 Q779 261 743.5 187 Q708 113 632 61 Q573 20 508.5 7 Q444 -6 375 -6 Q318 -6 262.5 -3 Q207 0 150 0 Q118 0 86.5 -1 Q55 -2 21 -3 L21 35 Q44 37 60 40.5 Q76 44 86 52 Q96 60 100.5 74 Q105 88 105 111 L105 354 L20 354 L20 414 Z M236 113 Q236 88 244.5 74 Q253 60 267.5 53 Q282 46 301 44 Q320 42 341 42 Q407 42 459.5 62.5 Q512 83 548.5 120.5 Q585 158 604.5 211.5 Q624 265 624 330 Q624 375 616 422 Q608 469 590 511.5 Q572 554 542 588.5 Q512 623 468 641 Q430 657 389.5 661 Q349 665 308 665 Q290 665 272 664 L236 662 L236 414 L404 414 L404 354 L236 354 L236 113 Z " />
<glyph glyph-name="Egrave" unicode="&#xc8;" horiz-adv-x="610" d="M21 35 Q44 36 60 39.5 Q76 43 86 51.5 Q96 60 100.5 74 Q105 88 105 111 L105 595 Q105 619 100 633 Q95 647 84.5 655 Q74 663 58.5 666 Q43 669 21 671 L22 709 Q72 708 119.5 707 Q167 706 215 706 Q292 706 369 707 Q446 708 525 709 Q527 665 529 623 Q531 581 533 537 L495 537 Q490 576 474.5 601 Q459 626 436 640 Q413 654 382.5 659 Q352 664 318 664 Q298 664 277.5 663.5 Q257 663 237 662 L237 385 L325 385 Q376 385 396.5 408 Q417 431 417 481 L456 481 Q455 453 455 427 Q455 401 455 375 Q455 343 455.5 310.5 Q456 278 456 243 L417 243 Q417 273 412.5 292.5 Q408 312 397 323 Q386 334 367 338.5 Q348 343 320 343 L237 343 L237 118 Q237 101 239.5 85.5 Q242 70 255 58 Q262 51 274 47.5 Q286 44 299 42 Q312 40 325 39.5 Q338 39 349 39 Q389 39 421 46 Q453 53 476.5 69.5 Q500 86 515.5 114.5 Q531 143 538 185 L577 185 Q572 137 569 91 Q566 45 564 -3 Q481 -2 400.5 -1 Q320 0 239 0 Q133 0 21 -3 L21 35 Z M368 747 Q335 757 300.5 772.5 Q266 788 233.5 809 Q201 830 172 855 Q143 880 121 909 Q169 903 204 903 Q224 903 243.5 904.5 Q263 906 284 908 Q291 888 299.5 869 Q308 850 319.5 833 Q331 816 346.5 802.5 Q362 789 382 780 L368 747 Z " />
<glyph glyph-name="Eacute" unicode="&#xc9;" horiz-adv-x="610" d="M21 35 Q44 36 60 39.5 Q76 43 86 51.5 Q96 60 100.5 74 Q105 88 105 111 L105 595 Q105 619 100 633 Q95 647 84.5 655 Q74 663 58.5 666 Q43 669 21 671 L22 709 Q72 708 119.5 707 Q167 706 215 706 Q292 706 369 707 Q446 708 525 709 Q527 665 529 623 Q531 581 533 537 L495 537 Q490 576 474.5 601 Q459 626 436 640 Q413 654 382.5 659 Q352 664 318 664 Q298 664 277.5 663.5 Q257 663 237 662 L237 385 L325 385 Q376 385 396.5 408 Q417 431 417 481 L456 481 Q455 453 455 427 Q455 401 455 375 Q455 343 455.5 310.5 Q456 278 456 243 L417 243 Q417 273 412.5 292.5 Q408 312 397 323 Q386 334 367 338.5 Q348 343 320 343 L237 343 L237 118 Q237 101 239.5 85.5 Q242 70 255 58 Q262 51 274 47.5 Q286 44 299 42 Q312 40 325 39.5 Q338 39 349 39 Q389 39 421 46 Q453 53 476.5 69.5 Q500 86 515.5 114.5 Q531 143 538 185 L577 185 Q572 137 569 91 Q566 45 564 -3 Q481 -2 400.5 -1 Q320 0 239 0 Q133 0 21 -3 L21 35 Z M247 780 Q289 800 309.5 833 Q330 866 345 908 Q366 906 385.5 904.5 Q405 903 425 903 Q460 903 508 909 Q486 881 457 855.5 Q428 830 395 809 Q362 788 327.5 772 Q293 756 260 747 L247 780 Z " />
<glyph glyph-name="Ecircumflex" unicode="&#xca;" horiz-adv-x="610" d="M21 35 Q44 36 60 39.5 Q76 43 86 51.5 Q96 60 100.5 74 Q105 88 105 111 L105 595 Q105 619 100 633 Q95 647 84.5 655 Q74 663 58.5 666 Q43 669 21 671 L22 709 Q72 708 119.5 707 Q167 706 215 706 Q292 706 369 707 Q446 708 525 709 Q527 665 529 623 Q531 581 533 537 L495 537 Q490 576 474.5 601 Q459 626 436 640 Q413 654 382.5 659 Q352 664 318 664 Q298 664 277.5 663.5 Q257 663 237 662 L237 385 L325 385 Q376 385 396.5 408 Q417 431 417 481 L456 481 Q455 453 455 427 Q455 401 455 375 Q455 343 455.5 310.5 Q456 278 456 243 L417 243 Q417 273 412.5 292.5 Q408 312 397 323 Q386 334 367 338.5 Q348 343 320 343 L237 343 L237 118 Q237 101 239.5 85.5 Q242 70 255 58 Q262 51 274 47.5 Q286 44 299 42 Q312 40 325 39.5 Q338 39 349 39 Q389 39 421 46 Q453 53 476.5 69.5 Q500 86 515.5 114.5 Q531 143 538 185 L577 185 Q572 137 569 91 Q566 45 564 -3 Q481 -2 400.5 -1 Q320 0 239 0 Q133 0 21 -3 L21 35 Z M139 781 Q181 804 200 835 Q219 866 228 911 Q242 910 253.5 909.5 Q265 909 277 909 Q297 909 316.5 911 Q336 913 357 915 Q368 868 392.5 837 Q417 806 457 779 L441 750 Q399 764 363 783.5 Q327 803 295 829 Q269 803 229 782.5 Q189 762 154 751 L139 781 Z " />
<glyph glyph-name="Ecaron" unicode="&#x11a;" horiz-adv-x="610" d="M21 35 Q44 36 60 39.5 Q76 43 86 51.5 Q96 60 100.5 74 Q105 88 105 111 L105 595 Q105 619 100 633 Q95 647 84.5 655 Q74 663 58.5 666 Q43 669 21 671 L22 709 Q72 708 119.5 707 Q167 706 215 706 Q292 706 369 707 Q446 708 525 709 Q527 665 529 623 Q531 581 533 537 L495 537 Q490 576 474.5 601 Q459 626 436 640 Q413 654 382.5 659 Q352 664 318 664 Q298 664 277.5 663.5 Q257 663 237 662 L237 385 L325 385 Q376 385 396.5 408 Q417 431 417 481 L456 481 Q455 453 455 427 Q455 401 455 375 Q455 343 455.5 310.5 Q456 278 456 243 L417 243 Q417 273 412.5 292.5 Q408 312 397 323 Q386 334 367 338.5 Q348 343 320 343 L237 343 L237 118 Q237 101 239.5 85.5 Q242 70 255 58 Q262 51 274 47.5 Q286 44 299 42 Q312 40 325 39.5 Q338 39 349 39 Q389 39 421 46 Q453 53 476.5 69.5 Q500 86 515.5 114.5 Q531 143 538 185 L577 185 Q572 137 569 91 Q566 45 564 -3 Q481 -2 400.5 -1 Q320 0 239 0 Q133 0 21 -3 L21 35 Z M162 912 Q202 902 239.5 880 Q277 858 309 835 Q336 861 374.5 880.5 Q413 900 450 913 L465 882 Q424 862 404 829 Q384 796 377 753 Q363 754 351.5 754.5 Q340 755 329 755 Q309 755 288.5 753 Q268 751 247 748 Q242 757 240.5 766 Q239 775 236 784 Q225 816 201 840 Q177 864 147 884 L162 912 Z " />
<glyph glyph-name="Edieresis" unicode="&#xcb;" horiz-adv-x="610" d="M21 35 Q44 36 60 39.5 Q76 43 86 51.5 Q96 60 100.5 74 Q105 88 105 111 L105 595 Q105 619 100 633 Q95 647 84.5 655 Q74 663 58.5 666 Q43 669 21 671 L22 709 Q72 708 119.5 707 Q167 706 215 706 Q292 706 369 707 Q446 708 525 709 Q527 665 529 623 Q531 581 533 537 L495 537 Q490 576 474.5 601 Q459 626 436 640 Q413 654 382.5 659 Q352 664 318 664 Q298 664 277.5 663.5 Q257 663 237 662 L237 385 L325 385 Q376 385 396.5 408 Q417 431 417 481 L456 481 Q455 453 455 427 Q455 401 455 375 Q455 343 455.5 310.5 Q456 278 456 243 L417 243 Q417 273 412.5 292.5 Q408 312 397 323 Q386 334 367 338.5 Q348 343 320 343 L237 343 L237 118 Q237 101 239.5 85.5 Q242 70 255 58 Q262 51 274 47.5 Q286 44 299 42 Q312 40 325 39.5 Q338 39 349 39 Q389 39 421 46 Q453 53 476.5 69.5 Q500 86 515.5 114.5 Q531 143 538 185 L577 185 Q572 137 569 91 Q566 45 564 -3 Q481 -2 400.5 -1 Q320 0 239 0 Q133 0 21 -3 L21 35 Z M408 758 Q379 758 359 779 Q339 800 339 828 Q339 857 359 877 Q379 897 408 897 Q437 897 457 877.5 Q477 858 477 829 Q477 800 457 779 Q437 758 408 758 Z M204 758 Q175 758 155 779 Q135 800 135 828 Q135 857 155 877 Q175 897 204 897 Q233 897 253 877.5 Q273 858 273 829 Q273 800 253 779 Q233 758 204 758 Z " />
<glyph glyph-name="Emacron" unicode="&#x112;" horiz-adv-x="610" d="M21 35 Q44 36 60 39.5 Q76 43 86 51.5 Q96 60 100.5 74 Q105 88 105 111 L105 595 Q105 619 100 633 Q95 647 84.5 655 Q74 663 58.5 666 Q43 669 21 671 L22 709 Q72 708 119.5 707 Q167 706 215 706 Q292 706 369 707 Q446 708 525 709 Q527 665 529 623 Q531 581 533 537 L495 537 Q490 576 474.5 601 Q459 626 436 640 Q413 654 382.5 659 Q352 664 318 664 Q298 664 277.5 663.5 Q257 663 237 662 L237 385 L325 385 Q376 385 396.5 408 Q417 431 417 481 L456 481 Q455 453 455 427 Q455 401 455 375 Q455 343 455.5 310.5 Q456 278 456 243 L417 243 Q417 273 412.5 292.5 Q408 312 397 323 Q386 334 367 338.5 Q348 343 320 343 L237 343 L237 118 Q237 101 239.5 85.5 Q242 70 255 58 Q262 51 274 47.5 Q286 44 299 42 Q312 40 325 39.5 Q338 39 349 39 Q389 39 421 46 Q453 53 476.5 69.5 Q500 86 515.5 114.5 Q531 143 538 185 L577 185 Q572 137 569 91 Q566 45 564 -3 Q481 -2 400.5 -1 Q320 0 239 0 Q133 0 21 -3 L21 35 Z M137 858 L473 858 L473 772 L137 772 L137 858 Z " />
<glyph glyph-name="Edotaccent" unicode="&#x116;" horiz-adv-x="610" d="M21 35 Q44 36 60 39.5 Q76 43 86 51.5 Q96 60 100.5 74 Q105 88 105 111 L105 595 Q105 619 100 633 Q95 647 84.5 655 Q74 663 58.5 666 Q43 669 21 671 L22 709 Q72 708 119.5 707 Q167 706 215 706 Q292 706 369 707 Q446 708 525 709 Q527 665 529 623 Q531 581 533 537 L495 537 Q490 576 474.5 601 Q459 626 436 640 Q413 654 382.5 659 Q352 664 318 664 Q298 664 277.5 663.5 Q257 663 237 662 L237 385 L325 385 Q376 385 396.5 408 Q417 431 417 481 L456 481 Q455 453 455 427 Q455 401 455 375 Q455 343 455.5 310.5 Q456 278 456 243 L417 243 Q417 273 412.5 292.5 Q408 312 397 323 Q386 334 367 338.5 Q348 343 320 343 L237 343 L237 118 Q237 101 239.5 85.5 Q242 70 255 58 Q262 51 274 47.5 Q286 44 299 42 Q312 40 325 39.5 Q338 39 349 39 Q389 39 421 46 Q453 53 476.5 69.5 Q500 86 515.5 114.5 Q531 143 538 185 L577 185 Q572 137 569 91 Q566 45 564 -3 Q481 -2 400.5 -1 Q320 0 239 0 Q133 0 21 -3 L21 35 Z M232 826 Q232 841 238 854.5 Q244 868 254.5 877.5 Q265 887 278.5 892.5 Q292 898 307 898 Q337 898 357.5 878 Q378 858 378 828 Q378 797 357.5 775 Q337 753 305 753 Q274 753 253 774 Q232 795 232 826 Z " />
<glyph glyph-name="Eogonek" unicode="&#x118;" horiz-adv-x="610" d="M557 -171 Q549 -181 536 -190 Q523 -199 507.5 -205.5 Q492 -212 474 -216 Q456 -220 440 -220 Q393 -220 364.5 -201 Q336 -182 336 -136 Q336 -110 352.5 -86 Q369 -62 392 -43.5 Q415 -25 441 -12 Q453 -5 464 -1 Q432 -1 400 -1 Q320 0 239 0 Q133 0 21 -3 L21 35 Q44 36 60 39.5 Q76 43 86 51.5 Q96 60 100.5 74 Q105 88 105 111 L105 595 Q105 619 100 633 Q95 647 84.5 655 Q74 663 58.5 666 Q43 669 21 671 L22 709 Q72 708 119.5 707 Q167 706 215 706 Q292 706 369 707 Q446 708 525 709 Q527 665 529 623 Q531 581 533 537 L495 537 Q490 576 474.5 601 Q459 626 436 640 Q413 654 382.5 659 Q352 664 318 664 Q298 664 277.5 663.5 Q257 663 237 662 L237 385 L325 385 Q376 385 396.5 408 Q417 431 417 481 L456 481 Q455 453 455 427 L455 375 Q455 343 455.5 310.5 Q456 278 456 243 L417 243 Q417 273 412.5 292.5 Q408 312 397 323 Q386 334 367 338.5 Q348 343 320 343 L237 343 L237 118 Q237 101 239.5 85.5 Q242 70 255 58 Q262 51 274 47.5 Q286 44 299 42 Q312 40 325 39.5 Q338 39 349 39 Q389 39 421 46 Q453 53 476.5 69.5 Q500 86 515.5 114.5 Q531 143 538 185 L577 185 Q572 137 569 91 Q566 45 564 -3 L522 -2 Q498 -22 482 -38 Q463 -58 453 -74 Q443 -90 439.5 -103 Q436 -116 436 -127 Q436 -150 445.5 -161 Q455 -172 469 -172 Q488 -172 505.5 -164.5 Q523 -157 535 -146 L557 -171 Z " />
<glyph glyph-name="Gbreve" unicode="&#x11e;" horiz-adv-x="844" d="M618 208 Q618 230 614 242.5 Q610 255 601 261.5 Q592 268 577.5 270 Q563 272 542 273 L543 311 Q580 310 614 309.5 Q648 309 683 309 Q717 309 751 309.5 Q785 310 821 311 L820 273 L802 273 Q770 273 758.5 255 Q747 237 747 208 L746 49 Q674 11 603 -3.5 Q532 -18 453 -18 Q387 -18 321.5 -5 Q256 8 200 46 Q122 99 83.5 180.5 Q45 262 45 356 Q45 423 65 482.5 Q85 542 131 593 Q197 666 283.5 695 Q370 724 466 724 Q497 724 532.5 721.5 Q568 719 604 714 Q640 709 675 700.5 Q710 692 740 680 Q740 657 739.5 635 Q739 613 739 590 Q739 567 739.5 544.5 Q740 522 740 499 L703 499 Q698 548 676 582.5 Q654 617 621.5 638 Q589 659 547.5 668.5 Q506 678 462 678 Q392 678 337 652.5 Q282 627 243 567 Q217 528 208 482 Q199 436 199 370 Q199 341 206 304.5 Q213 268 227.5 230 Q242 192 265 156.5 Q288 121 320.5 93 Q353 65 396 48 Q439 31 493 31 Q527 31 560.5 41.5 Q594 52 618 74 L618 208 Z M324 912 Q345 883 382.5 868.5 Q420 854 462 854 Q504 854 541.5 868.5 Q579 883 600 912 L629 897 Q611 854 592 827 Q573 800 553 784.5 Q533 769 510.5 763.5 Q488 758 462 758 Q436 758 413.5 763.5 Q391 769 371 784.5 Q351 800 332 827 Q313 854 295 897 L324 912 Z " />
<glyph glyph-name="Gcommaaccent" unicode="&#x122;" horiz-adv-x="844" d="M618 208 Q618 230 614 242.5 Q610 255 601 261.5 Q592 268 577.5 270 Q563 272 542 273 L543 311 Q580 310 614 309.5 Q648 309 683 309 Q717 309 751 309.5 Q785 310 821 311 L820 273 L802 273 Q770 273 758.5 255 Q747 237 747 208 L746 49 Q674 11 603 -3.5 Q532 -18 453 -18 Q387 -18 321.5 -5 Q256 8 200 46 Q122 99 83.5 180.5 Q45 262 45 356 Q45 423 65 482.5 Q85 542 131 593 Q197 666 283.5 695 Q370 724 466 724 Q497 724 532.5 721.5 Q568 719 604 714 Q640 709 675 700.5 Q710 692 740 680 Q740 657 739.5 635 Q739 613 739 590 Q739 567 739.5 544.5 Q740 522 740 499 L703 499 Q698 548 676 582.5 Q654 617 621.5 638 Q589 659 547.5 668.5 Q506 678 462 678 Q392 678 337 652.5 Q282 627 243 567 Q217 528 208 482 Q199 436 199 370 Q199 341 206 304.5 Q213 268 227.5 230 Q242 192 265 156.5 Q288 121 320.5 93 Q353 65 396 48 Q439 31 493 31 Q527 31 560.5 41.5 Q594 52 618 74 L618 208 Z M401 -226 Q413 -215 421 -203.5 Q429 -192 429 -177 Q429 -159 411.5 -139.5 Q394 -120 377 -107 L475 -47 Q490 -64 499.5 -84.5 Q509 -105 509 -126 Q509 -146 501 -163.5 Q493 -181 482 -195 Q469 -211 455 -224 Q441 -237 427 -250 L401 -226 Z " />
<glyph glyph-name="Igrave" unicode="&#xcc;" horiz-adv-x="339" d="M21 34 Q30 35 39.5 35.5 Q49 36 58 38 Q83 45 92.5 63 Q102 81 102 105 L102 595 Q102 619 97 633 Q92 647 82.5 655 Q73 663 57.5 666 Q42 669 21 671 L22 709 Q60 708 97 707 Q134 706 170 706 Q206 706 242 707 Q278 708 316 709 L316 671 Q306 670 295.5 669.5 Q285 669 275 666 Q250 658 243 639 Q236 620 236 595 L236 110 Q236 72 251.5 55 Q267 38 303 35 L316 34 L316 -4 Q278 -2 241.5 -1 Q205 0 169 0 Q133 0 96 -1 Q59 -2 21 -4 L21 34 Z M227 747 Q194 757 159.5 772.5 Q125 788 92.5 809 Q60 830 31 855 Q2 880 -20 909 Q28 903 63 903 Q83 903 102.5 904.5 Q122 906 143 908 Q150 888 158.5 869 Q167 850 178.5 833 Q190 816 205.5 802.5 Q221 789 241 780 L227 747 Z " />
<glyph glyph-name="Iacute" unicode="&#xcd;" horiz-adv-x="339" d="M21 34 Q30 35 39.5 35.5 Q49 36 58 38 Q83 45 92.5 63 Q102 81 102 105 L102 595 Q102 619 97 633 Q92 647 82.5 655 Q73 663 57.5 666 Q42 669 21 671 L22 709 Q60 708 97 707 Q134 706 170 706 Q206 706 242 707 Q278 708 316 709 L316 671 Q306 670 295.5 669.5 Q285 669 275 666 Q250 658 243 639 Q236 620 236 595 L236 110 Q236 72 251.5 55 Q267 38 303 35 L316 34 L316 -4 Q278 -2 241.5 -1 Q205 0 169 0 Q133 0 96 -1 Q59 -2 21 -4 L21 34 Z M80 780 Q122 800 142.5 833 Q163 866 178 908 Q199 906 218.5 904.5 Q238 903 258 903 Q293 903 341 909 Q319 881 290 855.5 Q261 830 228 809 Q195 788 160.5 772 Q126 756 93 747 L80 780 Z " />
<glyph glyph-name="Icircumflex" unicode="&#xce;" horiz-adv-x="339" d="M21 34 Q30 35 39.5 35.5 Q49 36 58 38 Q83 45 92.5 63 Q102 81 102 105 L102 595 Q102 619 97 633 Q92 647 82.5 655 Q73 663 57.5 666 Q42 669 21 671 L22 709 Q60 708 97 707 Q134 706 170 706 Q206 706 242 707 Q278 708 316 709 L316 671 Q306 670 295.5 669.5 Q285 669 275 666 Q250 658 243 639 Q236 620 236 595 L236 110 Q236 72 251.5 55 Q267 38 303 35 L316 34 L316 -4 Q278 -2 241.5 -1 Q205 0 169 0 Q133 0 96 -1 Q59 -2 21 -4 L21 34 Z M10 781 Q52 804 71 835 Q90 866 99 911 Q113 910 124.5 909.5 Q136 909 148 909 Q168 909 187.5 911 Q207 913 228 915 Q239 868 263.5 837 Q288 806 328 779 L312 750 Q270 764 234 783.5 Q198 803 166 829 Q140 803 100 782.5 Q60 762 25 751 L10 781 Z " />
<glyph glyph-name="Idieresis" unicode="&#xcf;" horiz-adv-x="339" d="M21 34 Q30 35 39.5 35.5 Q49 36 58 38 Q83 45 92.5 63 Q102 81 102 105 L102 595 Q102 619 97 633 Q92 647 82.5 655 Q73 663 57.5 666 Q42 669 21 671 L22 709 Q60 708 97 707 Q134 706 170 706 Q206 706 242 707 Q278 708 316 709 L316 671 Q306 670 295.5 669.5 Q285 669 275 666 Q250 658 243 639 Q236 620 236 595 L236 110 Q236 72 251.5 55 Q267 38 303 35 L316 34 L316 -4 Q278 -2 241.5 -1 Q205 0 169 0 Q133 0 96 -1 Q59 -2 21 -4 L21 34 Z M269 758 Q240 758 220 779 Q200 800 200 828 Q200 857 220 877 Q240 897 269 897 Q298 897 318 877.5 Q338 858 338 829 Q338 800 318 779 Q298 758 269 758 Z M65 758 Q36 758 16 779 Q-4 800 -4 828 Q-4 857 16 877 Q36 897 65 897 Q94 897 114 877.5 Q134 858 134 829 Q134 800 114 779 Q94 758 65 758 Z " />
<glyph glyph-name="Imacron" unicode="&#x12a;" horiz-adv-x="339" d="M21 34 Q30 35 39.5 35.5 Q49 36 58 38 Q83 45 92.5 63 Q102 81 102 105 L102 595 Q102 619 97 633 Q92 647 82.5 655 Q73 663 57.5 666 Q42 669 21 671 L22 709 Q60 708 97 707 Q134 706 170 706 Q206 706 242 707 Q278 708 316 709 L316 671 Q306 670 295.5 669.5 Q285 669 275 666 Q250 658 243 639 Q236 620 236 595 L236 110 Q236 72 251.5 55 Q267 38 303 35 L316 34 L316 -4 Q278 -2 241.5 -1 Q205 0 169 0 Q133 0 96 -1 Q59 -2 21 -4 L21 34 Z M1 858 L337 858 L337 772 L1 772 L1 858 Z " />
<glyph glyph-name="Idotaccent" unicode="&#x130;" horiz-adv-x="339" d="M21 34 Q30 35 39.5 35.5 Q49 36 58 38 Q83 45 92.5 63 Q102 81 102 105 L102 595 Q102 619 97 633 Q92 647 82.5 655 Q73 663 57.5 666 Q42 669 21 671 L22 709 Q60 708 97 707 Q134 706 170 706 Q206 706 242 707 Q278 708 316 709 L316 671 Q306 670 295.5 669.5 Q285 669 275 666 Q250 658 243 639 Q236 620 236 595 L236 110 Q236 72 251.5 55 Q267 38 303 35 L316 34 L316 -4 Q278 -2 241.5 -1 Q205 0 169 0 Q133 0 96 -1 Q59 -2 21 -4 L21 34 Z M96 826 Q96 841 102 854.5 Q108 868 118.5 877.5 Q129 887 142.5 892.5 Q156 898 171 898 Q201 898 221.5 878 Q242 858 242 828 Q242 797 221.5 775 Q201 753 169 753 Q138 753 117 774 Q96 795 96 826 Z " />
<glyph glyph-name="Iogonek" unicode="&#x12e;" horiz-adv-x="339" d="M267 -171 Q259 -181 246 -190 Q233 -199 217.5 -205.5 Q202 -212 184 -216 Q166 -220 150 -220 Q103 -220 74.5 -201 Q46 -182 46 -136 Q46 -110 62.5 -86 Q79 -62 102 -43.5 Q125 -25 151 -12 Q165 -5 177 0 L169 0 Q133 0 96 -1 Q59 -2 21 -4 L21 34 Q30 35 39.5 35.5 Q49 36 58 38 Q83 45 92.5 63 Q102 81 102 105 L102 595 Q102 619 97 633 Q92 647 82.5 655 Q73 663 57.5 666 Q42 669 21 671 L22 709 Q60 708 97 707 Q134 706 170 706 Q206 706 242 707 Q278 708 316 709 L316 671 Q306 670 295.5 669.5 Q285 669 275 666 Q250 658 243 639 Q236 620 236 595 L236 110 Q236 72 251.5 55 Q267 38 303 35 L316 34 L316 -4 Q278 -2 241 -1 Q238 -1 234 0 Q208 -21 192 -38 Q173 -58 163 -74 Q153 -90 149.5 -103 Q146 -116 146 -127 Q146 -150 155.5 -161 Q165 -172 179 -172 Q198 -172 215.5 -164.5 Q233 -157 245 -146 L267 -171 Z " />
<glyph glyph-name="Kcommaaccent" unicode="&#x136;" horiz-adv-x="756" d="M24 34 Q46 37 61.5 40 Q77 43 86.5 51 Q96 59 100 72.5 Q104 86 104 110 L104 594 Q104 618 99.5 632 Q95 646 85.5 654 Q76 662 60.5 665 Q45 668 24 670 L24 708 Q62 707 98 706.5 Q134 706 170 706 Q206 706 242.5 706.5 Q279 707 317 708 L317 670 Q296 668 280.5 665 Q265 662 255.5 654 Q246 646 241 632 Q236 618 236 594 L236 360 L467 596 Q478 607 488.5 619.5 Q499 632 499 649 Q499 658 493 662.5 Q487 667 478 668.5 Q469 670 459 670.5 Q449 671 442 671 L442 709 Q476 708 508 707 Q540 706 572 706 Q603 706 634.5 707 Q666 708 699 709 L698 671 Q653 671 622.5 660 Q592 649 561 618 L369 428 L640 97 Q653 81 664 69.5 Q675 58 687 50.5 Q699 43 714 39 Q729 35 752 34 L751 -4 Q720 -2 691 -1 Q662 0 633 0 Q605 0 576.5 -1 Q548 -2 518 -4 Q516 25 509 41 Q502 57 485 77 L273 333 L236 296 L236 110 Q236 86 241 72 Q246 58 255.5 50 Q265 42 280.5 39 Q296 36 317 34 L317 -4 Q279 -2 242.5 -1 Q206 0 170 0 Q134 0 98 -1 Q62 -2 24 -4 L24 34 Z M337 -226 Q349 -215 357 -203.5 Q365 -192 365 -177 Q365 -159 347.5 -139.5 Q330 -120 313 -107 L411 -47 Q426 -64 435.5 -84.5 Q445 -105 445 -126 Q445 -146 437 -163.5 Q429 -181 418 -195 Q405 -211 391 -224 Q377 -237 363 -250 L337 -226 Z " />
<glyph glyph-name="Lacute" unicode="&#x139;" horiz-adv-x="610" d="M22 34 Q44 36 59.5 40 Q75 44 85 52 Q95 60 99 73.5 Q103 87 103 110 L103 595 Q103 603 102 612 Q101 621 99 629 Q94 644 86.5 652 Q79 660 69 664 Q59 668 47 669 Q35 670 22 671 L22 709 Q61 708 98 707 Q135 706 172 706 Q209 706 246 707 Q283 708 322 709 L322 671 Q311 670 297.5 669.5 Q284 669 274 665 Q251 657 244 637.5 Q237 618 237 595 L237 110 Q237 87 246.5 73.5 Q256 60 272 53 Q288 46 307 44 Q326 42 346 42 Q388 42 423.5 45.5 Q459 49 486 63 Q513 77 531 105 Q549 133 557 182 L600 182 Q594 134 590 89 Q586 44 583 -4 Q492 -3 404.5 -1.5 Q317 0 229 0 Q178 0 127 -1 Q76 -2 22 -4 L22 34 Z M209 780 Q251 800 271.5 833 Q292 866 307 908 Q328 906 347.5 904.5 Q367 903 387 903 Q422 903 470 909 Q448 881 419 855.5 Q390 830 357 809 Q324 788 289.5 772 Q255 756 222 747 L209 780 Z " />
<glyph glyph-name="Lcaron" unicode="&#x13d;" horiz-adv-x="610" d="M22 34 Q44 36 59.5 40 Q75 44 85 52 Q95 60 99 73.5 Q103 87 103 110 L103 595 Q103 603 102 612 Q101 621 99 629 Q94 644 86.5 652 Q79 660 69 664 Q59 668 47 669 Q35 670 22 671 L22 709 Q61 708 98 707 Q135 706 172 706 Q209 706 246 707 Q283 708 322 709 L322 671 Q311 670 297.5 669.5 Q284 669 274 665 Q251 657 244 637.5 Q237 618 237 595 L237 110 Q237 87 246.5 73.5 Q256 60 272 53 Q288 46 307 44 Q326 42 346 42 Q388 42 423.5 45.5 Q459 49 486 63 Q513 77 531 105 Q549 133 557 182 L600 182 Q594 134 590 89 Q586 44 583 -4 Q492 -3 404.5 -1.5 Q317 0 229 0 Q178 0 127 -1 Q76 -2 22 -4 L22 34 Z M377 501 Q395 524 408 547.5 Q421 571 421 599 Q421 625 408 646.5 Q395 668 377 689 L490 769 Q510 747 517.5 727 Q525 707 525 679 Q525 648 513.5 620 Q502 592 484 567.5 Q466 543 443.5 521 Q421 499 399 480 L377 501 Z " />
<glyph glyph-name="Lcommaaccent" unicode="&#x13b;" horiz-adv-x="610" d="M22 34 Q44 36 59.5 40 Q75 44 85 52 Q95 60 99 73.5 Q103 87 103 110 L103 595 Q103 603 102 612 Q101 621 99 629 Q94 644 86.5 652 Q79 660 69 664 Q59 668 47 669 Q35 670 22 671 L22 709 Q61 708 98 707 Q135 706 172 706 Q209 706 246 707 Q283 708 322 709 L322 671 Q311 670 297.5 669.5 Q284 669 274 665 Q251 657 244 637.5 Q237 618 237 595 L237 110 Q237 87 246.5 73.5 Q256 60 272 53 Q288 46 307 44 Q326 42 346 42 Q388 42 423.5 45.5 Q459 49 486 63 Q513 77 531 105 Q549 133 557 182 L600 182 Q594 134 590 89 Q586 44 583 -4 Q492 -3 404.5 -1.5 Q317 0 229 0 Q178 0 127 -1 Q76 -2 22 -4 L22 34 Z M264 -226 Q276 -215 284 -203.5 Q292 -192 292 -177 Q292 -159 274.5 -139.5 Q257 -120 240 -107 L338 -47 Q353 -64 362.5 -84.5 Q372 -105 372 -126 Q372 -146 364 -163.5 Q356 -181 345 -195 Q332 -211 318 -224 Q304 -237 290 -250 L264 -226 Z " />
<glyph glyph-name="Lslash" unicode="&#x141;" horiz-adv-x="610" d="M22 34 Q44 36 59.5 40 Q75 44 85 52 Q95 60 99 73.5 Q103 87 103 110 L103 277 L20 228 L20 293 L103 342 L103 595 Q103 603 102 612 Q101 621 99 629 Q94 644 86.5 652 Q79 660 69 664 Q59 668 47 669 Q35 670 22 671 L22 709 Q61 708 98 707 Q135 706 172 706 Q209 706 246 707 Q283 708 322 709 L322 671 Q311 670 297.5 669.5 Q284 669 274 665 Q251 657 244 637.5 Q237 618 237 595 L237 422 L402 520 L402 455 L237 357 L237 110 Q237 87 246.5 73.5 Q256 60 272 53 Q288 46 307 44 Q326 42 346 42 Q388 42 423.5 45.5 Q459 49 486 63 Q513 77 531 105 Q549 133 557 182 L600 182 Q594 134 590 89 Q586 44 583 -4 Q492 -3 404.5 -1.5 Q317 0 229 0 Q178 0 127 -1 Q76 -2 22 -4 L22 34 Z " />
<glyph glyph-name="Nacute" unicode="&#x143;" horiz-adv-x="818" d="M15 35 Q38 37 53.5 40.5 Q69 44 79 52 Q89 60 93 74 Q97 88 97 111 L97 626 Q87 646 77 655.5 Q67 665 46 668 Q40 669 33 669.5 Q26 670 15 671 L15 709 Q41 708 66 707 Q91 706 115 706 Q137 706 158.5 707 Q180 708 203 709 L670 191 L664 595 Q663 625 653 644 Q643 663 611 668 Q604 669 597 669.5 Q590 670 580 671 L580 709 Q609 708 636.5 707 Q664 706 691 706 Q718 706 745 707 Q772 708 801 709 L801 671 Q794 671 789.5 670.5 Q785 670 780 670 Q745 667 732.5 648 Q720 629 720 595 L720 -12 L681 -12 L147 577 L153 111 Q153 101 155 90.5 Q157 80 160 71 Q164 58 172.5 51.5 Q181 45 191.5 41.5 Q202 38 213.5 37 Q225 36 236 35 L236 -3 Q207 -2 179 -1 Q151 0 124 0 Q98 0 71 -1 Q44 -2 15 -3 L15 35 Z M325 780 Q367 800 387.5 833 Q408 866 423 908 Q444 906 463.5 904.5 Q483 903 503 903 Q538 903 586 909 Q564 881 535 855.5 Q506 830 473 809 Q440 788 405.5 772 Q371 756 338 747 L325 780 Z " />
<glyph glyph-name="Ncaron" unicode="&#x147;" horiz-adv-x="818" d="M15 35 Q38 37 53.5 40.5 Q69 44 79 52 Q89 60 93 74 Q97 88 97 111 L97 626 Q87 646 77 655.5 Q67 665 46 668 Q40 669 33 669.5 Q26 670 15 671 L15 709 Q41 708 66 707 Q91 706 115 706 Q137 706 158.5 707 Q180 708 203 709 L670 191 L664 595 Q663 625 653 644 Q643 663 611 668 Q604 669 597 669.5 Q590 670 580 671 L580 709 Q609 708 636.5 707 Q664 706 691 706 Q718 706 745 707 Q772 708 801 709 L801 671 Q794 671 789.5 670.5 Q785 670 780 670 Q745 667 732.5 648 Q720 629 720 595 L720 -12 L681 -12 L147 577 L153 111 Q153 101 155 90.5 Q157 80 160 71 Q164 58 172.5 51.5 Q181 45 191.5 41.5 Q202 38 213.5 37 Q225 36 236 35 L236 -3 Q207 -2 179 -1 Q151 0 124 0 Q98 0 71 -1 Q44 -2 15 -3 L15 35 Z M265 912 Q305 902 342.5 880 Q380 858 412 835 Q439 861 477.5 880.5 Q516 900 553 913 L568 882 Q527 862 507 829 Q487 796 480 753 Q466 754 454.5 754.5 Q443 755 432 755 Q412 755 391.5 753 Q371 751 350 748 Q345 757 343.5 766 Q342 775 339 784 Q328 816 304 840 Q280 864 250 884 L265 912 Z " />
<glyph glyph-name="Ntilde" unicode="&#xd1;" horiz-adv-x="818" d="M15 35 Q38 37 53.5 40.5 Q69 44 79 52 Q89 60 93 74 Q97 88 97 111 L97 626 Q87 646 77 655.5 Q67 665 46 668 Q40 669 33 669.5 Q26 670 15 671 L15 709 Q41 708 66 707 Q91 706 115 706 Q137 706 158.5 707 Q180 708 203 709 L670 191 L664 595 Q663 625 653 644 Q643 663 611 668 Q604 669 597 669.5 Q590 670 580 671 L580 709 Q609 708 636.5 707 Q664 706 691 706 Q718 706 745 707 Q772 708 801 709 L801 671 Q794 671 789.5 670.5 Q785 670 780 670 Q745 667 732.5 648 Q720 629 720 595 L720 -12 L681 -12 L147 577 L153 111 Q153 101 155 90.5 Q157 80 160 71 Q164 58 172.5 51.5 Q181 45 191.5 41.5 Q202 38 213.5 37 Q225 36 236 35 L236 -3 Q207 -2 179 -1 Q151 0 124 0 Q98 0 71 -1 Q44 -2 15 -3 L15 35 Z M248 784 Q255 801 263.5 821.5 Q272 842 284 859.5 Q296 877 312 889 Q328 901 351 901 Q366 901 382.5 896 Q399 891 415.5 884 Q432 877 448 869.5 Q464 862 479 857 Q500 849 517 849 Q534 849 544 858.5 Q554 868 562 885 L594 868 Q589 858 585.5 848.5 Q582 839 577 830 Q571 817 562.5 803.5 Q554 790 543.5 779.5 Q533 769 520 762.5 Q507 756 490 756 Q475 756 459 760.5 Q443 765 426.5 772 Q410 779 394 786 Q378 793 364 798 Q342 806 326 806 Q309 806 300.5 797.5 Q292 789 284 772 L248 784 Z " />
<glyph glyph-name="Ncommaaccent" unicode="&#x145;" horiz-adv-x="818" d="M15 35 Q38 37 53.5 40.5 Q69 44 79 52 Q89 60 93 74 Q97 88 97 111 L97 626 Q87 646 77 655.5 Q67 665 46 668 Q40 669 33 669.5 Q26 670 15 671 L15 709 Q41 708 66 707 Q91 706 115 706 Q137 706 158.5 707 Q180 708 203 709 L670 191 L664 595 Q663 625 653 644 Q643 663 611 668 Q604 669 597 669.5 Q590 670 580 671 L580 709 Q609 708 636.5 707 Q664 706 691 706 Q718 706 745 707 Q772 708 801 709 L801 671 Q794 671 789.5 670.5 Q785 670 780 670 Q745 667 732.5 648 Q720 629 720 595 L720 -12 L681 -12 L147 577 L153 111 Q153 101 155 90.5 Q157 80 160 71 Q164 58 172.5 51.5 Q181 45 191.5 41.5 Q202 38 213.5 37 Q225 36 236 35 L236 -3 Q207 -2 179 -1 Q151 0 124 0 Q98 0 71 -1 Q44 -2 15 -3 L15 35 Z M368 -226 Q380 -215 388 -203.5 Q396 -192 396 -177 Q396 -159 378.5 -139.5 Q361 -120 344 -107 L442 -47 Q457 -64 466.5 -84.5 Q476 -105 476 -126 Q476 -146 468 -163.5 Q460 -181 449 -195 Q436 -211 422 -224 Q408 -237 394 -250 L368 -226 Z " />
<glyph glyph-name="Ograve" unicode="&#xd2;" horiz-adv-x="891" d="M155 89 Q97 141 71 207 Q45 273 45 350 Q45 435 76 504 Q107 573 160.5 622 Q214 671 285.5 697.5 Q357 724 439 724 Q530 724 607.5 694 Q685 664 748 597 Q799 543 822.5 481.5 Q846 420 846 347 Q846 287 828 232 Q810 177 777 131 Q744 85 697.5 51 Q651 17 594 -1 Q562 -11 527.5 -14.5 Q493 -18 460 -18 Q373 -18 297 5.5 Q221 29 155 89 Z M260 158 Q297 95 349.5 60 Q402 25 475 25 Q540 25 593 61 Q623 82 642 109 Q661 136 672 167 Q683 198 687 232 Q691 266 691 301 Q691 364 675 431.5 Q659 499 625 554 Q591 609 538.5 644.5 Q486 680 413 680 Q355 680 314 657 Q273 634 246.5 596 Q220 558 208 509 Q196 460 196 408 Q196 339 210.5 278.5 Q225 218 260 158 Z M497 747 Q464 757 429.5 772.5 Q395 788 362.5 809 Q330 830 301 855 Q272 880 250 909 Q298 903 333 903 Q353 903 372.5 904.5 Q392 906 413 908 Q420 888 428.5 869 Q437 850 448.5 833 Q460 816 475.5 802.5 Q491 789 511 780 L497 747 Z " />
<glyph glyph-name="Oacute" unicode="&#xd3;" horiz-adv-x="891" d="M155 89 Q97 141 71 207 Q45 273 45 350 Q45 435 76 504 Q107 573 160.5 622 Q214 671 285.5 697.5 Q357 724 439 724 Q530 724 607.5 694 Q685 664 748 597 Q799 543 822.5 481.5 Q846 420 846 347 Q846 287 828 232 Q810 177 777 131 Q744 85 697.5 51 Q651 17 594 -1 Q562 -11 527.5 -14.5 Q493 -18 460 -18 Q373 -18 297 5.5 Q221 29 155 89 Z M260 158 Q297 95 349.5 60 Q402 25 475 25 Q540 25 593 61 Q623 82 642 109 Q661 136 672 167 Q683 198 687 232 Q691 266 691 301 Q691 364 675 431.5 Q659 499 625 554 Q591 609 538.5 644.5 Q486 680 413 680 Q355 680 314 657 Q273 634 246.5 596 Q220 558 208 509 Q196 460 196 408 Q196 339 210.5 278.5 Q225 218 260 158 Z M335 780 Q377 800 397.5 833 Q418 866 433 908 Q454 906 473.5 904.5 Q493 903 513 903 Q548 903 596 909 Q574 881 545 855.5 Q516 830 483 809 Q450 788 415.5 772 Q381 756 348 747 L335 780 Z " />
<glyph glyph-name="Ocircumflex" unicode="&#xd4;" horiz-adv-x="891" d="M155 89 Q97 141 71 207 Q45 273 45 350 Q45 435 76 504 Q107 573 160.5 622 Q214 671 285.5 697.5 Q357 724 439 724 Q530 724 607.5 694 Q685 664 748 597 Q799 543 822.5 481.5 Q846 420 846 347 Q846 287 828 232 Q810 177 777 131 Q744 85 697.5 51 Q651 17 594 -1 Q562 -11 527.5 -14.5 Q493 -18 460 -18 Q373 -18 297 5.5 Q221 29 155 89 Z M260 158 Q297 95 349.5 60 Q402 25 475 25 Q540 25 593 61 Q623 82 642 109 Q661 136 672 167 Q683 198 687 232 Q691 266 691 301 Q691 364 675 431.5 Q659 499 625 554 Q591 609 538.5 644.5 Q486 680 413 680 Q355 680 314 657 Q273 634 246.5 596 Q220 558 208 509 Q196 460 196 408 Q196 339 210.5 278.5 Q225 218 260 158 Z M284 781 Q326 804 345 835 Q364 866 373 911 Q387 910 398.5 909.5 Q410 909 422 909 Q442 909 461.5 911 Q481 913 502 915 Q513 868 537.5 837 Q562 806 602 779 L586 750 Q544 764 508 783.5 Q472 803 440 829 Q414 803 374 782.5 Q334 762 299 751 L284 781 Z " />
<glyph glyph-name="Otilde" unicode="&#xd5;" horiz-adv-x="891" d="M155 89 Q97 141 71 207 Q45 273 45 350 Q45 435 76 504 Q107 573 160.5 622 Q214 671 285.5 697.5 Q357 724 439 724 Q530 724 607.5 694 Q685 664 748 597 Q799 543 822.5 481.5 Q846 420 846 347 Q846 287 828 232 Q810 177 777 131 Q744 85 697.5 51 Q651 17 594 -1 Q562 -11 527.5 -14.5 Q493 -18 460 -18 Q373 -18 297 5.5 Q221 29 155 89 Z M260 158 Q297 95 349.5 60 Q402 25 475 25 Q540 25 593 61 Q623 82 642 109 Q661 136 672 167 Q683 198 687 232 Q691 266 691 301 Q691 364 675 431.5 Q659 499 625 554 Q591 609 538.5 644.5 Q486 680 413 680 Q355 680 314 657 Q273 634 246.5 596 Q220 558 208 509 Q196 460 196 408 Q196 339 210.5 278.5 Q225 218 260 158 Z M290 784 Q297 801 305.5 821.5 Q314 842 326 859.5 Q338 877 354 889 Q370 901 393 901 Q408 901 424.5 896 Q441 891 457.5 884 Q474 877 490 869.5 Q506 862 521 857 Q542 849 559 849 Q576 849 586 858.5 Q596 868 604 885 L636 868 Q631 858 627.5 848.5 Q624 839 619 830 Q613 817 604.5 803.5 Q596 790 585.5 779.5 Q575 769 562 762.5 Q549 756 532 756 Q517 756 501 760.5 Q485 765 468.5 772 Q452 779 436 786 Q420 793 406 798 Q384 806 368 806 Q351 806 342.5 797.5 Q334 789 326 772 L290 784 Z " />
<glyph glyph-name="Odieresis" unicode="&#xd6;" horiz-adv-x="891" d="M155 89 Q97 141 71 207 Q45 273 45 350 Q45 435 76 504 Q107 573 160.5 622 Q214 671 285.5 697.5 Q357 724 439 724 Q530 724 607.5 694 Q685 664 748 597 Q799 543 822.5 481.5 Q846 420 846 347 Q846 287 828 232 Q810 177 777 131 Q744 85 697.5 51 Q651 17 594 -1 Q562 -11 527.5 -14.5 Q493 -18 460 -18 Q373 -18 297 5.5 Q221 29 155 89 Z M260 158 Q297 95 349.5 60 Q402 25 475 25 Q540 25 593 61 Q623 82 642 109 Q661 136 672 167 Q683 198 687 232 Q691 266 691 301 Q691 364 675 431.5 Q659 499 625 554 Q591 609 538.5 644.5 Q486 680 413 680 Q355 680 314 657 Q273 634 246.5 596 Q220 558 208 509 Q196 460 196 408 Q196 339 210.5 278.5 Q225 218 260 158 Z M551 758 Q522 758 502 779 Q482 800 482 828 Q482 857 502 877 Q522 897 551 897 Q580 897 600 877.5 Q620 858 620 829 Q620 800 600 779 Q580 758 551 758 Z M347 758 Q318 758 298 779 Q278 800 278 828 Q278 857 298 877 Q318 897 347 897 Q376 897 396 877.5 Q416 858 416 829 Q416 800 396 779 Q376 758 347 758 Z " />
<glyph glyph-name="Omacron" unicode="&#x14c;" horiz-adv-x="891" d="M155 89 Q97 141 71 207 Q45 273 45 350 Q45 435 76 504 Q107 573 160.5 622 Q214 671 285.5 697.5 Q357 724 439 724 Q530 724 607.5 694 Q685 664 748 597 Q799 543 822.5 481.5 Q846 420 846 347 Q846 287 828 232 Q810 177 777 131 Q744 85 697.5 51 Q651 17 594 -1 Q562 -11 527.5 -14.5 Q493 -18 460 -18 Q373 -18 297 5.5 Q221 29 155 89 Z M260 158 Q297 95 349.5 60 Q402 25 475 25 Q540 25 593 61 Q623 82 642 109 Q661 136 672 167 Q683 198 687 232 Q691 266 691 301 Q691 364 675 431.5 Q659 499 625 554 Q591 609 538.5 644.5 Q486 680 413 680 Q355 680 314 657 Q273 634 246.5 596 Q220 558 208 509 Q196 460 196 408 Q196 339 210.5 278.5 Q225 218 260 158 Z M274 858 L610 858 L610 772 L274 772 L274 858 Z " />
<glyph glyph-name="Ohungarumlaut" unicode="&#x150;" horiz-adv-x="891" d="M155 89 Q97 141 71 207 Q45 273 45 350 Q45 435 76 504 Q107 573 160.5 622 Q214 671 285.5 697.5 Q357 724 439 724 Q530 724 607.5 694 Q685 664 748 597 Q799 543 822.5 481.5 Q846 420 846 347 Q846 287 828 232 Q810 177 777 131 Q744 85 697.5 51 Q651 17 594 -1 Q562 -11 527.5 -14.5 Q493 -18 460 -18 Q373 -18 297 5.5 Q221 29 155 89 Z M260 158 Q297 95 349.5 60 Q402 25 475 25 Q540 25 593 61 Q623 82 642 109 Q661 136 672 167 Q683 198 687 232 Q691 266 691 301 Q691 364 675 431.5 Q659 499 625 554 Q591 609 538.5 644.5 Q486 680 413 680 Q355 680 314 657 Q273 634 246.5 596 Q220 558 208 509 Q196 460 196 408 Q196 339 210.5 278.5 Q225 218 260 158 Z M471 780 Q489 791 503 802 Q517 813 530 828 Q543 843 555.5 863.5 Q568 884 583 914 Q604 911 623 909 Q642 907 658 907 Q676 907 696.5 908.5 Q717 910 734 912 Q711 880 682.5 855 Q654 830 621.5 811 Q589 792 554.5 777 Q520 762 484 750 L471 780 Z M256 780 Q274 791 288 802 Q302 813 315 828 Q328 843 340.5 863.5 Q353 884 368 914 Q389 911 408 909 Q427 907 443 907 Q461 907 481.5 908.5 Q502 910 519 912 Q496 880 467.5 855 Q439 830 406.5 811 Q374 792 339.5 777 Q305 762 269 750 L256 780 Z " />
<glyph glyph-name="Oslash" unicode="&#xd8;" horiz-adv-x="891" d="M141 106 Q90 157 67.5 219 Q45 281 45 353 Q45 438 76 507 Q107 576 160.5 625 Q214 674 285.5 700.5 Q357 727 439 727 Q517 727 585 705 Q653 683 711 635 L781 699 L813 665 L746 602 Q799 547 822.5 485 Q846 423 846 350 Q846 290 828 235 Q810 180 777 134 Q744 88 697.5 54 Q651 20 594 2 Q562 -8 527.5 -11.5 Q493 -15 460 -15 Q380 -15 309.5 5 Q239 25 176 74 L94 -2 L61 31 L141 106 Z M626 555 Q592 611 540 647 Q488 683 413 683 Q355 683 314 660 Q273 637 246.5 599 Q220 561 208 512 Q196 463 196 411 Q196 352 206 300 Q216 248 240 197 L626 555 Z M264 155 Q300 95 351.5 61.5 Q403 28 475 28 Q540 28 593 64 Q623 85 642 112 Q661 139 672 170 Q683 201 687 235 Q691 269 691 304 Q691 355 680.5 408.5 Q670 462 648 512 L264 155 Z " />
<glyph glyph-name="OE" unicode="&#x152;" horiz-adv-x="1053" d="M669 124 L669 123 Q669 108 671 92 Q673 76 684 64 Q691 57 703 53 Q715 49 729.5 47 Q744 45 759.5 44.5 Q775 44 788 44 L811 44 Q885 44 924 77.5 Q963 111 981 183 L1020 177 Q1011 132 1006 89.5 Q1001 47 999 0 Q944 1 891.5 1 Q839 1 786 2 Q757 3 728.5 3.5 Q700 4 671 4 Q636 4 602 3.5 Q568 3 533 0 Q504 -2 474 -5 Q444 -8 414 -8 Q320 -8 238.5 32 Q157 72 104 149 Q72 195 58.5 247 Q45 299 45 354 Q45 451 85 532 Q125 613 211 664 Q265 696 321.5 708 Q378 720 440 720 Q493 720 544 714.5 Q595 709 648 709 Q726 709 802.5 710.5 Q879 712 957 712 L963 712 Q966 667 968 623 Q970 579 975 534 L936 534 Q933 563 927 586 Q921 609 902 628 Q887 642 868.5 650 Q850 658 830 661.5 Q810 665 788.5 666 Q767 667 748 667 L669 667 L669 396 L768 396 Q794 396 817.5 405.5 Q841 415 850 441 Q854 452 853.5 465 Q853 478 854 489 L893 488 Q892 449 891.5 411.5 Q891 374 891 337 Q891 314 891.5 291 Q892 268 893 243 L854 243 Q853 266 851.5 287.5 Q850 309 833 327 Q816 346 792.5 349.5 Q769 353 744 353 L669 353 L669 124 Z M536 598 Q536 622 525 637 Q514 652 496.5 660.5 Q479 669 458 672 Q437 675 417 675 Q355 675 313.5 651.5 Q272 628 246.5 588.5 Q221 549 210 498 Q199 447 199 392 Q199 333 212.5 270 Q226 207 256 155 Q286 103 334.5 69.5 Q383 36 452 36 Q487 36 511.5 52.5 Q536 69 536 107 L536 598 Z " />
<glyph glyph-name="Racute" unicode="&#x154;" horiz-adv-x="694" d="M22 34 Q45 36 61 39 Q77 42 87 50 Q97 58 101.5 72 Q106 86 106 110 L106 595 Q106 619 101 633.5 Q96 648 85.5 655.5 Q75 663 59.5 666 Q44 669 22 671 L23 709 Q58 708 90 707 Q122 706 154 706 Q200 706 245 709 Q290 712 336 712 Q348 712 360 711.5 Q372 711 384 710 Q425 707 461 694.5 Q497 682 523.5 658.5 Q550 635 565.5 601.5 Q581 568 581 524 Q581 491 570.5 462 Q560 433 541.5 410.5 Q523 388 496.5 372 Q470 356 439 349 L563 122 Q573 103 585 85 Q597 67 612 52.5 Q627 38 646 29.5 Q665 21 689 21 L688 -8 Q664 -14 644 -14 Q588 -14 539.5 -0.5 Q491 13 450 56 Q435 72 424 90.5 Q413 109 403 129 L357 223 Q352 233 345 247.5 Q338 262 330 276 Q322 290 312.5 302 Q303 314 293 319 Q280 325 266.5 325 Q253 325 239 327 L239 110 Q239 93 242 76.5 Q245 60 259 49 Q273 38 287.5 37 Q302 36 319 34 L319 -4 Q280 -2 243.5 -1 Q207 0 170 0 Q134 0 97 -1 Q60 -2 22 -4 L22 34 Z M239 368 Q258 365 277 365 Q299 365 320.5 367 Q342 369 361.5 375.5 Q381 382 397 394 Q413 406 425 426 Q436 443 440 461.5 Q444 480 444 501 Q444 535 433.5 566 Q423 597 403.5 620.5 Q384 644 356 658 Q328 672 292 672 Q278 672 265.5 671.5 Q253 671 239 670 L239 368 Z M226 780 Q268 800 288.5 833 Q309 866 324 908 Q345 906 364.5 904.5 Q384 903 404 903 Q439 903 487 909 Q465 881 436 855.5 Q407 830 374 809 Q341 788 306.5 772 Q272 756 239 747 L226 780 Z " />
<glyph glyph-name="Rcaron" unicode="&#x158;" horiz-adv-x="694" d="M22 34 Q45 36 61 39 Q77 42 87 50 Q97 58 101.5 72 Q106 86 106 110 L106 595 Q106 619 101 633.5 Q96 648 85.5 655.5 Q75 663 59.5 666 Q44 669 22 671 L23 709 Q58 708 90 707 Q122 706 154 706 Q200 706 245 709 Q290 712 336 712 Q348 712 360 711.5 Q372 711 384 710 Q425 707 461 694.5 Q497 682 523.5 658.5 Q550 635 565.5 601.5 Q581 568 581 524 Q581 491 570.5 462 Q560 433 541.5 410.5 Q523 388 496.5 372 Q470 356 439 349 L563 122 Q573 103 585 85 Q597 67 612 52.5 Q627 38 646 29.5 Q665 21 689 21 L688 -8 Q664 -14 644 -14 Q588 -14 539.5 -0.5 Q491 13 450 56 Q435 72 424 90.5 Q413 109 403 129 L357 223 Q352 233 345 247.5 Q338 262 330 276 Q322 290 312.5 302 Q303 314 293 319 Q280 325 266.5 325 Q253 325 239 327 L239 110 Q239 93 242 76.5 Q245 60 259 49 Q273 38 287.5 37 Q302 36 319 34 L319 -4 Q280 -2 243.5 -1 Q207 0 170 0 Q134 0 97 -1 Q60 -2 22 -4 L22 34 Z M239 368 Q258 365 277 365 Q299 365 320.5 367 Q342 369 361.5 375.5 Q381 382 397 394 Q413 406 425 426 Q436 443 440 461.5 Q444 480 444 501 Q444 535 433.5 566 Q423 597 403.5 620.5 Q384 644 356 658 Q328 672 292 672 Q278 672 265.5 671.5 Q253 671 239 670 L239 368 Z M143 912 Q183 902 220.5 880 Q258 858 290 835 Q317 861 355.5 880.5 Q394 900 431 913 L446 882 Q405 862 385 829 Q365 796 358 753 Q344 754 332.5 754.5 Q321 755 310 755 Q290 755 269.5 753 Q249 751 228 748 Q223 757 221.5 766 Q220 775 217 784 Q206 816 182 840 Q158 864 128 884 L143 912 Z " />
<glyph glyph-name="Rcommaaccent" unicode="&#x156;" horiz-adv-x="694" d="M22 34 Q45 36 61 39 Q77 42 87 50 Q97 58 101.5 72 Q106 86 106 110 L106 595 Q106 619 101 633.5 Q96 648 85.5 655.5 Q75 663 59.5 666 Q44 669 22 671 L23 709 Q58 708 90 707 Q122 706 154 706 Q200 706 245 709 Q290 712 336 712 Q348 712 360 711.5 Q372 711 384 710 Q425 707 461 694.5 Q497 682 523.5 658.5 Q550 635 565.5 601.5 Q581 568 581 524 Q581 491 570.5 462 Q560 433 541.5 410.5 Q523 388 496.5 372 Q470 356 439 349 L563 122 Q573 103 585 85 Q597 67 612 52.5 Q627 38 646 29.5 Q665 21 689 21 L688 -8 Q664 -14 644 -14 Q588 -14 539.5 -0.5 Q491 13 450 56 Q435 72 424 90.5 Q413 109 403 129 L357 223 Q352 233 345 247.5 Q338 262 330 276 Q322 290 312.5 302 Q303 314 293 319 Q280 325 266.5 325 Q253 325 239 327 L239 110 Q239 93 242 76.5 Q245 60 259 49 Q273 38 287.5 37 Q302 36 319 34 L319 -4 Q280 -2 243.5 -1 Q207 0 170 0 Q134 0 97 -1 Q60 -2 22 -4 L22 34 Z M239 368 Q258 365 277 365 Q299 365 320.5 367 Q342 369 361.5 375.5 Q381 382 397 394 Q413 406 425 426 Q436 443 440 461.5 Q444 480 444 501 Q444 535 433.5 566 Q423 597 403.5 620.5 Q384 644 356 658 Q328 672 292 672 Q278 672 265.5 671.5 Q253 671 239 670 L239 368 Z M306 -226 Q318 -215 326 -203.5 Q334 -192 334 -177 Q334 -159 316.5 -139.5 Q299 -120 282 -107 L380 -47 Q395 -64 404.5 -84.5 Q414 -105 414 -126 Q414 -146 406 -163.5 Q398 -181 387 -195 Q374 -211 360 -224 Q346 -237 332 -250 L306 -226 Z " />
<glyph glyph-name="Sacute" unicode="&#x15a;" horiz-adv-x="548" d="M73 193 Q80 157 97.5 127 Q115 97 140.5 74.5 Q166 52 198 39.5 Q230 27 266 27 Q304 27 335 41 Q363 54 382.5 83 Q402 112 402 143 Q402 168 389.5 188 Q377 208 358.5 223.5 Q340 239 318 251 Q296 263 277 273 L226 300 Q192 318 158.5 337 Q125 356 98.5 380.5 Q72 405 55.5 437.5 Q39 470 39 515 Q39 549 49.5 579.5 Q60 610 79 635.5 Q98 661 124.5 680 Q151 699 183 710 Q211 719 242 721.5 Q273 724 302 724 Q347 724 390.5 718 Q434 712 478 698 Q480 652 481 608 Q482 564 485 517 L442 518 Q442 554 427.5 584.5 Q413 615 388.5 636.5 Q364 658 332.5 670.5 Q301 683 267 683 Q245 683 222.5 676 Q200 669 181.5 655.5 Q163 642 151 623 Q139 604 139 580 Q139 554 153 533.5 Q167 513 188 496.5 Q209 480 233 467 Q257 454 276 444 L328 416 Q339 410 353 402 Q367 394 381.5 385 Q396 376 409.5 367 Q423 358 433 351 Q508 295 508 200 Q508 154 493 117 Q478 80 444 48 Q404 10 355.5 -4 Q307 -18 253 -18 Q202 -18 146 -9.5 Q90 -1 40 16 Q38 61 36 104.5 Q34 148 31 193 L73 193 Z M179 780 Q221 800 241.5 833 Q262 866 277 908 Q298 906 317.5 904.5 Q337 903 357 903 Q392 903 440 909 Q418 881 389 855.5 Q360 830 327 809 Q294 788 259.5 772 Q225 756 192 747 L179 780 Z " />
<glyph glyph-name="Scaron" unicode="&#x160;" horiz-adv-x="548" d="M73 193 Q80 157 97.5 127 Q115 97 140.5 74.5 Q166 52 198 39.5 Q230 27 266 27 Q304 27 335 41 Q363 54 382.5 83 Q402 112 402 143 Q402 168 389.5 188 Q377 208 358.5 223.5 Q340 239 318 251 Q296 263 277 273 L226 300 Q192 318 158.5 337 Q125 356 98.5 380.5 Q72 405 55.5 437.5 Q39 470 39 515 Q39 549 49.5 579.5 Q60 610 79 635.5 Q98 661 124.5 680 Q151 699 183 710 Q211 719 242 721.5 Q273 724 302 724 Q347 724 390.5 718 Q434 712 478 698 Q480 652 481 608 Q482 564 485 517 L442 518 Q442 554 427.5 584.5 Q413 615 388.5 636.5 Q364 658 332.5 670.5 Q301 683 267 683 Q245 683 222.5 676 Q200 669 181.5 655.5 Q163 642 151 623 Q139 604 139 580 Q139 554 153 533.5 Q167 513 188 496.5 Q209 480 233 467 Q257 454 276 444 L328 416 Q339 410 353 402 Q367 394 381.5 385 Q396 376 409.5 367 Q423 358 433 351 Q508 295 508 200 Q508 154 493 117 Q478 80 444 48 Q404 10 355.5 -4 Q307 -18 253 -18 Q202 -18 146 -9.5 Q90 -1 40 16 Q38 61 36 104.5 Q34 148 31 193 L73 193 Z M129 912 Q169 902 206.5 880 Q244 858 276 835 Q303 861 341.5 880.5 Q380 900 417 913 L432 882 Q391 862 371 829 Q351 796 344 753 Q330 754 318.5 754.5 Q307 755 296 755 Q276 755 255.5 753 Q235 751 214 748 Q209 757 207.5 766 Q206 775 203 784 Q192 816 168 840 Q144 864 114 884 L129 912 Z " />
<glyph glyph-name="Scedilla" unicode="&#x15e;" horiz-adv-x="548" d="M73 193 Q80 157 97.5 127 Q115 97 140.5 74.5 Q166 52 198 39.5 Q230 27 266 27 Q304 27 335 41 Q363 54 382.5 83 Q402 112 402 143 Q402 168 389.5 188 Q377 208 358.5 223.5 Q340 239 318 251 Q296 263 277 273 L226 300 Q192 318 158.5 337 Q125 356 98.5 380.5 Q72 405 55.5 437.5 Q39 470 39 515 Q39 549 49.5 579.5 Q60 610 79 635.5 Q98 661 124.5 680 Q151 699 183 710 Q211 719 242 721.5 Q273 724 302 724 Q347 724 390.5 718 Q434 712 478 698 Q480 652 481 608 Q482 564 485 517 L442 518 Q442 554 427.5 584.5 Q413 615 388.5 636.5 Q364 658 332.5 670.5 Q301 683 267 683 Q245 683 222.5 676 Q200 669 181.5 655.5 Q163 642 151 623 Q139 604 139 580 Q139 554 153 533.5 Q167 513 188 496.5 Q209 480 233 467 Q257 454 276 444 L328 416 Q339 410 353 402 Q367 394 381.5 385 Q396 376 409.5 367 Q423 358 433 351 Q508 295 508 200 Q508 154 493 117 Q478 80 444 48 Q404 10 355.5 -4 Q307 -18 253 -18 Q202 -18 146 -9.5 Q90 -1 40 16 Q38 61 36 104.5 Q34 148 31 193 L73 193 Z M212 -226 Q224 -215 232 -203.5 Q240 -192 240 -177 Q240 -159 222.5 -139.5 Q205 -120 188 -107 L286 -47 Q301 -64 310.5 -84.5 Q320 -105 320 -126 Q320 -146 312 -163.5 Q304 -181 293 -195 Q280 -211 266 -224 Q252 -237 238 -250 L212 -226 Z " />
<glyph glyph-name="Scommaaccent" unicode="&#x218;" horiz-adv-x="548" d="M73 193 Q80 157 97.5 127 Q115 97 140.5 74.5 Q166 52 198 39.5 Q230 27 266 27 Q304 27 335 41 Q363 54 382.5 83 Q402 112 402 143 Q402 168 389.5 188 Q377 208 358.5 223.5 Q340 239 318 251 Q296 263 277 273 L226 300 Q192 318 158.5 337 Q125 356 98.5 380.5 Q72 405 55.5 437.5 Q39 470 39 515 Q39 549 49.5 579.5 Q60 610 79 635.5 Q98 661 124.5 680 Q151 699 183 710 Q211 719 242 721.5 Q273 724 302 724 Q347 724 390.5 718 Q434 712 478 698 Q480 652 481 608 Q482 564 485 517 L442 518 Q442 554 427.5 584.5 Q413 615 388.5 636.5 Q364 658 332.5 670.5 Q301 683 267 683 Q245 683 222.5 676 Q200 669 181.5 655.5 Q163 642 151 623 Q139 604 139 580 Q139 554 153 533.5 Q167 513 188 496.5 Q209 480 233 467 Q257 454 276 444 L328 416 Q339 410 353 402 Q367 394 381.5 385 Q396 376 409.5 367 Q423 358 433 351 Q508 295 508 200 Q508 154 493 117 Q478 80 444 48 Q404 10 355.5 -4 Q307 -18 253 -18 Q202 -18 146 -9.5 Q90 -1 40 16 Q38 61 36 104.5 Q34 148 31 193 L73 193 Z M212 -226 Q224 -215 232 -203.5 Q240 -192 240 -177 Q240 -159 222.5 -139.5 Q205 -120 188 -107 L286 -47 Q301 -64 310.5 -84.5 Q320 -105 320 -126 Q320 -146 312 -163.5 Q304 -181 293 -195 Q280 -211 266 -224 Q252 -237 238 -250 L212 -226 Z " />
<glyph glyph-name="Tcaron" unicode="&#x164;" horiz-adv-x="673" d="M187 34 Q198 35 210 35.5 Q222 36 233 40 Q256 48 262.5 67.5 Q269 87 269 110 L269 650 L204 650 Q164 650 136.5 643.5 Q109 637 91 620.5 Q73 604 63.5 576 Q54 548 51 506 L10 506 L19 709 Q98 708 175 707 Q252 706 329 706 Q410 706 491 707 Q572 708 656 709 L663 506 L622 506 Q616 547 607.5 574.5 Q599 602 582 619 Q565 636 538 643 Q511 650 469 650 L403 650 L403 110 Q403 86 408 72 Q413 58 422.5 50 Q432 42 447 39 Q462 36 483 34 L482 -4 Q444 -2 407 -1 Q370 0 334 0 Q298 0 261.5 -1 Q225 -2 187 -4 L187 34 Z M192 912 Q232 902 269.5 880 Q307 858 339 835 Q366 861 404.5 880.5 Q443 900 480 913 L495 882 Q454 862 434 829 Q414 796 407 753 Q393 754 381.5 754.5 Q370 755 359 755 Q339 755 318.5 753 Q298 751 277 748 Q272 757 270.5 766 Q269 775 266 784 Q255 816 231 840 Q207 864 177 884 L192 912 Z " />
<glyph glyph-name="Tcommaaccent" unicode="&#x162;" horiz-adv-x="673" d="M187 34 Q198 35 210 35.5 Q222 36 233 40 Q256 48 262.5 67.5 Q269 87 269 110 L269 650 L204 650 Q164 650 136.5 643.5 Q109 637 91 620.5 Q73 604 63.5 576 Q54 548 51 506 L10 506 L19 709 Q98 708 175 707 Q252 706 329 706 Q410 706 491 707 Q572 708 656 709 L663 506 L622 506 Q616 547 607.5 574.5 Q599 602 582 619 Q565 636 538 643 Q511 650 469 650 L403 650 L403 110 Q403 86 408 72 Q413 58 422.5 50 Q432 42 447 39 Q462 36 483 34 L482 -4 Q444 -2 407 -1 Q370 0 334 0 Q298 0 261.5 -1 Q225 -2 187 -4 L187 34 Z M294 -226 Q306 -215 314 -203.5 Q322 -192 322 -177 Q322 -159 304.5 -139.5 Q287 -120 270 -107 L368 -47 Q383 -64 392.5 -84.5 Q402 -105 402 -126 Q402 -146 394 -163.5 Q386 -181 375 -195 Q362 -211 348 -224 Q334 -237 320 -250 L294 -226 Z " />
<glyph glyph-name="uni021A" unicode="&#x21a;" horiz-adv-x="673" d="M187 34 Q198 35 210 35.5 Q222 36 233 40 Q256 48 262.5 67.5 Q269 87 269 110 L269 650 L204 650 Q164 650 136.5 643.5 Q109 637 91 620.5 Q73 604 63.5 576 Q54 548 51 506 L10 506 L19 709 Q98 708 175 707 Q252 706 329 706 Q410 706 491 707 Q572 708 656 709 L663 506 L622 506 Q616 547 607.5 574.5 Q599 602 582 619 Q565 636 538 643 Q511 650 469 650 L403 650 L403 110 Q403 86 408 72 Q413 58 422.5 50 Q432 42 447 39 Q462 36 483 34 L482 -4 Q444 -2 407 -1 Q370 0 334 0 Q298 0 261.5 -1 Q225 -2 187 -4 L187 34 Z M295 -226 Q307 -215 315 -203.5 Q323 -192 323 -177 Q323 -159 305.5 -139.5 Q288 -120 271 -107 L369 -47 Q384 -64 393.5 -84.5 Q403 -105 403 -126 Q403 -146 395 -163.5 Q387 -181 376 -195 Q363 -211 349 -224 Q335 -237 321 -250 L295 -226 Z " />
<glyph glyph-name="Ugrave" unicode="&#xd9;" horiz-adv-x="818" d="M102 595 Q102 615 96.5 635.5 Q91 656 69 664 Q58 669 44.5 669.5 Q31 670 19 671 L19 709 Q58 708 95 707 Q132 706 169 706 Q205 706 242 707 Q279 708 317 709 L317 671 Q294 669 278 665.5 Q262 662 252.5 654 Q243 646 238.5 632 Q234 618 234 595 L234 268 Q234 244 236 220.5 Q238 197 245 174 Q255 141 274.5 114 Q294 87 320.5 68 Q347 49 378.5 38.5 Q410 28 445 28 Q493 28 537.5 46.5 Q582 65 614 101 Q646 138 655.5 182 Q665 226 665 274 Q665 355 664 434.5 Q663 514 662 595 Q662 616 657 633.5 Q652 651 633 661 Q620 668 605.5 669 Q591 670 577 671 L577 709 Q607 708 635 707 Q663 706 691 706 Q718 706 746 707 Q774 708 803 709 L803 671 Q780 669 764.5 665.5 Q749 662 739 654 Q729 646 724.5 632 Q720 618 720 595 L715 287 Q715 275 714.5 263.5 Q714 252 713 240 Q708 150 662 86 Q616 22 528 -5 Q501 -13 473.5 -15.5 Q446 -18 419 -18 Q350 -18 292 0 Q234 18 191.5 54 Q149 90 125.5 144.5 Q102 199 102 272 L102 595 Z M485 747 Q452 757 417.5 772.5 Q383 788 350.5 809 Q318 830 289 855 Q260 880 238 909 Q286 903 321 903 Q341 903 360.5 904.5 Q380 906 401 908 Q408 888 416.5 869 Q425 850 436.5 833 Q448 816 463.5 802.5 Q479 789 499 780 L485 747 Z " />
<glyph glyph-name="Uacute" unicode="&#xda;" horiz-adv-x="818" d="M102 595 Q102 615 96.5 635.5 Q91 656 69 664 Q58 669 44.5 669.5 Q31 670 19 671 L19 709 Q58 708 95 707 Q132 706 169 706 Q205 706 242 707 Q279 708 317 709 L317 671 Q294 669 278 665.5 Q262 662 252.5 654 Q243 646 238.5 632 Q234 618 234 595 L234 268 Q234 244 236 220.5 Q238 197 245 174 Q255 141 274.5 114 Q294 87 320.5 68 Q347 49 378.5 38.5 Q410 28 445 28 Q493 28 537.5 46.5 Q582 65 614 101 Q646 138 655.5 182 Q665 226 665 274 Q665 355 664 434.5 Q663 514 662 595 Q662 616 657 633.5 Q652 651 633 661 Q620 668 605.5 669 Q591 670 577 671 L577 709 Q607 708 635 707 Q663 706 691 706 Q718 706 746 707 Q774 708 803 709 L803 671 Q780 669 764.5 665.5 Q749 662 739 654 Q729 646 724.5 632 Q720 618 720 595 L715 287 Q715 275 714.5 263.5 Q714 252 713 240 Q708 150 662 86 Q616 22 528 -5 Q501 -13 473.5 -15.5 Q446 -18 419 -18 Q350 -18 292 0 Q234 18 191.5 54 Q149 90 125.5 144.5 Q102 199 102 272 L102 595 Z M353 780 Q395 800 415.5 833 Q436 866 451 908 Q472 906 491.5 904.5 Q511 903 531 903 Q566 903 614 909 Q592 881 563 855.5 Q534 830 501 809 Q468 788 433.5 772 Q399 756 366 747 L353 780 Z " />
<glyph glyph-name="Ucircumflex" unicode="&#xdb;" horiz-adv-x="818" d="M102 595 Q102 615 96.5 635.5 Q91 656 69 664 Q58 669 44.5 669.5 Q31 670 19 671 L19 709 Q58 708 95 707 Q132 706 169 706 Q205 706 242 707 Q279 708 317 709 L317 671 Q294 669 278 665.5 Q262 662 252.5 654 Q243 646 238.5 632 Q234 618 234 595 L234 268 Q234 244 236 220.5 Q238 197 245 174 Q255 141 274.5 114 Q294 87 320.5 68 Q347 49 378.5 38.5 Q410 28 445 28 Q493 28 537.5 46.5 Q582 65 614 101 Q646 138 655.5 182 Q665 226 665 274 Q665 355 664 434.5 Q663 514 662 595 Q662 616 657 633.5 Q652 651 633 661 Q620 668 605.5 669 Q591 670 577 671 L577 709 Q607 708 635 707 Q663 706 691 706 Q718 706 746 707 Q774 708 803 709 L803 671 Q780 669 764.5 665.5 Q749 662 739 654 Q729 646 724.5 632 Q720 618 720 595 L715 287 Q715 275 714.5 263.5 Q714 252 713 240 Q708 150 662 86 Q616 22 528 -5 Q501 -13 473.5 -15.5 Q446 -18 419 -18 Q350 -18 292 0 Q234 18 191.5 54 Q149 90 125.5 144.5 Q102 199 102 272 L102 595 Z M288 781 Q330 804 349 835 Q368 866 377 911 Q391 910 402.5 909.5 Q414 909 426 909 Q446 909 465.5 911 Q485 913 506 915 Q517 868 541.5 837 Q566 806 606 779 L590 750 Q548 764 512 783.5 Q476 803 444 829 Q418 803 378 782.5 Q338 762 303 751 L288 781 Z " />
<glyph glyph-name="Udieresis" unicode="&#xdc;" horiz-adv-x="818" d="M102 595 Q102 615 96.5 635.5 Q91 656 69 664 Q58 669 44.5 669.5 Q31 670 19 671 L19 709 Q58 708 95 707 Q132 706 169 706 Q205 706 242 707 Q279 708 317 709 L317 671 Q294 669 278 665.5 Q262 662 252.5 654 Q243 646 238.5 632 Q234 618 234 595 L234 268 Q234 244 236 220.5 Q238 197 245 174 Q255 141 274.5 114 Q294 87 320.5 68 Q347 49 378.5 38.5 Q410 28 445 28 Q493 28 537.5 46.5 Q582 65 614 101 Q646 138 655.5 182 Q665 226 665 274 Q665 355 664 434.5 Q663 514 662 595 Q662 616 657 633.5 Q652 651 633 661 Q620 668 605.5 669 Q591 670 577 671 L577 709 Q607 708 635 707 Q663 706 691 706 Q718 706 746 707 Q774 708 803 709 L803 671 Q780 669 764.5 665.5 Q749 662 739 654 Q729 646 724.5 632 Q720 618 720 595 L715 287 Q715 275 714.5 263.5 Q714 252 713 240 Q708 150 662 86 Q616 22 528 -5 Q501 -13 473.5 -15.5 Q446 -18 419 -18 Q350 -18 292 0 Q234 18 191.5 54 Q149 90 125.5 144.5 Q102 199 102 272 L102 595 Z M543 758 Q514 758 494 779 Q474 800 474 828 Q474 857 494 877 Q514 897 543 897 Q572 897 592 877.5 Q612 858 612 829 Q612 800 592 779 Q572 758 543 758 Z M339 758 Q310 758 290 779 Q270 800 270 828 Q270 857 290 877 Q310 897 339 897 Q368 897 388 877.5 Q408 858 408 829 Q408 800 388 779 Q368 758 339 758 Z " />
<glyph glyph-name="Umacron" unicode="&#x16a;" horiz-adv-x="818" d="M102 595 Q102 615 96.5 635.5 Q91 656 69 664 Q58 669 44.5 669.5 Q31 670 19 671 L19 709 Q58 708 95 707 Q132 706 169 706 Q205 706 242 707 Q279 708 317 709 L317 671 Q294 669 278 665.5 Q262 662 252.5 654 Q243 646 238.5 632 Q234 618 234 595 L234 268 Q234 244 236 220.5 Q238 197 245 174 Q255 141 274.5 114 Q294 87 320.5 68 Q347 49 378.5 38.5 Q410 28 445 28 Q493 28 537.5 46.5 Q582 65 614 101 Q646 138 655.5 182 Q665 226 665 274 Q665 355 664 434.5 Q663 514 662 595 Q662 616 657 633.5 Q652 651 633 661 Q620 668 605.5 669 Q591 670 577 671 L577 709 Q607 708 635 707 Q663 706 691 706 Q718 706 746 707 Q774 708 803 709 L803 671 Q780 669 764.5 665.5 Q749 662 739 654 Q729 646 724.5 632 Q720 618 720 595 L715 287 Q715 275 714.5 263.5 Q714 252 713 240 Q708 150 662 86 Q616 22 528 -5 Q501 -13 473.5 -15.5 Q446 -18 419 -18 Q350 -18 292 0 Q234 18 191.5 54 Q149 90 125.5 144.5 Q102 199 102 272 L102 595 Z M271 858 L607 858 L607 772 L271 772 L271 858 Z " />
<glyph glyph-name="Uring" unicode="&#x16e;" horiz-adv-x="818" d="M102 595 Q102 615 96.5 635.5 Q91 656 69 664 Q58 669 44.5 669.5 Q31 670 19 671 L19 709 Q58 708 95 707 Q132 706 169 706 Q205 706 242 707 Q279 708 317 709 L317 671 Q294 669 278 665.5 Q262 662 252.5 654 Q243 646 238.5 632 Q234 618 234 595 L234 268 Q234 244 236 220.5 Q238 197 245 174 Q255 141 274.5 114 Q294 87 320.5 68 Q347 49 378.5 38.5 Q410 28 445 28 Q493 28 537.5 46.5 Q582 65 614 101 Q646 138 655.5 182 Q665 226 665 274 Q665 355 664 434.5 Q663 514 662 595 Q662 616 657 633.5 Q652 651 633 661 Q620 668 605.5 669 Q591 670 577 671 L577 709 Q607 708 635 707 Q663 706 691 706 Q718 706 746 707 Q774 708 803 709 L803 671 Q780 669 764.5 665.5 Q749 662 739 654 Q729 646 724.5 632 Q720 618 720 595 L715 287 Q715 275 714.5 263.5 Q714 252 713 240 Q708 150 662 86 Q616 22 528 -5 Q501 -13 473.5 -15.5 Q446 -18 419 -18 Q350 -18 292 0 Q234 18 191.5 54 Q149 90 125.5 144.5 Q102 199 102 272 L102 595 Z M340 824 Q340 846 348.5 865.5 Q357 885 371.5 899.5 Q386 914 405.5 922.5 Q425 931 447 931 Q469 931 488.5 922.5 Q508 914 522.5 899.5 Q537 885 545.5 865.5 Q554 846 554 824 Q554 802 545.5 782.5 Q537 763 522.5 748.5 Q508 734 488.5 725.5 Q469 717 447 717 Q425 717 405.5 725.5 Q386 734 371.5 748.5 Q357 763 348.5 782.5 Q340 802 340 824 Z M447 769 Q470 769 486 785 Q502 801 502 824 Q502 847 486 863 Q470 879 447 879 Q424 879 408 863 Q392 847 392 824 Q392 801 408 785 Q424 769 447 769 Z " />
<glyph glyph-name="Uhungarumlaut" unicode="&#x170;" horiz-adv-x="818" d="M102 595 Q102 615 96.5 635.5 Q91 656 69 664 Q58 669 44.5 669.5 Q31 670 19 671 L19 709 Q58 708 95 707 Q132 706 169 706 Q205 706 242 707 Q279 708 317 709 L317 671 Q294 669 278 665.5 Q262 662 252.5 654 Q243 646 238.5 632 Q234 618 234 595 L234 268 Q234 244 236 220.5 Q238 197 245 174 Q255 141 274.5 114 Q294 87 320.5 68 Q347 49 378.5 38.5 Q410 28 445 28 Q493 28 537.5 46.5 Q582 65 614 101 Q646 138 655.5 182 Q665 226 665 274 Q665 355 664 434.5 Q663 514 662 595 Q662 616 657 633.5 Q652 651 633 661 Q620 668 605.5 669 Q591 670 577 671 L577 709 Q607 708 635 707 Q663 706 691 706 Q718 706 746 707 Q774 708 803 709 L803 671 Q780 669 764.5 665.5 Q749 662 739 654 Q729 646 724.5 632 Q720 618 720 595 L715 287 Q715 275 714.5 263.5 Q714 252 713 240 Q708 150 662 86 Q616 22 528 -5 Q501 -13 473.5 -15.5 Q446 -18 419 -18 Q350 -18 292 0 Q234 18 191.5 54 Q149 90 125.5 144.5 Q102 199 102 272 L102 595 Z M485 780 Q503 791 517 802 Q531 813 544 828 Q557 843 569.5 863.5 Q582 884 597 914 Q618 911 637 909 Q656 907 672 907 Q690 907 710.5 908.5 Q731 910 748 912 Q725 880 696.5 855 Q668 830 635.5 811 Q603 792 568.5 777 Q534 762 498 750 L485 780 Z M270 780 Q288 791 302 802 Q316 813 329 828 Q342 843 354.5 863.5 Q367 884 382 914 Q403 911 422 909 Q441 907 457 907 Q475 907 495.5 908.5 Q516 910 533 912 Q510 880 481.5 855 Q453 830 420.5 811 Q388 792 353.5 777 Q319 762 283 750 L270 780 Z " />
<glyph glyph-name="Uogonek" unicode="&#x172;" horiz-adv-x="818" d="M520 -171 Q512 -181 499 -190 Q486 -199 470.5 -205.5 Q455 -212 437 -216 Q419 -220 403 -220 Q356 -220 327.5 -201 Q299 -182 299 -136 Q299 -110 315.5 -86 Q332 -62 355 -43 Q373 -29 393 -17 Q339 -14 292 0 Q234 18 191.5 54 Q149 90 125.5 144.5 Q102 199 102 272 L102 595 Q102 615 96.5 635.5 Q91 656 69 664 Q58 669 44.5 669.5 Q31 670 19 671 L19 709 Q58 708 95 707 Q132 706 169 706 Q205 706 242 707 Q279 708 317 709 L317 671 Q294 669 278 665.5 Q262 662 252.5 654 Q243 646 238.5 632 Q234 618 234 595 L234 268 Q234 244 236 220.5 Q238 197 245 174 Q255 141 274.5 114 Q294 87 320.5 68 Q347 49 378.5 38.5 Q410 28 445 28 Q493 28 537.5 46.5 Q582 65 614 101 Q646 138 655.5 182 Q665 226 665 274 Q665 355 664 434.5 Q663 514 662 595 Q662 616 657 633.5 Q652 651 633 661 Q620 668 605.5 669 Q591 670 577 671 L577 709 Q607 708 635 707 Q663 706 691 706 Q718 706 746 707 Q774 708 803 709 L803 671 Q780 669 764.5 665.5 Q749 662 739 654 Q729 646 724.5 632 Q720 618 720 595 L715 287 Q715 275 714.5 263.5 Q714 252 713 240 Q708 150 662 86 Q616 22 528 -5 Q501 -13 473 -15 Q470 -16 468 -16 Q455 -28 445 -38 Q426 -58 416 -74 Q406 -90 402.5 -103 Q399 -116 399 -127 Q399 -150 408.5 -161 Q418 -172 432 -172 Q451 -172 468.5 -164.5 Q486 -157 498 -146 L520 -171 Z " />
<glyph glyph-name="Yacute" unicode="&#xdd;" horiz-adv-x="694" d="M184 35 Q192 35 198.5 34.5 Q205 34 210 34 Q244 34 260 54 Q276 74 276 106 L276 252 L128 568 Q123 577 118.5 586.5 Q114 596 109 605 Q100 623 87.5 640.5 Q75 658 56 665 Q45 670 29 670 Q13 670 1 671 L1 709 Q44 708 84 707 Q124 706 165 706 Q206 706 246 707 Q286 708 329 709 L329 671 Q316 670 303 670.5 Q290 671 277 668 Q264 666 256 659 Q248 652 248 639 Q248 629 252 617 Q256 605 261 595 L391 313 L517 574 Q524 588 531 603 Q538 618 538 633 Q538 646 531.5 654 Q525 662 514.5 665.5 Q504 669 491.5 670 Q479 671 468 671 L468 709 Q498 708 526.5 707 Q555 706 583 706 Q611 706 638.5 707 Q666 708 696 709 L695 671 Q686 670 676.5 669.5 Q667 669 659 667 Q638 662 625.5 647 Q613 632 603 614 L409 252 L409 104 Q409 59 428 47 Q447 35 488 35 L501 35 L500 -4 Q458 -2 418.5 -1 Q379 0 340 0 Q302 0 263 -1 Q224 -2 183 -4 L184 35 Z M314 780 Q356 800 376.5 833 Q397 866 412 908 Q433 906 452.5 904.5 Q472 903 492 903 Q527 903 575 909 Q553 881 524 855.5 Q495 830 462 809 Q429 788 394.5 772 Q360 756 327 747 L314 780 Z " />
<glyph glyph-name="Ydieresis" unicode="&#x178;" horiz-adv-x="694" d="M184 35 Q192 35 198.5 34.5 Q205 34 210 34 Q244 34 260 54 Q276 74 276 106 L276 252 L128 568 Q123 577 118.5 586.5 Q114 596 109 605 Q100 623 87.5 640.5 Q75 658 56 665 Q45 670 29 670 Q13 670 1 671 L1 709 Q44 708 84 707 Q124 706 165 706 Q206 706 246 707 Q286 708 329 709 L329 671 Q316 670 303 670.5 Q290 671 277 668 Q264 666 256 659 Q248 652 248 639 Q248 629 252 617 Q256 605 261 595 L391 313 L517 574 Q524 588 531 603 Q538 618 538 633 Q538 646 531.5 654 Q525 662 514.5 665.5 Q504 669 491.5 670 Q479 671 468 671 L468 709 Q498 708 526.5 707 Q555 706 583 706 Q611 706 638.5 707 Q666 708 696 709 L695 671 Q686 670 676.5 669.5 Q667 669 659 667 Q638 662 625.5 647 Q613 632 603 614 L409 252 L409 104 Q409 59 428 47 Q447 35 488 35 L501 35 L500 -4 Q458 -2 418.5 -1 Q379 0 340 0 Q302 0 263 -1 Q224 -2 183 -4 L184 35 Z M476 758 Q447 758 427 779 Q407 800 407 828 Q407 857 427 877 Q447 897 476 897 Q505 897 525 877.5 Q545 858 545 829 Q545 800 525 779 Q505 758 476 758 Z M272 758 Q243 758 223 779 Q203 800 203 828 Q203 857 223 877 Q243 897 272 897 Q301 897 321 877.5 Q341 858 341 829 Q341 800 321 779 Q301 758 272 758 Z " />
<glyph glyph-name="Zacute" unicode="&#x179;" horiz-adv-x="673" d="M16 17 L459 650 L222 650 Q194 650 166.5 646.5 Q139 643 119 623 Q96 600 88.5 568.5 Q81 537 76 507 L39 507 Q41 558 42.5 607.5 Q44 657 44 709 Q138 708 230 707 Q322 706 414 706 Q474 706 534 707 Q594 708 659 709 L200 52 L445 52 Q489 52 518 59.5 Q547 67 565 84.5 Q583 102 593.5 131 Q604 160 610 203 L652 203 Q648 150 645.5 100 Q643 50 641 -3 Q539 -2 440.5 -1 Q342 0 242 0 Q131 0 16 -3 L16 17 Z M266 780 Q308 800 328.5 833 Q349 866 364 908 Q385 906 404.5 904.5 Q424 903 444 903 Q479 903 527 909 Q505 881 476 855.5 Q447 830 414 809 Q381 788 346.5 772 Q312 756 279 747 L266 780 Z " />
<glyph glyph-name="Zcaron" unicode="&#x17d;" horiz-adv-x="673" d="M16 17 L459 650 L222 650 Q194 650 166.5 646.5 Q139 643 119 623 Q96 600 88.5 568.5 Q81 537 76 507 L39 507 Q41 558 42.5 607.5 Q44 657 44 709 Q138 708 230 707 Q322 706 414 706 Q474 706 534 707 Q594 708 659 709 L200 52 L445 52 Q489 52 518 59.5 Q547 67 565 84.5 Q583 102 593.5 131 Q604 160 610 203 L652 203 Q648 150 645.5 100 Q643 50 641 -3 Q539 -2 440.5 -1 Q342 0 242 0 Q131 0 16 -3 L16 17 Z M217 912 Q257 902 294.5 880 Q332 858 364 835 Q391 861 429.5 880.5 Q468 900 505 913 L520 882 Q479 862 459 829 Q439 796 432 753 Q418 754 406.5 754.5 Q395 755 384 755 Q364 755 343.5 753 Q323 751 302 748 Q297 757 295.5 766 Q294 775 291 784 Q280 816 256 840 Q232 864 202 884 L217 912 Z " />
<glyph glyph-name="Zdotaccent" unicode="&#x17b;" horiz-adv-x="673" d="M16 17 L459 650 L222 650 Q194 650 166.5 646.5 Q139 643 119 623 Q96 600 88.5 568.5 Q81 537 76 507 L39 507 Q41 558 42.5 607.5 Q44 657 44 709 Q138 708 230 707 Q322 706 414 706 Q474 706 534 707 Q594 708 659 709 L200 52 L445 52 Q489 52 518 59.5 Q547 67 565 84.5 Q583 102 593.5 131 Q604 160 610 203 L652 203 Q648 150 645.5 100 Q643 50 641 -3 Q539 -2 440.5 -1 Q342 0 242 0 Q131 0 16 -3 L16 17 Z M263 826 Q263 841 269 854.5 Q275 868 285.5 877.5 Q296 887 309.5 892.5 Q323 898 338 898 Q368 898 388.5 878 Q409 858 409 828 Q409 797 388.5 775 Q368 753 336 753 Q305 753 284 774 Q263 795 263 826 Z " />
<glyph glyph-name="Eth" unicode="&#xd0;" horiz-adv-x="824" d="M20 414 L105 414 L105 595 Q105 619 100 633.5 Q95 648 85 655.5 Q75 663 59 666 Q43 669 21 671 L22 709 Q58 708 92 707 Q126 706 160 706 Q220 706 279 709 Q338 712 398 712 Q433 712 468.5 709.5 Q504 707 539 697 Q598 680 647.5 643.5 Q697 607 729 555 Q758 508 768.5 457.5 Q779 407 779 353 Q779 261 743.5 187 Q708 113 632 61 Q573 20 508.5 7 Q444 -6 375 -6 Q318 -6 262.5 -3 Q207 0 150 0 Q118 0 86.5 -1 Q55 -2 21 -3 L21 35 Q44 37 60 40.5 Q76 44 86 52 Q96 60 100.5 74 Q105 88 105 111 L105 354 L20 354 L20 414 Z M236 113 Q236 88 244.5 74 Q253 60 267.5 53 Q282 46 301 44 Q320 42 341 42 Q407 42 459.5 62.5 Q512 83 548.5 120.5 Q585 158 604.5 211.5 Q624 265 624 330 Q624 375 616 422 Q608 469 590 511.5 Q572 554 542 588.5 Q512 623 468 641 Q430 657 389.5 661 Q349 665 308 665 Q290 665 272 664 L236 662 L236 414 L404 414 L404 354 L236 354 L236 113 Z " />
<glyph glyph-name="Thorn" unicode="&#xde;" horiz-adv-x="589" d="M21 38 Q32 39 44.5 39.5 Q57 40 67 44 Q90 52 97 71.5 Q104 91 104 114 L104 598 Q104 622 99.5 636.5 Q95 651 85.5 658.5 Q76 666 60 669 Q44 672 21 674 L22 712 Q60 711 98.5 710 Q137 709 173 709 Q209 709 245 710 Q281 711 319 712 L319 674 Q309 673 298.5 672.5 Q288 672 278 669 Q254 661 244.5 645 Q235 629 235 603 L235 598 L236 562 Q240 562 247.5 562.5 Q255 563 264.5 563.5 Q274 564 283.5 564.5 Q293 565 300 565 Q331 565 362.5 562.5 Q394 560 423.5 551.5 Q453 543 479.5 527.5 Q506 512 529 486 Q553 459 563 427 Q573 395 573 360 Q573 304 551 267.5 Q529 231 493 210 Q457 189 411.5 181 Q366 173 319 173 Q298 173 277 173.5 Q256 174 235 175 L235 111 Q235 88 240.5 74.5 Q246 61 256 53.5 Q266 46 281 43 Q296 40 316 38 L316 0 Q278 2 241 3 Q204 4 168 4 Q132 4 95.5 3 Q59 2 21 0 L21 38 Z M235 221 Q265 215 297 215 Q363 215 400 247.5 Q437 280 437 347 Q437 383 425.5 415.5 Q414 448 393 472 Q372 496 341.5 510 Q311 524 274 524 Q264 524 254.5 523 Q245 522 235 521 L235 221 Z " />
<glyph glyph-name="a" unicode="a" horiz-adv-x="502" d="M67 293 Q58 308 53 321.5 Q48 335 48 351 Q48 382 62.5 402.5 Q77 423 99 439 Q115 451 138 461.5 Q161 472 185.5 480.5 Q210 489 234.5 493.5 Q259 498 279 498 Q327 498 366.5 470.5 Q406 443 420 392 Q424 377 425 362 Q426 347 426 332 L426 105 Q426 93 430.5 83.5 Q435 74 447 74 Q456 74 464.5 77.5 Q473 81 484 86 L484 47 Q443 34 405.5 18 Q368 2 330 -16 Q323 -2 319.5 13 Q316 28 313 43 Q281 23 242 5 Q203 -13 164 -13 Q140 -13 117.5 -4 Q95 5 77 20.5 Q59 36 48.5 58.5 Q38 81 38 108 Q38 153 68 182 Q98 211 141 228.5 Q184 246 230 254.5 Q276 263 308 269 L308 349 Q308 392 287.5 419.5 Q267 447 223 447 Q200 447 184.5 436 Q169 425 169 401 Q169 389 173.5 375 Q178 361 184 346 L67 293 Z M308 231 Q283 226 258 219 Q233 212 212.5 200 Q192 188 179.5 170.5 Q167 153 167 128 Q167 96 188 76.5 Q209 57 238 57 Q273 57 310 79 Q308 99 308 125 Q308 151 308 172 L308 231 Z " />
<glyph glyph-name="b" unicode="b" horiz-adv-x="568" d="M65 660 Q65 676 60 688 Q55 700 36 700 Q30 700 23.5 699 Q17 698 9 697 L9 730 Q56 739 97.5 750 Q139 761 185 777 L185 446 Q222 469 259.5 483 Q297 497 340 497 Q383 497 418.5 478 Q454 459 479.5 427.5 Q505 396 518.5 354.5 Q532 313 532 267 Q532 206 511.5 154.5 Q491 103 454.5 65.5 Q418 28 367.5 7 Q317 -14 257 -14 Q209 -14 152 -2.5 Q95 9 47 30 Q58 60 61.5 87.5 Q65 115 65 160 L65 660 Z M185 60 Q207 42 229.5 34.5 Q252 27 276 27 Q309 27 335 41 Q361 55 378.5 79.5 Q396 104 405 137 Q414 170 414 207 Q414 244 406 284 Q398 324 380.5 357 Q363 390 335.5 411 Q308 432 269 432 Q246 432 224.5 424.5 Q203 417 185 408 L185 60 Z " />
<glyph glyph-name="c" unicode="c" horiz-adv-x="468" d="M439 34 Q396 13 355 0 Q314 -13 266 -13 Q228 -13 194 -2.5 Q160 8 131 28.5 Q102 49 80.5 78 Q59 107 47 144 Q35 184 35 236 Q35 295 53 343 Q71 391 103.5 425.5 Q136 460 181.5 479 Q227 498 282 498 Q316 498 353 492.5 Q390 487 423 472 L431 342 L397 342 Q383 390 353.5 424.5 Q324 459 278 459 Q245 459 222 444.5 Q199 430 184.5 406.5 Q170 383 163.5 352 Q157 321 157 288 Q157 254 167 211 Q177 168 196.5 129.5 Q216 91 246 64.5 Q276 38 317 38 Q357 38 383.5 60 Q410 82 439 117 L439 34 Z " />
<glyph glyph-name="d" unicode="d" horiz-adv-x="586" d="M561 39 Q518 26 479.5 12 Q441 -2 401 -21 Q387 7 381 37 Q349 14 316 1 Q283 -12 243 -12 Q197 -12 159 8 Q121 28 93.5 61.5 Q66 95 50.5 138.5 Q35 182 35 229 Q35 280 51.5 326 Q68 372 100 410 Q138 456 182.5 477 Q227 498 286 498 Q314 498 335.5 492 Q357 486 380 472 L380 653 Q380 673 374 682.5 Q368 692 348 692 Q339 692 329.5 690.5 Q320 689 309 687 L309 722 Q360 733 406.5 746 Q453 759 504 777 L504 100 Q504 88 507 76 Q510 64 526 64 Q533 64 543.5 68.5 Q554 73 561 75 L561 39 Z M380 415 Q354 434 332 447 Q310 460 279 460 Q246 460 224 443.5 Q202 427 188 401.5 Q174 376 168 344.5 Q162 313 162 283 Q162 247 171 206.5 Q180 166 198.5 132.5 Q217 99 245.5 77 Q274 55 313 55 Q331 55 348 61.5 Q365 68 380 78 L380 415 Z " />
<glyph glyph-name="e" unicode="e" horiz-adv-x="497" d="M461 42 Q417 12 369.5 -0.5 Q322 -13 274 -13 Q220 -13 176 5.5 Q132 24 100.5 58 Q69 92 52 138.5 Q35 185 35 242 Q35 294 50 340.5 Q65 387 93.5 422.5 Q122 458 163.5 478.5 Q205 499 258 499 Q307 499 345.5 483 Q384 467 410.5 437.5 Q437 408 450.5 367.5 Q464 327 464 279 L464 259 L164 259 Q164 215 175.5 174.5 Q187 134 207.5 102 Q228 70 256.5 51 Q285 32 319 32 Q363 32 394 60.5 Q425 89 452 130 L461 42 Z M336 299 Q337 304 337 308.5 Q337 313 337 318 Q337 337 333.5 361.5 Q330 386 320.5 408 Q311 430 294 444.5 Q277 459 251 459 Q226 459 209 445.5 Q192 432 182 410.5 Q172 389 168 362.5 Q164 336 164 310 L164 299 L336 299 Z " />
<glyph glyph-name="f" unicode="f" horiz-adv-x="351" d="M25 32 Q44 33 57 34.5 Q70 36 77.5 42 Q85 48 88 59 Q91 70 91 89 L91 433 L11 433 L30 486 L91 486 L91 510 Q91 543 93.5 576.5 Q96 610 107 641 Q119 674 140 699 Q161 724 188 741.5 Q215 759 247 768 Q279 777 313 777 Q337 777 361.5 773.5 Q386 770 412 764 L412 618 L377 618 Q374 650 365.5 674 Q357 698 333 718 Q310 736 285 736 Q259 736 244 722.5 Q229 709 221.5 689 Q214 669 211.5 645.5 Q209 622 209 602 L209 486 L362 486 L342 433 L209 433 L209 89 Q209 69 212.5 58 Q216 47 223.5 41.5 Q231 36 243.5 34.5 Q256 33 274 32 L274 -3 Q208 0 148 0 Q118 0 88 -0.5 Q58 -1 25 -3 L25 32 Z " />
<glyph glyph-name="g" unicode="g" horiz-adv-x="538" d="M515 486 L496 433 L409 433 Q429 416 444.5 388 Q460 360 460 325 Q460 305 453.5 282.5 Q447 260 434 243 Q416 220 393.5 207 Q371 194 345.5 186.5 Q320 179 294 176.5 Q268 174 243 174 Q231 166 217 154 Q203 142 203 128 Q203 110 221.5 103 Q240 96 257 95 Q273 93 292 92.5 Q311 92 331 90 Q351 89 372 87 Q393 85 412.5 79.5 Q432 74 450 65 Q468 56 482 40 Q496 26 501.5 6.5 Q507 -13 507 -34 Q507 -85 474 -127 Q454 -151 429.5 -167 Q405 -183 377 -192.5 Q349 -202 320 -206 Q291 -210 263 -210 Q231 -210 199 -206.5 Q167 -203 136 -192 Q117 -185 99.5 -173.5 Q82 -162 68 -147 Q54 -132 45.5 -113 Q37 -94 37 -71 Q37 -46 46 -29.5 Q55 -13 70 -2 Q85 9 103 15.5 Q121 22 139 25 Q120 36 102.5 52 Q85 68 85 94 Q85 109 95 122 Q105 135 120 146 Q135 157 152.5 165 Q170 173 185 179 Q159 186 134 198.5 Q109 211 89.5 229.5 Q70 248 58.5 273.5 Q47 299 47 332 Q47 375 65.5 407 Q84 439 113 460 Q142 481 177.5 491 Q213 501 248 501 Q277 501 299 497.5 Q321 494 345 486 L515 486 Z M266 211 Q285 211 298 219.5 Q311 228 319 242 Q327 256 330.5 273.5 Q334 291 334 309 Q334 331 328.5 358 Q323 385 311.5 408 Q300 431 282.5 447 Q265 463 240 463 Q222 463 208.5 453 Q195 443 187 427 Q179 411 175 392.5 Q171 374 171 357 Q171 335 177 309.5 Q183 284 194.5 262 Q206 240 224 225.5 Q242 211 266 211 Z M213 -9 Q198 -13 184.5 -18 Q171 -23 160.5 -31.5 Q150 -40 144 -52 Q138 -64 138 -82 Q138 -105 148 -122 Q158 -139 175.5 -150 Q193 -161 216.5 -166 Q240 -171 267 -171 Q291 -171 317 -165 Q343 -159 364.5 -147 Q386 -135 400 -117.5 Q414 -100 414 -77 Q414 -68 411 -58.5 Q408 -49 400 -41 Q390 -32 377 -27.5 Q364 -23 349.5 -21 Q335 -19 319.5 -18.5 Q304 -18 291 -16 Q268 -14 250.5 -12.5 Q233 -11 213 -9 Z " />
<glyph glyph-name="h" unicode="h" horiz-adv-x="583" d="M19 32 Q38 33 49.5 35 Q61 37 68 43 Q75 49 77.5 60 Q80 71 80 89 L80 649 Q80 672 74 684.5 Q68 697 44 697 Q39 697 33 696.5 Q27 696 19 695 L19 726 Q66 735 108.5 746 Q151 757 198 774 L198 420 Q237 450 283 475.5 Q329 501 381 501 Q418 501 451.5 481.5 Q485 462 497 424 Q502 407 503.5 392 Q505 377 505 361 L505 89 Q505 71 508 60 Q511 49 517.5 43 Q524 37 536 35 Q548 33 566 32 L566 -3 Q534 -2 503 -1 Q472 0 442 0 Q412 0 382 -1 Q352 -2 319 -3 L319 32 Q338 33 351 34.5 Q364 36 371.5 42 Q379 48 382 59 Q385 70 385 89 L385 345 Q385 381 369.5 404.5 Q354 428 316 428 Q284 428 254 413.5 Q224 399 198 380 L198 89 Q198 54 211 44 Q224 34 259 32 L259 -3 Q227 -2 197.5 -1 Q168 0 139 0 Q110 0 80.5 -1 Q51 -2 19 -3 L19 32 Z " />
<glyph glyph-name="i" unicode="i" horiz-adv-x="298" d="M33 31 Q70 32 81.5 42.5 Q93 53 93 88 L93 365 Q93 381 88 394 Q83 407 65 407 Q52 407 33 401 L34 437 Q83 450 123.5 465.5 Q164 481 211 503 L211 88 Q211 70 213.5 59.5 Q216 49 223 43 Q230 37 241 34.5 Q252 32 270 31 L270 -4 Q238 -2 208.5 -1 Q179 0 150 0 Q121 0 93 -1 Q65 -2 33 -4 L33 31 Z M74 639 Q74 654 80 667.5 Q86 681 96.5 690.5 Q107 700 120.5 705.5 Q134 711 149 711 Q179 711 199.5 691 Q220 671 220 641 Q220 610 199.5 588 Q179 566 147 566 Q116 566 95 587 Q74 608 74 639 Z " />
<glyph glyph-name="j" unicode="j" horiz-adv-x="287" d="M72 639 Q72 671 93.5 691.5 Q115 712 146 712 Q178 712 198.5 691.5 Q219 671 219 639 Q219 608 198 587.5 Q177 567 145 567 Q115 567 93.5 587.5 Q72 608 72 639 Z M5 -74 Q6 -85 7.5 -99.5 Q9 -114 13.5 -127.5 Q18 -141 27 -150 Q36 -159 52 -159 Q65 -159 72 -151 Q79 -143 83 -131 Q87 -119 88 -105 Q89 -91 89 -79 L89 374 Q89 387 85.5 398.5 Q82 410 65 410 Q58 410 47.5 407.5 Q37 405 28 402 L28 437 Q53 444 75.5 451 Q98 458 119.5 466 Q141 474 162.5 483 Q184 492 209 503 L209 -8 Q209 -47 202 -81.5 Q195 -116 177.5 -142 Q160 -168 130 -183.5 Q100 -199 55 -199 Q33 -199 12.5 -195 Q-8 -191 -29 -185 Q-29 -156 -30 -129 Q-31 -102 -33 -74 L5 -74 Z " />
<glyph glyph-name="k" unicode="k" horiz-adv-x="558" d="M21 32 Q56 34 67 45 Q78 56 78 89 L78 649 Q78 669 73.5 680.5 Q69 692 49 692 Q37 692 16 686 L16 723 Q107 747 199 778 L199 271 L322 382 Q331 390 340 403.5 Q349 417 349 430 Q349 438 344 442.5 Q339 447 331.5 449 Q324 451 315.5 451.5 Q307 452 300 452 L300 489 Q328 488 354.5 487 Q381 486 407 486 Q432 486 457.5 487 Q483 488 510 489 L510 452 Q476 452 453.5 436 Q431 420 408 400 L327 330 L465 104 Q472 93 482.5 78 Q493 63 502 54 Q510 46 520.5 41.5 Q531 37 551 35 L551 -4 Q526 -2 501.5 -1 Q477 0 453 0 Q430 0 408 -1 Q386 -2 361 -4 L361 14 Q361 32 355.5 48 Q350 64 341 78 L238 252 L199 224 L199 89 Q199 70 202 59.5 Q205 49 211.5 43 Q218 37 230 35 Q242 33 260 32 L260 -3 Q228 -2 198.5 -1 Q169 0 140 0 Q111 0 82 -1 Q53 -2 21 -3 L21 32 Z " />
<glyph glyph-name="l" unicode="l" horiz-adv-x="286" d="M20 31 Q54 33 67.5 43.5 Q81 54 81 88 L81 669 Q81 699 52 699 Q39 699 21 690 L21 731 Q67 741 110.5 752.5 Q154 764 201 778 L201 88 Q201 70 203.5 59.5 Q206 49 213 43 Q220 37 231 34.5 Q242 32 260 31 L260 -4 Q229 -2 199 -1 Q169 0 140 0 Q111 0 81.5 -1 Q52 -2 20 -4 L20 31 Z " />
<glyph glyph-name="m" unicode="m" horiz-adv-x="858" d="M27 32 Q45 33 56.5 35.5 Q68 38 74.5 44 Q81 50 83.5 61 Q86 72 86 89 L86 375 Q86 381 85.5 387 Q85 393 83 398 Q81 403 76.5 406.5 Q72 410 62 410 Q53 410 44 408 Q35 406 27 404 L27 439 Q52 447 74.5 455 Q97 463 120 471 Q140 479 161 487 Q182 495 205 503 L205 427 Q240 455 283.5 478 Q327 501 374 501 Q388 501 405 497 Q422 493 437.5 484.5 Q453 476 466 461.5 Q479 447 485 426 Q520 455 565.5 478 Q611 501 659 501 Q701 501 735.5 477 Q770 453 780 410 Q782 400 782.5 391 Q783 382 783 372 L783 89 Q783 71 785.5 60.5 Q788 50 794.5 44 Q801 38 812 35.5 Q823 33 840 32 L840 -3 Q809 -2 779.5 -1 Q750 0 721 0 Q692 0 662.5 -1 Q633 -2 602 -3 L602 32 Q637 34 649.5 44 Q662 54 662 89 L662 360 Q662 392 644 408.5 Q626 425 595 425 Q565 425 539 412 Q513 399 489 382 L489 89 Q489 70 492 59.5 Q495 49 501.5 43 Q508 37 519.5 35 Q531 33 549 32 L549 -3 Q518 -2 488.5 -1 Q459 0 430 0 Q401 0 371.5 -1 Q342 -2 310 -3 L310 32 Q328 33 340 35.5 Q352 38 358.5 44 Q365 50 367.5 60.5 Q370 71 370 89 L370 355 Q370 387 352.5 406 Q335 425 302 425 Q276 425 250.5 412.5 Q225 400 205 383 L205 89 Q205 54 216.5 44 Q228 34 263 32 L263 -3 Q232 -2 203.5 -1 Q175 0 146 0 Q117 0 88 -1 Q59 -2 27 -3 L27 32 Z " />
<glyph glyph-name="n" unicode="n" horiz-adv-x="583" d="M27 32 Q46 33 58.5 35 Q71 37 78 42.5 Q85 48 88 59 Q91 70 91 89 Q91 120 91 157 Q91 194 91.5 232.5 Q92 271 92 308 Q92 345 92 376 Q92 391 85 401 Q78 411 61 411 Q52 411 44 409 Q36 407 28 405 L28 439 Q76 453 119 468 Q162 483 209 503 L209 421 Q226 435 248.5 449 Q271 463 295 474 Q319 485 344 492 Q369 499 390 499 Q423 499 445.5 486.5 Q468 474 482 453.5 Q496 433 502 406.5 Q508 380 508 352 L508 89 Q508 54 519.5 44 Q531 34 566 32 L566 -3 Q534 -2 504.5 -1 Q475 0 445 0 Q416 0 386.5 -1 Q357 -2 325 -3 L325 32 Q344 33 356.5 35 Q369 37 376 42.5 Q383 48 386 59 Q389 70 389 89 L389 330 Q389 355 382.5 376.5 Q376 398 356 413 Q346 420 335 423 Q324 426 313 426 Q287 426 258 412.5 Q229 399 209 384 L209 89 Q209 71 212 60 Q215 49 221.5 43 Q228 37 240 35 Q252 33 270 32 L270 -3 Q238 -2 207.5 -1 Q177 0 147 0 Q118 0 88.5 -1 Q59 -2 27 -3 L27 32 Z " />
<glyph glyph-name="o" unicode="o" horiz-adv-x="560" d="M281 -15 Q227 -15 181.5 2.5 Q136 20 103.5 52.5 Q71 85 53 132 Q35 179 35 239 Q35 295 53.5 342.5 Q72 390 104.5 425 Q137 460 181.5 479.5 Q226 499 278 499 Q329 499 373.5 479.5 Q418 460 451.5 425 Q485 390 504.5 342.5 Q524 295 524 240 Q524 184 505.5 137 Q487 90 454 56.5 Q421 23 376.5 4 Q332 -15 281 -15 Z M306 30 Q331 30 348 40.5 Q365 51 376 69 Q387 87 392 110.5 Q397 134 397 159 Q397 183 395 214 Q393 245 387 277.5 Q381 310 371 342 Q361 374 345 398.5 Q329 423 306.5 438.5 Q284 454 254 454 Q227 454 209 442 Q191 430 179.5 409.5 Q168 389 163.5 363 Q159 337 159 310 Q159 281 166 234 Q173 187 189.5 141.5 Q206 96 234.5 63 Q263 30 306 30 Z " />
<glyph glyph-name="p" unicode="p" horiz-adv-x="574" d="M16 -168 Q35 -167 46.5 -165 Q58 -163 65 -157 Q72 -151 74.5 -140 Q77 -129 77 -111 L77 355 Q77 376 71.5 389 Q66 402 43 402 Q32 402 17 395 L17 434 Q65 449 106.5 464.5 Q148 480 195 503 L195 441 Q228 464 265 479.5 Q302 495 343 495 Q401 495 449.5 461 Q498 427 521 371 Q531 345 534.5 315.5 Q538 286 538 260 Q538 200 520 151 Q502 102 460 60 Q425 25 381 8 Q337 -9 289 -9 Q265 -9 241 -5.5 Q217 -2 195 6 L195 -111 Q195 -130 199 -141 Q203 -152 211.5 -158 Q220 -164 233 -166 Q246 -168 264 -168 L264 -203 Q231 -202 200 -201 Q169 -200 138 -200 Q109 -200 78.5 -201 Q48 -202 16 -203 L16 -168 Z M196 66 Q216 47 240.5 36.5 Q265 26 292 26 Q325 26 348.5 41 Q372 56 388 80 Q404 104 411.5 134 Q419 164 419 195 Q419 238 410 280.5 Q401 323 381 359 Q364 389 336 410 Q308 431 274 431 Q252 431 233 422.5 Q214 414 196 404 L196 66 Z " />
<glyph glyph-name="q" unicode="q" horiz-adv-x="560" d="M312 -164 L323 -164 Q353 -164 365.5 -153 Q378 -142 378 -107 L378 40 Q347 19 312 5 Q277 -9 238 -9 Q194 -9 156.5 12 Q119 33 92 66.5 Q65 100 50 142.5 Q35 185 35 229 Q35 281 53 329.5 Q71 378 103 415 Q135 452 179 474 Q223 496 274 496 Q310 496 343 484.5 Q376 473 407 456 L496 501 L496 -107 Q496 -139 507 -151.5 Q518 -164 547 -164 L555 -164 L555 -200 Q492 -197 434 -197 Q376 -197 312 -200 L312 -164 Z M378 410 Q355 429 331 442.5 Q307 456 279 456 Q249 456 227.5 441 Q206 426 191.5 402.5 Q177 379 170.5 350 Q164 321 164 293 Q164 267 168 239 Q172 211 180 184 Q188 157 201.5 133 Q215 109 233 92 Q248 78 268.5 68.5 Q289 59 309 59 Q329 59 347 66.5 Q365 74 379 86 L378 410 Z " />
<glyph glyph-name="r" unicode="r" horiz-adv-x="398" d="M27 32 Q45 33 56 36 Q67 39 73.5 45 Q80 51 82.5 61.5 Q85 72 85 89 L85 369 Q85 387 80 398.5 Q75 410 56 410 Q48 410 42 408.5 Q36 407 27 404 L27 437 Q75 451 114 466.5 Q153 482 199 503 L199 380 Q211 400 224 420.5 Q237 441 253 458 Q269 475 289.5 486 Q310 497 337 497 Q346 497 355.5 495.5 Q365 494 374 492 L374 344 L342 344 Q328 388 288 388 Q260 388 238 369.5 Q216 351 199 332 L199 89 Q199 72 201.5 61.5 Q204 51 210.5 45 Q217 39 228 36 Q239 33 257 32 L257 -3 Q226 -2 198 -1 Q170 0 141 0 Q113 0 85.5 -1 Q58 -2 27 -3 L27 32 Z " />
<glyph glyph-name="s" unicode="s" horiz-adv-x="421" d="M44 144 L81 144 Q85 131 88.5 118.5 Q92 106 97 94 Q111 62 140.5 45 Q170 28 204 28 Q218 28 233 32 Q248 36 260 44 Q272 52 279.5 64 Q287 76 287 92 Q287 106 279.5 118.5 Q272 131 260.5 141 Q249 151 236 158.5 Q223 166 212 172 Q185 186 156.5 201 Q128 216 104 236 Q80 256 64.5 283.5 Q49 311 49 350 Q49 390 65 417.5 Q81 445 106.5 462.5 Q132 480 164 488 Q196 496 228 496 Q262 496 294 491 Q326 486 361 475 Q362 443 363 411.5 Q364 380 366 347 L330 347 Q328 357 325.5 366.5 Q323 376 319 386 Q306 417 280.5 437.5 Q255 458 221 458 Q194 458 170 441 Q146 424 146 396 Q146 381 154 369 Q162 357 174 347 Q186 337 199.5 329.5 Q213 322 223 316 Q246 302 268 290.5 Q290 279 312 263 Q344 240 362.5 213 Q381 186 381 143 Q381 102 364 73.5 Q347 45 320 26 Q293 7 258.5 -1.5 Q224 -10 190 -10 Q152 -10 115 -1.5 Q78 7 44 23 L44 144 Z " />
<glyph glyph-name="t" unicode="t" horiz-adv-x="352" d="M87 433 L4 433 L4 459 Q30 476 57 496.5 Q84 517 107 537 Q129 557 153 582 Q177 607 198 627 L208 627 L208 486 L342 486 L323 433 L206 433 L206 158 Q206 144 207 129 Q208 114 213 101.5 Q218 89 228 81 Q238 73 256 73 Q273 73 291 81.5 Q309 90 323 101 L341 70 L224 -11 Q180 -8 153 4 Q126 16 111.5 37 Q97 58 92 88 Q87 118 87 157 L87 433 Z " />
<glyph glyph-name="u" unicode="u" horiz-adv-x="574" d="M77 382 Q77 400 69 411.5 Q61 423 41 423 Q36 423 30.5 422.5 Q25 422 17 421 L17 456 Q64 465 107 476.5 Q150 488 197 503 L197 153 Q197 112 218 87.5 Q239 63 281 63 Q307 63 329 74 Q351 85 374 99 L374 378 Q374 401 365 412 Q356 423 335 423 Q330 423 324.5 422 Q319 421 314 420 L314 456 Q361 465 403 476.5 Q445 488 492 503 L492 96 Q492 79 497 68.5 Q502 58 519 58 Q527 58 533.5 60 Q540 62 547 64 L547 26 Q505 20 468 11 Q431 2 390 -12 Q385 8 380.5 25.5 Q376 43 374 62 Q357 49 336 36.5 Q315 24 292.5 13.5 Q270 3 247.5 -3.5 Q225 -10 205 -10 Q174 -10 145 4 Q116 18 99 44 Q82 71 79.5 105.5 Q77 140 77 171 L77 382 Z " />
<glyph glyph-name="v" unicode="v" horiz-adv-x="497" d="M79 394 Q77 400 73 407.5 Q69 415 66 420 Q54 437 43 444.5 Q32 452 12 452 L5 452 L5 489 Q37 488 68 487 Q99 486 129 486 Q159 486 188.5 487 Q218 488 250 489 L250 453 Q242 453 233.5 452.5 Q225 452 217 450 Q202 445 202 429 Q202 420 204.5 409.5 Q207 399 211 390 L297 169 L368 388 Q371 396 372.5 408 Q374 420 374 428 Q374 445 359.5 449 Q345 453 334 453 L313 453 L313 489 Q332 488 353 487 Q374 486 397 486 Q417 486 441.5 487 Q466 488 489 489 L489 453 Q478 452 471.5 451 Q465 450 458 445 Q446 438 435.5 419.5 Q425 401 420 388 L273 -6 L245 -6 L79 394 Z " />
<glyph glyph-name="w" unicode="w" horiz-adv-x="759" d="M91 353 Q81 379 75 396.5 Q69 414 60 428 Q52 439 40 446 Q28 453 8 453 L4 453 L4 489 Q38 488 69.5 487 Q101 486 133 486 Q165 486 196 487 Q227 488 261 489 L261 453 Q252 453 240.5 453 Q229 453 219 451 Q196 448 196 429 Q196 419 199 409 Q202 399 208 383 L261 244 Q267 227 273 210.5 Q279 194 284 177 Q313 258 345 336.5 Q377 415 409 496 L431 496 L522 261 Q536 225 541.5 206.5 Q547 188 552 172 L618 358 Q630 392 633 406 Q636 420 636 429 Q636 446 623 449.5 Q610 453 599 453 L578 453 L578 488 Q604 487 627 486.5 Q650 486 673 486 Q695 486 717 486.5 Q739 487 764 488 L764 453 Q743 452 729 445.5 Q715 439 705.5 428.5 Q696 418 688.5 402.5 Q681 387 674 368 L524 -9 L500 -9 L380 307 L259 -9 L233 -9 L91 353 Z " />
<glyph glyph-name="x" unicode="x" horiz-adv-x="532" d="M0 33 Q32 33 52 43.5 Q72 54 93 80 L210 222 L103 388 Q93 404 84 415.5 Q75 427 64.5 434.5 Q54 442 40 446.5 Q26 451 6 453 L6 488 Q38 487 69.5 486.5 Q101 486 133 486 Q169 486 202.5 486.5 Q236 487 270 488 L270 453 Q262 453 255.5 452.5 Q249 452 243 452 Q221 452 221 433 Q221 424 228 410.5 Q235 397 246 379 L290 308 L344 380 Q361 402 367 411.5 Q373 421 373 431 Q373 445 363 448 Q353 451 341 452 Q333 453 330.5 453 Q328 453 323 453 L323 488 Q349 487 373 486.5 Q397 486 420 486 Q445 486 469.5 486.5 Q494 487 520 488 L520 453 Q482 452 456 434 Q430 416 399 378 L315 273 L415 118 Q426 100 436.5 85.5 Q447 71 459.5 59.5 Q472 48 488 41 Q504 34 525 33 L525 -2 Q490 0 455 0 Q420 0 387 0 Q354 0 321.5 0 Q289 0 255 -2 L255 33 Q263 33 271 33.5 Q279 34 287 35 Q310 38 310 54 Q310 62 303 75 Q296 88 291 95 L231 186 L168 100 Q157 85 150.5 75 Q144 65 144 57 Q144 48 151 42.5 Q158 37 169 35 Q180 33 190.5 33 Q201 33 209 33 L209 -2 Q181 0 154.5 0 Q128 0 102 0 Q77 0 52 0 Q27 0 0 -2 L0 33 Z " />
<glyph glyph-name="y" unicode="y" horiz-adv-x="500" d="M78 -58 Q80 -91 94 -110.5 Q108 -130 139 -130 Q163 -130 180.5 -116 Q198 -102 210 -82 Q222 -62 230.5 -38.5 Q239 -15 245 5 L94 364 Q86 381 79 395.5 Q72 410 64 422 Q51 439 36.5 445 Q22 451 2 453 L2 489 Q36 488 68 487 Q100 486 132 486 Q164 486 196.5 487 Q229 488 264 489 L264 453 Q253 453 243.5 452.5 Q234 452 225 450 Q206 445 206 427 Q206 418 210.5 404.5 Q215 391 224 367 L302 168 L373 380 Q378 393 379.5 405.5 Q381 418 381 426 Q381 443 365 448 Q349 453 332 453 L317 453 L317 488 Q340 487 363.5 486.5 Q387 486 409 486 Q430 486 452.5 486.5 Q475 487 498 488 L498 453 Q463 451 447 428 Q431 405 420 371 L288 -14 Q276 -49 261 -83 Q246 -117 224 -144 Q202 -171 172.5 -188 Q143 -205 101 -205 Q86 -205 74 -203 Q62 -201 46 -194 Q45 -159 44.5 -126 Q44 -93 42 -58 L78 -58 Z " />
<glyph glyph-name="z" unicode="z" horiz-adv-x="490" d="M29 28 L238 357 Q261 393 274 410.5 Q287 428 298 442 L234 442 Q215 442 197 440.5 Q179 439 162.5 434 Q146 429 132 419 Q118 409 108 391 Q98 374 93 354.5 Q88 335 86 314 L49 314 L58 486 L458 486 L229 119 Q209 87 198.5 71 Q188 55 178 42 L248 42 Q324 42 365.5 72 Q407 102 418 183 L454 183 L442 0 L29 0 L29 28 Z " />
<glyph glyph-name="agrave" unicode="&#xe0;" horiz-adv-x="502" d="M67 293 Q58 308 53 321.5 Q48 335 48 351 Q48 382 62.5 402.5 Q77 423 99 439 Q115 451 138 461.5 Q161 472 185.5 480.5 Q210 489 234.5 493.5 Q259 498 279 498 Q327 498 366.5 470.5 Q406 443 420 392 Q424 377 425 362 Q426 347 426 332 L426 105 Q426 93 430.5 83.5 Q435 74 447 74 Q456 74 464.5 77.5 Q473 81 484 86 L484 47 Q443 34 405.5 18 Q368 2 330 -16 Q323 -2 319.5 13 Q316 28 313 43 Q281 23 242 5 Q203 -13 164 -13 Q140 -13 117.5 -4 Q95 5 77 20.5 Q59 36 48.5 58.5 Q38 81 38 108 Q38 153 68 182 Q98 211 141 228.5 Q184 246 230 254.5 Q276 263 308 269 L308 349 Q308 392 287.5 419.5 Q267 447 223 447 Q200 447 184.5 436 Q169 425 169 401 Q169 389 173.5 375 Q178 361 184 346 L67 293 Z M308 231 Q283 226 258 219 Q233 212 212.5 200 Q192 188 179.5 170.5 Q167 153 167 128 Q167 96 188 76.5 Q209 57 238 57 Q273 57 310 79 Q308 99 308 125 Q308 151 308 172 L308 231 Z M330 558 Q297 568 262.5 583.5 Q228 599 195.5 620 Q163 641 134 666 Q105 691 83 720 Q131 714 166 714 Q186 714 205.5 715.5 Q225 717 246 719 Q260 679 281.5 644 Q303 609 344 592 L330 558 Z " />
<glyph glyph-name="aacute" unicode="&#xe1;" horiz-adv-x="502" d="M67 293 Q58 308 53 321.5 Q48 335 48 351 Q48 382 62.5 402.5 Q77 423 99 439 Q115 451 138 461.5 Q161 472 185.5 480.5 Q210 489 234.5 493.5 Q259 498 279 498 Q327 498 366.5 470.5 Q406 443 420 392 Q424 377 425 362 Q426 347 426 332 L426 105 Q426 93 430.5 83.5 Q435 74 447 74 Q456 74 464.5 77.5 Q473 81 484 86 L484 47 Q443 34 405.5 18 Q368 2 330 -16 Q323 -2 319.5 13 Q316 28 313 43 Q281 23 242 5 Q203 -13 164 -13 Q140 -13 117.5 -4 Q95 5 77 20.5 Q59 36 48.5 58.5 Q38 81 38 108 Q38 153 68 182 Q98 211 141 228.5 Q184 246 230 254.5 Q276 263 308 269 L308 349 Q308 392 287.5 419.5 Q267 447 223 447 Q200 447 184.5 436 Q169 425 169 401 Q169 389 173.5 375 Q178 361 184 346 L67 293 Z M308 231 Q283 226 258 219 Q233 212 212.5 200 Q192 188 179.5 170.5 Q167 153 167 128 Q167 96 188 76.5 Q209 57 238 57 Q273 57 310 79 Q308 99 308 125 Q308 151 308 172 L308 231 Z M137 592 Q179 611 199.5 644 Q220 677 235 719 Q256 717 275.5 715.5 Q295 714 315 714 Q350 714 398 720 Q376 692 347 666.5 Q318 641 285 620 Q252 599 217.5 583 Q183 567 150 558 L137 592 Z " />
<glyph glyph-name="acircumflex" unicode="&#xe2;" horiz-adv-x="502" d="M67 293 Q58 308 53 321.5 Q48 335 48 351 Q48 382 62.5 402.5 Q77 423 99 439 Q115 451 138 461.5 Q161 472 185.5 480.5 Q210 489 234.5 493.5 Q259 498 279 498 Q327 498 366.5 470.5 Q406 443 420 392 Q424 377 425 362 Q426 347 426 332 L426 105 Q426 93 430.5 83.5 Q435 74 447 74 Q456 74 464.5 77.5 Q473 81 484 86 L484 47 Q443 34 405.5 18 Q368 2 330 -16 Q323 -2 319.5 13 Q316 28 313 43 Q281 23 242 5 Q203 -13 164 -13 Q140 -13 117.5 -4 Q95 5 77 20.5 Q59 36 48.5 58.5 Q38 81 38 108 Q38 153 68 182 Q98 211 141 228.5 Q184 246 230 254.5 Q276 263 308 269 L308 349 Q308 392 287.5 419.5 Q267 447 223 447 Q200 447 184.5 436 Q169 425 169 401 Q169 389 173.5 375 Q178 361 184 346 L67 293 Z M308 231 Q283 226 258 219 Q233 212 212.5 200 Q192 188 179.5 170.5 Q167 153 167 128 Q167 96 188 76.5 Q209 57 238 57 Q273 57 310 79 Q308 99 308 125 Q308 151 308 172 L308 231 Z M92 589 Q134 612 153 643 Q172 674 181 719 Q195 718 206.5 717.5 Q218 717 230 717 Q250 717 269.5 719 Q289 721 310 723 Q321 676 345.5 645 Q370 614 410 587 L394 558 Q312 586 248 637 Q222 611 182 590.5 Q142 570 107 559 L92 589 Z " />
<glyph glyph-name="atilde" unicode="&#xe3;" horiz-adv-x="502" d="M67 293 Q58 308 53 321.5 Q48 335 48 351 Q48 382 62.5 402.5 Q77 423 99 439 Q115 451 138 461.5 Q161 472 185.5 480.5 Q210 489 234.5 493.5 Q259 498 279 498 Q327 498 366.5 470.5 Q406 443 420 392 Q424 377 425 362 Q426 347 426 332 L426 105 Q426 93 430.5 83.5 Q435 74 447 74 Q456 74 464.5 77.5 Q473 81 484 86 L484 47 Q443 34 405.5 18 Q368 2 330 -16 Q323 -2 319.5 13 Q316 28 313 43 Q281 23 242 5 Q203 -13 164 -13 Q140 -13 117.5 -4 Q95 5 77 20.5 Q59 36 48.5 58.5 Q38 81 38 108 Q38 153 68 182 Q98 211 141 228.5 Q184 246 230 254.5 Q276 263 308 269 L308 349 Q308 392 287.5 419.5 Q267 447 223 447 Q200 447 184.5 436 Q169 425 169 401 Q169 389 173.5 375 Q178 361 184 346 L67 293 Z M308 231 Q283 226 258 219 Q233 212 212.5 200 Q192 188 179.5 170.5 Q167 153 167 128 Q167 96 188 76.5 Q209 57 238 57 Q273 57 310 79 Q308 99 308 125 Q308 151 308 172 L308 231 Z M82 598 Q88 615 96.5 635.5 Q105 656 117 673.5 Q129 691 145.5 703 Q162 715 185 715 Q200 715 216.5 710 Q233 705 249.5 698 Q266 691 282 683.5 Q298 676 313 671 Q334 663 351 663 Q368 663 378 672.5 Q388 682 396 699 L428 682 Q423 672 419.5 662.5 Q416 653 411 644 Q405 631 396.5 617.5 Q388 604 377.5 593.5 Q367 583 354 576.5 Q341 570 324 570 Q309 570 293 574.5 Q277 579 260.5 586 Q244 593 228 600 Q212 607 198 612 Q176 620 160 620 Q143 620 134.5 611.5 Q126 603 118 586 L82 598 Z " />
<glyph glyph-name="adieresis" unicode="&#xe4;" horiz-adv-x="502" d="M67 293 Q58 308 53 321.5 Q48 335 48 351 Q48 382 62.5 402.5 Q77 423 99 439 Q115 451 138 461.5 Q161 472 185.5 480.5 Q210 489 234.5 493.5 Q259 498 279 498 Q327 498 366.5 470.5 Q406 443 420 392 Q424 377 425 362 Q426 347 426 332 L426 105 Q426 93 430.5 83.5 Q435 74 447 74 Q456 74 464.5 77.5 Q473 81 484 86 L484 47 Q443 34 405.5 18 Q368 2 330 -16 Q323 -2 319.5 13 Q316 28 313 43 Q281 23 242 5 Q203 -13 164 -13 Q140 -13 117.5 -4 Q95 5 77 20.5 Q59 36 48.5 58.5 Q38 81 38 108 Q38 153 68 182 Q98 211 141 228.5 Q184 246 230 254.5 Q276 263 308 269 L308 349 Q308 392 287.5 419.5 Q267 447 223 447 Q200 447 184.5 436 Q169 425 169 401 Q169 389 173.5 375 Q178 361 184 346 L67 293 Z M308 231 Q283 226 258 219 Q233 212 212.5 200 Q192 188 179.5 170.5 Q167 153 167 128 Q167 96 188 76.5 Q209 57 238 57 Q273 57 310 79 Q308 99 308 125 Q308 151 308 172 L308 231 Z M353 572 Q324 572 304 593 Q284 614 284 642 Q284 671 304 691 Q324 711 353 711 Q382 711 402 691.5 Q422 672 422 643 Q422 614 402 593 Q382 572 353 572 Z M149 572 Q120 572 100 593 Q80 614 80 642 Q80 671 100 691 Q120 711 149 711 Q178 711 198 691.5 Q218 672 218 643 Q218 614 198 593 Q178 572 149 572 Z " />
<glyph glyph-name="amacron" unicode="&#x101;" horiz-adv-x="502" d="M67 293 Q58 308 53 321.5 Q48 335 48 351 Q48 382 62.5 402.5 Q77 423 99 439 Q115 451 138 461.5 Q161 472 185.5 480.5 Q210 489 234.5 493.5 Q259 498 279 498 Q327 498 366.5 470.5 Q406 443 420 392 Q424 377 425 362 Q426 347 426 332 L426 105 Q426 93 430.5 83.5 Q435 74 447 74 Q456 74 464.5 77.5 Q473 81 484 86 L484 47 Q443 34 405.5 18 Q368 2 330 -16 Q323 -2 319.5 13 Q316 28 313 43 Q281 23 242 5 Q203 -13 164 -13 Q140 -13 117.5 -4 Q95 5 77 20.5 Q59 36 48.5 58.5 Q38 81 38 108 Q38 153 68 182 Q98 211 141 228.5 Q184 246 230 254.5 Q276 263 308 269 L308 349 Q308 392 287.5 419.5 Q267 447 223 447 Q200 447 184.5 436 Q169 425 169 401 Q169 389 173.5 375 Q178 361 184 346 L67 293 Z M308 231 Q283 226 258 219 Q233 212 212.5 200 Q192 188 179.5 170.5 Q167 153 167 128 Q167 96 188 76.5 Q209 57 238 57 Q273 57 310 79 Q308 99 308 125 Q308 151 308 172 L308 231 Z M90 685 L420 685 L420 599 L90 599 L90 685 Z " />
<glyph glyph-name="abreve" unicode="&#x103;" horiz-adv-x="502" d="M67 293 Q58 308 53 321.5 Q48 335 48 351 Q48 382 62.5 402.5 Q77 423 99 439 Q115 451 138 461.5 Q161 472 185.5 480.5 Q210 489 234.5 493.5 Q259 498 279 498 Q327 498 366.5 470.5 Q406 443 420 392 Q424 377 425 362 Q426 347 426 332 L426 105 Q426 93 430.5 83.5 Q435 74 447 74 Q456 74 464.5 77.5 Q473 81 484 86 L484 47 Q443 34 405.5 18 Q368 2 330 -16 Q323 -2 319.5 13 Q316 28 313 43 Q281 23 242 5 Q203 -13 164 -13 Q140 -13 117.5 -4 Q95 5 77 20.5 Q59 36 48.5 58.5 Q38 81 38 108 Q38 153 68 182 Q98 211 141 228.5 Q184 246 230 254.5 Q276 263 308 269 L308 349 Q308 392 287.5 419.5 Q267 447 223 447 Q200 447 184.5 436 Q169 425 169 401 Q169 389 173.5 375 Q178 361 184 346 L67 293 Z M308 231 Q283 226 258 219 Q233 212 212.5 200 Q192 188 179.5 170.5 Q167 153 167 128 Q167 96 188 76.5 Q209 57 238 57 Q273 57 310 79 Q308 99 308 125 Q308 151 308 172 L308 231 Z M114 723 Q135 694 172.5 679.5 Q210 665 252 665 Q294 665 331.5 679.5 Q369 694 390 723 L419 708 Q401 665 382 638 Q363 611 343 595.5 Q323 580 300.5 574.5 Q278 569 252 569 Q226 569 203.5 574.5 Q181 580 161 595.5 Q141 611 122 638 Q103 665 85 708 L114 723 Z " />
<glyph glyph-name="aring" unicode="&#xe5;" horiz-adv-x="502" d="M67 293 Q58 308 53 321.5 Q48 335 48 351 Q48 382 62.5 402.5 Q77 423 99 439 Q115 451 138 461.5 Q161 472 185.5 480.5 Q210 489 234.5 493.5 Q259 498 279 498 Q327 498 366.5 470.5 Q406 443 420 392 Q424 377 425 362 Q426 347 426 332 L426 105 Q426 93 430.5 83.5 Q435 74 447 74 Q456 74 464.5 77.5 Q473 81 484 86 L484 47 Q443 34 405.5 18 Q368 2 330 -16 Q323 -2 319.5 13 Q316 28 313 43 Q281 23 242 5 Q203 -13 164 -13 Q140 -13 117.5 -4 Q95 5 77 20.5 Q59 36 48.5 58.5 Q38 81 38 108 Q38 153 68 182 Q98 211 141 228.5 Q184 246 230 254.5 Q276 263 308 269 L308 349 Q308 392 287.5 419.5 Q267 447 223 447 Q200 447 184.5 436 Q169 425 169 401 Q169 389 173.5 375 Q178 361 184 346 L67 293 Z M308 231 Q283 226 258 219 Q233 212 212.5 200 Q192 188 179.5 170.5 Q167 153 167 128 Q167 96 188 76.5 Q209 57 238 57 Q273 57 310 79 Q308 99 308 125 Q308 151 308 172 L308 231 Z M144 641 Q144 663 152.5 682.5 Q161 702 175.5 716.5 Q190 731 209.5 739.5 Q229 748 251 748 Q273 748 292.5 739.5 Q312 731 326.5 716.5 Q341 702 349.5 682.5 Q358 663 358 641 Q358 619 349.5 599.5 Q341 580 326.5 565.5 Q312 551 292.5 542.5 Q273 534 251 534 Q229 534 209.5 542.5 Q190 551 175.5 565.5 Q161 580 152.5 599.5 Q144 619 144 641 Z M251 586 Q274 586 290 602 Q306 618 306 641 Q306 664 290 680 Q274 696 251 696 Q228 696 212 680 Q196 664 196 641 Q196 618 212 602 Q228 586 251 586 Z " />
<glyph glyph-name="aogonek" unicode="&#x105;" horiz-adv-x="502" d="M67 293 Q58 308 53 321.5 Q48 335 48 351 Q48 382 62.5 402.5 Q77 423 99 439 Q115 451 138 461.5 Q161 472 185.5 480.5 Q210 489 234.5 493.5 Q259 498 279 498 Q327 498 366.5 470.5 Q406 443 420 392 Q424 377 425 362 Q426 347 426 332 L426 105 Q426 93 430.5 83.5 Q435 74 447 74 Q456 74 464.5 77.5 Q473 81 484 86 L484 47 Q456 38 433.5 29.5 Q411 21 388 6 Q355 -15 334.5 -34.5 Q314 -54 302.5 -71 Q291 -88 287.5 -102 Q284 -116 284 -127 Q284 -150 293.5 -161 Q303 -172 317 -172 Q336 -172 353.5 -164.5 Q371 -157 383 -146 L405 -171 Q397 -181 384 -190 Q371 -199 355.5 -205.5 Q340 -212 322 -216 Q304 -220 288 -220 Q241 -220 212.5 -201 Q184 -182 184 -136 Q184 -111 198.5 -88.5 Q213 -66 234 -48 Q255 -30 279 -16.5 Q303 -3 322 3 Q316 23 313 43 Q281 23 242 5 Q203 -13 164 -13 Q140 -13 117.5 -4 Q95 5 77 20.5 Q59 36 48.5 58.5 Q38 81 38 108 Q38 153 68 182 Q98 211 141 228.5 Q184 246 230 254.5 Q276 263 308 269 L308 349 Q308 392 287.5 419.5 Q267 447 223 447 Q200 447 184.5 436 Q169 425 169 401 Q169 389 173.5 375 Q178 361 184 346 L67 293 Z M308 231 Q283 226 258 219 Q233 212 212.5 200 Q192 188 179.5 170.5 Q167 153 167 128 Q167 96 188 76.5 Q209 57 238 57 Q273 57 310 79 Q308 99 308 125 Q308 151 308 172 L308 231 Z " />
<glyph glyph-name="ae" unicode="&#xe6;" horiz-adv-x="769" d="M733 42 Q689 12 641.5 -0.5 Q594 -13 546 -13 Q488 -13 442 8 Q396 29 364 67 Q308 22 257 4.5 Q206 -13 164 -13 Q137 -13 114 -4.5 Q91 4 74 19.5 Q57 35 47.5 56 Q38 77 38 102 Q38 150 68 179.5 Q98 209 141 227 Q184 245 230 254 Q276 263 308 269 L308 349 Q308 392 287.5 419.5 Q267 447 223 447 Q200 447 184.5 436 Q169 425 169 401 Q169 389 173.5 375 Q178 361 184 346 L67 293 Q58 308 53 321.5 Q48 335 48 351 Q48 382 62.5 402.5 Q77 423 99 439 Q115 451 138 461.5 Q161 472 185.5 480.5 Q210 489 234.5 493.5 Q259 498 279 498 Q311 498 340.5 485 Q370 472 390 448 Q417 472 452 485.5 Q487 499 530 499 Q579 499 617.5 483 Q656 467 682.5 437.5 Q709 408 722.5 367.5 Q736 327 736 279 L736 260 L436 260 Q436 215 447.5 174.5 Q459 134 479.5 102 Q500 70 528.5 51 Q557 32 591 32 Q635 32 666 60.5 Q697 89 724 130 L733 42 Z M608 299 Q609 304 609 308.5 Q609 313 609 318 Q609 337 605.5 361.5 Q602 386 592.5 408 Q583 430 566 444.5 Q549 459 523 459 Q498 459 481 445.5 Q464 432 454 410.5 Q444 389 440 362.5 Q436 336 436 310 L436 299 L608 299 Z M225 60 Q263 60 291.5 70 Q320 80 343 96 Q326 125 317 158.5 Q308 192 307 231 Q282 226 257 219 Q232 212 212 200 Q192 188 179.5 170.5 Q167 153 167 128 Q167 96 181.5 78 Q196 60 225 60 Z " />
<glyph glyph-name="cacute" unicode="&#x107;" horiz-adv-x="468" d="M439 34 Q396 13 355 0 Q314 -13 266 -13 Q228 -13 194 -2.5 Q160 8 131 28.5 Q102 49 80.5 78 Q59 107 47 144 Q35 184 35 236 Q35 295 53 343 Q71 391 103.5 425.5 Q136 460 181.5 479 Q227 498 282 498 Q316 498 353 492.5 Q390 487 423 472 L431 342 L397 342 Q383 390 353.5 424.5 Q324 459 278 459 Q245 459 222 444.5 Q199 430 184.5 406.5 Q170 383 163.5 352 Q157 321 157 288 Q157 254 167 211 Q177 168 196.5 129.5 Q216 91 246 64.5 Q276 38 317 38 Q357 38 383.5 60 Q410 82 439 117 L439 34 Z M188 592 Q230 611 250.5 644 Q271 677 286 719 Q307 717 326.5 715.5 Q346 714 366 714 Q401 714 449 720 Q427 692 398 666.5 Q369 641 336 620 Q303 599 268.5 583 Q234 567 201 558 L188 592 Z " />
<glyph glyph-name="ccaron" unicode="&#x10d;" horiz-adv-x="468" d="M439 34 Q396 13 355 0 Q314 -13 266 -13 Q228 -13 194 -2.5 Q160 8 131 28.5 Q102 49 80.5 78 Q59 107 47 144 Q35 184 35 236 Q35 295 53 343 Q71 391 103.5 425.5 Q136 460 181.5 479 Q227 498 282 498 Q316 498 353 492.5 Q390 487 423 472 L431 342 L397 342 Q383 390 353.5 424.5 Q324 459 278 459 Q245 459 222 444.5 Q199 430 184.5 406.5 Q170 383 163.5 352 Q157 321 157 288 Q157 254 167 211 Q177 168 196.5 129.5 Q216 91 246 64.5 Q276 38 317 38 Q357 38 383.5 60 Q410 82 439 117 L439 34 Z M124 731 Q164 721 201.5 699 Q239 677 271 654 Q298 680 336.5 699.5 Q375 719 412 732 L427 701 Q386 681 366 648 Q346 615 339 572 Q325 573 313.5 573.5 Q302 574 291 574 Q271 574 250.5 572 Q230 570 209 567 Q204 576 202.5 585 Q201 594 198 603 Q187 635 163 659 Q139 683 109 703 L124 731 Z " />
<glyph glyph-name="ccedilla" unicode="&#xe7;" horiz-adv-x="468" d="M439 34 Q396 13 355 0 Q314 -13 266 -13 Q228 -13 194 -2.5 Q160 8 131 28.5 Q102 49 80.5 78 Q59 107 47 144 Q35 184 35 236 Q35 295 53 343 Q71 391 103.5 425.5 Q136 460 181.5 479 Q227 498 282 498 Q316 498 353 492.5 Q390 487 423 472 L431 342 L397 342 Q383 390 353.5 424.5 Q324 459 278 459 Q245 459 222 444.5 Q199 430 184.5 406.5 Q170 383 163.5 352 Q157 321 157 288 Q157 254 167 211 Q177 168 196.5 129.5 Q216 91 246 64.5 Q276 38 317 38 Q357 38 383.5 60 Q410 82 439 117 L439 34 Z M213 -226 Q225 -215 233 -203.5 Q241 -192 241 -177 Q241 -159 223.5 -139.5 Q206 -120 189 -107 L287 -47 Q302 -64 311.5 -84.5 Q321 -105 321 -126 Q321 -146 313 -163.5 Q305 -181 294 -195 Q281 -211 267 -224 Q253 -237 239 -250 L213 -226 Z " />
<glyph glyph-name="dcaron" unicode="&#x10f;" horiz-adv-x="586" d="M561 39 Q518 26 479.5 12 Q441 -2 401 -21 Q387 7 381 37 Q349 14 316 1 Q283 -12 243 -12 Q197 -12 159 8 Q121 28 93.5 61.5 Q66 95 50.5 138.5 Q35 182 35 229 Q35 280 51.5 326 Q68 372 100 410 Q138 456 182.5 477 Q227 498 286 498 Q314 498 335.5 492 Q357 486 380 472 L380 653 Q380 673 374 682.5 Q368 692 348 692 Q339 692 329.5 690.5 Q320 689 309 687 L309 722 Q360 733 406.5 746 Q453 759 504 777 L504 100 Q504 88 507 76 Q510 64 526 64 Q533 64 543.5 68.5 Q554 73 561 75 L561 39 Z M380 415 Q354 434 332 447 Q310 460 279 460 Q246 460 224 443.5 Q202 427 188 401.5 Q174 376 168 344.5 Q162 313 162 283 Q162 247 171 206.5 Q180 166 198.5 132.5 Q217 99 245.5 77 Q274 55 313 55 Q331 55 348 61.5 Q365 68 380 78 L380 415 Z M542 501 Q560 524 573 547.5 Q586 571 586 599 Q586 625 573 646.5 Q560 668 542 689 L655 769 Q675 747 682.5 727 Q690 707 690 679 Q690 648 678.5 620 Q667 592 649 567.5 Q631 543 608.5 521 Q586 499 564 480 L542 501 Z " />
<glyph glyph-name="dcroat" unicode="&#x111;" horiz-adv-x="586" d="M207 615 L380 614 L380 653 Q380 673 374 682.5 Q368 692 348 692 Q339 692 329.5 690.5 Q320 689 309 687 L310 722 Q361 733 407 746 Q453 759 504 777 L504 614 L573 614 L573 555 L504 555 L504 100 Q504 88 507 76 Q510 64 526 64 Q533 64 543.5 68.5 Q554 73 561 75 L561 39 Q518 26 479.5 12 Q441 -2 401 -21 Q387 7 381 37 Q349 14 316 1 Q283 -12 243 -12 Q197 -12 159 8 Q121 28 93.5 61.5 Q66 95 50.5 138.5 Q35 182 35 229 Q35 280 51.5 326 Q68 372 100 410 Q138 456 182.5 477 Q227 498 286 498 Q314 498 335.5 492 Q357 486 380 472 L380 555 L207 555 L207 615 Z M380 415 Q354 434 332 447 Q310 460 279 460 Q246 460 224 443.5 Q202 427 188 401.5 Q174 376 168 344.5 Q162 313 162 283 Q162 247 171 206.5 Q180 166 198.5 132.5 Q217 99 245.5 77 Q274 55 313 55 Q331 55 348 61.5 Q365 68 380 78 L380 415 Z " />
<glyph glyph-name="egrave" unicode="&#xe8;" horiz-adv-x="497" d="M461 42 Q417 12 369.5 -0.5 Q322 -13 274 -13 Q220 -13 176 5.5 Q132 24 100.5 58 Q69 92 52 138.5 Q35 185 35 242 Q35 294 50 340.5 Q65 387 93.5 422.5 Q122 458 163.5 478.5 Q205 499 258 499 Q307 499 345.5 483 Q384 467 410.5 437.5 Q437 408 450.5 367.5 Q464 327 464 279 L464 259 L164 259 Q164 215 175.5 174.5 Q187 134 207.5 102 Q228 70 256.5 51 Q285 32 319 32 Q363 32 394 60.5 Q425 89 452 130 L461 42 Z M336 299 Q337 304 337 308.5 Q337 313 337 318 Q337 337 333.5 361.5 Q330 386 320.5 408 Q311 430 294 444.5 Q277 459 251 459 Q226 459 209 445.5 Q192 432 182 410.5 Q172 389 168 362.5 Q164 336 164 310 L164 299 L336 299 Z M349 558 Q316 568 281.5 583.5 Q247 599 214.5 620 Q182 641 153 666 Q124 691 102 720 Q150 714 185 714 Q205 714 224.5 715.5 Q244 717 265 719 Q279 679 300.5 644 Q322 609 363 592 L349 558 Z " />
<glyph glyph-name="eacute" unicode="&#xe9;" horiz-adv-x="497" d="M461 42 Q417 12 369.5 -0.5 Q322 -13 274 -13 Q220 -13 176 5.5 Q132 24 100.5 58 Q69 92 52 138.5 Q35 185 35 242 Q35 294 50 340.5 Q65 387 93.5 422.5 Q122 458 163.5 478.5 Q205 499 258 499 Q307 499 345.5 483 Q384 467 410.5 437.5 Q437 408 450.5 367.5 Q464 327 464 279 L464 259 L164 259 Q164 215 175.5 174.5 Q187 134 207.5 102 Q228 70 256.5 51 Q285 32 319 32 Q363 32 394 60.5 Q425 89 452 130 L461 42 Z M336 299 Q337 304 337 308.5 Q337 313 337 318 Q337 337 333.5 361.5 Q330 386 320.5 408 Q311 430 294 444.5 Q277 459 251 459 Q226 459 209 445.5 Q192 432 182 410.5 Q172 389 168 362.5 Q164 336 164 310 L164 299 L336 299 Z M182 592 Q224 611 244.5 644 Q265 677 280 719 Q301 717 320.5 715.5 Q340 714 360 714 Q395 714 443 720 Q421 692 392 666.5 Q363 641 330 620 Q297 599 262.5 583 Q228 567 195 558 L182 592 Z " />
<glyph glyph-name="ecircumflex" unicode="&#xea;" horiz-adv-x="497" d="M461 42 Q417 12 369.5 -0.5 Q322 -13 274 -13 Q220 -13 176 5.5 Q132 24 100.5 58 Q69 92 52 138.5 Q35 185 35 242 Q35 294 50 340.5 Q65 387 93.5 422.5 Q122 458 163.5 478.5 Q205 499 258 499 Q307 499 345.5 483 Q384 467 410.5 437.5 Q437 408 450.5 367.5 Q464 327 464 279 L464 259 L164 259 Q164 215 175.5 174.5 Q187 134 207.5 102 Q228 70 256.5 51 Q285 32 319 32 Q363 32 394 60.5 Q425 89 452 130 L461 42 Z M336 299 Q337 304 337 308.5 Q337 313 337 318 Q337 337 333.5 361.5 Q330 386 320.5 408 Q311 430 294 444.5 Q277 459 251 459 Q226 459 209 445.5 Q192 432 182 410.5 Q172 389 168 362.5 Q164 336 164 310 L164 299 L336 299 Z M105 589 Q147 612 166 643 Q185 674 194 719 Q208 718 219.5 717.5 Q231 717 243 717 Q263 717 282.5 719 Q302 721 323 723 Q334 676 358.5 645 Q383 614 423 587 L407 558 Q325 586 261 637 Q235 611 195 590.5 Q155 570 120 559 L105 589 Z " />
<glyph glyph-name="ecaron" unicode="&#x11b;" horiz-adv-x="497" d="M461 42 Q417 12 369.5 -0.5 Q322 -13 274 -13 Q220 -13 176 5.5 Q132 24 100.5 58 Q69 92 52 138.5 Q35 185 35 242 Q35 294 50 340.5 Q65 387 93.5 422.5 Q122 458 163.5 478.5 Q205 499 258 499 Q307 499 345.5 483 Q384 467 410.5 437.5 Q437 408 450.5 367.5 Q464 327 464 279 L464 259 L164 259 Q164 215 175.5 174.5 Q187 134 207.5 102 Q228 70 256.5 51 Q285 32 319 32 Q363 32 394 60.5 Q425 89 452 130 L461 42 Z M336 299 Q337 304 337 308.5 Q337 313 337 318 Q337 337 333.5 361.5 Q330 386 320.5 408 Q311 430 294 444.5 Q277 459 251 459 Q226 459 209 445.5 Q192 432 182 410.5 Q172 389 168 362.5 Q164 336 164 310 L164 299 L336 299 Z M107 731 Q147 721 184.5 699 Q222 677 254 654 Q281 680 319.5 699.5 Q358 719 395 732 L410 701 Q369 681 349 648 Q329 615 322 572 Q308 573 296.5 573.5 Q285 574 274 574 Q254 574 233.5 572 Q213 570 192 567 Q187 576 185.5 585 Q184 594 181 603 Q170 635 146 659 Q122 683 92 703 L107 731 Z " />
<glyph glyph-name="edieresis" unicode="&#xeb;" horiz-adv-x="497" d="M461 42 Q417 12 369.5 -0.5 Q322 -13 274 -13 Q220 -13 176 5.5 Q132 24 100.5 58 Q69 92 52 138.5 Q35 185 35 242 Q35 294 50 340.5 Q65 387 93.5 422.5 Q122 458 163.5 478.5 Q205 499 258 499 Q307 499 345.5 483 Q384 467 410.5 437.5 Q437 408 450.5 367.5 Q464 327 464 279 L464 259 L164 259 Q164 215 175.5 174.5 Q187 134 207.5 102 Q228 70 256.5 51 Q285 32 319 32 Q363 32 394 60.5 Q425 89 452 130 L461 42 Z M336 299 Q337 304 337 308.5 Q337 313 337 318 Q337 337 333.5 361.5 Q330 386 320.5 408 Q311 430 294 444.5 Q277 459 251 459 Q226 459 209 445.5 Q192 432 182 410.5 Q172 389 168 362.5 Q164 336 164 310 L164 299 L336 299 Z M363 572 Q334 572 314 593 Q294 614 294 642 Q294 671 314 691 Q334 711 363 711 Q392 711 412 691.5 Q432 672 432 643 Q432 614 412 593 Q392 572 363 572 Z M159 572 Q130 572 110 593 Q90 614 90 642 Q90 671 110 691 Q130 711 159 711 Q188 711 208 691.5 Q228 672 228 643 Q228 614 208 593 Q188 572 159 572 Z " />
<glyph glyph-name="emacron" unicode="&#x113;" horiz-adv-x="497" d="M461 42 Q417 12 369.5 -0.5 Q322 -13 274 -13 Q220 -13 176 5.5 Q132 24 100.5 58 Q69 92 52 138.5 Q35 185 35 242 Q35 294 50 340.5 Q65 387 93.5 422.5 Q122 458 163.5 478.5 Q205 499 258 499 Q307 499 345.5 483 Q384 467 410.5 437.5 Q437 408 450.5 367.5 Q464 327 464 279 L464 259 L164 259 Q164 215 175.5 174.5 Q187 134 207.5 102 Q228 70 256.5 51 Q285 32 319 32 Q363 32 394 60.5 Q425 89 452 130 L461 42 Z M336 299 Q337 304 337 308.5 Q337 313 337 318 Q337 337 333.5 361.5 Q330 386 320.5 408 Q311 430 294 444.5 Q277 459 251 459 Q226 459 209 445.5 Q192 432 182 410.5 Q172 389 168 362.5 Q164 336 164 310 L164 299 L336 299 Z M94 685 L424 685 L424 599 L94 599 L94 685 Z " />
<glyph glyph-name="edotaccent" unicode="&#x117;" horiz-adv-x="497" d="M461 42 Q417 12 369.5 -0.5 Q322 -13 274 -13 Q220 -13 176 5.5 Q132 24 100.5 58 Q69 92 52 138.5 Q35 185 35 242 Q35 294 50 340.5 Q65 387 93.5 422.5 Q122 458 163.5 478.5 Q205 499 258 499 Q307 499 345.5 483 Q384 467 410.5 437.5 Q437 408 450.5 367.5 Q464 327 464 279 L464 259 L164 259 Q164 215 175.5 174.5 Q187 134 207.5 102 Q228 70 256.5 51 Q285 32 319 32 Q363 32 394 60.5 Q425 89 452 130 L461 42 Z M336 299 Q337 304 337 308.5 Q337 313 337 318 Q337 337 333.5 361.5 Q330 386 320.5 408 Q311 430 294 444.5 Q277 459 251 459 Q226 459 209 445.5 Q192 432 182 410.5 Q172 389 168 362.5 Q164 336 164 310 L164 299 L336 299 Z M178 639 Q178 654 184 667.5 Q190 681 200.5 690.5 Q211 700 224.5 705.5 Q238 711 253 711 Q283 711 303.5 691 Q324 671 324 641 Q324 610 303.5 588 Q283 566 251 566 Q220 566 199 587 Q178 608 178 639 Z " />
<glyph glyph-name="eogonek" unicode="&#x119;" horiz-adv-x="497" d="M395 -171 Q387 -181 374 -190 Q361 -199 345.5 -205.5 Q330 -212 312 -216 Q294 -220 278 -220 Q231 -220 202.5 -201 Q174 -182 174 -136 Q174 -117 183 -98.5 Q192 -80 207 -64.5 Q222 -49 240.5 -35.5 Q259 -22 277 -13 L274 -13 Q220 -13 176 5.5 Q132 24 100.5 58 Q69 92 52 138.5 Q35 185 35 242 Q35 294 50 340.5 Q65 387 93.5 422.5 Q122 458 163.5 478.5 Q205 499 258 499 Q307 499 345.5 483 Q384 467 410.5 437.5 Q437 408 450.5 367.5 Q464 327 464 279 L464 259 L164 259 Q164 215 175.5 174.5 Q187 134 207.5 102 Q228 70 256.5 51 Q285 32 319 32 Q363 32 394 60.5 Q425 89 452 130 L461 42 Q436 25 410 14 Q384 3 358 -3 Q331 -26 314.5 -44 Q298 -62 289 -77 Q280 -92 277 -104.5 Q274 -117 274 -127 Q274 -150 283.5 -161 Q293 -172 307 -172 Q326 -172 343.5 -164.5 Q361 -157 373 -146 L395 -171 Z M336 299 Q337 304 337 308.5 Q337 313 337 318 Q337 337 333.5 361.5 Q330 386 320.5 408 Q311 430 294 444.5 Q277 459 251 459 Q226 459 209 445.5 Q192 432 182 410.5 Q172 389 168 362.5 Q164 336 164 310 L164 299 L336 299 Z " />
<glyph glyph-name="gbreve" unicode="&#x11f;" horiz-adv-x="538" d="M515 486 L496 433 L409 433 Q429 416 444.5 388 Q460 360 460 325 Q460 305 453.5 282.5 Q447 260 434 243 Q416 220 393.5 207 Q371 194 345.5 186.5 Q320 179 294 176.5 Q268 174 243 174 Q231 166 217 154 Q203 142 203 128 Q203 110 221.5 103 Q240 96 257 95 Q273 93 292 92.5 Q311 92 331 90 Q351 89 372 87 Q393 85 412.5 79.5 Q432 74 450 65 Q468 56 482 40 Q496 26 501.5 6.5 Q507 -13 507 -34 Q507 -85 474 -127 Q454 -151 429.5 -167 Q405 -183 377 -192.5 Q349 -202 320 -206 Q291 -210 263 -210 Q231 -210 199 -206.5 Q167 -203 136 -192 Q117 -185 99.5 -173.5 Q82 -162 68 -147 Q54 -132 45.5 -113 Q37 -94 37 -71 Q37 -46 46 -29.5 Q55 -13 70 -2 Q85 9 103 15.5 Q121 22 139 25 Q120 36 102.5 52 Q85 68 85 94 Q85 109 95 122 Q105 135 120 146 Q135 157 152.5 165 Q170 173 185 179 Q159 186 134 198.5 Q109 211 89.5 229.5 Q70 248 58.5 273.5 Q47 299 47 332 Q47 375 65.5 407 Q84 439 113 460 Q142 481 177.5 491 Q213 501 248 501 Q277 501 299 497.5 Q321 494 345 486 L515 486 Z M266 211 Q285 211 298 219.5 Q311 228 319 242 Q327 256 330.5 273.5 Q334 291 334 309 Q334 331 328.5 358 Q323 385 311.5 408 Q300 431 282.5 447 Q265 463 240 463 Q222 463 208.5 453 Q195 443 187 427 Q179 411 175 392.5 Q171 374 171 357 Q171 335 177 309.5 Q183 284 194.5 262 Q206 240 224 225.5 Q242 211 266 211 Z M213 -9 Q198 -13 184.5 -18 Q171 -23 160.5 -31.5 Q150 -40 144 -52 Q138 -64 138 -82 Q138 -105 148 -122 Q158 -139 175.5 -150 Q193 -161 216.5 -166 Q240 -171 267 -171 Q291 -171 317 -165 Q343 -159 364.5 -147 Q386 -135 400 -117.5 Q414 -100 414 -77 Q414 -68 411 -58.5 Q408 -49 400 -41 Q390 -32 377 -27.5 Q364 -23 349.5 -21 Q335 -19 319.5 -18.5 Q304 -18 291 -16 Q268 -14 250.5 -12.5 Q233 -11 213 -9 Z M123 723 Q144 694 181.5 679.5 Q219 665 261 665 Q303 665 340.5 679.5 Q378 694 399 723 L428 708 Q410 665 391 638 Q372 611 352 595.5 Q332 580 309.5 574.5 Q287 569 261 569 Q235 569 212.5 574.5 Q190 580 170 595.5 Q150 611 131 638 Q112 665 94 708 L123 723 Z " />
<glyph glyph-name="gcommaaccent" unicode="&#x123;" horiz-adv-x="538" d="M515 486 L496 433 L409 433 Q429 416 444.5 388 Q460 360 460 325 Q460 305 453.5 282.5 Q447 260 434 243 Q416 220 393.5 207 Q371 194 345.5 186.5 Q320 179 294 176.5 Q268 174 243 174 Q231 166 217 154 Q203 142 203 128 Q203 110 221.5 103 Q240 96 257 95 Q273 93 292 92.5 Q311 92 331 90 Q351 89 372 87 Q393 85 412.5 79.5 Q432 74 450 65 Q468 56 482 40 Q496 26 501.5 6.5 Q507 -13 507 -34 Q507 -85 474 -127 Q454 -151 429.5 -167 Q405 -183 377 -192.5 Q349 -202 320 -206 Q291 -210 263 -210 Q231 -210 199 -206.5 Q167 -203 136 -192 Q117 -185 99.5 -173.5 Q82 -162 68 -147 Q54 -132 45.5 -113 Q37 -94 37 -71 Q37 -46 46 -29.5 Q55 -13 70 -2 Q85 9 103 15.5 Q121 22 139 25 Q120 36 102.5 52 Q85 68 85 94 Q85 109 95 122 Q105 135 120 146 Q135 157 152.5 165 Q170 173 185 179 Q159 186 134 198.5 Q109 211 89.5 229.5 Q70 248 58.5 273.5 Q47 299 47 332 Q47 375 65.5 407 Q84 439 113 460 Q142 481 177.5 491 Q213 501 248 501 Q277 501 299 497.5 Q321 494 345 486 L515 486 Z M266 211 Q285 211 298 219.5 Q311 228 319 242 Q327 256 330.5 273.5 Q334 291 334 309 Q334 331 328.5 358 Q323 385 311.5 408 Q300 431 282.5 447 Q265 463 240 463 Q222 463 208.5 453 Q195 443 187 427 Q179 411 175 392.5 Q171 374 171 357 Q171 335 177 309.5 Q183 284 194.5 262 Q206 240 224 225.5 Q242 211 266 211 Z M213 -9 Q198 -13 184.5 -18 Q171 -23 160.5 -31.5 Q150 -40 144 -52 Q138 -64 138 -82 Q138 -105 148 -122 Q158 -139 175.5 -150 Q193 -161 216.5 -166 Q240 -171 267 -171 Q291 -171 317 -165 Q343 -159 364.5 -147 Q386 -135 400 -117.5 Q414 -100 414 -77 Q414 -68 411 -58.5 Q408 -49 400 -41 Q390 -32 377 -27.5 Q364 -23 349.5 -21 Q335 -19 319.5 -18.5 Q304 -18 291 -16 Q268 -14 250.5 -12.5 Q233 -11 213 -9 Z M220 538 Q203 556 193 579 Q183 602 183 625 Q183 648 191.5 667 Q200 686 213 702 Q227 719 242.5 734 Q258 749 274 763 L303 737 Q289 724 280 711.5 Q271 699 271 682 Q271 672 276.5 661.5 Q282 651 290.5 640.5 Q299 630 309.5 620.5 Q320 611 329 604 L220 538 Z " />
<glyph glyph-name="igrave" unicode="&#xec;" horiz-adv-x="298" d="M33 31 Q70 32 81.5 42.5 Q93 53 93 88 L93 365 Q93 381 88 394 Q83 407 65 407 Q52 407 33 401 L34 437 Q83 450 123.5 465.5 Q164 481 211 503 L211 88 Q211 70 213.5 59.5 Q216 49 223 43 Q230 37 241 34.5 Q252 32 270 31 L270 -4 Q238 -2 208.5 -1 Q179 0 150 0 Q121 0 93 -1 Q65 -2 33 -4 L33 31 Z M212 558 Q179 568 144.5 583.5 Q110 599 77.5 620 Q45 641 16 666 Q-13 691 -35 720 Q13 714 48 714 Q68 714 87.5 715.5 Q107 717 128 719 Q142 679 163.5 644 Q185 609 226 592 L212 558 Z " />
<glyph glyph-name="iacute" unicode="&#xed;" horiz-adv-x="298" d="M33 31 Q70 32 81.5 42.5 Q93 53 93 88 L93 365 Q93 381 88 394 Q83 407 65 407 Q52 407 33 401 L34 437 Q83 450 123.5 465.5 Q164 481 211 503 L211 88 Q211 70 213.5 59.5 Q216 49 223 43 Q230 37 241 34.5 Q252 32 270 31 L270 -4 Q238 -2 208.5 -1 Q179 0 150 0 Q121 0 93 -1 Q65 -2 33 -4 L33 31 Z M38 592 Q80 611 100.5 644 Q121 677 136 719 Q157 717 176.5 715.5 Q196 714 216 714 Q251 714 299 720 Q277 692 248 666.5 Q219 641 186 620 Q153 599 118.5 583 Q84 567 51 558 L38 592 Z " />
<glyph glyph-name="icircumflex" unicode="&#xee;" horiz-adv-x="298" d="M33 31 Q70 32 81.5 42.5 Q93 53 93 88 L93 365 Q93 381 88 394 Q83 407 65 407 Q52 407 33 401 L34 437 Q83 450 123.5 465.5 Q164 481 211 503 L211 88 Q211 70 213.5 59.5 Q216 49 223 43 Q230 37 241 34.5 Q252 32 270 31 L270 -4 Q238 -2 208.5 -1 Q179 0 150 0 Q121 0 93 -1 Q65 -2 33 -4 L33 31 Z M-11 589 Q31 612 50 643 Q69 674 78 719 Q92 718 103.5 717.5 Q115 717 127 717 Q147 717 166.5 719 Q186 721 207 723 Q218 676 242.5 645 Q267 614 307 587 L291 558 Q209 586 145 637 Q119 611 79 590.5 Q39 570 4 559 L-11 589 Z " />
<glyph glyph-name="idieresis" unicode="&#xef;" horiz-adv-x="298" d="M33 31 Q70 32 81.5 42.5 Q93 53 93 88 L93 365 Q93 381 88 394 Q83 407 65 407 Q52 407 33 401 L34 437 Q83 450 123.5 465.5 Q164 481 211 503 L211 88 Q211 70 213.5 59.5 Q216 49 223 43 Q230 37 241 34.5 Q252 32 270 31 L270 -4 Q238 -2 208.5 -1 Q179 0 150 0 Q121 0 93 -1 Q65 -2 33 -4 L33 31 Z M245 572 Q216 572 196 593 Q176 614 176 642 Q176 671 196 691 Q216 711 245 711 Q274 711 294 691.5 Q314 672 314 643 Q314 614 294 593 Q274 572 245 572 Z M41 572 Q12 572 -8 593 Q-28 614 -28 642 Q-28 671 -8 691 Q12 711 41 711 Q70 711 90 691.5 Q110 672 110 643 Q110 614 90 593 Q70 572 41 572 Z " />
<glyph glyph-name="imacron" unicode="&#x12b;" horiz-adv-x="298" d="M33 31 Q70 32 81.5 42.5 Q93 53 93 88 L93 365 Q93 381 88 394 Q83 407 65 407 Q52 407 33 401 L34 437 Q83 450 123.5 465.5 Q164 481 211 503 L211 88 Q211 70 213.5 59.5 Q216 49 223 43 Q230 37 241 34.5 Q252 32 270 31 L270 -4 Q238 -2 208.5 -1 Q179 0 150 0 Q121 0 93 -1 Q65 -2 33 -4 L33 31 Z M-23 685 L307 685 L307 599 L-23 599 L-23 685 Z " />
<glyph glyph-name="iogonek" unicode="&#x12f;" horiz-adv-x="298" d="M33 31 Q70 32 81.5 42.5 Q93 53 93 88 L93 365 Q93 381 88 394 Q83 407 65 407 Q52 407 33 401 L34 437 Q83 450 123.5 465.5 Q164 481 211 503 L211 88 Q211 70 213.5 59.5 Q216 49 223 43 Q230 37 241 34.5 Q252 32 270 31 L270 -4 L195 0 Q167 -23 150 -42 Q133 -61 123.5 -76.5 Q114 -92 111 -104.5 Q108 -117 108 -127 Q108 -150 117.5 -161 Q127 -172 141 -172 Q160 -172 177.5 -164.5 Q195 -157 207 -146 L229 -171 Q221 -181 208 -190 Q195 -199 179.5 -205.5 Q164 -212 146 -216 Q128 -220 112 -220 Q65 -220 36.5 -201 Q8 -182 8 -136 Q8 -113 21 -91.5 Q34 -70 53.5 -52 Q73 -34 95.5 -21 Q118 -8 138 0 Q112 0 86.5 -1 Q61 -2 33 -4 L33 31 Z M74 639 Q74 654 80 667.5 Q86 681 96.5 690.5 Q107 700 120.5 705.5 Q134 711 149 711 Q179 711 199.5 691 Q220 671 220 641 Q220 610 199.5 588 Q179 566 147 566 Q116 566 95 587 Q74 608 74 639 Z " />
<glyph glyph-name="dotlessi" unicode="&#x131;" horiz-adv-x="298" d="M33 31 Q70 32 81.5 42.5 Q93 53 93 88 L93 365 Q93 381 88 394 Q83 407 65 407 Q52 407 33 401 L34 437 Q83 450 123.5 465.5 Q164 481 211 503 L211 88 Q211 70 213.5 59.5 Q216 49 223 43 Q230 37 241 34.5 Q252 32 270 31 L270 -4 Q238 -2 208.5 -1 Q179 0 150 0 Q121 0 93 -1 Q65 -2 33 -4 L33 31 Z " />
<glyph glyph-name="kcommaaccent" unicode="&#x137;" horiz-adv-x="558" d="M21 32 Q56 34 67 45 Q78 56 78 89 L78 649 Q78 669 73.5 680.5 Q69 692 49 692 Q37 692 16 686 L16 723 Q107 747 199 778 L199 271 L322 382 Q331 390 340 403.5 Q349 417 349 430 Q349 438 344 442.5 Q339 447 331.5 449 Q324 451 315.5 451.5 Q307 452 300 452 L300 489 Q328 488 354.5 487 Q381 486 407 486 Q432 486 457.5 487 Q483 488 510 489 L510 452 Q476 452 453.5 436 Q431 420 408 400 L327 330 L465 104 Q472 93 482.5 78 Q493 63 502 54 Q510 46 520.5 41.5 Q531 37 551 35 L551 -4 Q526 -2 501.5 -1 Q477 0 453 0 Q430 0 408 -1 Q386 -2 361 -4 L361 14 Q361 32 355.5 48 Q350 64 341 78 L238 252 L199 224 L199 89 Q199 70 202 59.5 Q205 49 211.5 43 Q218 37 230 35 Q242 33 260 32 L260 -3 Q228 -2 198.5 -1 Q169 0 140 0 Q111 0 82 -1 Q53 -2 21 -3 L21 32 Z M225 -226 Q237 -215 245 -203.5 Q253 -192 253 -177 Q253 -159 235.5 -139.5 Q218 -120 201 -107 L299 -47 Q314 -64 323.5 -84.5 Q333 -105 333 -126 Q333 -146 325 -163.5 Q317 -181 306 -195 Q293 -211 279 -224 Q265 -237 251 -250 L225 -226 Z " />
<glyph glyph-name="lacute" unicode="&#x13a;" horiz-adv-x="286" d="M20 31 Q54 33 67.5 43.5 Q81 54 81 88 L81 669 Q81 699 52 699 Q39 699 21 690 L21 731 Q67 741 110.5 752.5 Q154 764 201 778 L201 88 Q201 70 203.5 59.5 Q206 49 213 43 Q220 37 231 34.5 Q242 32 260 31 L260 -4 Q229 -2 199 -1 Q169 0 140 0 Q111 0 81.5 -1 Q52 -2 20 -4 L20 31 Z M57 849 Q99 868 119.5 901 Q140 934 155 976 Q176 974 195.5 972.5 Q215 971 235 971 Q270 971 318 977 Q296 949 267 923.5 Q238 898 205 877 Q172 856 137.5 840 Q103 824 70 815 L57 849 Z " />
<glyph glyph-name="lcaron" unicode="&#x13e;" horiz-adv-x="286" d="M20 31 Q54 33 67.5 43.5 Q81 54 81 88 L81 669 Q81 699 52 699 Q39 699 21 690 L21 731 Q67 741 110.5 752.5 Q154 764 201 778 L201 88 Q201 70 203.5 59.5 Q206 49 213 43 Q220 37 231 34.5 Q242 32 260 31 L260 -4 Q229 -2 199 -1 Q169 0 140 0 Q111 0 81.5 -1 Q52 -2 20 -4 L20 31 Z M239 501 Q257 524 270 547.5 Q283 571 283 599 Q283 625 270 646.5 Q257 668 239 689 L352 769 Q372 747 379.5 727 Q387 707 387 679 Q387 648 375.5 620 Q364 592 346 567.5 Q328 543 305.5 521 Q283 499 261 480 L239 501 Z " />
<glyph glyph-name="lcommaaccent" unicode="&#x13c;" horiz-adv-x="286" d="M20 31 Q54 33 67.5 43.5 Q81 54 81 88 L81 669 Q81 699 52 699 Q39 699 21 690 L21 731 Q67 741 110.5 752.5 Q154 764 201 778 L201 88 Q201 70 203.5 59.5 Q206 49 213 43 Q220 37 231 34.5 Q242 32 260 31 L260 -4 Q229 -2 199 -1 Q169 0 140 0 Q111 0 81.5 -1 Q52 -2 20 -4 L20 31 Z M90 -226 Q102 -215 110 -203.5 Q118 -192 118 -177 Q118 -159 100.5 -139.5 Q83 -120 66 -107 L164 -47 Q179 -64 188.5 -84.5 Q198 -105 198 -126 Q198 -146 190 -163.5 Q182 -181 171 -195 Q158 -211 144 -224 Q130 -237 116 -250 L90 -226 Z " />
<glyph glyph-name="lslash" unicode="&#x142;" horiz-adv-x="286" d="M16 342 L81 382 L81 669 Q81 699 52 699 Q38 699 20 690 L21 731 Q67 741 110.5 752.5 Q154 764 201 778 L201 456 L254 489 L254 433 L201 400 L201 88 Q201 70 203.5 59.5 Q206 49 213 43 Q220 37 231 34.5 Q242 32 260 31 L260 -4 Q228 -2 198.5 -1 Q169 0 140 0 Q111 0 81.5 -1 Q52 -2 20 -4 L20 31 Q54 33 67.5 43.5 Q81 54 81 88 L81 326 L16 286 L16 342 Z " />
<glyph glyph-name="nacute" unicode="&#x144;" horiz-adv-x="583" d="M27 32 Q46 33 58.5 35 Q71 37 78 42.5 Q85 48 88 59 Q91 70 91 89 Q91 120 91 157 Q91 194 91.5 232.5 Q92 271 92 308 Q92 345 92 376 Q92 391 85 401 Q78 411 61 411 Q52 411 44 409 Q36 407 28 405 L28 439 Q76 453 119 468 Q162 483 209 503 L209 421 Q226 435 248.5 449 Q271 463 295 474 Q319 485 344 492 Q369 499 390 499 Q423 499 445.5 486.5 Q468 474 482 453.5 Q496 433 502 406.5 Q508 380 508 352 L508 89 Q508 54 519.5 44 Q531 34 566 32 L566 -3 Q534 -2 504.5 -1 Q475 0 445 0 Q416 0 386.5 -1 Q357 -2 325 -3 L325 32 Q344 33 356.5 35 Q369 37 376 42.5 Q383 48 386 59 Q389 70 389 89 L389 330 Q389 355 382.5 376.5 Q376 398 356 413 Q346 420 335 423 Q324 426 313 426 Q287 426 258 412.5 Q229 399 209 384 L209 89 Q209 71 212 60 Q215 49 221.5 43 Q228 37 240 35 Q252 33 270 32 L270 -3 Q238 -2 207.5 -1 Q177 0 147 0 Q118 0 88.5 -1 Q59 -2 27 -3 L27 32 Z M208 592 Q250 611 270.5 644 Q291 677 306 719 Q327 717 346.5 715.5 Q366 714 386 714 Q421 714 469 720 Q447 692 418 666.5 Q389 641 356 620 Q323 599 288.5 583 Q254 567 221 558 L208 592 Z " />
<glyph glyph-name="ncaron" unicode="&#x148;" horiz-adv-x="583" d="M27 32 Q46 33 58.5 35 Q71 37 78 42.5 Q85 48 88 59 Q91 70 91 89 Q91 120 91 157 Q91 194 91.5 232.5 Q92 271 92 308 Q92 345 92 376 Q92 391 85 401 Q78 411 61 411 Q52 411 44 409 Q36 407 28 405 L28 439 Q76 453 119 468 Q162 483 209 503 L209 421 Q226 435 248.5 449 Q271 463 295 474 Q319 485 344 492 Q369 499 390 499 Q423 499 445.5 486.5 Q468 474 482 453.5 Q496 433 502 406.5 Q508 380 508 352 L508 89 Q508 54 519.5 44 Q531 34 566 32 L566 -3 Q534 -2 504.5 -1 Q475 0 445 0 Q416 0 386.5 -1 Q357 -2 325 -3 L325 32 Q344 33 356.5 35 Q369 37 376 42.5 Q383 48 386 59 Q389 70 389 89 L389 330 Q389 355 382.5 376.5 Q376 398 356 413 Q346 420 335 423 Q324 426 313 426 Q287 426 258 412.5 Q229 399 209 384 L209 89 Q209 71 212 60 Q215 49 221.5 43 Q228 37 240 35 Q252 33 270 32 L270 -3 Q238 -2 207.5 -1 Q177 0 147 0 Q118 0 88.5 -1 Q59 -2 27 -3 L27 32 Z M153 731 Q193 721 230.5 699 Q268 677 300 654 Q327 680 365.5 699.5 Q404 719 441 732 L456 701 Q415 681 395 648 Q375 615 368 572 Q354 573 342.5 573.5 Q331 574 320 574 Q300 574 279.5 572 Q259 570 238 567 Q233 576 231.5 585 Q230 594 227 603 Q216 635 192 659 Q168 683 138 703 L153 731 Z " />
<glyph glyph-name="ntilde" unicode="&#xf1;" horiz-adv-x="583" d="M27 32 Q46 33 58.5 35 Q71 37 78 42.5 Q85 48 88 59 Q91 70 91 89 Q91 120 91 157 Q91 194 91.5 232.5 Q92 271 92 308 Q92 345 92 376 Q92 391 85 401 Q78 411 61 411 Q52 411 44 409 Q36 407 28 405 L28 439 Q76 453 119 468 Q162 483 209 503 L209 421 Q226 435 248.5 449 Q271 463 295 474 Q319 485 344 492 Q369 499 390 499 Q423 499 445.5 486.5 Q468 474 482 453.5 Q496 433 502 406.5 Q508 380 508 352 L508 89 Q508 54 519.5 44 Q531 34 566 32 L566 -3 Q534 -2 504.5 -1 Q475 0 445 0 Q416 0 386.5 -1 Q357 -2 325 -3 L325 32 Q344 33 356.5 35 Q369 37 376 42.5 Q383 48 386 59 Q389 70 389 89 L389 330 Q389 355 382.5 376.5 Q376 398 356 413 Q346 420 335 423 Q324 426 313 426 Q287 426 258 412.5 Q229 399 209 384 L209 89 Q209 71 212 60 Q215 49 221.5 43 Q228 37 240 35 Q252 33 270 32 L270 -3 Q238 -2 207.5 -1 Q177 0 147 0 Q118 0 88.5 -1 Q59 -2 27 -3 L27 32 Z M124 598 Q130 615 138.5 635.5 Q147 656 159 673.5 Q171 691 187.5 703 Q204 715 227 715 Q242 715 258.5 710 Q275 705 291.5 698 Q308 691 324 683.5 Q340 676 355 671 Q376 663 393 663 Q410 663 420 672.5 Q430 682 438 699 L470 682 Q465 672 461.5 662.5 Q458 653 453 644 Q447 631 438.5 617.5 Q430 604 419.5 593.5 Q409 583 396 576.5 Q383 570 366 570 Q351 570 335 574.5 Q319 579 302.5 586 Q286 593 270 600 Q254 607 240 612 Q218 620 202 620 Q185 620 176.5 611.5 Q168 603 160 586 L124 598 Z " />
<glyph glyph-name="ncommaaccent" unicode="&#x146;" horiz-adv-x="583" d="M27 32 Q46 33 58.5 35 Q71 37 78 42.5 Q85 48 88 59 Q91 70 91 89 Q91 120 91 157 Q91 194 91.5 232.5 Q92 271 92 308 Q92 345 92 376 Q92 391 85 401 Q78 411 61 411 Q52 411 44 409 Q36 407 28 405 L28 439 Q76 453 119 468 Q162 483 209 503 L209 421 Q226 435 248.5 449 Q271 463 295 474 Q319 485 344 492 Q369 499 390 499 Q423 499 445.5 486.5 Q468 474 482 453.5 Q496 433 502 406.5 Q508 380 508 352 L508 89 Q508 54 519.5 44 Q531 34 566 32 L566 -3 Q534 -2 504.5 -1 Q475 0 445 0 Q416 0 386.5 -1 Q357 -2 325 -3 L325 32 Q344 33 356.5 35 Q369 37 376 42.5 Q383 48 386 59 Q389 70 389 89 L389 330 Q389 355 382.5 376.5 Q376 398 356 413 Q346 420 335 423 Q324 426 313 426 Q287 426 258 412.5 Q229 399 209 384 L209 89 Q209 71 212 60 Q215 49 221.5 43 Q228 37 240 35 Q252 33 270 32 L270 -3 Q238 -2 207.5 -1 Q177 0 147 0 Q118 0 88.5 -1 Q59 -2 27 -3 L27 32 Z M236 -226 Q248 -215 256 -203.5 Q264 -192 264 -177 Q264 -159 246.5 -139.5 Q229 -120 212 -107 L310 -47 Q325 -64 334.5 -84.5 Q344 -105 344 -126 Q344 -146 336 -163.5 Q328 -181 317 -195 Q304 -211 290 -224 Q276 -237 262 -250 L236 -226 Z " />
<glyph glyph-name="ograve" unicode="&#xf2;" horiz-adv-x="560" d="M281 -15 Q227 -15 181.5 2.5 Q136 20 103.5 52.5 Q71 85 53 132 Q35 179 35 239 Q35 295 53.5 342.5 Q72 390 104.5 425 Q137 460 181.5 479.5 Q226 499 278 499 Q329 499 373.5 479.5 Q418 460 451.5 425 Q485 390 504.5 342.5 Q524 295 524 240 Q524 184 505.5 137 Q487 90 454 56.5 Q421 23 376.5 4 Q332 -15 281 -15 Z M306 30 Q331 30 348 40.5 Q365 51 376 69 Q387 87 392 110.5 Q397 134 397 159 Q397 183 395 214 Q393 245 387 277.5 Q381 310 371 342 Q361 374 345 398.5 Q329 423 306.5 438.5 Q284 454 254 454 Q227 454 209 442 Q191 430 179.5 409.5 Q168 389 163.5 363 Q159 337 159 310 Q159 281 166 234 Q173 187 189.5 141.5 Q206 96 234.5 63 Q263 30 306 30 Z M334 558 Q301 568 266.5 583.5 Q232 599 199.5 620 Q167 641 138 666 Q109 691 87 720 Q135 714 170 714 Q190 714 209.5 715.5 Q229 717 250 719 Q264 679 285.5 644 Q307 609 348 592 L334 558 Z " />
<glyph glyph-name="oacute" unicode="&#xf3;" horiz-adv-x="560" d="M281 -15 Q227 -15 181.5 2.5 Q136 20 103.5 52.5 Q71 85 53 132 Q35 179 35 239 Q35 295 53.5 342.5 Q72 390 104.5 425 Q137 460 181.5 479.5 Q226 499 278 499 Q329 499 373.5 479.5 Q418 460 451.5 425 Q485 390 504.5 342.5 Q524 295 524 240 Q524 184 505.5 137 Q487 90 454 56.5 Q421 23 376.5 4 Q332 -15 281 -15 Z M306 30 Q331 30 348 40.5 Q365 51 376 69 Q387 87 392 110.5 Q397 134 397 159 Q397 183 395 214 Q393 245 387 277.5 Q381 310 371 342 Q361 374 345 398.5 Q329 423 306.5 438.5 Q284 454 254 454 Q227 454 209 442 Q191 430 179.5 409.5 Q168 389 163.5 363 Q159 337 159 310 Q159 281 166 234 Q173 187 189.5 141.5 Q206 96 234.5 63 Q263 30 306 30 Z M196 592 Q238 611 258.5 644 Q279 677 294 719 Q315 717 334.5 715.5 Q354 714 374 714 Q409 714 457 720 Q435 692 406 666.5 Q377 641 344 620 Q311 599 276.5 583 Q242 567 209 558 L196 592 Z " />
<glyph glyph-name="ocircumflex" unicode="&#xf4;" horiz-adv-x="560" d="M281 -15 Q227 -15 181.5 2.5 Q136 20 103.5 52.5 Q71 85 53 132 Q35 179 35 239 Q35 295 53.5 342.5 Q72 390 104.5 425 Q137 460 181.5 479.5 Q226 499 278 499 Q329 499 373.5 479.5 Q418 460 451.5 425 Q485 390 504.5 342.5 Q524 295 524 240 Q524 184 505.5 137 Q487 90 454 56.5 Q421 23 376.5 4 Q332 -15 281 -15 Z M306 30 Q331 30 348 40.5 Q365 51 376 69 Q387 87 392 110.5 Q397 134 397 159 Q397 183 395 214 Q393 245 387 277.5 Q381 310 371 342 Q361 374 345 398.5 Q329 423 306.5 438.5 Q284 454 254 454 Q227 454 209 442 Q191 430 179.5 409.5 Q168 389 163.5 363 Q159 337 159 310 Q159 281 166 234 Q173 187 189.5 141.5 Q206 96 234.5 63 Q263 30 306 30 Z M119 589 Q161 612 180 643 Q199 674 208 719 Q222 718 233.5 717.5 Q245 717 257 717 Q277 717 296.5 719 Q316 721 337 723 Q348 676 372.5 645 Q397 614 437 587 L421 558 Q339 586 275 637 Q249 611 209 590.5 Q169 570 134 559 L119 589 Z " />
<glyph glyph-name="otilde" unicode="&#xf5;" horiz-adv-x="560" d="M281 -15 Q227 -15 181.5 2.5 Q136 20 103.5 52.5 Q71 85 53 132 Q35 179 35 239 Q35 295 53.5 342.5 Q72 390 104.5 425 Q137 460 181.5 479.5 Q226 499 278 499 Q329 499 373.5 479.5 Q418 460 451.5 425 Q485 390 504.5 342.5 Q524 295 524 240 Q524 184 505.5 137 Q487 90 454 56.5 Q421 23 376.5 4 Q332 -15 281 -15 Z M306 30 Q331 30 348 40.5 Q365 51 376 69 Q387 87 392 110.5 Q397 134 397 159 Q397 183 395 214 Q393 245 387 277.5 Q381 310 371 342 Q361 374 345 398.5 Q329 423 306.5 438.5 Q284 454 254 454 Q227 454 209 442 Q191 430 179.5 409.5 Q168 389 163.5 363 Q159 337 159 310 Q159 281 166 234 Q173 187 189.5 141.5 Q206 96 234.5 63 Q263 30 306 30 Z M105 598 Q111 615 119.5 635.5 Q128 656 140 673.5 Q152 691 168.5 703 Q185 715 208 715 Q223 715 239.5 710 Q256 705 272.5 698 Q289 691 305 683.5 Q321 676 336 671 Q357 663 374 663 Q391 663 401 672.5 Q411 682 419 699 L451 682 Q446 672 442.5 662.5 Q439 653 434 644 Q428 631 419.5 617.5 Q411 604 400.5 593.5 Q390 583 377 576.5 Q364 570 347 570 Q332 570 316 574.5 Q300 579 283.5 586 Q267 593 251 600 Q235 607 221 612 Q199 620 183 620 Q166 620 157.5 611.5 Q149 603 141 586 L105 598 Z " />
<glyph glyph-name="odieresis" unicode="&#xf6;" horiz-adv-x="560" d="M281 -15 Q227 -15 181.5 2.5 Q136 20 103.5 52.5 Q71 85 53 132 Q35 179 35 239 Q35 295 53.5 342.5 Q72 390 104.5 425 Q137 460 181.5 479.5 Q226 499 278 499 Q329 499 373.5 479.5 Q418 460 451.5 425 Q485 390 504.5 342.5 Q524 295 524 240 Q524 184 505.5 137 Q487 90 454 56.5 Q421 23 376.5 4 Q332 -15 281 -15 Z M306 30 Q331 30 348 40.5 Q365 51 376 69 Q387 87 392 110.5 Q397 134 397 159 Q397 183 395 214 Q393 245 387 277.5 Q381 310 371 342 Q361 374 345 398.5 Q329 423 306.5 438.5 Q284 454 254 454 Q227 454 209 442 Q191 430 179.5 409.5 Q168 389 163.5 363 Q159 337 159 310 Q159 281 166 234 Q173 187 189.5 141.5 Q206 96 234.5 63 Q263 30 306 30 Z M376 572 Q347 572 327 593 Q307 614 307 642 Q307 671 327 691 Q347 711 376 711 Q405 711 425 691.5 Q445 672 445 643 Q445 614 425 593 Q405 572 376 572 Z M172 572 Q143 572 123 593 Q103 614 103 642 Q103 671 123 691 Q143 711 172 711 Q201 711 221 691.5 Q241 672 241 643 Q241 614 221 593 Q201 572 172 572 Z " />
<glyph glyph-name="omacron" unicode="&#x14d;" horiz-adv-x="560" d="M281 -15 Q227 -15 181.5 2.5 Q136 20 103.5 52.5 Q71 85 53 132 Q35 179 35 239 Q35 295 53.5 342.5 Q72 390 104.5 425 Q137 460 181.5 479.5 Q226 499 278 499 Q329 499 373.5 479.5 Q418 460 451.5 425 Q485 390 504.5 342.5 Q524 295 524 240 Q524 184 505.5 137 Q487 90 454 56.5 Q421 23 376.5 4 Q332 -15 281 -15 Z M306 30 Q331 30 348 40.5 Q365 51 376 69 Q387 87 392 110.5 Q397 134 397 159 Q397 183 395 214 Q393 245 387 277.5 Q381 310 371 342 Q361 374 345 398.5 Q329 423 306.5 438.5 Q284 454 254 454 Q227 454 209 442 Q191 430 179.5 409.5 Q168 389 163.5 363 Q159 337 159 310 Q159 281 166 234 Q173 187 189.5 141.5 Q206 96 234.5 63 Q263 30 306 30 Z M114 685 L444 685 L444 599 L114 599 L114 685 Z " />
<glyph glyph-name="ohungarumlaut" unicode="&#x151;" horiz-adv-x="560" d="M281 -15 Q227 -15 181.5 2.5 Q136 20 103.5 52.5 Q71 85 53 132 Q35 179 35 239 Q35 295 53.5 342.5 Q72 390 104.5 425 Q137 460 181.5 479.5 Q226 499 278 499 Q329 499 373.5 479.5 Q418 460 451.5 425 Q485 390 504.5 342.5 Q524 295 524 240 Q524 184 505.5 137 Q487 90 454 56.5 Q421 23 376.5 4 Q332 -15 281 -15 Z M306 30 Q331 30 348 40.5 Q365 51 376 69 Q387 87 392 110.5 Q397 134 397 159 Q397 183 395 214 Q393 245 387 277.5 Q381 310 371 342 Q361 374 345 398.5 Q329 423 306.5 438.5 Q284 454 254 454 Q227 454 209 442 Q191 430 179.5 409.5 Q168 389 163.5 363 Q159 337 159 310 Q159 281 166 234 Q173 187 189.5 141.5 Q206 96 234.5 63 Q263 30 306 30 Z M299 581 Q317 592 331 603 Q345 614 358 629 Q371 644 383.5 664.5 Q396 685 411 715 Q432 712 451 710 Q470 708 486 708 Q504 708 524.5 709.5 Q545 711 562 713 Q539 681 510.5 656 Q482 631 449.5 612 Q417 593 382.5 578 Q348 563 312 551 L299 581 Z M84 581 Q102 592 116 603 Q130 614 143 629 Q156 644 168.5 664.5 Q181 685 196 715 Q217 712 236 710 Q255 708 271 708 Q289 708 309.5 709.5 Q330 711 347 713 Q324 681 295.5 656 Q267 631 234.5 612 Q202 593 167.5 578 Q133 563 97 551 L84 581 Z " />
<glyph glyph-name="oslash" unicode="&#xf8;" horiz-adv-x="560" d="M281 -15 Q186 -15 121 36 L78 -14 L44 13 L90 66 Q64 98 49.5 141.5 Q35 185 35 239 Q35 295 53.5 342.5 Q72 390 104.5 425 Q137 460 181.5 479.5 Q226 499 278 499 Q319 499 355.5 486 Q392 473 423 450 L460 493 L494 465 L455 421 Q487 386 505.5 340 Q524 294 524 240 Q524 184 505.5 137 Q487 90 454 56.5 Q421 23 376.5 4 Q332 -15 281 -15 Z M306 30 Q331 30 348 40.5 Q365 51 376 69 Q387 87 392 110.5 Q397 134 397 159 Q397 192 392.5 237.5 Q388 283 375 328 L196 123 Q213 84 240 57 Q267 30 306 30 Z M159 310 Q159 286 163.5 248 Q168 210 180 170 L357 375 Q341 409 316 431.5 Q291 454 254 454 Q227 454 209 442 Q191 430 179.5 409.5 Q168 389 163.5 363 Q159 337 159 310 Z " />
<glyph glyph-name="oe" unicode="&#x153;" horiz-adv-x="856" d="M821 43 Q778 13 730.5 0 Q683 -13 635 -13 Q579 -13 535 6.5 Q491 26 459 62 Q426 25 380.5 5 Q335 -15 281 -15 Q227 -15 181.5 2.5 Q136 20 103.5 52.5 Q71 85 53 132 Q35 179 35 239 Q35 295 53.5 342.5 Q72 390 104.5 425 Q137 460 181.5 479.5 Q226 499 278 499 Q330 499 375 478.5 Q420 458 454 421 Q483 457 524 478 Q565 499 619 499 Q668 499 706.5 483 Q745 467 771 437.5 Q797 408 810.5 367.5 Q824 327 824 279 L824 259 L525 259 Q525 215 536.5 174.5 Q548 134 569 102 Q590 70 618.5 51 Q647 32 681 32 Q724 32 755 61 Q786 90 813 131 L821 43 Z M306 30 Q331 30 348 40.5 Q365 51 376 69 Q387 87 392 110.5 Q397 134 397 159 Q397 183 395 214 Q393 245 387 277.5 Q381 310 371 342 Q361 374 345 398.5 Q329 423 306.5 438.5 Q284 454 254 454 Q227 454 209 442 Q191 430 179.5 409.5 Q168 389 163.5 363 Q159 337 159 310 Q159 281 166 234 Q173 187 189.5 141.5 Q206 96 234.5 63 Q263 30 306 30 Z M697 299 Q698 304 698 308.5 Q698 313 698 318 Q698 337 694.5 361.5 Q691 386 681.5 408 Q672 430 655.5 444.5 Q639 459 613 459 Q587 459 570.5 445.5 Q554 432 543.5 410.5 Q533 389 529 362.5 Q525 336 525 310 L525 299 L697 299 Z " />
<glyph glyph-name="racute" unicode="&#x155;" horiz-adv-x="398" d="M27 32 Q45 33 56 36 Q67 39 73.5 45 Q80 51 82.5 61.5 Q85 72 85 89 L85 369 Q85 387 80 398.5 Q75 410 56 410 Q48 410 42 408.5 Q36 407 27 404 L27 437 Q75 451 114 466.5 Q153 482 199 503 L199 380 Q211 400 224 420.5 Q237 441 253 458 Q269 475 289.5 486 Q310 497 337 497 Q346 497 355.5 495.5 Q365 494 374 492 L374 344 L342 344 Q328 388 288 388 Q260 388 238 369.5 Q216 351 199 332 L199 89 Q199 72 201.5 61.5 Q204 51 210.5 45 Q217 39 228 36 Q239 33 257 32 L257 -3 Q226 -2 198 -1 Q170 0 141 0 Q113 0 85.5 -1 Q58 -2 27 -3 L27 32 Z M111 592 Q153 611 173.5 644 Q194 677 209 719 Q230 717 249.5 715.5 Q269 714 289 714 Q324 714 372 720 Q350 692 321 666.5 Q292 641 259 620 Q226 599 191.5 583 Q157 567 124 558 L111 592 Z " />
<glyph glyph-name="rcaron" unicode="&#x159;" horiz-adv-x="398" d="M27 32 Q45 33 56 36 Q67 39 73.5 45 Q80 51 82.5 61.5 Q85 72 85 89 L85 369 Q85 387 80 398.5 Q75 410 56 410 Q48 410 42 408.5 Q36 407 27 404 L27 437 Q75 451 114 466.5 Q153 482 199 503 L199 380 Q211 400 224 420.5 Q237 441 253 458 Q269 475 289.5 486 Q310 497 337 497 Q346 497 355.5 495.5 Q365 494 374 492 L374 344 L342 344 Q328 388 288 388 Q260 388 238 369.5 Q216 351 199 332 L199 89 Q199 72 201.5 61.5 Q204 51 210.5 45 Q217 39 228 36 Q239 33 257 32 L257 -3 Q226 -2 198 -1 Q170 0 141 0 Q113 0 85.5 -1 Q58 -2 27 -3 L27 32 Z M64 731 Q104 721 141.5 699 Q179 677 211 654 Q238 680 276.5 699.5 Q315 719 352 732 L367 701 Q326 681 306 648 Q286 615 279 572 Q265 573 253.5 573.5 Q242 574 231 574 Q211 574 190.5 572 Q170 570 149 567 Q144 576 142.5 585 Q141 594 138 603 Q127 635 103 659 Q79 683 49 703 L64 731 Z " />
<glyph glyph-name="rcommaaccent" unicode="&#x157;" horiz-adv-x="398" d="M27 32 Q45 33 56 36 Q67 39 73.5 45 Q80 51 82.5 61.5 Q85 72 85 89 L85 369 Q85 387 80 398.5 Q75 410 56 410 Q48 410 42 408.5 Q36 407 27 404 L27 437 Q75 451 114 466.5 Q153 482 199 503 L199 380 Q211 400 224 420.5 Q237 441 253 458 Q269 475 289.5 486 Q310 497 337 497 Q346 497 355.5 495.5 Q365 494 374 492 L374 344 L342 344 Q328 388 288 388 Q260 388 238 369.5 Q216 351 199 332 L199 89 Q199 72 201.5 61.5 Q204 51 210.5 45 Q217 39 228 36 Q239 33 257 32 L257 -3 Q226 -2 198 -1 Q170 0 141 0 Q113 0 85.5 -1 Q58 -2 27 -3 L27 32 Z M95 -226 Q107 -215 115 -203.5 Q123 -192 123 -177 Q123 -159 105.5 -139.5 Q88 -120 71 -107 L169 -47 Q184 -64 193.5 -84.5 Q203 -105 203 -126 Q203 -146 195 -163.5 Q187 -181 176 -195 Q163 -211 149 -224 Q135 -237 121 -250 L95 -226 Z " />
<glyph glyph-name="sacute" unicode="&#x15b;" horiz-adv-x="421" d="M44 144 L81 144 Q85 131 88.5 118.5 Q92 106 97 94 Q111 62 140.5 45 Q170 28 204 28 Q218 28 233 32 Q248 36 260 44 Q272 52 279.5 64 Q287 76 287 92 Q287 106 279.5 118.5 Q272 131 260.5 141 Q249 151 236 158.5 Q223 166 212 172 Q185 186 156.5 201 Q128 216 104 236 Q80 256 64.5 283.5 Q49 311 49 350 Q49 390 65 417.5 Q81 445 106.5 462.5 Q132 480 164 488 Q196 496 228 496 Q262 496 294 491 Q326 486 361 475 Q362 443 363 411.5 Q364 380 366 347 L330 347 Q328 357 325.5 366.5 Q323 376 319 386 Q306 417 280.5 437.5 Q255 458 221 458 Q194 458 170 441 Q146 424 146 396 Q146 381 154 369 Q162 357 174 347 Q186 337 199.5 329.5 Q213 322 223 316 Q246 302 268 290.5 Q290 279 312 263 Q344 240 362.5 213 Q381 186 381 143 Q381 102 364 73.5 Q347 45 320 26 Q293 7 258.5 -1.5 Q224 -10 190 -10 Q152 -10 115 -1.5 Q78 7 44 23 L44 144 Z M118 592 Q160 611 180.5 644 Q201 677 216 719 Q237 717 256.5 715.5 Q276 714 296 714 Q331 714 379 720 Q357 692 328 666.5 Q299 641 266 620 Q233 599 198.5 583 Q164 567 131 558 L118 592 Z " />
<glyph glyph-name="scaron" unicode="&#x161;" horiz-adv-x="421" d="M44 144 L81 144 Q85 131 88.5 118.5 Q92 106 97 94 Q111 62 140.5 45 Q170 28 204 28 Q218 28 233 32 Q248 36 260 44 Q272 52 279.5 64 Q287 76 287 92 Q287 106 279.5 118.5 Q272 131 260.5 141 Q249 151 236 158.5 Q223 166 212 172 Q185 186 156.5 201 Q128 216 104 236 Q80 256 64.5 283.5 Q49 311 49 350 Q49 390 65 417.5 Q81 445 106.5 462.5 Q132 480 164 488 Q196 496 228 496 Q262 496 294 491 Q326 486 361 475 Q362 443 363 411.5 Q364 380 366 347 L330 347 Q328 357 325.5 366.5 Q323 376 319 386 Q306 417 280.5 437.5 Q255 458 221 458 Q194 458 170 441 Q146 424 146 396 Q146 381 154 369 Q162 357 174 347 Q186 337 199.5 329.5 Q213 322 223 316 Q246 302 268 290.5 Q290 279 312 263 Q344 240 362.5 213 Q381 186 381 143 Q381 102 364 73.5 Q347 45 320 26 Q293 7 258.5 -1.5 Q224 -10 190 -10 Q152 -10 115 -1.5 Q78 7 44 23 L44 144 Z M72 731 Q112 721 149.5 699 Q187 677 219 654 Q246 680 284.5 699.5 Q323 719 360 732 L375 701 Q334 681 314 648 Q294 615 287 572 Q273 573 261.5 573.5 Q250 574 239 574 Q219 574 198.5 572 Q178 570 157 567 Q152 576 150.5 585 Q149 594 146 603 Q135 635 111 659 Q87 683 57 703 L72 731 Z " />
<glyph glyph-name="scedilla" unicode="&#x15f;" horiz-adv-x="421" d="M44 144 L81 144 Q85 131 88.5 118.5 Q92 106 97 94 Q111 62 140.5 45 Q170 28 204 28 Q218 28 233 32 Q248 36 260 44 Q272 52 279.5 64 Q287 76 287 92 Q287 106 279.5 118.5 Q272 131 260.5 141 Q249 151 236 158.5 Q223 166 212 172 Q185 186 156.5 201 Q128 216 104 236 Q80 256 64.5 283.5 Q49 311 49 350 Q49 390 65 417.5 Q81 445 106.5 462.5 Q132 480 164 488 Q196 496 228 496 Q262 496 294 491 Q326 486 361 475 Q362 443 363 411.5 Q364 380 366 347 L330 347 Q328 357 325.5 366.5 Q323 376 319 386 Q306 417 280.5 437.5 Q255 458 221 458 Q194 458 170 441 Q146 424 146 396 Q146 381 154 369 Q162 357 174 347 Q186 337 199.5 329.5 Q213 322 223 316 Q246 302 268 290.5 Q290 279 312 263 Q344 240 362.5 213 Q381 186 381 143 Q381 102 364 73.5 Q347 45 320 26 Q293 7 258.5 -1.5 Q224 -10 190 -10 Q152 -10 115 -1.5 Q78 7 44 23 L44 144 Z M156 -226 Q168 -215 176 -203.5 Q184 -192 184 -177 Q184 -159 166.5 -139.5 Q149 -120 132 -107 L230 -47 Q245 -64 254.5 -84.5 Q264 -105 264 -126 Q264 -146 256 -163.5 Q248 -181 237 -195 Q224 -211 210 -224 Q196 -237 182 -250 L156 -226 Z " />
<glyph glyph-name="scommaaccent" unicode="&#x219;" horiz-adv-x="421" d="M44 144 L81 144 Q85 131 88.5 118.5 Q92 106 97 94 Q111 62 140.5 45 Q170 28 204 28 Q218 28 233 32 Q248 36 260 44 Q272 52 279.5 64 Q287 76 287 92 Q287 106 279.5 118.5 Q272 131 260.5 141 Q249 151 236 158.5 Q223 166 212 172 Q185 186 156.5 201 Q128 216 104 236 Q80 256 64.5 283.5 Q49 311 49 350 Q49 390 65 417.5 Q81 445 106.5 462.5 Q132 480 164 488 Q196 496 228 496 Q262 496 294 491 Q326 486 361 475 Q362 443 363 411.5 Q364 380 366 347 L330 347 Q328 357 325.5 366.5 Q323 376 319 386 Q306 417 280.5 437.5 Q255 458 221 458 Q194 458 170 441 Q146 424 146 396 Q146 381 154 369 Q162 357 174 347 Q186 337 199.5 329.5 Q213 322 223 316 Q246 302 268 290.5 Q290 279 312 263 Q344 240 362.5 213 Q381 186 381 143 Q381 102 364 73.5 Q347 45 320 26 Q293 7 258.5 -1.5 Q224 -10 190 -10 Q152 -10 115 -1.5 Q78 7 44 23 L44 144 Z M158 -226 Q170 -215 178 -203.5 Q186 -192 186 -177 Q186 -159 168.5 -139.5 Q151 -120 134 -107 L232 -47 Q247 -64 256.5 -84.5 Q266 -105 266 -126 Q266 -146 258 -163.5 Q250 -181 239 -195 Q226 -211 212 -224 Q198 -237 184 -250 L158 -226 Z " />
<glyph glyph-name="germandbls" unicode="&#xdf;" horiz-adv-x="616" d="M21 32 Q56 34 71 47.5 Q86 61 86 95 L86 433 L20 433 L20 486 L86 486 L86 544 Q86 585 93 617.5 Q100 650 123 685 Q152 728 197.5 752.5 Q243 777 295 777 Q328 777 359.5 766.5 Q391 756 416 736 Q441 716 456.5 688 Q472 660 472 626 Q472 599 462 577 Q452 555 436 536.5 Q420 518 400 501 Q380 484 360 468 Q340 451 340 441 Q340 433 351.5 424.5 Q363 416 378 408.5 Q393 401 407.5 395.5 Q422 390 428 387 Q461 372 488.5 356.5 Q516 341 535.5 320 Q555 299 565.5 270.5 Q576 242 576 202 Q576 156 559.5 117 Q543 78 514 49.5 Q485 21 445.5 5 Q406 -11 360 -11 Q326 -11 295 -2 Q264 7 233 22 L233 112 L270 112 Q277 79 303.5 55.5 Q330 32 363 32 Q384 32 403.5 42 Q423 52 437 67.5 Q451 83 459.5 103.5 Q468 124 468 145 Q468 167 460 186 Q452 205 438.5 221.5 Q425 238 407.5 253 Q390 268 372 282 Q354 296 336 309.5 Q318 323 304 340 Q290 357 281.5 374.5 Q273 392 273 413 Q273 444 289.5 468.5 Q306 493 325.5 517 Q345 541 361.5 567 Q378 593 378 627 Q378 648 371 667.5 Q364 687 351.5 702 Q339 717 321.5 726 Q304 735 283 735 Q254 735 238 722.5 Q222 710 214.5 690 Q207 670 205 646 Q203 622 203 600 L203 -2 Q179 -1 157 -0.5 Q135 0 113 0 Q90 0 68 -1 Q46 -2 20 -3 L21 32 Z " />
<glyph glyph-name="tcaron" unicode="&#x165;" horiz-adv-x="352" d="M87 433 L4 433 L4 459 Q30 476 57 496.5 Q84 517 107 537 Q129 557 153 582 Q177 607 198 627 L208 627 L208 486 L342 486 L323 433 L206 433 L206 158 Q206 144 207 129 Q208 114 213 101.5 Q218 89 228 81 Q238 73 256 73 Q273 73 291 81.5 Q309 90 323 101 L341 70 L224 -11 Q180 -8 153 4 Q126 16 111.5 37 Q97 58 92 88 Q87 118 87 157 L87 433 Z M255 554 Q273 577 286 600.5 Q299 624 299 652 Q299 678 286 699.5 Q273 721 255 742 L368 822 Q388 800 395.5 780 Q403 760 403 732 Q403 701 391.5 673 Q380 645 362 620.5 Q344 596 321.5 574 Q299 552 277 533 L255 554 Z " />
<glyph glyph-name="tcommaaccent" unicode="&#x163;" horiz-adv-x="352" d="M87 433 L4 433 L4 459 Q30 476 57 496.5 Q84 517 107 537 Q129 557 153 582 Q177 607 198 627 L208 627 L208 486 L342 486 L323 433 L206 433 L206 158 Q206 144 207 129 Q208 114 213 101.5 Q218 89 228 81 Q238 73 256 73 Q273 73 291 81.5 Q309 90 323 101 L341 70 L224 -11 Q180 -8 153 4 Q126 16 111.5 37 Q97 58 92 88 Q87 118 87 157 L87 433 Z M130 -226 Q142 -215 150 -203.5 Q158 -192 158 -177 Q158 -159 140.5 -139.5 Q123 -120 106 -107 L204 -47 Q219 -64 228.5 -84.5 Q238 -105 238 -126 Q238 -146 230 -163.5 Q222 -181 211 -195 Q198 -211 184 -224 Q170 -237 156 -250 L130 -226 Z " />
<glyph glyph-name="uni021B" unicode="&#x21b;" horiz-adv-x="352" d="M87 433 L4 433 L4 459 Q30 476 57 496.5 Q84 517 107 537 Q129 557 153 582 Q177 607 198 627 L208 627 L208 486 L342 486 L323 433 L206 433 L206 158 Q206 144 207 129 Q208 114 213 101.5 Q218 89 228 81 Q238 73 256 73 Q273 73 291 81.5 Q309 90 323 101 L341 70 L224 -11 Q180 -8 153 4 Q126 16 111.5 37 Q97 58 92 88 Q87 118 87 157 L87 433 Z M130 -226 Q142 -215 150 -203.5 Q158 -192 158 -177 Q158 -159 140.5 -139.5 Q123 -120 106 -107 L204 -47 Q219 -64 228.5 -84.5 Q238 -105 238 -126 Q238 -146 230 -163.5 Q222 -181 211 -195 Q198 -211 184 -224 Q170 -237 156 -250 L130 -226 Z " />
<glyph glyph-name="ugrave" unicode="&#xf9;" horiz-adv-x="574" d="M77 382 Q77 400 69 411.5 Q61 423 41 423 Q36 423 30.5 422.5 Q25 422 17 421 L17 456 Q64 465 107 476.5 Q150 488 197 503 L197 153 Q197 112 218 87.5 Q239 63 281 63 Q307 63 329 74 Q351 85 374 99 L374 378 Q374 401 365 412 Q356 423 335 423 Q330 423 324.5 422 Q319 421 314 420 L314 456 Q361 465 403 476.5 Q445 488 492 503 L492 96 Q492 79 497 68.5 Q502 58 519 58 Q527 58 533.5 60 Q540 62 547 64 L547 26 Q505 20 468 11 Q431 2 390 -12 Q385 8 380.5 25.5 Q376 43 374 62 Q357 49 336 36.5 Q315 24 292.5 13.5 Q270 3 247.5 -3.5 Q225 -10 205 -10 Q174 -10 145 4 Q116 18 99 44 Q82 71 79.5 105.5 Q77 140 77 171 L77 382 Z M350 558 Q317 568 282.5 583.5 Q248 599 215.5 620 Q183 641 154 666 Q125 691 103 720 Q151 714 186 714 Q206 714 225.5 715.5 Q245 717 266 719 Q280 679 301.5 644 Q323 609 364 592 L350 558 Z " />
<glyph glyph-name="uacute" unicode="&#xfa;" horiz-adv-x="574" d="M77 382 Q77 400 69 411.5 Q61 423 41 423 Q36 423 30.5 422.5 Q25 422 17 421 L17 456 Q64 465 107 476.5 Q150 488 197 503 L197 153 Q197 112 218 87.5 Q239 63 281 63 Q307 63 329 74 Q351 85 374 99 L374 378 Q374 401 365 412 Q356 423 335 423 Q330 423 324.5 422 Q319 421 314 420 L314 456 Q361 465 403 476.5 Q445 488 492 503 L492 96 Q492 79 497 68.5 Q502 58 519 58 Q527 58 533.5 60 Q540 62 547 64 L547 26 Q505 20 468 11 Q431 2 390 -12 Q385 8 380.5 25.5 Q376 43 374 62 Q357 49 336 36.5 Q315 24 292.5 13.5 Q270 3 247.5 -3.5 Q225 -10 205 -10 Q174 -10 145 4 Q116 18 99 44 Q82 71 79.5 105.5 Q77 140 77 171 L77 382 Z M210 592 Q252 611 272.5 644 Q293 677 308 719 Q329 717 348.5 715.5 Q368 714 388 714 Q423 714 471 720 Q449 692 420 666.5 Q391 641 358 620 Q325 599 290.5 583 Q256 567 223 558 L210 592 Z " />
<glyph glyph-name="ucircumflex" unicode="&#xfb;" horiz-adv-x="574" d="M77 382 Q77 400 69 411.5 Q61 423 41 423 Q36 423 30.5 422.5 Q25 422 17 421 L17 456 Q64 465 107 476.5 Q150 488 197 503 L197 153 Q197 112 218 87.5 Q239 63 281 63 Q307 63 329 74 Q351 85 374 99 L374 378 Q374 401 365 412 Q356 423 335 423 Q330 423 324.5 422 Q319 421 314 420 L314 456 Q361 465 403 476.5 Q445 488 492 503 L492 96 Q492 79 497 68.5 Q502 58 519 58 Q527 58 533.5 60 Q540 62 547 64 L547 26 Q505 20 468 11 Q431 2 390 -12 Q385 8 380.5 25.5 Q376 43 374 62 Q357 49 336 36.5 Q315 24 292.5 13.5 Q270 3 247.5 -3.5 Q225 -10 205 -10 Q174 -10 145 4 Q116 18 99 44 Q82 71 79.5 105.5 Q77 140 77 171 L77 382 Z M127 589 Q169 612 188 643 Q207 674 216 719 Q230 718 241.5 717.5 Q253 717 265 717 Q285 717 304.5 719 Q324 721 345 723 Q356 676 380.5 645 Q405 614 445 587 L429 558 Q347 586 283 637 Q257 611 217 590.5 Q177 570 142 559 L127 589 Z " />
<glyph glyph-name="udieresis" unicode="&#xfc;" horiz-adv-x="574" d="M77 382 Q77 400 69 411.5 Q61 423 41 423 Q36 423 30.5 422.5 Q25 422 17 421 L17 456 Q64 465 107 476.5 Q150 488 197 503 L197 153 Q197 112 218 87.5 Q239 63 281 63 Q307 63 329 74 Q351 85 374 99 L374 378 Q374 401 365 412 Q356 423 335 423 Q330 423 324.5 422 Q319 421 314 420 L314 456 Q361 465 403 476.5 Q445 488 492 503 L492 96 Q492 79 497 68.5 Q502 58 519 58 Q527 58 533.5 60 Q540 62 547 64 L547 26 Q505 20 468 11 Q431 2 390 -12 Q385 8 380.5 25.5 Q376 43 374 62 Q357 49 336 36.5 Q315 24 292.5 13.5 Q270 3 247.5 -3.5 Q225 -10 205 -10 Q174 -10 145 4 Q116 18 99 44 Q82 71 79.5 105.5 Q77 140 77 171 L77 382 Z M384 572 Q355 572 335 593 Q315 614 315 642 Q315 671 335 691 Q355 711 384 711 Q413 711 433 691.5 Q453 672 453 643 Q453 614 433 593 Q413 572 384 572 Z M180 572 Q151 572 131 593 Q111 614 111 642 Q111 671 131 691 Q151 711 180 711 Q209 711 229 691.5 Q249 672 249 643 Q249 614 229 593 Q209 572 180 572 Z " />
<glyph glyph-name="umacron" unicode="&#x16b;" horiz-adv-x="574" d="M77 382 Q77 400 69 411.5 Q61 423 41 423 Q36 423 30.5 422.5 Q25 422 17 421 L17 456 Q64 465 107 476.5 Q150 488 197 503 L197 153 Q197 112 218 87.5 Q239 63 281 63 Q307 63 329 74 Q351 85 374 99 L374 378 Q374 401 365 412 Q356 423 335 423 Q330 423 324.5 422 Q319 421 314 420 L314 456 Q361 465 403 476.5 Q445 488 492 503 L492 96 Q492 79 497 68.5 Q502 58 519 58 Q527 58 533.5 60 Q540 62 547 64 L547 26 Q505 20 468 11 Q431 2 390 -12 Q385 8 380.5 25.5 Q376 43 374 62 Q357 49 336 36.5 Q315 24 292.5 13.5 Q270 3 247.5 -3.5 Q225 -10 205 -10 Q174 -10 145 4 Q116 18 99 44 Q82 71 79.5 105.5 Q77 140 77 171 L77 382 Z M124 685 L454 685 L454 599 L124 599 L124 685 Z " />
<glyph glyph-name="uring" unicode="&#x16f;" horiz-adv-x="574" d="M77 382 Q77 400 69 411.5 Q61 423 41 423 Q36 423 30.5 422.5 Q25 422 17 421 L17 456 Q64 465 107 476.5 Q150 488 197 503 L197 153 Q197 112 218 87.5 Q239 63 281 63 Q307 63 329 74 Q351 85 374 99 L374 378 Q374 401 365 412 Q356 423 335 423 Q330 423 324.5 422 Q319 421 314 420 L314 456 Q361 465 403 476.5 Q445 488 492 503 L492 96 Q492 79 497 68.5 Q502 58 519 58 Q527 58 533.5 60 Q540 62 547 64 L547 26 Q505 20 468 11 Q431 2 390 -12 Q385 8 380.5 25.5 Q376 43 374 62 Q357 49 336 36.5 Q315 24 292.5 13.5 Q270 3 247.5 -3.5 Q225 -10 205 -10 Q174 -10 145 4 Q116 18 99 44 Q82 71 79.5 105.5 Q77 140 77 171 L77 382 Z M180 641 Q180 663 188.5 682.5 Q197 702 211.5 716.5 Q226 731 245.5 739.5 Q265 748 287 748 Q309 748 328.5 739.5 Q348 731 362.5 716.5 Q377 702 385.5 682.5 Q394 663 394 641 Q394 619 385.5 599.5 Q377 580 362.5 565.5 Q348 551 328.5 542.5 Q309 534 287 534 Q265 534 245.5 542.5 Q226 551 211.5 565.5 Q197 580 188.5 599.5 Q180 619 180 641 Z M287 586 Q310 586 326 602 Q342 618 342 641 Q342 664 326 680 Q310 696 287 696 Q264 696 248 680 Q232 664 232 641 Q232 618 248 602 Q264 586 287 586 Z " />
<glyph glyph-name="uhungarumlaut" unicode="&#x171;" horiz-adv-x="574" d="M77 382 Q77 400 69 411.5 Q61 423 41 423 Q36 423 30.5 422.5 Q25 422 17 421 L17 456 Q64 465 107 476.5 Q150 488 197 503 L197 153 Q197 112 218 87.5 Q239 63 281 63 Q307 63 329 74 Q351 85 374 99 L374 378 Q374 401 365 412 Q356 423 335 423 Q330 423 324.5 422 Q319 421 314 420 L314 456 Q361 465 403 476.5 Q445 488 492 503 L492 96 Q492 79 497 68.5 Q502 58 519 58 Q527 58 533.5 60 Q540 62 547 64 L547 26 Q505 20 468 11 Q431 2 390 -12 Q385 8 380.5 25.5 Q376 43 374 62 Q357 49 336 36.5 Q315 24 292.5 13.5 Q270 3 247.5 -3.5 Q225 -10 205 -10 Q174 -10 145 4 Q116 18 99 44 Q82 71 79.5 105.5 Q77 140 77 171 L77 382 Z M304 581 Q322 592 336 603 Q350 614 363 629 Q376 644 388.5 664.5 Q401 685 416 715 Q437 712 456 710 Q475 708 491 708 Q509 708 529.5 709.5 Q550 711 567 713 Q544 681 515.5 656 Q487 631 454.5 612 Q422 593 387.5 578 Q353 563 317 551 L304 581 Z M89 581 Q107 592 121 603 Q135 614 148 629 Q161 644 173.5 664.5 Q186 685 201 715 Q222 712 241 710 Q260 708 276 708 Q294 708 314.5 709.5 Q335 711 352 713 Q329 681 300.5 656 Q272 631 239.5 612 Q207 593 172.5 578 Q138 563 102 551 L89 581 Z " />
<glyph glyph-name="uogonek" unicode="&#x173;" horiz-adv-x="574" d="M463 -171 Q455 -181 442 -190 Q429 -199 413.5 -205.5 Q398 -212 380 -216 Q362 -220 346 -220 Q299 -220 270.5 -201 Q242 -182 242 -136 Q242 -111 257.5 -88 Q273 -65 295 -46.5 Q317 -28 341.5 -15 Q366 -2 385 4 Q381 19 378.5 33 Q376 47 374 62 Q357 49 336 36.5 Q315 24 292.5 13.5 Q270 3 247.5 -3.5 Q225 -10 205 -10 Q174 -10 145 4 Q116 18 99 44 Q82 71 79.5 105.5 Q77 140 77 171 L77 382 Q77 400 69 411.5 Q61 423 41 423 Q36 423 30.5 422.5 Q25 422 17 421 L17 456 Q64 465 107 476.5 Q150 488 197 503 L197 153 Q197 112 218 87.5 Q239 63 281 63 Q307 63 329 74 Q351 85 374 99 L374 378 Q374 401 365 412 Q356 423 335 423 Q330 423 324.5 422 Q319 421 314 420 L314 456 Q361 465 403 476.5 Q445 488 492 503 L492 96 Q492 79 497 68.5 Q502 58 519 58 Q527 58 534 60 Q541 62 548 64 L547 26 Q516 21 488.5 15 Q461 9 432 1 Q403 -22 385 -41 Q367 -60 357.5 -75.5 Q348 -91 345 -103.5 Q342 -116 342 -127 Q342 -150 351.5 -161 Q361 -172 375 -172 Q394 -172 411.5 -164.5 Q429 -157 441 -146 L463 -171 Z " />
<glyph glyph-name="yacute" unicode="&#xfd;" horiz-adv-x="500" d="M78 -58 Q80 -91 94 -110.5 Q108 -130 139 -130 Q163 -130 180.5 -116 Q198 -102 210 -82 Q222 -62 230.5 -38.5 Q239 -15 245 5 L94 364 Q86 381 79 395.5 Q72 410 64 422 Q51 439 36.5 445 Q22 451 2 453 L2 489 Q36 488 68 487 Q100 486 132 486 Q164 486 196.5 487 Q229 488 264 489 L264 453 Q253 453 243.5 452.5 Q234 452 225 450 Q206 445 206 427 Q206 418 210.5 404.5 Q215 391 224 367 L302 168 L373 380 Q378 393 379.5 405.5 Q381 418 381 426 Q381 443 365 448 Q349 453 332 453 L317 453 L317 488 Q340 487 363.5 486.5 Q387 486 409 486 Q430 486 452.5 486.5 Q475 487 498 488 L498 453 Q463 451 447 428 Q431 405 420 371 L288 -14 Q276 -49 261 -83 Q246 -117 224 -144 Q202 -171 172.5 -188 Q143 -205 101 -205 Q86 -205 74 -203 Q62 -201 46 -194 Q45 -159 44.5 -126 Q44 -93 42 -58 L78 -58 Z M197 592 Q239 611 259.5 644 Q280 677 295 719 Q316 717 335.5 715.5 Q355 714 375 714 Q410 714 458 720 Q436 692 407 666.5 Q378 641 345 620 Q312 599 277.5 583 Q243 567 210 558 L197 592 Z " />
<glyph glyph-name="ydieresis" unicode="&#xff;" horiz-adv-x="500" d="M78 -58 Q80 -91 94 -110.5 Q108 -130 139 -130 Q163 -130 180.5 -116 Q198 -102 210 -82 Q222 -62 230.5 -38.5 Q239 -15 245 5 L94 364 Q86 381 79 395.5 Q72 410 64 422 Q51 439 36.5 445 Q22 451 2 453 L2 489 Q36 488 68 487 Q100 486 132 486 Q164 486 196.5 487 Q229 488 264 489 L264 453 Q253 453 243.5 452.5 Q234 452 225 450 Q206 445 206 427 Q206 418 210.5 404.5 Q215 391 224 367 L302 168 L373 380 Q378 393 379.5 405.5 Q381 418 381 426 Q381 443 365 448 Q349 453 332 453 L317 453 L317 488 Q340 487 363.5 486.5 Q387 486 409 486 Q430 486 452.5 486.5 Q475 487 498 488 L498 453 Q463 451 447 428 Q431 405 420 371 L288 -14 Q276 -49 261 -83 Q246 -117 224 -144 Q202 -171 172.5 -188 Q143 -205 101 -205 Q86 -205 74 -203 Q62 -201 46 -194 Q45 -159 44.5 -126 Q44 -93 42 -58 L78 -58 Z M364 572 Q335 572 315 593 Q295 614 295 642 Q295 671 315 691 Q335 711 364 711 Q393 711 413 691.5 Q433 672 433 643 Q433 614 413 593 Q393 572 364 572 Z M160 572 Q131 572 111 593 Q91 614 91 642 Q91 671 111 691 Q131 711 160 711 Q189 711 209 691.5 Q229 672 229 643 Q229 614 209 593 Q189 572 160 572 Z " />
<glyph glyph-name="zacute" unicode="&#x17a;" horiz-adv-x="490" d="M29 28 L238 357 Q261 393 274 410.5 Q287 428 298 442 L234 442 Q215 442 197 440.5 Q179 439 162.5 434 Q146 429 132 419 Q118 409 108 391 Q98 374 93 354.5 Q88 335 86 314 L49 314 L58 486 L458 486 L229 119 Q209 87 198.5 71 Q188 55 178 42 L248 42 Q324 42 365.5 72 Q407 102 418 183 L454 183 L442 0 L29 0 L29 28 Z M167 592 Q209 611 229.5 644 Q250 677 265 719 Q286 717 305.5 715.5 Q325 714 345 714 Q380 714 428 720 Q406 692 377 666.5 Q348 641 315 620 Q282 599 247.5 583 Q213 567 180 558 L167 592 Z " />
<glyph glyph-name="zcaron" unicode="&#x17e;" horiz-adv-x="490" d="M29 28 L238 357 Q261 393 274 410.5 Q287 428 298 442 L234 442 Q215 442 197 440.5 Q179 439 162.5 434 Q146 429 132 419 Q118 409 108 391 Q98 374 93 354.5 Q88 335 86 314 L49 314 L58 486 L458 486 L229 119 Q209 87 198.5 71 Q188 55 178 42 L248 42 Q324 42 365.5 72 Q407 102 418 183 L454 183 L442 0 L29 0 L29 28 Z M122 731 Q162 721 199.5 699 Q237 677 269 654 Q296 680 334.5 699.5 Q373 719 410 732 L425 701 Q384 681 364 648 Q344 615 337 572 Q323 573 311.5 573.5 Q300 574 289 574 Q269 574 248.5 572 Q228 570 207 567 Q202 576 200.5 585 Q199 594 196 603 Q185 635 161 659 Q137 683 107 703 L122 731 Z " />
<glyph glyph-name="zdotaccent" unicode="&#x17c;" horiz-adv-x="490" d="M29 28 L238 357 Q261 393 274 410.5 Q287 428 298 442 L234 442 Q215 442 197 440.5 Q179 439 162.5 434 Q146 429 132 419 Q118 409 108 391 Q98 374 93 354.5 Q88 335 86 314 L49 314 L58 486 L458 486 L229 119 Q209 87 198.5 71 Q188 55 178 42 L248 42 Q324 42 365.5 72 Q407 102 418 183 L454 183 L442 0 L29 0 L29 28 Z M186 639 Q186 654 192 667.5 Q198 681 208.5 690.5 Q219 700 232.5 705.5 Q246 711 261 711 Q291 711 311.5 691 Q332 671 332 641 Q332 610 311.5 588 Q291 566 259 566 Q228 566 207 587 Q186 608 186 639 Z " />
<glyph glyph-name="eth" unicode="&#xf0;" horiz-adv-x="561" d="M119 601 L225 648 Q196 669 163.5 684.5 Q131 700 95 714 L133 760 Q181 749 226.5 731.5 Q272 714 312 687 L441 745 L466 691 L367 645 Q411 606 441 557.5 Q471 509 489 456.5 Q507 404 515 350 Q523 296 523 246 Q523 187 506 140 Q489 93 458 60 Q427 27 382.5 9 Q338 -9 283 -9 Q228 -9 182.5 11 Q137 31 104 66.5 Q71 102 53 149.5 Q35 197 35 252 Q35 304 52 348 Q69 392 98.5 424 Q128 456 168.5 474.5 Q209 493 256 493 Q296 493 320 482 Q344 471 363 459 Q348 501 327 538.5 Q306 576 275 605 L143 545 L119 601 Z M308 32 Q357 32 376.5 70.5 Q396 109 396 172 Q396 189 393.5 216.5 Q391 244 385 275 Q379 306 368.5 337.5 Q358 369 342 394.5 Q326 420 303 436 Q280 452 250 452 Q223 452 205.5 440 Q188 428 177.5 407.5 Q167 387 163 359.5 Q159 332 159 301 Q159 284 162.5 257.5 Q166 231 173 201 Q180 171 191.5 141 Q203 111 219.5 86.5 Q236 62 258 47 Q280 32 308 32 Z " />
<glyph glyph-name="thorn" unicode="&#xfe;" horiz-adv-x="568" d="M65 660 Q65 676 60 688 Q55 700 36 700 Q30 700 23.5 699 Q17 698 9 697 L9 730 Q56 739 97.5 750 Q139 761 185 777 L185 446 Q222 469 259.5 483 Q297 497 340 497 Q383 497 418.5 478 Q454 459 479.5 427.5 Q505 396 518.5 354.5 Q532 313 532 267 Q532 206 511.5 154.5 Q491 103 454.5 65.5 Q418 28 367.5 7 Q317 -14 257 -14 Q236 -14 218 -11.5 Q200 -9 183 -5 L183 -108 Q183 -127 187 -138 Q191 -149 200 -155 Q209 -161 222 -163 Q235 -165 253 -165 L253 -200 Q220 -199 188.5 -198 Q157 -197 126 -197 Q97 -197 66.5 -198 Q36 -199 4 -200 L4 -165 Q23 -164 34.5 -162 Q46 -160 53 -154 Q60 -148 62.5 -137 Q65 -126 65 -108 L65 660 Z M185 60 Q207 42 229.5 34.5 Q252 27 276 27 Q309 27 335 41 Q361 55 378.5 79.5 Q396 104 405 137 Q414 170 414 207 Q414 244 406 284 Q398 324 380.5 357 Q363 390 335.5 411 Q308 432 269 432 Q246 432 224.5 424.5 Q203 417 185 408 L185 60 Z " />
<glyph glyph-name="fi" unicode="&#xfb01;" horiz-adv-x="596" d="M25 33 L36 33 Q60 33 75.5 41 Q91 49 91 78 L91 431 L11 431 L29 486 L91 486 Q91 543 95.5 580 Q100 617 108.5 642 Q117 667 130 683.5 Q143 700 160 717 Q191 749 231 763 Q271 777 313 777 Q338 777 365.5 774 Q393 771 433 762 L433 614 L397 614 Q397 672 370 702 Q343 732 297 732 Q251 732 230 703.5 Q209 675 209 621 L209 486 L406 486 Q435 486 459.5 486.5 Q484 487 509 492 L509 78 Q509 32 555 32 L568 32 L568 -4 Q541 -3 508 -1.5 Q475 0 451 0 Q439 0 424 -0.5 Q409 -1 393 -1.5 Q377 -2 360.5 -3 Q344 -4 331 -4 L331 32 L342 32 Q365 32 378 42 Q391 52 391 78 L391 378 Q391 396 387 406.5 Q383 417 370 423 Q357 429 334 431 Q311 433 273 433 L209 433 L209 78 Q209 50 224 41.5 Q239 33 263 33 L274 33 L274 -3 Q260 -3 243.5 -2.5 Q227 -2 210 -1.5 Q193 -1 177 -0.5 Q161 0 149 0 Q137 0 121.5 -0.5 Q106 -1 89 -1.5 Q72 -2 55 -2.5 Q38 -3 25 -3 L25 33 Z " />
<glyph glyph-name="fl" unicode="&#xfb02;" horiz-adv-x="593" d="M25 32 L36 32 Q60 32 75.5 40.5 Q91 49 91 78 L91 433 L11 433 L30 486 L91 486 Q91 545 95 581.5 Q99 618 107 642 Q115 666 127.5 682.5 Q140 699 158 717 Q187 746 229 761.5 Q271 777 314 777 Q339 777 357 774.5 Q375 772 390 769 Q405 766 417.5 763.5 Q430 761 444 761 Q462 761 473 766 Q484 771 489 777 L508 777 L508 78 Q508 32 555 32 L567 32 L567 -4 Q540 -3 506 -1.5 Q472 0 448 0 Q436 0 421 -0.5 Q406 -1 389.5 -1.5 Q373 -2 356.5 -2.5 Q340 -3 327 -3 L327 32 L342 32 Q360 32 374 43.5 Q388 55 388 78 L388 629 Q388 653 384.5 672.5 Q381 692 371.5 705 Q362 718 344 725 Q326 732 298 732 Q253 732 231 701.5 Q209 671 209 605 L209 486 L358 486 L338 433 L209 433 L209 78 Q209 50 224.5 41.5 Q240 33 263 33 L274 33 L274 -3 Q260 -3 243.5 -2.5 Q227 -2 210 -1.5 Q193 -1 177 -0.5 Q161 0 149 0 Q137 0 121.5 -0.5 Q106 -1 89 -1.5 Q72 -2 55 -2.5 Q38 -3 25 -3 L25 32 Z " />
<glyph glyph-name="ampersand" unicode="&#x26;" horiz-adv-x="777" d="M608 121 Q629 101 646.5 85.5 Q664 70 683.5 59 Q703 48 725.5 42 Q748 36 779 36 L779 -3 Q747 -1 717 -0.5 Q687 0 657 0 Q604 0 549 -3 Q535 14 520.5 32.5 Q506 51 490 65 Q444 25 396.5 5 Q349 -15 286 -15 Q248 -15 208.5 -4.5 Q169 6 136 27 Q103 48 82 80.5 Q61 113 61 157 Q61 192 74.5 221.5 Q88 251 109 275.5 Q130 300 156.5 320 Q183 340 209 357 Q188 376 168 398.5 Q148 421 133 446 Q118 471 108.5 499 Q99 527 99 557 Q99 597 115.5 628 Q132 659 159 680.5 Q186 702 220.5 713 Q255 724 291 724 Q323 724 356 714.5 Q389 705 415.5 686.5 Q442 668 458.5 640 Q475 612 475 575 Q475 546 461.5 519.5 Q448 493 427 470.5 Q406 448 381.5 429.5 Q357 411 336 397 L530 200 Q537 220 541 240 Q545 260 545 282 Q545 331 523.5 348.5 Q502 366 452 368 L452 406 Q484 405 514.5 404 Q545 403 575 403 Q605 403 636 404 Q667 405 699 406 L698 368 Q678 366 662 364 Q646 362 629 351 Q608 336 602.5 316 Q597 296 593 273 Q588 242 582 218 Q576 194 561 168 L608 121 Z M311 424 Q327 438 340.5 450.5 Q354 463 363 477 Q372 491 377 508 Q382 525 382 548 Q382 574 374 598 Q366 622 351 640.5 Q336 659 314 670 Q292 681 264 681 Q230 681 208.5 661 Q187 641 187 606 Q187 580 200 555 Q213 530 231.5 506.5 Q250 483 271.5 462.5 Q293 442 311 424 Z M235 330 Q210 312 197.5 283 Q185 254 185 225 Q185 198 194.5 171 Q204 144 219 121 Q242 87 275.5 69 Q309 51 350 51 Q380 51 410.5 62.5 Q441 74 465 93 L235 330 Z " />
<glyph glyph-name="grave" unicode="&#x60;" horiz-adv-x="284" d="M257 558 Q224 568 189.5 583.5 Q155 599 122.5 620 Q90 641 61 666 Q32 691 10 720 Q58 714 93 714 Q113 714 132.5 715.5 Q152 717 173 719 Q187 679 208.5 644 Q230 609 271 592 L257 558 Z " />
<glyph glyph-name="acute" unicode="&#xb4;" horiz-adv-x="284" d="M13 592 Q55 611 75.5 644 Q96 677 111 719 Q132 717 151.5 715.5 Q171 714 191 714 Q226 714 274 720 Q252 692 223 666.5 Q194 641 161 620 Q128 599 93.5 583 Q59 567 26 558 L13 592 Z " />
<glyph glyph-name="circumflex" unicode="&#x2c6;" horiz-adv-x="284" d="M-17 589 Q25 612 44 643 Q63 674 72 719 Q86 718 97.5 717.5 Q109 717 121 717 Q141 717 160.5 719 Q180 721 201 723 Q212 676 236.5 645 Q261 614 301 587 L285 558 Q203 586 139 637 Q113 611 73 590.5 Q33 570 -2 559 L-17 589 Z " />
<glyph glyph-name="caron" unicode="&#x2c7;" horiz-adv-x="284" d="M-2 731 Q38 721 75.5 699 Q113 677 145 654 Q172 680 210.5 699.5 Q249 719 286 732 L301 701 Q260 681 240 648 Q220 615 213 572 Q199 573 187.5 573.5 Q176 574 165 574 Q145 574 124.5 572 Q104 570 83 567 Q78 576 76.5 585 Q75 594 72 603 Q61 635 37 659 Q13 683 -17 703 L-2 731 Z " />
<glyph glyph-name="caronalt" unicode="&#xe000;" horiz-adv-x="193" d="M25 501 Q43 524 56 547.5 Q69 571 69 599 Q69 625 56 646.5 Q43 668 25 689 L138 769 Q158 747 165.5 727 Q173 707 173 679 Q173 648 161.5 620 Q150 592 132 567.5 Q114 543 91.5 521 Q69 499 47 480 L25 501 Z " />
<glyph glyph-name="commaaccent" unicode="&#xf6c3;" horiz-adv-x="206" d="M62 -226 Q74 -215 82 -203.5 Q90 -192 90 -177 Q90 -159 72.5 -139.5 Q55 -120 38 -107 L136 -47 Q151 -64 160.5 -84.5 Q170 -105 170 -126 Q170 -146 162 -163.5 Q154 -181 143 -195 Q130 -211 116 -224 Q102 -237 88 -250 L62 -226 Z " />
<glyph glyph-name="commaaccentalt" unicode="&#xe001;" horiz-adv-x="206" d="M65 538 Q48 556 38 579 Q28 602 28 625 Q28 648 36.5 667 Q45 686 58 702 Q72 719 87.5 734 Q103 749 119 763 L148 737 Q134 724 125 711.5 Q116 699 116 682 Q116 672 121.5 661.5 Q127 651 135.5 640.5 Q144 630 154.5 620.5 Q165 611 174 604 L65 538 Z " />
<glyph glyph-name="tilde" unicode="&#x2dc;" horiz-adv-x="284" d="M-31 598 Q-25 615 -16.5 635.5 Q-8 656 4 673.5 Q16 691 32.5 703 Q49 715 72 715 Q87 715 103.5 710 Q120 705 136.5 698 Q153 691 169 683.5 Q185 676 200 671 Q221 663 238 663 Q255 663 265 672.5 Q275 682 283 699 L315 682 Q310 672 306.5 662.5 Q303 653 298 644 Q292 631 283.5 617.5 Q275 604 264.5 593.5 Q254 583 241 576.5 Q228 570 211 570 Q196 570 180 574.5 Q164 579 147.5 586 Q131 593 115 600 Q99 607 85 612 Q63 620 47 620 Q30 620 21.5 611.5 Q13 603 5 586 L-31 598 Z " />
<glyph glyph-name="dieresis" unicode="&#xa8;" horiz-adv-x="284" d="M244 572 Q215 572 195 593 Q175 614 175 642 Q175 671 195 691 Q215 711 244 711 Q273 711 293 691.5 Q313 672 313 643 Q313 614 293 593 Q273 572 244 572 Z M40 572 Q11 572 -9 593 Q-29 614 -29 642 Q-29 671 -9 691 Q11 711 40 711 Q69 711 89 691.5 Q109 672 109 643 Q109 614 89 593 Q69 572 40 572 Z " />
<glyph glyph-name="macron" unicode="&#xaf;" horiz-adv-x="284" d="M-23 685 L307 685 L307 599 L-23 599 L-23 685 Z " />
<glyph glyph-name="breve" unicode="&#x2d8;" horiz-adv-x="284" d="M4 723 Q25 694 62.5 679.5 Q100 665 142 665 Q184 665 221.5 679.5 Q259 694 280 723 L309 708 Q291 665 272 638 Q253 611 233 595.5 Q213 580 190.5 574.5 Q168 569 142 569 Q116 569 93.5 574.5 Q71 580 51 595.5 Q31 611 12 638 Q-7 665 -25 708 L4 723 Z " />
<glyph glyph-name="ring" unicode="&#x2da;" horiz-adv-x="284" d="M35 641 Q35 663 43.5 682.5 Q52 702 66.5 716.5 Q81 731 100.5 739.5 Q120 748 142 748 Q164 748 183.5 739.5 Q203 731 217.5 716.5 Q232 702 240.5 682.5 Q249 663 249 641 Q249 619 240.5 599.5 Q232 580 217.5 565.5 Q203 551 183.5 542.5 Q164 534 142 534 Q120 534 100.5 542.5 Q81 551 66.5 565.5 Q52 580 43.5 599.5 Q35 619 35 641 Z M142 586 Q165 586 181 602 Q197 618 197 641 Q197 664 181 680 Q165 696 142 696 Q119 696 103 680 Q87 664 87 641 Q87 618 103 602 Q119 586 142 586 Z " />
<glyph glyph-name="hungarumlaut" unicode="&#x2dd;" horiz-adv-x="284" d="M119 581 Q137 592 151 603 Q165 614 178 629 Q191 644 203.5 664.5 Q216 685 231 715 Q252 712 271 710 Q290 708 306 708 Q324 708 344.5 709.5 Q365 711 382 713 Q359 681 330.5 656 Q302 631 269.5 612 Q237 593 202.5 578 Q168 563 132 551 L119 581 Z M-96 581 Q-78 592 -64 603 Q-50 614 -37 629 Q-24 644 -11.5 664.5 Q1 685 16 715 Q37 712 56 710 Q75 708 91 708 Q109 708 129.5 709.5 Q150 711 167 713 Q144 681 115.5 656 Q87 631 54.5 612 Q22 593 -12.5 578 Q-47 563 -83 551 L-96 581 Z " />
<glyph glyph-name="dotaccent" unicode="&#x2d9;" horiz-adv-x="284" d="M69 639 Q69 654 75 667.5 Q81 681 91.5 690.5 Q102 700 115.5 705.5 Q129 711 144 711 Q174 711 194.5 691 Q215 671 215 641 Q215 610 194.5 588 Q174 566 142 566 Q111 566 90 587 Q69 608 69 639 Z " />
<glyph glyph-name="cedilla" unicode="&#xb8;" horiz-adv-x="284" d="M99 -226 Q111 -215 119 -203.5 Q127 -192 127 -177 Q127 -159 109.5 -139.5 Q92 -120 75 -107 L173 -47 Q188 -64 197.5 -84.5 Q207 -105 207 -126 Q207 -146 199 -163.5 Q191 -181 180 -195 Q167 -211 153 -224 Q139 -237 125 -250 L99 -226 Z " />
<glyph glyph-name="ogonek" unicode="&#x2db;" horiz-adv-x="284" d="M253 -171 Q245 -181 232 -190 Q219 -199 203.5 -205.5 Q188 -212 170 -216 Q152 -220 136 -220 Q89 -220 60.5 -201 Q32 -182 32 -136 Q32 -110 48.5 -86 Q65 -62 88 -43.5 Q111 -25 137 -12 Q163 1 181 6 L228 6 Q197 -19 178 -38.5 Q159 -58 149 -74 Q139 -90 135.5 -103 Q132 -116 132 -127 Q132 -150 141.5 -161 Q151 -172 165 -172 Q184 -172 201.5 -164.5 Q219 -157 231 -146 L253 -171 Z " />
<glyph glyph-name="comma" unicode="&#x2c;" horiz-adv-x="235" d="M-20 -166 Q20 -131 42.5 -86.5 Q65 -42 65 9 Q65 35 60 56 Q55 77 44 103 L191 154 Q195 139 197.5 126.5 Q200 114 200 101 Q200 75 193 50 Q186 25 175 2 Q146 -60 100.5 -104 Q55 -148 0 -188 L-20 -166 Z " />
<glyph glyph-name="semicolon" unicode="&#x3b;" horiz-adv-x="235" d="M129 323 Q97 323 75.5 345.5 Q54 368 54 400 Q54 432 75.5 454 Q97 476 129 476 Q161 476 182.5 453.5 Q204 431 204 399 Q204 367 182.5 345 Q161 323 129 323 Z M-18 -166 Q22 -128 44.5 -86.5 Q67 -45 67 8 Q67 32 61.5 55 Q56 78 46 103 L193 154 Q201 124 201 101 Q201 72 192.5 44 Q184 16 170.5 -10.5 Q157 -37 139 -61 Q121 -85 102 -104 Q79 -127 53.5 -147.5 Q28 -168 2 -188 L-18 -166 Z " />
<glyph glyph-name="colon" unicode="&#x3a;" horiz-adv-x="235" d="M117 323 Q85 323 64 346 Q43 369 43 400 Q43 432 64 454 Q85 476 117 476 Q149 476 171 453.5 Q193 431 193 399 Q193 367 171 345 Q149 323 117 323 Z M117 -6 Q85 -6 64 17 Q43 40 43 71 Q43 102 64 124 Q85 146 117 146 Q149 146 171 123.5 Q193 101 193 69 Q193 37 171 15.5 Q149 -6 117 -6 Z " />
<glyph glyph-name="period" unicode="&#x2e;" horiz-adv-x="235" d="M118 -6 Q85 -6 63.5 16 Q42 38 42 71 Q42 103 64 124.5 Q86 146 117 146 Q149 146 171 123.5 Q193 101 193 69 Q193 37 171 15.5 Q149 -6 118 -6 Z " />
<glyph glyph-name="ellipsis" unicode="&#x2026;" horiz-adv-x="1000" d="M833 -6 Q801 -6 779.5 16 Q758 38 758 71 Q758 103 780 124.5 Q802 146 833 146 Q865 146 886.5 123.5 Q908 101 908 69 Q908 37 886.5 15.5 Q865 -6 833 -6 Z M500 -6 Q467 -6 446 16 Q425 38 425 71 Q425 103 446.5 124.5 Q468 146 500 146 Q532 146 553.5 123.5 Q575 101 575 69 Q575 37 553.5 15.5 Q532 -6 500 -6 Z M167 -6 Q134 -6 113 16 Q92 38 92 71 Q92 103 113.5 124.5 Q135 146 167 146 Q199 146 220.5 123.5 Q242 101 242 69 Q242 37 220 15.5 Q198 -6 167 -6 Z " />
<glyph glyph-name="hyphen" unicode="&#x2d;" horiz-adv-x="298" d="M69 290 L278 290 L226 187 L19 187 L69 290 Z " />
<glyph glyph-name="exclam" unicode="&#x21;" horiz-adv-x="256" d="M109 515 L109 545 Q109 559 108 574 Q107 589 103 603 Q98 623 84.5 636.5 Q71 650 45 650 Q36 650 27 648 Q18 646 6 643 L6 681 L248 723 Q241 697 234.5 674.5 Q228 652 223 629 Q200 540 187 451 Q174 362 164 270 L109 206 L109 515 Z M117 -6 Q85 -6 64 16 Q43 38 43 70 Q43 100 63.5 123 Q84 146 116 146 Q148 146 169.5 123.5 Q191 101 191 69 Q191 37 170 15.5 Q149 -6 117 -6 Z " />
</font>
</svg>
