<?xml version="1.0" encoding="UTF-8"?>
<svg xmlns="http://www.w3.org/2000/svg" xmlns:xlink="http://www.w3.org/1999/xlink" version="1.2" >
<font id="VolvoSerifWebBoldItalic">
<font-face  font-family="Volvo Serif Web" units-per-em="1000" ascent="750" descent="-250" font-style="italic" font-weight="700" font-stretch="normal" slope="-12" cap-height="706" x-height="486" underline-position="-75" underline-thickness="50" />
<missing-glyph  horiz-adv-x="500" d="M12 950 L487 950 L487 -250 L12 -250 L12 950 Z " />
<glyph glyph-name=".null" d="" />
<glyph glyph-name="nonmarkingreturn" unicode="&#xd;" horiz-adv-x="275" d="" />
<glyph glyph-name="space" unicode="&#x20;" horiz-adv-x="275" d="" />
<glyph glyph-name="A" unicode="A" horiz-adv-x="726" d="M453 240 L258 240 L200 145 Q191 130 179.5 110 Q168 90 168 73 Q168 56 179 49.5 Q190 43 204 43 Q209 43 213.5 42.5 Q218 42 223 42 L212 -4 Q182 -2 154 -1 Q126 0 97 0 Q69 0 41 -2 Q13 -4 -17 -4 L-6 42 Q12 42 29.5 47 Q47 52 61 63 Q76 74 88 93 Q100 112 111 128 L506 733 L543 733 L597 168 Q601 133 604.5 102.5 Q608 72 625 58 Q636 49 649 45.5 Q662 42 677 42 Q685 42 691 42.5 Q697 43 704 43 L692 -3 Q641 -1 595 -0.5 Q549 0 520 0 Q473 0 445 -1 Q417 -2 392 -2 L405 46 Q415 47 429 47 Q443 47 451 52 Q458 56 463 64.5 Q468 73 466 90 L453 240 Z M297 304 L447 304 L429 519 L297 304 Z " />
<glyph glyph-name="B" unicode="B" horiz-adv-x="656" d="M634 563 Q634 551 632 539.5 Q630 528 627 516 Q619 486 604 465 Q589 444 569.5 428.5 Q550 413 526.5 402 Q503 391 476 382 Q487 377 499 374 Q511 371 522 366 Q569 346 596.5 308.5 Q624 271 624 218 Q624 167 601 121 Q581 83 555 59 Q529 35 497.5 21.5 Q466 8 430 3.5 Q394 -1 354 -1 Q316 -1 279.5 -0.5 Q243 0 205 0 Q103 0 3 -3 L18 43 L30 43 Q42 43 54 44.5 Q66 46 77 53 Q87 59 94.5 74 Q102 89 107 106.5 Q112 124 115 141.5 Q118 159 120 170 L193 540 Q197 560 200.5 579.5 Q204 599 204 619 Q204 642 189.5 653 Q175 664 154 664 Q146 664 137 664 Q128 664 117 663 L130 709 Q178 707 219.5 706.5 Q261 706 309 706 Q326 706 354 706.5 Q382 707 403 707 Q452 707 501 700 Q550 693 584 667 Q609 647 621.5 620.5 Q634 594 634 563 Z M503 554 Q503 582 492.5 607 Q482 632 459 647 Q449 653 435.5 656.5 Q422 660 407.5 661 Q393 662 379 662 Q365 662 355 662 L303 404 Q327 401 350 401 Q382 401 405 408 Q428 415 451 437 Q474 458 488.5 490 Q503 522 503 554 Z M476 200 Q476 224 470.5 247.5 Q465 271 453.5 291.5 Q442 312 424 327 Q406 342 381 348 Q367 351 353.5 352 Q340 353 326 353 L293 353 L251 146 Q248 129 245.5 115 Q243 101 243 93 Q243 75 250.5 65 Q258 55 270 50 Q282 45 296.5 43.5 Q311 42 326 42 Q373 42 403.5 60 Q434 78 456 120 Q465 137 470.5 158 Q476 179 476 200 Z " />
<glyph glyph-name="C" unicode="C" horiz-adv-x="739" d="M745 532 L695 533 Q698 541 699 545.5 Q700 550 700 557 Q700 576 688 593.5 Q676 611 662 623 Q630 651 590 663 Q550 675 508 675 Q443 675 391 645 Q339 615 302 567 Q265 519 245 459 Q225 399 225 340 Q225 295 235 250.5 Q245 206 265.5 167.5 Q286 129 318.5 99.5 Q351 70 396 55 Q414 49 433 45.5 Q452 42 472 42 Q494 42 518.5 46.5 Q543 51 567 60 Q591 69 612 81.5 Q633 94 647 111 Q655 119 660 127.5 Q665 136 670 147 L711 152 L689 35 Q632 15 574.5 -1.5 Q517 -18 456 -18 Q378 -18 309.5 10.5 Q241 39 190.5 89.5 Q140 140 111 208 Q82 276 82 355 Q82 409 97 459.5 Q112 510 140.5 553 Q169 596 208.5 630.5 Q248 665 298 687 Q346 708 397.5 716 Q449 724 501 724 Q571 724 638.5 709.5 Q706 695 773 678 L745 532 Z " />
<glyph glyph-name="D" unicode="D" horiz-adv-x="843" d="M854 418 Q854 316 806.5 229.5 Q759 143 679 82 Q655 64 630.5 49.5 Q606 35 577 24 Q532 7 490 2 Q448 -3 401 -3 Q345 -3 289.5 -1.5 Q234 0 178 0 Q135 0 92.5 -1 Q50 -2 5 -4 L12 44 L45 44 Q70 44 86 63 Q93 72 99 88.5 Q105 105 109.5 123 Q114 141 117.5 158.5 Q121 176 123 188 L190 527 Q197 561 199.5 579.5 Q202 598 202 618 Q202 638 190.5 648.5 Q179 659 160 659 Q151 659 140 659 Q129 659 118 658 L129 708 Q142 708 170.5 707.5 Q199 707 230 706.5 Q261 706 289 706 Q317 706 329 706 L432 706 Q487 706 541.5 703.5 Q596 701 645.5 688 Q695 675 737.5 648 Q780 621 812 572 Q834 538 844 498 Q854 458 854 418 Z M700 406 Q700 490 658.5 550.5 Q617 611 537 638 Q507 649 472.5 652 Q438 655 406 655 Q393 655 380 655 Q367 655 354 654 Q331 535 306.5 419 Q282 303 259 184 Q255 165 252 147 Q249 129 249 110 Q249 72 271.5 58 Q294 44 336 44 L363 44 Q409 44 444 51.5 Q479 59 520 80 Q565 103 598.5 138.5 Q632 174 654.5 217 Q677 260 688.5 308.5 Q700 357 700 406 Z " />
<glyph glyph-name="E" unicode="E" horiz-adv-x="635" d="M652 714 Q644 671 636 630 Q628 589 620 546 L567 546 Q571 560 573.5 573 Q576 586 576 600 Q576 624 566.5 636.5 Q557 649 541.5 655 Q526 661 506.5 661.5 Q487 662 468 662 L355 662 L305 410 L340 410 Q354 410 375 410.5 Q396 411 418 413 Q440 415 459.5 419.5 Q479 424 490 432 Q504 441 508 452.5 Q512 464 517 478 L559 477 Q545 430 535.5 388 Q526 346 526 298 L482 298 Q482 305 482.5 310.5 Q483 316 483 321 Q483 337 473.5 345.5 Q464 354 450.5 358.5 Q437 363 421 364 Q405 365 393 365 Q372 365 346 364.5 Q320 364 296 361 L263 197 Q261 186 258 172 Q255 158 252.5 144 Q250 130 248 117.5 Q246 105 246 96 Q246 79 256.5 65 Q267 51 287 48 Q306 45 327 44 Q348 43 373 43 Q390 43 408 43.5 Q426 44 443 49 Q492 62 515 97.5 Q538 133 548 181 L596 180 Q586 133 578.5 88 Q571 43 564 -4 Q498 -2 434 -1 Q370 0 306 0 Q231 0 156 -1 Q81 -2 4 -5 L13 39 L29 39 Q49 39 64 44 Q79 49 90 66 Q96 74 101 89 Q106 104 110 120.5 Q114 137 117 152.5 Q120 168 122 178 L195 548 Q199 567 202.5 585.5 Q206 604 206 624 Q206 643 194 652 Q182 661 163 663 Q153 663 143 662.5 Q133 662 120 662 L128 708 Q144 708 160.5 707.5 Q177 707 198.5 706.5 Q220 706 247.5 706 Q275 706 314 706 L405 706 Q448 706 482.5 706.5 Q517 707 546.5 708 Q576 709 601 710.5 Q626 712 652 714 Z " />
<glyph glyph-name="F" unicode="F" horiz-adv-x="578" d="M614 545 L558 545 Q563 559 565 574 Q567 589 567 602 Q567 624 555 636.5 Q543 649 524.5 655.5 Q506 662 483.5 663.5 Q461 665 440 665 L355 665 L304 411 L382 411 Q411 411 440.5 415.5 Q470 420 490 440 Q498 448 499 458 Q500 468 502 479 L545 479 Q534 434 524.5 389.5 Q515 345 513 298 L466 299 Q470 309 471 313.5 Q472 318 472 326 Q472 340 463.5 348 Q455 356 442.5 359.5 Q430 363 416 364 Q402 365 391 365 Q342 365 294 362 L247 126 Q245 115 243 104 Q241 93 241 82 Q241 59 253 51.5 Q265 44 287 44 Q297 44 307 44.5 Q317 45 328 46 L319 -2 Q298 0 277.5 0 Q257 0 237 0 L186 0 Q140 0 94 -0.5 Q48 -1 0 -3 L7 44 Q15 43 21 43 Q27 43 33 43 Q47 43 61 46.5 Q75 50 84 61 Q92 70 95.5 77 Q99 84 102 95 Q109 117 113 139.5 Q117 162 122 185 L190 527 Q195 548 198.5 569.5 Q202 591 202 613 Q202 647 183.5 655.5 Q165 664 136 664 L122 664 L129 709 Q162 707 197 706.5 Q232 706 285 706 Q360 706 452 706.5 Q544 707 642 709 L614 545 Z " />
<glyph glyph-name="G" unicode="G" horiz-adv-x="864" d="M848 296 Q842 296 838 296.5 Q834 297 829 297 Q799 297 785 271 Q781 264 777 250.5 Q773 237 770 221 L737 27 Q666 8 596 -5 Q526 -18 454 -18 Q394 -18 335 -0.5 Q276 17 226 52 Q206 66 189 83.5 Q172 101 158 119 Q118 170 98.5 225 Q79 280 79 345 Q79 374 84 402 Q89 430 98 458 Q121 528 163 578.5 Q205 629 260 661 Q315 693 380 708.5 Q445 724 516 724 Q599 724 678 706.5 Q757 689 838 666 L813 517 L765 517 L765 539 Q765 562 754 581.5 Q743 601 726 616 Q692 647 646.5 657.5 Q601 668 556 668 Q487 668 427 643 Q367 618 322 574.5 Q277 531 251.5 471.5 Q226 412 226 343 Q226 269 256.5 198.5 Q287 128 347 84 Q379 61 419.5 51.5 Q460 42 499 42 Q532 42 557.5 48.5 Q583 55 612 69 L633 212 Q635 230 636.5 238.5 Q638 247 638 255 Q638 280 625 288.5 Q612 297 592 299 Q585 300 578 300 Q571 300 563 300 L571 347 Q627 344 678 342.5 Q729 341 765 341 Q799 341 818 341.5 Q837 342 854 344 L848 296 Z " />
<glyph glyph-name="H" unicode="H" horiz-adv-x="822" d="M887 665 Q867 664 851.5 661.5 Q836 659 822 646 Q812 637 805.5 623 Q799 609 794.5 594 Q790 579 787.5 564 Q785 549 782 537 L704 140 Q701 126 699 112.5 Q697 99 697 88 Q697 41 744 41 Q752 41 760.5 41.5 Q769 42 780 43 L770 -3 Q680 0 594 0 Q559 0 524.5 -0.5 Q490 -1 454 -2 L463 44 L481 44 Q504 44 521.5 51.5 Q539 59 550 80 Q564 107 569.5 142 Q575 177 581 207 L608 345 L290 345 L260 193 Q255 170 250 146.5 Q245 123 245 99 Q245 72 257 57 Q269 42 298 42 Q304 42 310.5 42 Q317 42 325 43 L318 -2 Q275 -1 234 -0.5 Q193 0 152 0 Q114 0 77 -1 Q40 -2 1 -2 L13 42 Q30 42 41 43 Q52 44 66 51 Q80 57 89 71.5 Q98 86 103.5 103 Q109 120 112 137.5 Q115 155 118 168 L194 551 Q200 578 200 605 Q200 625 195 637 Q190 649 180.5 655.5 Q171 662 157.5 664 Q144 666 128 666 L115 666 L126 713 Q168 711 208.5 708.5 Q249 706 290 706 Q328 706 367 707.5 Q406 709 446 711 L439 667 L434 667 Q413 667 393 663.5 Q373 660 359 642 Q350 631 341 598 Q332 565 324 526 Q316 487 309.5 451 Q303 415 300 398 L618 398 L642 519 Q646 539 650.5 562.5 Q655 586 655 605 Q655 626 649.5 638 Q644 650 633.5 656 Q623 662 607.5 664 Q592 666 573 667 L582 712 Q658 706 732 706 Q772 706 812 707.5 Q852 709 894 711 L887 665 Z " />
<glyph glyph-name="I" unicode="I" horiz-adv-x="364" d="M437 665 Q426 665 411.5 664.5 Q397 664 383 658 Q367 651 356.5 633.5 Q346 616 340 595 Q334 574 330.5 553.5 Q327 533 324 520 L257 180 Q252 159 248 134 Q244 109 244 95 Q244 75 251 64.5 Q258 54 269.5 49 Q281 44 296.5 43 Q312 42 329 42 L323 -4 Q291 -2 260 -1 Q229 0 198 0 Q150 0 102 -1.5 Q54 -3 4 -5 L12 40 L29 40 Q46 40 60 43.5 Q74 47 85 60 Q92 69 96.5 81.5 Q101 94 105 107.5 Q109 121 111.5 134.5 Q114 148 116 159 L193 547 Q197 566 201 585.5 Q205 605 205 624 Q205 651 187.5 657.5 Q170 664 148 664 L117 664 L126 710 Q164 708 199.5 707 Q235 706 271 706 Q314 706 357 707.5 Q400 709 445 711 L437 665 Z " />
<glyph glyph-name="J" unicode="J" horiz-adv-x="455" d="M539 664 Q532 665 527 665 Q522 665 518 665 Q506 665 493 662 Q480 659 469 648 Q458 637 453.5 625.5 Q449 614 446 600 L376 241 Q368 203 358 168.5 Q348 134 331 104 Q314 74 288.5 50 Q263 26 224 9 Q182 -9 135 -9 Q107 -9 79.5 -3 Q52 3 26 12 L55 174 L107 174 Q100 149 100 121 Q100 110 102 98.5 Q104 87 109 77 Q114 67 122 60.5 Q130 54 143 54 Q164 54 181 68 Q198 82 209 104 Q222 130 228.5 157.5 Q235 185 240 214 Q252 286 263.5 357.5 Q275 429 288 501 Q293 530 299 559 Q305 588 305 617 Q305 644 290 653.5 Q275 663 252 665 L231 665 L222 665 L230 710 Q267 708 302 707 Q337 706 372 706 Q415 706 457.5 707 Q500 708 545 710 L539 664 Z " />
<glyph glyph-name="K" unicode="K" horiz-adv-x="760" d="M780 665 Q760 663 746.5 661 Q733 659 717 651 Q675 631 635.5 597.5 Q596 564 562 533 L467 447 L591 178 Q609 139 624 107 Q639 75 662 59 Q680 45 696 43.5 Q712 42 733 41 L729 -2 Q695 -1 660.5 -0.5 Q626 0 586 0 Q571 0 552 -0.5 Q533 -1 512.5 -1.5 Q492 -2 471.5 -2.5 Q451 -3 434 -4 L444 40 Q460 41 473 46 Q486 51 486 68 Q486 81 474.5 105 Q463 129 447 162 L354 357 L283 299 L257 167 Q253 147 249 127 Q245 107 245 87 Q245 63 259 51.5 Q273 40 296 40 Q304 40 311.5 40.5 Q319 41 329 41 L316 -5 Q280 -3 242.5 -1.5 Q205 0 169 0 Q128 0 87 -1.5 Q46 -3 4 -5 L12 42 L43 42 Q68 42 85 59 Q94 68 100.5 82.5 Q107 97 111 113.5 Q115 130 118 146 Q121 162 123 174 L200 574 Q202 583 203 591.5 Q204 600 204 609 Q204 638 193.5 651.5 Q183 665 153 665 Q145 665 137 665 Q129 665 119 664 L126 708 Q161 706 195.5 706 Q230 706 264 706 Q311 706 357 707 Q403 708 451 709 L443 665 L427 665 Q380 665 358 629 Q351 618 345.5 601 Q340 584 336 565.5 Q332 547 329 529 Q326 511 323 498 L297 368 L507 551 Q539 578 553.5 592 Q568 606 578 618 Q584 625 589.5 633 Q595 641 595 650 Q595 661 585.5 664.5 Q576 668 565 669 L572 708 Q600 707 627 706.5 Q654 706 680 706 Q731 706 787 709 L780 665 Z " />
<glyph glyph-name="L" unicode="L" horiz-adv-x="656" d="M586 0 L2 0 L14 46 Q20 46 25 45.5 Q30 45 35 45 Q59 45 74.5 54 Q90 63 100 87 Q103 93 105 100.5 Q107 108 109.5 119 Q112 130 115 146 Q118 162 123 185 L195 538 Q200 559 203 577.5 Q206 596 206 617 Q206 634 200.5 644 Q195 654 186 659.5 Q177 665 165 666.5 Q153 668 139 668 L123 668 L132 710 Q177 708 219.5 707 Q262 706 305 706 Q377 706 454 709 L446 665 L434 665 Q418 665 403.5 662.5 Q389 660 375 648 Q356 632 349 608 Q342 584 337 561 L268 220 Q261 187 256 162.5 Q251 138 251 115 Q251 100 255 87 Q259 74 271 66 Q280 59 295 55.5 Q310 52 327.5 50 Q345 48 362.5 47.5 Q380 47 395 47 Q432 47 460.5 52.5 Q489 58 509.5 73 Q530 88 543.5 114 Q557 140 564 181 L618 181 L586 0 Z " />
<glyph glyph-name="M" unicode="M" horiz-adv-x="948" d="M1007 663 L992 663 Q974 663 960 660.5 Q946 658 931 642 Q914 622 909.5 592 Q905 562 901 537 L849 179 Q846 157 843 133.5 Q840 110 840 88 Q840 73 846 63.5 Q852 54 862 49 Q872 44 884.5 42 Q897 40 910 40 L923 40 L917 -4 Q872 -2 828.5 -1 Q785 0 741 0 Q709 0 675.5 -2 Q642 -4 608 -5 L613 41 Q621 40 628.5 39.5 Q636 39 643 39 Q654 39 661.5 41.5 Q669 44 677 52 Q684 59 689 70.5 Q694 82 697 95 Q700 108 701.5 120.5 Q703 133 705 143 L777 591 Q683 439 588.5 285 Q494 131 396 -33 L231 508 L168 191 Q163 166 158.5 142.5 Q154 119 154 93 Q154 60 171.5 50 Q189 40 218 40 L233 40 L227 -4 Q198 -4 170 -2 Q142 0 111 0 Q82 0 54 -1.5 Q26 -3 -3 -5 L4 40 L15 40 Q39 40 58.5 52 Q78 64 88 87 Q90 91 98 128 Q106 165 117.5 218 Q129 271 141 333 Q153 395 163.5 449.5 Q174 504 181 543 Q188 582 188 591 Q188 608 183 626 Q176 653 159.5 660 Q143 667 117 667 L106 667 L113 710 Q141 708 168 707 Q195 706 221 706 Q242 706 263.5 707 Q285 708 307 710 L472 198 Q513 260 552 323 Q591 386 630 449.5 Q669 513 708.5 578.5 Q748 644 791 710 Q823 707 857 706.5 Q891 706 922 706 Q945 706 967 707 Q989 708 1013 709 L1007 663 Z " />
<glyph glyph-name="N" unicode="N" horiz-adv-x="802" d="M876 664 Q848 664 831 656.5 Q814 649 800 626 Q789 609 778.5 565.5 Q768 522 758 471 Q735 350 710.5 225 Q686 100 661 -38 L650 -38 L245 552 L208 345 Q200 296 192 248 Q184 200 178 151 Q176 136 174.5 121 Q173 106 173 91 Q173 38 225 38 Q233 38 240.5 38.5 Q248 39 257 39 L250 -4 Q221 -2 193.5 -1 Q166 0 138 0 Q107 0 76 -1 Q45 -2 12 -3 L22 41 L34 41 Q47 41 58 43 Q69 45 81 56 Q91 65 98 78.5 Q105 92 109.5 107.5 Q114 123 117 138.5 Q120 154 122 167 L184 509 Q189 535 192.5 558.5 Q196 582 196 604 Q196 615 194 624.5 Q192 634 184 642 Q172 656 157.5 661 Q143 666 126 666 L115 666 L121 709 Q149 708 176 707 Q203 706 229 706 Q248 706 266.5 707 Q285 708 305 710 Q393 584 480 460 Q567 336 656 202 Q671 282 686 361 Q701 440 716 530 Q719 549 722 570.5 Q725 592 725 612 Q725 641 711.5 654.5 Q698 668 666 668 L638 668 L650 710 Q685 708 717.5 707 Q750 706 783 706 Q808 706 832.5 707 Q857 708 883 710 L876 664 Z " />
<glyph glyph-name="O" unicode="O" horiz-adv-x="885" d="M885 352 Q885 310 874.5 268 Q864 226 847 188 Q823 136 784.5 97.5 Q746 59 698.5 33.5 Q651 8 597 -5 Q543 -18 488 -18 Q406 -18 332.5 8 Q259 34 203.5 82.5 Q148 131 115.5 200 Q83 269 83 355 Q83 450 129 529 Q175 608 253 660 Q302 692 359.5 708 Q417 724 475 724 Q542 724 605 707 Q668 690 720 656 Q772 622 810.5 572 Q849 522 869 456 Q877 430 881 404 Q885 378 885 352 Z M739 372 Q739 409 732 447.5 Q725 486 710 521 Q695 556 671 585.5 Q647 615 614 635 Q588 651 559.5 660 Q531 669 500 669 Q464 669 425.5 654 Q387 639 358 616 Q326 592 302.5 558.5 Q279 525 263 486.5 Q247 448 239 407 Q231 366 231 327 Q231 277 245 225.5 Q259 174 287.5 132.5 Q316 91 358.5 65 Q401 39 457 39 Q518 39 571.5 68 Q625 97 663 143 Q706 196 722.5 251 Q739 306 739 372 Z " />
<glyph glyph-name="P" unicode="P" horiz-adv-x="616" d="M652 549 Q652 504 632.5 462.5 Q613 421 581 391 Q558 369 530.5 356 Q503 343 473 335.5 Q443 328 412 325.5 Q381 323 351 323 Q335 323 319 323.5 Q303 324 287 324 L260 186 Q255 163 250 138.5 Q245 114 245 94 Q245 66 256.5 55.5 Q268 45 293 42 Q301 41 308.5 41 Q316 41 326 41 L318 -4 Q284 -2 250 -1 Q216 0 169 0 Q137 0 94 -1.5 Q51 -3 3 -3 L13 41 L29 41 Q47 41 60.5 46 Q74 51 86 64 Q102 82 107.5 109 Q113 136 118 159 L194 536 Q201 569 203.5 587 Q206 605 206 616 Q206 633 197.5 642 Q189 651 177 655.5 Q165 660 150.5 661.5 Q136 663 124 663 L134 707 Q169 706 205.5 706 Q242 706 296 706 L444 706 Q479 706 517.5 701 Q556 696 586 677 Q618 657 635 622 Q652 587 652 549 Z M513 544 Q513 573 499.5 600 Q486 627 461 643 Q444 654 428.5 656.5 Q413 659 393 659 Q383 659 373 659 Q363 659 353 658 L298 378 Q329 375 360 375 Q396 375 424 388.5 Q452 402 472 425.5 Q492 449 502.5 479.5 Q513 510 513 544 Z " />
<glyph glyph-name="Q" unicode="Q" horiz-adv-x="885" d="M885 349 Q885 307 874.5 265 Q864 223 847 185 Q812 108 745 59.5 Q678 11 598 -8 Q640 -44 683.5 -66.5 Q727 -89 785 -89 Q814 -89 834 -83 Q854 -77 882 -66 L879 -119 Q840 -138 808.5 -148 Q777 -158 734 -158 Q692 -158 650 -146 Q608 -134 568.5 -114.5 Q529 -95 493 -69.5 Q457 -44 426 -17 Q354 -8 291.5 21.5 Q229 51 182.5 98.5 Q136 146 109.5 210 Q83 274 83 352 Q83 447 129 527.5 Q175 608 253 660 Q302 692 359.5 708 Q417 724 475 724 Q542 724 605 706.5 Q668 689 720 654.5 Q772 620 810.5 569.5 Q849 519 869 453 Q877 427 881 401 Q885 375 885 349 Z M739 369 Q739 406 732 445 Q725 484 710 519.5 Q695 555 671 585 Q647 615 614 635 Q588 651 559.5 660 Q531 669 500 669 Q464 669 425.5 654 Q387 639 358 616 Q326 592 302.5 558 Q279 524 263 485 Q247 446 239 404.5 Q231 363 231 324 Q231 274 245 222.5 Q259 171 287.5 129.5 Q316 88 358.5 62 Q401 36 457 36 Q518 36 571.5 65 Q625 94 663 140 Q706 193 722.5 248 Q739 303 739 369 Z " />
<glyph glyph-name="R" unicode="R" horiz-adv-x="739" d="M715 -4 Q692 -12 667.5 -14.5 Q643 -17 620 -17 Q570 -17 537 -1.5 Q504 14 480.5 40 Q457 66 440.5 100.5 Q424 135 408 173 Q390 215 372 255 Q354 295 334 336 L293 336 L250 130 Q248 121 246.5 110 Q245 99 245 90 Q245 73 252 63 Q259 53 270.5 48.5 Q282 44 296.5 43 Q311 42 326 42 L315 -5 Q282 -3 250 -1.5 Q218 0 186 0 Q139 0 93 -1 Q47 -2 -1 -4 L9 44 Q16 43 21 43 Q26 43 31 43 Q74 43 96 77 Q101 85 105.5 98 Q110 111 113.5 126 Q117 141 119.5 155 Q122 169 124 179 Q144 280 164.5 380.5 Q185 481 205 582 Q207 592 208.5 601 Q210 610 210 620 Q210 648 192 655.5 Q174 663 153 663 L122 663 L131 710 Q207 708 280.5 707 Q354 706 429 706 Q471 706 513.5 704.5 Q556 703 598 686 Q682 651 682 561 Q682 522 667 485 Q652 448 626 421 Q594 388 558 372 Q522 356 477 348 Q491 318 506.5 282 Q522 246 539 210 Q557 173 575.5 139 Q594 105 614 78 Q629 58 647 47 Q665 36 691 36 Q696 36 702 36 Q708 36 715 37 L715 -4 Z M544 557 Q544 579 536 601 Q528 623 511 638 Q491 655 465.5 659 Q440 663 414 663 L358 663 L302 386 Q316 384 330 383 Q344 382 358 382 Q413 382 459 404.5 Q505 427 527 479 Q535 497 539.5 516 Q544 535 544 557 Z " />
<glyph glyph-name="S" unicode="S" horiz-adv-x="552" d="M522 545 L465 545 Q467 557 468 568 Q469 579 469 590 Q469 609 459 623.5 Q449 638 433.5 648.5 Q418 659 399.5 664.5 Q381 670 364 670 Q337 670 316.5 664 Q296 658 275 641 Q256 626 245.5 607 Q235 588 235 562 Q235 537 247.5 518.5 Q260 500 280 483 Q299 469 321.5 456.5 Q344 444 379 424 Q406 409 432.5 391 Q459 373 480 349.5 Q501 326 513.5 295.5 Q526 265 526 225 Q526 197 517 169.5 Q508 142 494 118 Q471 80 442 55 Q413 30 379 15 Q345 0 306.5 -6.5 Q268 -13 226 -13 Q179 -13 133.5 -8 Q88 -3 40 3 L67 177 L125 177 Q122 157 122 143 Q122 116 132 95.5 Q142 75 158.5 61.5 Q175 48 197 41.5 Q219 35 244 35 Q271 35 297 43.5 Q323 52 343.5 68 Q364 84 376.5 106.5 Q389 129 389 158 Q389 204 363 233.5 Q337 263 302 286 Q272 306 238 325 Q204 344 175.5 367.5 Q147 391 128.5 422.5 Q110 454 110 498 Q110 522 115.5 544 Q121 566 132 588 Q167 659 230 690.5 Q293 722 369 722 Q413 722 456 715.5 Q499 709 544 701 L522 545 Z " />
<glyph glyph-name="T" unicode="T" horiz-adv-x="645" d="M699 542 L641 542 Q647 559 650.5 574.5 Q654 590 654 607 Q654 624 646 633.5 Q638 643 625 648 Q612 653 597 654.5 Q582 656 569 656 Q548 656 526 655 Q504 654 483 653 L390 186 Q385 161 380 136.5 Q375 112 375 87 Q375 60 393.5 50.5 Q412 41 437 41 L464 41 L449 -3 Q411 -1 373 -0.5 Q335 0 297 0 Q254 0 210.5 -1 Q167 -2 122 -4 L133 44 Q155 45 174.5 48.5 Q194 52 209 67 Q218 77 224.5 93 Q231 109 235.5 126.5 Q240 144 243 161.5 Q246 179 249 192 L341 657 Q332 658 323.5 658 Q315 658 307 658 Q273 658 244 654.5 Q215 651 192.5 638.5 Q170 626 155.5 603 Q141 580 137 541 L80 541 L103 707 Q181 705 259.5 705.5 Q338 706 428 706 Q453 706 479.5 706 Q506 706 541 706.5 Q576 707 622 707 Q668 707 732 707 L699 542 Z " />
<glyph glyph-name="U" unicode="U" horiz-adv-x="781" d="M852 667 Q832 666 814.5 662.5 Q797 659 785 644 Q771 627 765 604.5 Q759 582 754 561 L682 233 Q670 178 645.5 132 Q621 86 582 53 Q543 20 489.5 1.5 Q436 -17 366 -17 Q315 -17 269 -4 Q223 9 188 35.5 Q153 62 132 101 Q111 140 111 191 Q111 229 118.5 269.5 Q126 310 134 349 L177 571 Q179 582 181 593.5 Q183 605 183 617 Q183 630 178 638 Q173 646 165 651 Q157 656 147 658.5 Q137 661 127 661 Q119 662 112.5 662 Q106 662 98 662 L107 711 Q139 708 175.5 707 Q212 706 243 706 Q294 706 339 705.5 Q384 705 437 710 L427 665 L408 665 Q390 665 375.5 661.5 Q361 658 347 647 Q336 638 327 619 Q321 608 313.5 576 Q306 544 298 505 L256 280 Q252 260 249.5 240.5 Q247 221 247 201 Q247 129 288 85 Q329 41 403 41 Q443 41 479.5 52.5 Q516 64 545 91 Q573 117 592 151 Q611 185 623.5 223 Q636 261 643.5 300 Q651 339 658 375 L695 567 Q698 581 700.5 595 Q703 609 703 622 Q703 648 686 656 Q669 664 648 664 L618 664 L626 708 Q647 707 674 706.5 Q701 706 724 706 L773 706 Q795 706 816.5 707 Q838 708 862 709 L852 667 Z " />
<glyph glyph-name="V" unicode="V" horiz-adv-x="718" d="M803 662 L787 662 Q757 662 737 647 Q717 632 701 612 Q691 600 683 588 Q675 576 668 566 Q605 476 546 385 Q487 294 427 203 Q389 146 351 88.5 Q313 31 273 -29 L246 -35 Q241 43 233.5 117.5 Q226 192 218 267 Q217 278 215 298 Q213 318 210.5 344 Q208 370 205 400 Q202 430 199 460 Q196 490 192.5 519 Q189 548 186 571.5 Q183 595 180.5 611.5 Q178 628 175 634 Q167 654 152.5 659.5 Q138 665 118 665 L94 665 L103 709 Q140 707 175 706.5 Q210 706 245 706 Q287 706 329.5 707 Q372 708 416 710 L408 663 Q398 664 390 664.5 Q382 665 374 665 Q348 665 337.5 647 Q327 629 327 605 Q327 576 330.5 547 Q334 518 337 489 Q345 414 353 339 Q361 264 366 189 Q393 235 421 279.5 Q449 324 479 371 Q509 419 538 466.5 Q567 514 596 562 Q606 578 616.5 596.5 Q627 615 627 635 Q627 655 611 659 Q595 663 576 664 L584 708 Q613 707 640.5 706.5 Q668 706 695 706 Q724 706 753.5 707 Q783 708 814 710 L803 662 Z " />
<glyph glyph-name="W" unicode="W" horiz-adv-x="948" d="M1032 665 Q1007 660 991.5 653.5 Q976 647 961 629 Q944 609 931 584 Q918 559 905 536 Q890 509 875.5 481.5 Q861 454 847 426 Q790 317 732 207.5 Q674 98 613 -14 L577 -35 Q566 89 551 208.5 Q536 328 520 448 Q459 330 399.5 214 Q340 98 272 -17 L231 -39 Q222 116 212 266.5 Q202 417 191 569 Q190 579 189.5 591 Q189 603 186.5 614 Q184 625 179.5 635 Q175 645 166 652 Q153 663 133 664 Q113 665 98 667 L106 709 Q138 707 169 706 Q200 705 231 705 Q275 705 318 706 Q361 707 407 709 L396 662 Q379 662 365.5 660.5 Q352 659 342.5 654 Q333 649 328 637.5 Q323 626 323 607 Q323 575 325 545.5 Q327 516 329 483 L349 219 Q372 265 395.5 311.5 Q419 358 443 404 Q483 479 521 555 Q559 631 596 714 L622 727 L677 203 Q723 294 771.5 381.5 Q820 469 861 562 Q869 580 876.5 599 Q884 618 884 639 Q884 658 871.5 663 Q859 668 842 668 Q838 668 834.5 667.5 Q831 667 826 667 L836 711 Q869 709 901 707.5 Q933 706 965 706 Q984 706 1002.5 706.5 Q1021 707 1042 708 L1032 665 Z " />
<glyph glyph-name="X" unicode="X" horiz-adv-x="781" d="M804 664 Q795 662 786.5 660.5 Q778 659 770 656 Q759 652 748 643.5 Q737 635 726.5 624.5 Q716 614 706.5 603.5 Q697 593 689 585 Q658 552 627 519 Q596 486 574.5 464.5 Q553 443 542 431.5 Q531 420 515 403.5 Q499 387 483 370 Q502 333 521 297 Q540 261 559 224 Q573 197 586.5 170 Q600 143 615 117 Q623 104 629.5 93 Q636 82 647 72 Q664 56 685 52.5 Q706 49 729 49 L750 49 L741 0 Q699 1 659 1.5 Q619 2 578 2 Q535 2 491.5 1 Q448 0 403 -2 L413 42 Q418 41 422 41 Q426 41 430 41 Q447 41 459 48 Q471 55 471 73 Q471 84 466 99 Q461 114 453.5 129.5 Q446 145 438.5 160 Q431 175 426 185 Q415 209 403 232.5 Q391 256 379 280 Q339 236 299 193.5 Q259 151 219 106 Q211 98 202 86 Q193 74 193 63 Q193 49 202.5 46 Q212 43 223 42 L230 42 L239 42 L231 -1 Q202 -1 175 -0.5 Q148 0 121 0 Q94 0 66 -1 Q38 -2 9 -3 L19 42 Q39 48 53.5 54.5 Q68 61 80.5 69 Q93 77 105 87 Q117 97 132 111 L173 152 Q218 197 263.5 241 Q309 285 357 328 Q348 348 338.5 366.5 Q329 385 318 405 Q294 451 271 497.5 Q248 544 222 590 Q208 615 188.5 636 Q169 657 139 661 Q135 661 131.5 661.5 Q128 662 124 662 Q119 662 114 661.5 Q109 661 102 661 L113 710 Q150 710 185.5 708.5 Q221 707 256 707 Q298 707 340 708.5 Q382 710 425 712 L417 665 Q411 665 406 665.5 Q401 666 396 666 Q381 666 370.5 659.5 Q360 653 360 637 L360 634 Q360 620 367.5 605 Q375 590 381 578 Q401 540 419 501 Q437 462 457 423 Q466 432 483 449.5 Q500 467 520.5 489 Q541 511 562 535 Q583 559 600 581 Q617 603 628 621 Q639 639 639 648 Q639 661 619 664 Q610 666 600.5 666 Q591 666 583 666 L594 711 Q622 710 649.5 710 Q677 710 704 710 L812 710 L804 664 Z " />
<glyph glyph-name="Y" unicode="Y" horiz-adv-x="698" d="M783 672 Q754 670 737 663.5 Q720 657 700 637 Q686 622 674.5 604.5 Q663 587 651 570 Q601 499 552 429.5 Q503 360 455 288 Q449 258 443.5 228 Q438 198 432 169 Q428 149 423 130 Q418 111 418 91 Q418 63 436.5 55.5 Q455 48 476 48 L478 48 Q486 48 493.5 48.5 Q501 49 510 50 L498 1 Q476 1 455.5 1.5 Q435 2 415 2 Q354 2 293 1 Q232 0 169 -2 L177 43 L196 43 Q213 43 228.5 46 Q244 49 257 62 Q271 76 275.5 93 Q280 110 284 128 Q292 166 298.5 202.5 Q305 239 312 277 Q283 358 254 438.5 Q225 519 192 599 Q184 617 175 631.5 Q166 646 149 655 Q142 659 134 660 Q126 661 118 661 L99 661 L108 710 Q152 708 194.5 706.5 Q237 705 280 705 Q309 705 339 706.5 Q369 708 400 710 L393 665 Q388 665 383.5 665.5 Q379 666 375 666 Q360 666 349.5 658 Q339 650 339 633 Q339 617 346 600.5 Q353 584 358 570 L391 486 Q404 451 415.5 417 Q427 383 440 349 Q443 353 445.5 356 Q448 359 450 362 Q456 370 460.5 378 Q465 386 470 394 Q481 411 491 427.5 Q501 444 512 461 Q532 495 553.5 528 Q575 561 595 596 Q601 606 607.5 619.5 Q614 633 614 644 Q614 660 605.5 665 Q597 670 584 671 Q579 672 574.5 672 Q570 672 565 672 L572 716 Q598 715 622.5 714.5 Q647 714 671 714 Q701 714 731 715 Q761 716 793 719 L783 672 Z " />
<glyph glyph-name="Z" unicode="Z" horiz-adv-x="677" d="M719 715 Q593 546 468.5 382.5 Q344 219 219 53 Q265 54 309.5 55 Q354 56 400 58 Q420 59 439.5 60 Q459 61 477 65 Q495 69 512.5 77 Q530 85 545 100 Q565 118 576.5 137 Q588 156 599 181 L649 181 L612 0 Q523 2 436.5 2 Q350 2 262 2 Q223 2 184 1.5 Q145 1 105 1 Q81 1 56 0.5 Q31 0 4 -1 Q14 13 23.5 25 Q33 37 41 48 Q59 71 75.5 93 Q92 115 109 138 Q165 211 220 284 Q275 357 331 431 Q357 465 381.5 498.5 Q406 532 432 566 Q450 589 468 612.5 Q486 636 503 660 L448 660 Q419 660 386 659 Q353 658 322 654 Q291 650 264 642.5 Q237 635 220 622 Q198 605 188.5 587 Q179 569 170 542 L115 545 L146 716 Q178 715 208.5 714 Q239 713 270 713 Q312 713 354.5 713.5 Q397 714 439 714 Q481 714 521.5 713.5 Q562 713 604 713 Q632 713 660 713 Q688 713 719 715 Z " />
<glyph glyph-name="Agrave" unicode="&#xc0;" horiz-adv-x="726" d="M453 240 L258 240 L200 145 Q191 130 179.5 110 Q168 90 168 73 Q168 56 179 49.5 Q190 43 204 43 Q209 43 213.5 42.5 Q218 42 223 42 L212 -4 Q182 -2 154 -1 Q126 0 97 0 Q69 0 41 -2 Q13 -4 -17 -4 L-6 42 Q12 42 29.5 47 Q47 52 61 63 Q76 74 88 93 Q100 112 111 128 L506 733 L543 733 L597 168 Q601 133 604.5 102.5 Q608 72 625 58 Q636 49 649 45.5 Q662 42 677 42 Q685 42 691 42.5 Q697 43 704 43 L692 -3 Q641 -1 595 -0.5 Q549 0 520 0 Q473 0 445 -1 Q417 -2 392 -2 L405 46 Q415 47 429 47 Q443 47 451 52 Q458 56 463 64.5 Q468 73 466 90 L453 240 Z M297 304 L447 304 L429 519 L297 304 Z M587 768 Q547 780 515.5 795.5 Q484 811 458 829 Q432 847 410 868 Q388 889 367 912 Q404 919 435 927.5 Q466 936 500 948 Q510 924 520.5 905 Q531 886 544.5 869 Q558 852 576 836 Q594 820 620 803 L587 768 Z " />
<glyph glyph-name="Aacute" unicode="&#xc1;" horiz-adv-x="726" d="M453 240 L258 240 L200 145 Q191 130 179.5 110 Q168 90 168 73 Q168 56 179 49.5 Q190 43 204 43 Q209 43 213.5 42.5 Q218 42 223 42 L212 -4 Q182 -2 154 -1 Q126 0 97 0 Q69 0 41 -2 Q13 -4 -17 -4 L-6 42 Q12 42 29.5 47 Q47 52 61 63 Q76 74 88 93 Q100 112 111 128 L506 733 L543 733 L597 168 Q601 133 604.5 102.5 Q608 72 625 58 Q636 49 649 45.5 Q662 42 677 42 Q685 42 691 42.5 Q697 43 704 43 L692 -3 Q641 -1 595 -0.5 Q549 0 520 0 Q473 0 445 -1 Q417 -2 392 -2 L405 46 Q415 47 429 47 Q443 47 451 52 Q458 56 463 64.5 Q468 73 466 90 L453 240 Z M297 304 L447 304 L429 519 L297 304 Z M674 910 Q647 879 623.5 858 Q600 837 575 821.5 Q550 806 522 794 Q494 782 457 769 L427 801 Q452 817 469.5 831 Q487 845 500.5 861.5 Q514 878 524.5 897.5 Q535 917 546 944 Q580 932 608.5 924 Q637 916 674 910 Z " />
<glyph glyph-name="Acircumflex" unicode="&#xc2;" horiz-adv-x="726" d="M453 240 L258 240 L200 145 Q191 130 179.5 110 Q168 90 168 73 Q168 56 179 49.5 Q190 43 204 43 Q209 43 213.5 42.5 Q218 42 223 42 L212 -4 Q182 -2 154 -1 Q126 0 97 0 Q69 0 41 -2 Q13 -4 -17 -4 L-6 42 Q12 42 29.5 47 Q47 52 61 63 Q76 74 88 93 Q100 112 111 128 L506 733 L543 733 L597 168 Q601 133 604.5 102.5 Q608 72 625 58 Q636 49 649 45.5 Q662 42 677 42 Q685 42 691 42.5 Q697 43 704 43 L692 -3 Q641 -1 595 -0.5 Q549 0 520 0 Q473 0 445 -1 Q417 -2 392 -2 L405 46 Q415 47 429 47 Q443 47 451 52 Q458 56 463 64.5 Q468 73 466 90 L453 240 Z M297 304 L447 304 L429 519 L297 304 Z M639 763 Q616 783 597.5 800 Q579 817 563 843 Q555 837 547.5 831 Q540 825 531 819 Q500 800 467 786.5 Q434 773 400 760 L361 804 Q374 810 386 815.5 Q398 821 409 827 Q448 848 482.5 878.5 Q517 909 540 948 L650 948 Q645 933 642.5 920.5 Q640 908 640 895 Q640 865 649.5 842.5 Q659 820 677 795 L639 763 Z " />
<glyph glyph-name="Atilde" unicode="&#xc3;" horiz-adv-x="726" d="M453 240 L258 240 L200 145 Q191 130 179.5 110 Q168 90 168 73 Q168 56 179 49.5 Q190 43 204 43 Q209 43 213.5 42.5 Q218 42 223 42 L212 -4 Q182 -2 154 -1 Q126 0 97 0 Q69 0 41 -2 Q13 -4 -17 -4 L-6 42 Q12 42 29.5 47 Q47 52 61 63 Q76 74 88 93 Q100 112 111 128 L506 733 L543 733 L597 168 Q601 133 604.5 102.5 Q608 72 625 58 Q636 49 649 45.5 Q662 42 677 42 Q685 42 691 42.5 Q697 43 704 43 L692 -3 Q641 -1 595 -0.5 Q549 0 520 0 Q473 0 445 -1 Q417 -2 392 -2 L405 46 Q415 47 429 47 Q443 47 451 52 Q458 56 463 64.5 Q468 73 466 90 L453 240 Z M297 304 L447 304 L429 519 L297 304 Z M733 920 Q726 888 712.5 860.5 Q699 833 672 810 Q658 797 640.5 791 Q623 785 609 785 Q583 785 562 795.5 Q541 806 523 818 Q511 826 493.5 836 Q476 846 459 846 Q444 846 434 839 Q411 825 403 797 L350 797 Q356 822 368 847.5 Q380 873 398 892.5 Q416 912 440 924.5 Q464 937 493 937 Q519 937 537 927 Q555 917 572 906 Q583 898 599.5 887 Q616 876 633 876 Q652 876 664 889 Q676 902 682 920 L733 920 L733 920 Z " />
<glyph glyph-name="Adieresis" unicode="&#xc4;" horiz-adv-x="726" d="M453 240 L258 240 L200 145 Q191 130 179.5 110 Q168 90 168 73 Q168 56 179 49.5 Q190 43 204 43 Q209 43 213.5 42.5 Q218 42 223 42 L212 -4 Q182 -2 154 -1 Q126 0 97 0 Q69 0 41 -2 Q13 -4 -17 -4 L-6 42 Q12 42 29.5 47 Q47 52 61 63 Q76 74 88 93 Q100 112 111 128 L506 733 L543 733 L597 168 Q601 133 604.5 102.5 Q608 72 625 58 Q636 49 649 45.5 Q662 42 677 42 Q685 42 691 42.5 Q697 43 704 43 L692 -3 Q641 -1 595 -0.5 Q549 0 520 0 Q473 0 445 -1 Q417 -2 392 -2 L405 46 Q415 47 429 47 Q443 47 451 52 Q458 56 463 64.5 Q468 73 466 90 L453 240 Z M297 304 L447 304 L429 519 L297 304 Z M509 870 Q509 834 484 809 Q459 784 426 784 Q404 784 387 798 Q370 812 370 835 Q370 873 395.5 899 Q421 925 455 925 Q479 925 494 909 Q509 893 509 870 Z M729 870 Q729 834 704 809 Q679 784 646 784 Q624 784 607 798 Q590 812 590 835 Q590 873 615.5 899 Q641 925 675 925 Q699 925 714 909 Q729 893 729 870 Z " />
<glyph glyph-name="Amacron" unicode="&#x100;" horiz-adv-x="726" d="M453 240 L258 240 L200 145 Q191 130 179.5 110 Q168 90 168 73 Q168 56 179 49.5 Q190 43 204 43 Q209 43 213.5 42.5 Q218 42 223 42 L212 -4 Q182 -2 154 -1 Q126 0 97 0 Q69 0 41 -2 Q13 -4 -17 -4 L-6 42 Q12 42 29.5 47 Q47 52 61 63 Q76 74 88 93 Q100 112 111 128 L506 733 L543 733 L597 168 Q601 133 604.5 102.5 Q608 72 625 58 Q636 49 649 45.5 Q662 42 677 42 Q685 42 691 42.5 Q697 43 704 43 L692 -3 Q641 -1 595 -0.5 Q549 0 520 0 Q473 0 445 -1 Q417 -2 392 -2 L405 46 Q415 47 429 47 Q443 47 451 52 Q458 56 463 64.5 Q468 73 466 90 L453 240 Z M297 304 L447 304 L429 519 L297 304 Z M368 812 L368 896 L702 896 L702 812 L368 812 Z " />
<glyph glyph-name="Abreve" unicode="&#x102;" horiz-adv-x="726" d="M453 240 L258 240 L200 145 Q191 130 179.5 110 Q168 90 168 73 Q168 56 179 49.5 Q190 43 204 43 Q209 43 213.5 42.5 Q218 42 223 42 L212 -4 Q182 -2 154 -1 Q126 0 97 0 Q69 0 41 -2 Q13 -4 -17 -4 L-6 42 Q12 42 29.5 47 Q47 52 61 63 Q76 74 88 93 Q100 112 111 128 L506 733 L543 733 L597 168 Q601 133 604.5 102.5 Q608 72 625 58 Q636 49 649 45.5 Q662 42 677 42 Q685 42 691 42.5 Q697 43 704 43 L692 -3 Q641 -1 595 -0.5 Q549 0 520 0 Q473 0 445 -1 Q417 -2 392 -2 L405 46 Q415 47 429 47 Q443 47 451 52 Q458 56 463 64.5 Q468 73 466 90 L453 240 Z M297 304 L447 304 L429 519 L297 304 Z M700 922 Q682 880 663.5 853 Q645 826 625 810.5 Q605 795 582.5 789.5 Q560 784 534 784 Q508 784 485.5 789.5 Q463 795 443 810.5 Q423 826 404.5 853 Q386 880 368 922 L396 936 Q416 907 454 892.5 Q492 878 534 878 Q576 878 614 892.5 Q652 907 672 936 L700 922 L700 922 Z " />
<glyph glyph-name="Aring" unicode="&#xc5;" horiz-adv-x="726" d="M640 831 Q640 809 631.5 790 Q623 771 608.5 756.5 Q594 742 575 733 Q560 727 543 725 L597 168 Q601 133 604.5 102.5 Q608 72 625 58 Q636 49 649 45.5 Q662 42 677 42 Q685 42 691 42.5 Q697 43 704 43 L692 -3 Q641 -1 595 -0.5 Q549 0 520 0 Q473 0 445 -1 Q417 -2 392 -2 L405 46 Q415 47 429 47 Q443 47 451 52 Q458 56 463 64.5 Q468 73 466 90 L453 240 L258 240 L200 145 Q191 130 179.5 110 Q168 90 168 73 Q168 56 179 49.5 Q190 43 204 43 Q209 43 213.5 42.5 Q218 42 223 42 L212 -4 Q182 -2 154 -1 Q126 0 97 0 Q69 0 41 -2 Q13 -4 -17 -4 L-6 42 Q12 42 29.5 47 Q47 52 61 63 Q76 74 88 93 Q100 112 111 128 L503 729 Q498 731 493 733 Q474 742 459.5 756.5 Q445 771 436.5 790 Q428 809 428 831 Q428 853 436.5 872 Q445 891 459.5 905.5 Q474 920 493 928.5 Q512 937 534 937 Q556 937 575 928.5 Q594 920 608.5 905.5 Q623 891 631.5 872 Q640 853 640 831 Z M297 304 L447 304 L429 519 L297 304 Z M590 831 Q590 854 573.5 870.5 Q557 887 534 887 Q511 887 494.5 870.5 Q478 854 478 831 Q478 808 494.5 791.5 Q511 775 534 775 Q557 775 573.5 791.5 Q590 808 590 831 Z " />
<glyph glyph-name="Aogonek" unicode="&#x104;" horiz-adv-x="726" d="M613 -172 Q605 -182 592 -190.5 Q579 -199 563.5 -205.5 Q548 -212 530.5 -216 Q513 -220 497 -220 Q451 -220 422.5 -201.5 Q394 -183 394 -137 Q394 -111 410 -87.5 Q426 -64 449.5 -45 Q473 -26 498 -13 Q515 -5 529 0 L520 0 Q473 0 445 -1 Q417 -2 392 -2 L405 46 Q415 47 429 47 Q443 47 451 52 Q458 56 463 64.5 Q468 73 466 90 L453 240 L258 240 L200 145 Q191 130 179.5 110 Q168 90 168 73 Q168 56 179 49.5 Q190 43 204 43 Q209 43 213.5 42.5 Q218 42 223 42 L212 -4 Q182 -2 154 -1 Q126 0 97 0 Q69 0 41 -2 Q13 -4 -17 -4 L-6 42 Q12 42 29.5 47 Q47 52 61 63 Q76 74 88 93 Q100 112 111 128 L506 733 L543 733 L597 168 Q601 133 604.5 102.5 Q608 72 625 58 Q636 49 649 45.5 Q662 42 677 42 Q685 42 691 42.5 Q697 43 704 43 L692 -3 Q641 -1 595 0 Q587 0 580 0 Q554 -22 537 -39 Q519 -59 509 -75 Q499 -91 495.5 -104 Q492 -117 492 -128 Q492 -151 502 -161 Q512 -171 529 -171 Q563 -171 592 -148 L613 -172 Z M297 304 L447 304 L429 519 L297 304 Z " />
<glyph glyph-name="AE" unicode="&#xc6;" horiz-adv-x="1072" d="M1056 545 L1001 545 Q1006 558 1010 571 Q1014 584 1014 598 Q1014 621 1004.5 633.5 Q995 646 980 651.5 Q965 657 947 658 Q929 659 911 659 L797 659 L745 402 L777 402 Q810 402 843.5 403.5 Q877 405 910 412 Q931 417 940.5 429.5 Q950 442 953 465 L998 465 Q986 420 978 377.5 Q970 335 963 290 L917 291 Q919 299 920.5 306.5 Q922 314 922 322 Q922 334 916 340.5 Q910 347 900.5 350.5 Q891 354 879.5 355 Q868 356 858 356 L736 356 Q728 320 721 282.5 Q714 245 706 209 Q700 180 694 151.5 Q688 123 688 94 Q688 77 694 66 Q700 55 717 49 Q722 47 731 46 Q740 45 749.5 44 Q759 43 768.5 43 Q778 43 784 43 Q806 43 827.5 44.5 Q849 46 871 51 Q898 57 917 68.5 Q936 80 948.5 97 Q961 114 968.5 136 Q976 158 982 185 L1033 185 Q1028 159 1022 133.5 Q1016 108 1011 83 Q1006 63 1003 42 Q1000 21 996 -1 Q910 -1 827 -0.5 Q744 0 659 0 L504 0 Q483 0 462 -0.5 Q441 -1 418 -2 L427 45 L430 45 Q439 45 450.5 45 Q462 45 473.5 46.5 Q485 48 495.5 50.5 Q506 53 513 58 Q526 67 535 86 Q544 105 550.5 127 Q557 149 561 170.5 Q565 192 568 207 L598 354 L413 354 Q366 297 323 240 Q280 183 235 126 Q231 121 224.5 114 Q218 107 212 99 Q206 91 202 83.5 Q198 76 198 69 Q198 55 208 48.5 Q218 42 230 42 Q238 42 245.5 42.5 Q253 43 263 44 L247 -4 Q219 -2 191.5 -1 Q164 0 137 0 Q102 0 66.5 -1 Q31 -2 -1 -4 L7 41 Q28 43 43.5 49.5 Q59 56 80 71 Q140 113 187 169 Q234 225 279 281 L514 570 Q531 590 543 608.5 Q555 627 555 639 Q555 662 514 662 L471 662 L480 708 Q524 707 587 706.5 Q650 706 747 706 Q782 706 814.5 706 Q847 706 885 706 Q923 706 972 706 Q1021 706 1089 707 L1056 545 Z M656 665 Q635 636 614 608 Q593 580 568.5 548.5 Q544 517 515 480.5 Q486 444 449 399 L607 399 L666 665 L656 665 Z " />
<glyph glyph-name="Cacute" unicode="&#x106;" horiz-adv-x="739" d="M745 532 L695 533 Q698 541 699 545.5 Q700 550 700 557 Q700 576 688 593.5 Q676 611 662 623 Q630 651 590 663 Q550 675 508 675 Q443 675 391 645 Q339 615 302 567 Q265 519 245 459 Q225 399 225 340 Q225 295 235 250.5 Q245 206 265.5 167.5 Q286 129 318.5 99.5 Q351 70 396 55 Q414 49 433 45.5 Q452 42 472 42 Q494 42 518.5 46.5 Q543 51 567 60 Q591 69 612 81.5 Q633 94 647 111 Q655 119 660 127.5 Q665 136 670 147 L711 152 L689 35 Q632 15 574.5 -1.5 Q517 -18 456 -18 Q378 -18 309.5 10.5 Q241 39 190.5 89.5 Q140 140 111 208 Q82 276 82 355 Q82 409 97 459.5 Q112 510 140.5 553 Q169 596 208.5 630.5 Q248 665 298 687 Q346 708 397.5 716 Q449 724 501 724 Q571 724 638.5 709.5 Q706 695 773 678 L745 532 Z M701 910 Q674 879 650.5 858 Q627 837 602 821.5 Q577 806 549 794 Q521 782 484 769 L454 801 Q479 817 496.5 831 Q514 845 527.5 861.5 Q541 878 551.5 897.5 Q562 917 573 944 Q607 932 635.5 924 Q664 916 701 910 Z " />
<glyph glyph-name="Ccaron" unicode="&#x10c;" horiz-adv-x="739" d="M745 532 L695 533 Q698 541 699 545.5 Q700 550 700 557 Q700 576 688 593.5 Q676 611 662 623 Q630 651 590 663 Q550 675 508 675 Q443 675 391 645 Q339 615 302 567 Q265 519 245 459 Q225 399 225 340 Q225 295 235 250.5 Q245 206 265.5 167.5 Q286 129 318.5 99.5 Q351 70 396 55 Q414 49 433 45.5 Q452 42 472 42 Q494 42 518.5 46.5 Q543 51 567 60 Q591 69 612 81.5 Q633 94 647 111 Q655 119 660 127.5 Q665 136 670 147 L711 152 L689 35 Q632 15 574.5 -1.5 Q517 -18 456 -18 Q378 -18 309.5 10.5 Q241 39 190.5 89.5 Q140 140 111 208 Q82 276 82 355 Q82 409 97 459.5 Q112 510 140.5 553 Q169 596 208.5 630.5 Q248 665 298 687 Q346 708 397.5 716 Q449 724 501 724 Q571 724 638.5 709.5 Q706 695 773 678 L745 532 Z M764 905 Q739 896 712.5 881 Q686 866 661.5 847.5 Q637 829 617 807.5 Q597 786 585 763 L474 763 Q485 793 485 818 Q485 844 475 869 Q465 894 448 916 L486 946 Q509 933 528 911.5 Q547 890 561 868 Q596 897 638.5 915.5 Q681 934 724 950 L764 905 L764 905 Z " />
<glyph glyph-name="Ccedilla" unicode="&#xc7;" horiz-adv-x="739" d="M745 532 L695 533 Q698 541 699 545.5 Q700 550 700 557 Q700 576 688 593.5 Q676 611 662 623 Q630 651 590 663 Q550 675 508 675 Q443 675 391 645 Q339 615 302 567 Q265 519 245 459 Q225 399 225 340 Q225 295 235 250.5 Q245 206 265.5 167.5 Q286 129 318.5 99.5 Q351 70 396 55 Q414 49 433 45.5 Q452 42 472 42 Q494 42 518.5 46.5 Q543 51 567 60 Q591 69 612 81.5 Q633 94 647 111 Q655 119 660 127.5 Q665 136 670 147 L711 152 L689 35 Q632 15 574.5 -1.5 Q517 -18 456 -18 Q378 -18 309.5 10.5 Q241 39 190.5 89.5 Q140 140 111 208 Q82 276 82 355 Q82 409 97 459.5 Q112 510 140.5 553 Q169 596 208.5 630.5 Q248 665 298 687 Q346 708 397.5 716 Q449 724 501 724 Q571 724 638.5 709.5 Q706 695 773 678 L745 532 Z M472 -57 Q472 -71 468.5 -88 Q465 -105 456 -120 Q441 -146 423.5 -163.5 Q406 -181 386 -194.5 Q366 -208 343 -217.5 Q320 -227 293 -236 L274 -211 Q301 -187 317 -159 Q333 -131 333 -90 Q369 -81 402.5 -69 Q436 -57 470 -41 Q472 -46 472 -49 Q472 -52 472 -57 Z " />
<glyph glyph-name="Dcaron" unicode="&#x10e;" horiz-adv-x="843" d="M854 418 Q854 316 806.5 229.5 Q759 143 679 82 Q655 64 630.5 49.5 Q606 35 577 24 Q532 7 490 2 Q448 -3 401 -3 Q345 -3 289.5 -1.5 Q234 0 178 0 Q135 0 92.5 -1 Q50 -2 5 -4 L12 44 L45 44 Q70 44 86 63 Q93 72 99 88.5 Q105 105 109.5 123 Q114 141 117.5 158.5 Q121 176 123 188 L190 527 Q197 561 199.5 579.5 Q202 598 202 618 Q202 638 190.5 648.5 Q179 659 160 659 Q151 659 140 659 Q129 659 118 658 L129 708 Q142 708 170.5 707.5 Q199 707 230 706.5 Q261 706 289 706 Q317 706 329 706 L432 706 Q487 706 541.5 703.5 Q596 701 645.5 688 Q695 675 737.5 648 Q780 621 812 572 Q834 538 844 498 Q854 458 854 418 Z M700 406 Q700 490 658.5 550.5 Q617 611 537 638 Q507 649 472.5 652 Q438 655 406 655 Q393 655 380 655 Q367 655 354 654 Q331 535 306.5 419 Q282 303 259 184 Q255 165 252 147 Q249 129 249 110 Q249 72 271.5 58 Q294 44 336 44 L363 44 Q409 44 444 51.5 Q479 59 520 80 Q565 103 598.5 138.5 Q632 174 654.5 217 Q677 260 688.5 308.5 Q700 357 700 406 Z M719 905 Q694 896 667.5 881 Q641 866 616.5 847.5 Q592 829 572 807.5 Q552 786 540 763 L429 763 Q440 793 440 818 Q440 844 430 869 Q420 894 403 916 L441 946 Q464 933 483 911.5 Q502 890 516 868 Q551 897 593.5 915.5 Q636 934 679 950 L719 905 L719 905 Z " />
<glyph glyph-name="Dcroat" unicode="&#x110;" horiz-adv-x="843" d="M59 332 L70 390 L485 390 L474 332 L59 332 Z M854 418 Q854 316 806.5 229.5 Q759 143 679 82 Q655 64 630.5 49.5 Q606 35 577 24 Q532 7 490 2 Q448 -3 401 -3 Q345 -3 289.5 -1.5 Q234 0 178 0 Q135 0 92.5 -1 Q50 -2 5 -4 L12 44 L45 44 Q70 44 86 63 Q93 72 99 88.5 Q105 105 109.5 123 Q114 141 117.5 158.5 Q121 176 123 188 L190 527 Q197 561 199.5 579.5 Q202 598 202 618 Q202 638 190.5 648.5 Q179 659 160 659 Q151 659 140 659 Q129 659 118 658 L129 708 Q142 708 170.5 707.5 Q199 707 230 706.5 Q261 706 289 706 Q317 706 329 706 L432 706 Q487 706 541.5 703.5 Q596 701 645.5 688 Q695 675 737.5 648 Q780 621 812 572 Q834 538 844 498 Q854 458 854 418 Z M700 406 Q700 490 658.5 550.5 Q617 611 537 638 Q507 649 472.5 652 Q438 655 406 655 Q393 655 380 655 Q367 655 354 654 Q331 535 306.5 419 Q282 303 259 184 Q255 165 252 147 Q249 129 249 110 Q249 72 271.5 58 Q294 44 336 44 L363 44 Q409 44 444 51.5 Q479 59 520 80 Q565 103 598.5 138.5 Q632 174 654.5 217 Q677 260 688.5 308.5 Q700 357 700 406 Z " />
<glyph glyph-name="Egrave" unicode="&#xc8;" horiz-adv-x="635" d="M652 714 Q644 671 636 630 Q628 589 620 546 L567 546 Q571 560 573.5 573 Q576 586 576 600 Q576 624 566.5 636.5 Q557 649 541.5 655 Q526 661 506.5 661.5 Q487 662 468 662 L355 662 L305 410 L340 410 Q354 410 375 410.5 Q396 411 418 413 Q440 415 459.5 419.5 Q479 424 490 432 Q504 441 508 452.5 Q512 464 517 478 L559 477 Q545 430 535.5 388 Q526 346 526 298 L482 298 Q482 305 482.5 310.5 Q483 316 483 321 Q483 337 473.5 345.5 Q464 354 450.5 358.5 Q437 363 421 364 Q405 365 393 365 Q372 365 346 364.5 Q320 364 296 361 L263 197 Q261 186 258 172 Q255 158 252.5 144 Q250 130 248 117.5 Q246 105 246 96 Q246 79 256.5 65 Q267 51 287 48 Q306 45 327 44 Q348 43 373 43 Q390 43 408 43.5 Q426 44 443 49 Q492 62 515 97.5 Q538 133 548 181 L596 180 Q586 133 578.5 88 Q571 43 564 -4 Q498 -2 434 -1 Q370 0 306 0 Q231 0 156 -1 Q81 -2 4 -5 L13 39 L29 39 Q49 39 64 44 Q79 49 90 66 Q96 74 101 89 Q106 104 110 120.5 Q114 137 117 152.5 Q120 168 122 178 L195 548 Q199 567 202.5 585.5 Q206 604 206 624 Q206 643 194 652 Q182 661 163 663 Q153 663 143 662.5 Q133 662 120 662 L128 708 Q144 708 160.5 707.5 Q177 707 198.5 706.5 Q220 706 247.5 706 Q275 706 314 706 L405 706 Q448 706 482.5 706.5 Q517 707 546.5 708 Q576 709 601 710.5 Q626 712 652 714 Z M488 768 Q448 780 416.5 795.5 Q385 811 359 829 Q333 847 311 868 Q289 889 268 912 Q305 919 336 927.5 Q367 936 401 948 Q411 924 421.5 905 Q432 886 445.5 869 Q459 852 477 836 Q495 820 521 803 L488 768 Z " />
<glyph glyph-name="Eacute" unicode="&#xc9;" horiz-adv-x="635" d="M652 714 Q644 671 636 630 Q628 589 620 546 L567 546 Q571 560 573.5 573 Q576 586 576 600 Q576 624 566.5 636.5 Q557 649 541.5 655 Q526 661 506.5 661.5 Q487 662 468 662 L355 662 L305 410 L340 410 Q354 410 375 410.5 Q396 411 418 413 Q440 415 459.5 419.5 Q479 424 490 432 Q504 441 508 452.5 Q512 464 517 478 L559 477 Q545 430 535.5 388 Q526 346 526 298 L482 298 Q482 305 482.5 310.5 Q483 316 483 321 Q483 337 473.5 345.5 Q464 354 450.5 358.5 Q437 363 421 364 Q405 365 393 365 Q372 365 346 364.5 Q320 364 296 361 L263 197 Q261 186 258 172 Q255 158 252.5 144 Q250 130 248 117.5 Q246 105 246 96 Q246 79 256.5 65 Q267 51 287 48 Q306 45 327 44 Q348 43 373 43 Q390 43 408 43.5 Q426 44 443 49 Q492 62 515 97.5 Q538 133 548 181 L596 180 Q586 133 578.5 88 Q571 43 564 -4 Q498 -2 434 -1 Q370 0 306 0 Q231 0 156 -1 Q81 -2 4 -5 L13 39 L29 39 Q49 39 64 44 Q79 49 90 66 Q96 74 101 89 Q106 104 110 120.5 Q114 137 117 152.5 Q120 168 122 178 L195 548 Q199 567 202.5 585.5 Q206 604 206 624 Q206 643 194 652 Q182 661 163 663 Q153 663 143 662.5 Q133 662 120 662 L128 708 Q144 708 160.5 707.5 Q177 707 198.5 706.5 Q220 706 247.5 706 Q275 706 314 706 L405 706 Q448 706 482.5 706.5 Q517 707 546.5 708 Q576 709 601 710.5 Q626 712 652 714 Z M613 910 Q586 879 562.5 858 Q539 837 514 821.5 Q489 806 461 794 Q433 782 396 769 L366 801 Q391 817 408.5 831 Q426 845 439.5 861.5 Q453 878 463.5 897.5 Q474 917 485 944 Q519 932 547.5 924 Q576 916 613 910 Z " />
<glyph glyph-name="Ecircumflex" unicode="&#xca;" horiz-adv-x="635" d="M652 714 Q644 671 636 630 Q628 589 620 546 L567 546 Q571 560 573.5 573 Q576 586 576 600 Q576 624 566.5 636.5 Q557 649 541.5 655 Q526 661 506.5 661.5 Q487 662 468 662 L355 662 L305 410 L340 410 Q354 410 375 410.5 Q396 411 418 413 Q440 415 459.5 419.5 Q479 424 490 432 Q504 441 508 452.5 Q512 464 517 478 L559 477 Q545 430 535.5 388 Q526 346 526 298 L482 298 Q482 305 482.5 310.5 Q483 316 483 321 Q483 337 473.5 345.5 Q464 354 450.5 358.5 Q437 363 421 364 Q405 365 393 365 Q372 365 346 364.5 Q320 364 296 361 L263 197 Q261 186 258 172 Q255 158 252.5 144 Q250 130 248 117.5 Q246 105 246 96 Q246 79 256.5 65 Q267 51 287 48 Q306 45 327 44 Q348 43 373 43 Q390 43 408 43.5 Q426 44 443 49 Q492 62 515 97.5 Q538 133 548 181 L596 180 Q586 133 578.5 88 Q571 43 564 -4 Q498 -2 434 -1 Q370 0 306 0 Q231 0 156 -1 Q81 -2 4 -5 L13 39 L29 39 Q49 39 64 44 Q79 49 90 66 Q96 74 101 89 Q106 104 110 120.5 Q114 137 117 152.5 Q120 168 122 178 L195 548 Q199 567 202.5 585.5 Q206 604 206 624 Q206 643 194 652 Q182 661 163 663 Q153 663 143 662.5 Q133 662 120 662 L128 708 Q144 708 160.5 707.5 Q177 707 198.5 706.5 Q220 706 247.5 706 Q275 706 314 706 L405 706 Q448 706 482.5 706.5 Q517 707 546.5 708 Q576 709 601 710.5 Q626 712 652 714 Z M555 763 Q532 783 513.5 800 Q495 817 479 843 Q471 837 463.5 831 Q456 825 447 819 Q416 800 383 786.5 Q350 773 316 760 L277 804 Q290 810 302 815.5 Q314 821 325 827 Q364 848 398.5 878.5 Q433 909 456 948 L566 948 Q561 933 558.5 920.5 Q556 908 556 895 Q556 865 565.5 842.5 Q575 820 593 795 L555 763 Z " />
<glyph glyph-name="Ecaron" unicode="&#x11a;" horiz-adv-x="635" d="M652 714 Q644 671 636 630 Q628 589 620 546 L567 546 Q571 560 573.5 573 Q576 586 576 600 Q576 624 566.5 636.5 Q557 649 541.5 655 Q526 661 506.5 661.5 Q487 662 468 662 L355 662 L305 410 L340 410 Q354 410 375 410.5 Q396 411 418 413 Q440 415 459.5 419.5 Q479 424 490 432 Q504 441 508 452.5 Q512 464 517 478 L559 477 Q545 430 535.5 388 Q526 346 526 298 L482 298 Q482 305 482.5 310.5 Q483 316 483 321 Q483 337 473.5 345.5 Q464 354 450.5 358.5 Q437 363 421 364 Q405 365 393 365 Q372 365 346 364.5 Q320 364 296 361 L263 197 Q261 186 258 172 Q255 158 252.5 144 Q250 130 248 117.5 Q246 105 246 96 Q246 79 256.5 65 Q267 51 287 48 Q306 45 327 44 Q348 43 373 43 Q390 43 408 43.5 Q426 44 443 49 Q492 62 515 97.5 Q538 133 548 181 L596 180 Q586 133 578.5 88 Q571 43 564 -4 Q498 -2 434 -1 Q370 0 306 0 Q231 0 156 -1 Q81 -2 4 -5 L13 39 L29 39 Q49 39 64 44 Q79 49 90 66 Q96 74 101 89 Q106 104 110 120.5 Q114 137 117 152.5 Q120 168 122 178 L195 548 Q199 567 202.5 585.5 Q206 604 206 624 Q206 643 194 652 Q182 661 163 663 Q153 663 143 662.5 Q133 662 120 662 L128 708 Q144 708 160.5 707.5 Q177 707 198.5 706.5 Q220 706 247.5 706 Q275 706 314 706 L405 706 Q448 706 482.5 706.5 Q517 707 546.5 708 Q576 709 601 710.5 Q626 712 652 714 Z M653 905 Q628 896 601.5 881 Q575 866 550.5 847.5 Q526 829 506 807.5 Q486 786 474 763 L363 763 Q374 793 374 818 Q374 844 364 869 Q354 894 337 916 L375 946 Q398 933 417 911.5 Q436 890 450 868 Q485 897 527.5 915.5 Q570 934 613 950 L653 905 L653 905 Z " />
<glyph glyph-name="Edieresis" unicode="&#xcb;" horiz-adv-x="635" d="M652 714 Q644 671 636 630 Q628 589 620 546 L567 546 Q571 560 573.5 573 Q576 586 576 600 Q576 624 566.5 636.5 Q557 649 541.5 655 Q526 661 506.5 661.5 Q487 662 468 662 L355 662 L305 410 L340 410 Q354 410 375 410.5 Q396 411 418 413 Q440 415 459.5 419.5 Q479 424 490 432 Q504 441 508 452.5 Q512 464 517 478 L559 477 Q545 430 535.5 388 Q526 346 526 298 L482 298 Q482 305 482.5 310.5 Q483 316 483 321 Q483 337 473.5 345.5 Q464 354 450.5 358.5 Q437 363 421 364 Q405 365 393 365 Q372 365 346 364.5 Q320 364 296 361 L263 197 Q261 186 258 172 Q255 158 252.5 144 Q250 130 248 117.5 Q246 105 246 96 Q246 79 256.5 65 Q267 51 287 48 Q306 45 327 44 Q348 43 373 43 Q390 43 408 43.5 Q426 44 443 49 Q492 62 515 97.5 Q538 133 548 181 L596 180 Q586 133 578.5 88 Q571 43 564 -4 Q498 -2 434 -1 Q370 0 306 0 Q231 0 156 -1 Q81 -2 4 -5 L13 39 L29 39 Q49 39 64 44 Q79 49 90 66 Q96 74 101 89 Q106 104 110 120.5 Q114 137 117 152.5 Q120 168 122 178 L195 548 Q199 567 202.5 585.5 Q206 604 206 624 Q206 643 194 652 Q182 661 163 663 Q153 663 143 662.5 Q133 662 120 662 L128 708 Q144 708 160.5 707.5 Q177 707 198.5 706.5 Q220 706 247.5 706 Q275 706 314 706 L405 706 Q448 706 482.5 706.5 Q517 707 546.5 708 Q576 709 601 710.5 Q626 712 652 714 Z M392 870 Q392 834 367 809 Q342 784 309 784 Q287 784 270 798 Q253 812 253 835 Q253 873 278.5 899 Q304 925 338 925 Q362 925 377 909 Q392 893 392 870 Z M612 870 Q612 834 587 809 Q562 784 529 784 Q507 784 490 798 Q473 812 473 835 Q473 873 498.5 899 Q524 925 558 925 Q582 925 597 909 Q612 893 612 870 Z " />
<glyph glyph-name="Emacron" unicode="&#x112;" horiz-adv-x="635" d="M652 714 Q644 671 636 630 Q628 589 620 546 L567 546 Q571 560 573.5 573 Q576 586 576 600 Q576 624 566.5 636.5 Q557 649 541.5 655 Q526 661 506.5 661.5 Q487 662 468 662 L355 662 L305 410 L340 410 Q354 410 375 410.5 Q396 411 418 413 Q440 415 459.5 419.5 Q479 424 490 432 Q504 441 508 452.5 Q512 464 517 478 L559 477 Q545 430 535.5 388 Q526 346 526 298 L482 298 Q482 305 482.5 310.5 Q483 316 483 321 Q483 337 473.5 345.5 Q464 354 450.5 358.5 Q437 363 421 364 Q405 365 393 365 Q372 365 346 364.5 Q320 364 296 361 L263 197 Q261 186 258 172 Q255 158 252.5 144 Q250 130 248 117.5 Q246 105 246 96 Q246 79 256.5 65 Q267 51 287 48 Q306 45 327 44 Q348 43 373 43 Q390 43 408 43.5 Q426 44 443 49 Q492 62 515 97.5 Q538 133 548 181 L596 180 Q586 133 578.5 88 Q571 43 564 -4 Q498 -2 434 -1 Q370 0 306 0 Q231 0 156 -1 Q81 -2 4 -5 L13 39 L29 39 Q49 39 64 44 Q79 49 90 66 Q96 74 101 89 Q106 104 110 120.5 Q114 137 117 152.5 Q120 168 122 178 L195 548 Q199 567 202.5 585.5 Q206 604 206 624 Q206 643 194 652 Q182 661 163 663 Q153 663 143 662.5 Q133 662 120 662 L128 708 Q144 708 160.5 707.5 Q177 707 198.5 706.5 Q220 706 247.5 706 Q275 706 314 706 L405 706 Q448 706 482.5 706.5 Q517 707 546.5 708 Q576 709 601 710.5 Q626 712 652 714 Z M268 812 L268 896 L602 896 L602 812 L268 812 Z " />
<glyph glyph-name="Edotaccent" unicode="&#x116;" horiz-adv-x="635" d="M652 714 Q644 671 636 630 Q628 589 620 546 L567 546 Q571 560 573.5 573 Q576 586 576 600 Q576 624 566.5 636.5 Q557 649 541.5 655 Q526 661 506.5 661.5 Q487 662 468 662 L355 662 L305 410 L340 410 Q354 410 375 410.5 Q396 411 418 413 Q440 415 459.5 419.5 Q479 424 490 432 Q504 441 508 452.5 Q512 464 517 478 L559 477 Q545 430 535.5 388 Q526 346 526 298 L482 298 Q482 305 482.5 310.5 Q483 316 483 321 Q483 337 473.5 345.5 Q464 354 450.5 358.5 Q437 363 421 364 Q405 365 393 365 Q372 365 346 364.5 Q320 364 296 361 L263 197 Q261 186 258 172 Q255 158 252.5 144 Q250 130 248 117.5 Q246 105 246 96 Q246 79 256.5 65 Q267 51 287 48 Q306 45 327 44 Q348 43 373 43 Q390 43 408 43.5 Q426 44 443 49 Q492 62 515 97.5 Q538 133 548 181 L596 180 Q586 133 578.5 88 Q571 43 564 -4 Q498 -2 434 -1 Q370 0 306 0 Q231 0 156 -1 Q81 -2 4 -5 L13 39 L29 39 Q49 39 64 44 Q79 49 90 66 Q96 74 101 89 Q106 104 110 120.5 Q114 137 117 152.5 Q120 168 122 178 L195 548 Q199 567 202.5 585.5 Q206 604 206 624 Q206 643 194 652 Q182 661 163 663 Q153 663 143 662.5 Q133 662 120 662 L128 708 Q144 708 160.5 707.5 Q177 707 198.5 706.5 Q220 706 247.5 706 Q275 706 314 706 L405 706 Q448 706 482.5 706.5 Q517 707 546.5 708 Q576 709 601 710.5 Q626 712 652 714 Z M518 859 Q518 823 493 798 Q468 773 435 773 Q413 773 396 787 Q379 801 379 824 Q379 862 404.5 888 Q430 914 464 914 Q488 914 503 898 Q518 882 518 859 Z " />
<glyph glyph-name="Eogonek" unicode="&#x118;" horiz-adv-x="635" d="M555 -172 Q547 -182 534 -190.5 Q521 -199 505.5 -205.5 Q490 -212 472.5 -216 Q455 -220 439 -220 Q393 -220 364.5 -201.5 Q336 -183 336 -137 Q336 -111 352 -87.5 Q368 -64 391.5 -45 Q415 -26 440 -13 Q455 -6 468 -1 Q451 -1 434 -1 Q370 0 306 0 Q231 0 156 -1 Q81 -2 4 -5 L13 39 L29 39 Q49 39 64 44 Q79 49 90 66 Q96 74 101 89 Q106 104 110 120.5 Q114 137 117 152.5 Q120 168 122 178 L195 548 Q199 567 202.5 585.5 Q206 604 206 624 Q206 643 194 652 Q182 661 163 663 Q153 663 143 662.5 Q133 662 120 662 L128 708 Q144 708 160.5 707.5 Q177 707 198.5 706.5 Q220 706 247 706 L405 706 Q448 706 482.5 706.5 Q517 707 546.5 708 Q576 709 601 710.5 Q626 712 652 714 Q644 671 636 630 Q628 589 620 546 L567 546 Q571 560 573.5 573 Q576 586 576 600 Q576 624 566.5 636.5 Q557 649 541.5 655 Q526 661 506.5 661.5 Q487 662 468 662 L355 662 L305 410 L340 410 Q354 410 375 410.5 Q396 411 418 413 Q440 415 459.5 419.5 Q479 424 490 432 Q504 441 508 452.5 Q512 464 517 478 L559 477 Q545 430 535.5 388 Q526 346 526 298 L482 298 Q482 305 482.5 310.5 Q483 316 483 321 Q483 337 473.5 345.5 Q464 354 450.5 358.5 Q437 363 421 364 Q405 365 393 365 Q372 365 346 364.5 Q320 364 296 361 L263 197 Q261 186 258 172 Q255 158 252.5 144 Q250 130 248 117.5 Q246 105 246 96 Q246 79 256.5 65 Q267 51 287 48 Q306 45 327 44 Q348 43 373 43 Q390 43 408 43.5 Q426 44 443 49 Q492 62 515 97.5 Q538 133 548 181 L596 180 Q586 133 578.5 88 Q571 43 564 -4 Q541 -3 519 -2 Q495 -22 479 -39 Q461 -59 451 -75 Q441 -91 437.5 -104 Q434 -117 434 -128 Q434 -151 444 -161 Q454 -171 471 -171 Q505 -171 534 -148 L555 -172 Z " />
<glyph glyph-name="Gbreve" unicode="&#x11e;" horiz-adv-x="864" d="M848 296 Q842 296 838 296.5 Q834 297 829 297 Q799 297 785 271 Q781 264 777 250.5 Q773 237 770 221 L737 27 Q666 8 596 -5 Q526 -18 454 -18 Q394 -18 335 -0.5 Q276 17 226 52 Q206 66 189 83.5 Q172 101 158 119 Q118 170 98.5 225 Q79 280 79 345 Q79 374 84 402 Q89 430 98 458 Q121 528 163 578.5 Q205 629 260 661 Q315 693 380 708.5 Q445 724 516 724 Q599 724 678 706.5 Q757 689 838 666 L813 517 L765 517 L765 539 Q765 562 754 581.5 Q743 601 726 616 Q692 647 646.5 657.5 Q601 668 556 668 Q487 668 427 643 Q367 618 322 574.5 Q277 531 251.5 471.5 Q226 412 226 343 Q226 269 256.5 198.5 Q287 128 347 84 Q379 61 419.5 51.5 Q460 42 499 42 Q532 42 557.5 48.5 Q583 55 612 69 L633 212 Q635 230 636.5 238.5 Q638 247 638 255 Q638 280 625 288.5 Q612 297 592 299 Q585 300 578 300 Q571 300 563 300 L571 347 Q627 344 678 342.5 Q729 341 765 341 Q799 341 818 341.5 Q837 342 854 344 L848 296 Z M746 922 Q728 880 709.5 853 Q691 826 671 810.5 Q651 795 628.5 789.5 Q606 784 580 784 Q554 784 531.5 789.5 Q509 795 489 810.5 Q469 826 450.5 853 Q432 880 414 922 L442 936 Q462 907 500 892.5 Q538 878 580 878 Q622 878 660 892.5 Q698 907 718 936 L746 922 L746 922 Z " />
<glyph glyph-name="Gcommaaccent" unicode="&#x122;" horiz-adv-x="864" d="M848 296 Q842 296 838 296.5 Q834 297 829 297 Q799 297 785 271 Q781 264 777 250.5 Q773 237 770 221 L737 27 Q666 8 596 -5 Q526 -18 454 -18 Q394 -18 335 -0.5 Q276 17 226 52 Q206 66 189 83.5 Q172 101 158 119 Q118 170 98.5 225 Q79 280 79 345 Q79 374 84 402 Q89 430 98 458 Q121 528 163 578.5 Q205 629 260 661 Q315 693 380 708.5 Q445 724 516 724 Q599 724 678 706.5 Q757 689 838 666 L813 517 L765 517 L765 539 Q765 562 754 581.5 Q743 601 726 616 Q692 647 646.5 657.5 Q601 668 556 668 Q487 668 427 643 Q367 618 322 574.5 Q277 531 251.5 471.5 Q226 412 226 343 Q226 269 256.5 198.5 Q287 128 347 84 Q379 61 419.5 51.5 Q460 42 499 42 Q532 42 557.5 48.5 Q583 55 612 69 L633 212 Q635 230 636.5 238.5 Q638 247 638 255 Q638 280 625 288.5 Q612 297 592 299 Q585 300 578 300 Q571 300 563 300 L571 347 Q627 344 678 342.5 Q729 341 765 341 Q799 341 818 341.5 Q837 342 854 344 L848 296 Z M491 -55 Q491 -89 474 -120 Q460 -146 443 -164 Q426 -182 405.5 -195 Q385 -208 361.5 -217.5 Q338 -227 311 -236 L292 -211 Q322 -185 336.5 -160 Q351 -135 351 -95 L351 -90 Q387 -81 420.5 -69 Q454 -57 488 -41 Q491 -52 491 -55 Z " />
<glyph glyph-name="Igrave" unicode="&#xcc;" horiz-adv-x="364" d="M437 665 Q426 665 411.5 664.5 Q397 664 383 658 Q367 651 356.5 633.5 Q346 616 340 595 Q334 574 330.5 553.5 Q327 533 324 520 L257 180 Q252 159 248 134 Q244 109 244 95 Q244 75 251 64.5 Q258 54 269.5 49 Q281 44 296.5 43 Q312 42 329 42 L323 -4 Q291 -2 260 -1 Q229 0 198 0 Q150 0 102 -1.5 Q54 -3 4 -5 L12 40 L29 40 Q46 40 60 43.5 Q74 47 85 60 Q92 69 96.5 81.5 Q101 94 105 107.5 Q109 121 111.5 134.5 Q114 148 116 159 L193 547 Q197 566 201 585.5 Q205 605 205 624 Q205 651 187.5 657.5 Q170 664 148 664 L117 664 L126 710 Q164 708 199.5 707 Q235 706 271 706 Q314 706 357 707.5 Q400 709 445 711 L437 665 Z M358 768 Q318 780 286.5 795.5 Q255 811 229 829 Q203 847 181 868 Q159 889 138 912 Q175 919 206 927.5 Q237 936 271 948 Q281 924 291.5 905 Q302 886 315.5 869 Q329 852 347 836 Q365 820 391 803 L358 768 Z " />
<glyph glyph-name="Iacute" unicode="&#xcd;" horiz-adv-x="364" d="M437 665 Q426 665 411.5 664.5 Q397 664 383 658 Q367 651 356.5 633.5 Q346 616 340 595 Q334 574 330.5 553.5 Q327 533 324 520 L257 180 Q252 159 248 134 Q244 109 244 95 Q244 75 251 64.5 Q258 54 269.5 49 Q281 44 296.5 43 Q312 42 329 42 L323 -4 Q291 -2 260 -1 Q229 0 198 0 Q150 0 102 -1.5 Q54 -3 4 -5 L12 40 L29 40 Q46 40 60 43.5 Q74 47 85 60 Q92 69 96.5 81.5 Q101 94 105 107.5 Q109 121 111.5 134.5 Q114 148 116 159 L193 547 Q197 566 201 585.5 Q205 605 205 624 Q205 651 187.5 657.5 Q170 664 148 664 L117 664 L126 710 Q164 708 199.5 707 Q235 706 271 706 Q314 706 357 707.5 Q400 709 445 711 L437 665 Z M465 910 Q438 879 414.5 858 Q391 837 366 821.5 Q341 806 313 794 Q285 782 248 769 L218 801 Q243 817 260.5 831 Q278 845 291.5 861.5 Q305 878 315.5 897.5 Q326 917 337 944 Q371 932 399.5 924 Q428 916 465 910 Z " />
<glyph glyph-name="Icircumflex" unicode="&#xce;" horiz-adv-x="364" d="M437 665 Q426 665 411.5 664.5 Q397 664 383 658 Q367 651 356.5 633.5 Q346 616 340 595 Q334 574 330.5 553.5 Q327 533 324 520 L257 180 Q252 159 248 134 Q244 109 244 95 Q244 75 251 64.5 Q258 54 269.5 49 Q281 44 296.5 43 Q312 42 329 42 L323 -4 Q291 -2 260 -1 Q229 0 198 0 Q150 0 102 -1.5 Q54 -3 4 -5 L12 40 L29 40 Q46 40 60 43.5 Q74 47 85 60 Q92 69 96.5 81.5 Q101 94 105 107.5 Q109 121 111.5 134.5 Q114 148 116 159 L193 547 Q197 566 201 585.5 Q205 605 205 624 Q205 651 187.5 657.5 Q170 664 148 664 L117 664 L126 710 Q164 708 199.5 707 Q235 706 271 706 Q314 706 357 707.5 Q400 709 445 711 L437 665 Z M419 763 Q396 783 377.5 800 Q359 817 343 843 Q335 837 327.5 831 Q320 825 311 819 Q280 800 247 786.5 Q214 773 180 760 L141 804 Q154 810 166 815.5 Q178 821 189 827 Q228 848 262.5 878.5 Q297 909 320 948 L430 948 Q425 933 422.5 920.5 Q420 908 420 895 Q420 865 429.5 842.5 Q439 820 457 795 L419 763 Z " />
<glyph glyph-name="Idieresis" unicode="&#xcf;" horiz-adv-x="364" d="M437 665 Q426 665 411.5 664.5 Q397 664 383 658 Q367 651 356.5 633.5 Q346 616 340 595 Q334 574 330.5 553.5 Q327 533 324 520 L257 180 Q252 159 248 134 Q244 109 244 95 Q244 75 251 64.5 Q258 54 269.5 49 Q281 44 296.5 43 Q312 42 329 42 L323 -4 Q291 -2 260 -1 Q229 0 198 0 Q150 0 102 -1.5 Q54 -3 4 -5 L12 40 L29 40 Q46 40 60 43.5 Q74 47 85 60 Q92 69 96.5 81.5 Q101 94 105 107.5 Q109 121 111.5 134.5 Q114 148 116 159 L193 547 Q197 566 201 585.5 Q205 605 205 624 Q205 651 187.5 657.5 Q170 664 148 664 L117 664 L126 710 Q164 708 199.5 707 Q235 706 271 706 Q314 706 357 707.5 Q400 709 445 711 L437 665 Z M272 870 Q272 834 247 809 Q222 784 189 784 Q167 784 150 798 Q133 812 133 835 Q133 873 158.5 899 Q184 925 218 925 Q242 925 257 909 Q272 893 272 870 Z M492 870 Q492 834 467 809 Q442 784 409 784 Q387 784 370 798 Q353 812 353 835 Q353 873 378.5 899 Q404 925 438 925 Q462 925 477 909 Q492 893 492 870 Z " />
<glyph glyph-name="Imacron" unicode="&#x12a;" horiz-adv-x="364" d="M437 665 Q426 665 411.5 664.5 Q397 664 383 658 Q367 651 356.5 633.5 Q346 616 340 595 Q334 574 330.5 553.5 Q327 533 324 520 L257 180 Q252 159 248 134 Q244 109 244 95 Q244 75 251 64.5 Q258 54 269.5 49 Q281 44 296.5 43 Q312 42 329 42 L323 -4 Q291 -2 260 -1 Q229 0 198 0 Q150 0 102 -1.5 Q54 -3 4 -5 L12 40 L29 40 Q46 40 60 43.5 Q74 47 85 60 Q92 69 96.5 81.5 Q101 94 105 107.5 Q109 121 111.5 134.5 Q114 148 116 159 L193 547 Q197 566 201 585.5 Q205 605 205 624 Q205 651 187.5 657.5 Q170 664 148 664 L117 664 L126 710 Q164 708 199.5 707 Q235 706 271 706 Q314 706 357 707.5 Q400 709 445 711 L437 665 Z M129 812 L129 896 L463 896 L463 812 L129 812 Z " />
<glyph glyph-name="Idotaccent" unicode="&#x130;" horiz-adv-x="364" d="M437 665 Q426 665 411.5 664.5 Q397 664 383 658 Q367 651 356.5 633.5 Q346 616 340 595 Q334 574 330.5 553.5 Q327 533 324 520 L257 180 Q252 159 248 134 Q244 109 244 95 Q244 75 251 64.5 Q258 54 269.5 49 Q281 44 296.5 43 Q312 42 329 42 L323 -4 Q291 -2 260 -1 Q229 0 198 0 Q150 0 102 -1.5 Q54 -3 4 -5 L12 40 L29 40 Q46 40 60 43.5 Q74 47 85 60 Q92 69 96.5 81.5 Q101 94 105 107.5 Q109 121 111.5 134.5 Q114 148 116 159 L193 547 Q197 566 201 585.5 Q205 605 205 624 Q205 651 187.5 657.5 Q170 664 148 664 L117 664 L126 710 Q164 708 199.5 707 Q235 706 271 706 Q314 706 357 707.5 Q400 709 445 711 L437 665 Z M383 859 Q383 823 358 798 Q333 773 300 773 Q278 773 261 787 Q244 801 244 824 Q244 862 269.5 888 Q295 914 329 914 Q353 914 368 898 Q383 882 383 859 Z " />
<glyph glyph-name="Iogonek" unicode="&#x12e;" horiz-adv-x="364" d="M233 -172 Q225 -182 212 -190.5 Q199 -199 183.5 -205.5 Q168 -212 150.5 -216 Q133 -220 117 -220 Q71 -220 42.5 -201.5 Q14 -183 14 -137 Q14 -111 30 -87.5 Q46 -64 69.5 -45 Q93 -26 118 -13 Q135 -5 148 0 Q125 -1 102 -1 Q54 -3 4 -5 L12 40 L29 40 Q46 40 60 43.5 Q74 47 85 60 Q92 69 96.5 81.5 Q101 94 105 107.5 Q109 121 111.5 134.5 Q114 148 116 159 L193 547 Q197 566 201 585.5 Q205 605 205 624 Q205 651 187.5 657.5 Q170 664 148 664 L117 664 L126 710 Q164 708 199.5 707 Q235 706 271 706 Q314 706 357 707.5 Q400 709 445 711 L437 665 Q426 665 411.5 664.5 Q397 664 383 658 Q367 651 356.5 633.5 Q346 616 340 595 Q334 574 330.5 553.5 Q327 533 324 520 L257 180 Q252 159 248 134 Q244 109 244 95 Q244 75 251 64.5 Q258 54 269.5 49 Q281 44 296.5 43 Q312 42 329 42 L323 -4 Q291 -2 260 -1 Q230 0 200 0 Q174 -22 157 -39 Q139 -59 129 -75 Q119 -91 115.5 -104 Q112 -117 112 -128 Q112 -151 122 -161 Q132 -171 149 -171 Q183 -171 212 -148 L233 -172 Z " />
<glyph glyph-name="Kcommaaccent" unicode="&#x136;" horiz-adv-x="760" d="M780 665 Q760 663 746.5 661 Q733 659 717 651 Q675 631 635.5 597.5 Q596 564 562 533 L467 447 L591 178 Q609 139 624 107 Q639 75 662 59 Q680 45 696 43.5 Q712 42 733 41 L729 -2 Q695 -1 660.5 -0.5 Q626 0 586 0 Q571 0 552 -0.5 Q533 -1 512.5 -1.5 Q492 -2 471.5 -2.5 Q451 -3 434 -4 L444 40 Q460 41 473 46 Q486 51 486 68 Q486 81 474.5 105 Q463 129 447 162 L354 357 L283 299 L257 167 Q253 147 249 127 Q245 107 245 87 Q245 63 259 51.5 Q273 40 296 40 Q304 40 311.5 40.5 Q319 41 329 41 L316 -5 Q280 -3 242.5 -1.5 Q205 0 169 0 Q128 0 87 -1.5 Q46 -3 4 -5 L12 42 L43 42 Q68 42 85 59 Q94 68 100.5 82.5 Q107 97 111 113.5 Q115 130 118 146 Q121 162 123 174 L200 574 Q202 583 203 591.5 Q204 600 204 609 Q204 638 193.5 651.5 Q183 665 153 665 Q145 665 137 665 Q129 665 119 664 L126 708 Q161 706 195.5 706 Q230 706 264 706 Q311 706 357 707 Q403 708 451 709 L443 665 L427 665 Q380 665 358 629 Q351 618 345.5 601 Q340 584 336 565.5 Q332 547 329 529 Q326 511 323 498 L297 368 L507 551 Q539 578 553.5 592 Q568 606 578 618 Q584 625 589.5 633 Q595 641 595 650 Q595 661 585.5 664.5 Q576 668 565 669 L572 708 Q600 707 627 706.5 Q654 706 680 706 Q731 706 787 709 L780 665 Z M399 -55 Q399 -89 382 -120 Q368 -146 351 -164 Q334 -182 313.5 -195 Q293 -208 269.5 -217.5 Q246 -227 219 -236 L200 -211 Q230 -185 244.5 -160 Q259 -135 259 -95 L259 -90 Q295 -81 328.5 -69 Q362 -57 396 -41 Q399 -52 399 -55 Z " />
<glyph glyph-name="Lacute" unicode="&#x139;" horiz-adv-x="656" d="M586 0 L2 0 L14 46 Q20 46 25 45.5 Q30 45 35 45 Q59 45 74.5 54 Q90 63 100 87 Q103 93 105 100.5 Q107 108 109.5 119 Q112 130 115 146 Q118 162 123 185 L195 538 Q200 559 203 577.5 Q206 596 206 617 Q206 634 200.5 644 Q195 654 186 659.5 Q177 665 165 666.5 Q153 668 139 668 L123 668 L132 710 Q177 708 219.5 707 Q262 706 305 706 Q377 706 454 709 L446 665 L434 665 Q418 665 403.5 662.5 Q389 660 375 648 Q356 632 349 608 Q342 584 337 561 L268 220 Q261 187 256 162.5 Q251 138 251 115 Q251 100 255 87 Q259 74 271 66 Q280 59 295 55.5 Q310 52 327.5 50 Q345 48 362.5 47.5 Q380 47 395 47 Q432 47 460.5 52.5 Q489 58 509.5 73 Q530 88 543.5 114 Q557 140 564 181 L618 181 L586 0 Z M551 910 Q524 879 500.5 858 Q477 837 452 821.5 Q427 806 399 794 Q371 782 334 769 L304 801 Q329 817 346.5 831 Q364 845 377.5 861.5 Q391 878 401.5 897.5 Q412 917 423 944 Q457 932 485.5 924 Q514 916 551 910 Z " />
<glyph glyph-name="Lcaron" unicode="&#x13d;" horiz-adv-x="656" d="M586 0 L2 0 L14 46 Q20 46 25 45.5 Q30 45 35 45 Q59 45 74.5 54 Q90 63 100 87 Q103 93 105 100.5 Q107 108 109.5 119 Q112 130 115 146 Q118 162 123 185 L195 538 Q200 559 203 577.5 Q206 596 206 617 Q206 634 200.5 644 Q195 654 186 659.5 Q177 665 165 666.5 Q153 668 139 668 L123 668 L132 710 Q177 708 219.5 707 Q262 706 305 706 Q377 706 454 709 L446 665 L434 665 Q418 665 403.5 662.5 Q389 660 375 648 Q356 632 349 608 Q342 584 337 561 L268 220 Q261 187 256 162.5 Q251 138 251 115 Q251 100 255 87 Q259 74 271 66 Q280 59 295 55.5 Q310 52 327.5 50 Q345 48 362.5 47.5 Q380 47 395 47 Q432 47 460.5 52.5 Q489 58 509.5 73 Q530 88 543.5 114 Q557 140 564 181 L618 181 L586 0 Z M672 682 Q672 651 661 624 Q650 597 631 574 Q621 562 603.5 547 Q586 532 566 517.5 Q546 503 526 491 Q506 479 490 473 L465 507 Q497 527 519.5 554 Q542 581 542 619 Q542 641 534.5 658.5 Q527 676 513 695 Q550 710 583.5 727.5 Q617 745 652 765 Q661 743 666.5 724 Q672 705 672 682 Z " />
<glyph glyph-name="Lcommaaccent" unicode="&#x13b;" horiz-adv-x="656" d="M586 0 L2 0 L14 46 Q20 46 25 45.5 Q30 45 35 45 Q59 45 74.5 54 Q90 63 100 87 Q103 93 105 100.5 Q107 108 109.5 119 Q112 130 115 146 Q118 162 123 185 L195 538 Q200 559 203 577.5 Q206 596 206 617 Q206 634 200.5 644 Q195 654 186 659.5 Q177 665 165 666.5 Q153 668 139 668 L123 668 L132 710 Q177 708 219.5 707 Q262 706 305 706 Q377 706 454 709 L446 665 L434 665 Q418 665 403.5 662.5 Q389 660 375 648 Q356 632 349 608 Q342 584 337 561 L268 220 Q261 187 256 162.5 Q251 138 251 115 Q251 100 255 87 Q259 74 271 66 Q280 59 295 55.5 Q310 52 327.5 50 Q345 48 362.5 47.5 Q380 47 395 47 Q432 47 460.5 52.5 Q489 58 509.5 73 Q530 88 543.5 114 Q557 140 564 181 L618 181 L586 0 Z M365 -55 Q365 -89 348 -120 Q334 -146 317 -164 Q300 -182 279.5 -195 Q259 -208 235.5 -217.5 Q212 -227 185 -236 L166 -211 Q196 -185 210.5 -160 Q225 -135 225 -95 L225 -90 Q261 -81 294.5 -69 Q328 -57 362 -41 Q365 -52 365 -55 Z " />
<glyph glyph-name="Lslash" unicode="&#x141;" horiz-adv-x="656" d="M509 469 L40 230 L53 296 L520 535 L509 469 Z M586 0 L2 0 L14 46 Q20 46 25 45.5 Q30 45 35 45 Q59 45 74.5 54 Q90 63 100 87 Q103 93 105 100.5 Q107 108 109.5 119 Q112 130 115 146 Q118 162 123 185 L195 538 Q200 559 203 577.5 Q206 596 206 617 Q206 634 200.5 644 Q195 654 186 659.5 Q177 665 165 666.5 Q153 668 139 668 L123 668 L132 710 Q177 708 219.5 707 Q262 706 305 706 Q377 706 454 709 L446 665 L434 665 Q418 665 403.5 662.5 Q389 660 375 648 Q356 632 349 608 Q342 584 337 561 L268 220 Q261 187 256 162.5 Q251 138 251 115 Q251 100 255 87 Q259 74 271 66 Q280 59 295 55.5 Q310 52 327.5 50 Q345 48 362.5 47.5 Q380 47 395 47 Q432 47 460.5 52.5 Q489 58 509.5 73 Q530 88 543.5 114 Q557 140 564 181 L618 181 L586 0 Z " />
<glyph glyph-name="Nacute" unicode="&#x143;" horiz-adv-x="802" d="M876 664 Q848 664 831 656.5 Q814 649 800 626 Q789 609 778.5 565.5 Q768 522 758 471 Q735 350 710.5 225 Q686 100 661 -38 L650 -38 L245 552 L208 345 Q200 296 192 248 Q184 200 178 151 Q176 136 174.5 121 Q173 106 173 91 Q173 38 225 38 Q233 38 240.5 38.5 Q248 39 257 39 L250 -4 Q221 -2 193.5 -1 Q166 0 138 0 Q107 0 76 -1 Q45 -2 12 -3 L22 41 L34 41 Q47 41 58 43 Q69 45 81 56 Q91 65 98 78.5 Q105 92 109.5 107.5 Q114 123 117 138.5 Q120 154 122 167 L184 509 Q189 535 192.5 558.5 Q196 582 196 604 Q196 615 194 624.5 Q192 634 184 642 Q172 656 157.5 661 Q143 666 126 666 L115 666 L121 709 Q149 708 176 707 Q203 706 229 706 Q248 706 266.5 707 Q285 708 305 710 Q393 584 480 460 Q567 336 656 202 Q671 282 686 361 Q701 440 716 530 Q719 549 722 570.5 Q725 592 725 612 Q725 641 711.5 654.5 Q698 668 666 668 L638 668 L650 710 Q685 708 717.5 707 Q750 706 783 706 Q808 706 832.5 707 Q857 708 883 710 L876 664 Z M702 910 Q675 879 651.5 858 Q628 837 603 821.5 Q578 806 550 794 Q522 782 485 769 L455 801 Q480 817 497.5 831 Q515 845 528.5 861.5 Q542 878 552.5 897.5 Q563 917 574 944 Q608 932 636.5 924 Q665 916 702 910 Z " />
<glyph glyph-name="Ncaron" unicode="&#x147;" horiz-adv-x="802" d="M876 664 Q848 664 831 656.5 Q814 649 800 626 Q789 609 778.5 565.5 Q768 522 758 471 Q735 350 710.5 225 Q686 100 661 -38 L650 -38 L245 552 L208 345 Q200 296 192 248 Q184 200 178 151 Q176 136 174.5 121 Q173 106 173 91 Q173 38 225 38 Q233 38 240.5 38.5 Q248 39 257 39 L250 -4 Q221 -2 193.5 -1 Q166 0 138 0 Q107 0 76 -1 Q45 -2 12 -3 L22 41 L34 41 Q47 41 58 43 Q69 45 81 56 Q91 65 98 78.5 Q105 92 109.5 107.5 Q114 123 117 138.5 Q120 154 122 167 L184 509 Q189 535 192.5 558.5 Q196 582 196 604 Q196 615 194 624.5 Q192 634 184 642 Q172 656 157.5 661 Q143 666 126 666 L115 666 L121 709 Q149 708 176 707 Q203 706 229 706 Q248 706 266.5 707 Q285 708 305 710 Q393 584 480 460 Q567 336 656 202 Q671 282 686 361 Q701 440 716 530 Q719 549 722 570.5 Q725 592 725 612 Q725 641 711.5 654.5 Q698 668 666 668 L638 668 L650 710 Q685 708 717.5 707 Q750 706 783 706 Q808 706 832.5 707 Q857 708 883 710 L876 664 Z M760 905 Q735 896 708.5 881 Q682 866 657.5 847.5 Q633 829 613 807.5 Q593 786 581 763 L470 763 Q481 793 481 818 Q481 844 471 869 Q461 894 444 916 L482 946 Q505 933 524 911.5 Q543 890 557 868 Q592 897 634.5 915.5 Q677 934 720 950 L760 905 L760 905 Z " />
<glyph glyph-name="Ntilde" unicode="&#xd1;" horiz-adv-x="802" d="M876 664 Q848 664 831 656.5 Q814 649 800 626 Q789 609 778.5 565.5 Q768 522 758 471 Q735 350 710.5 225 Q686 100 661 -38 L650 -38 L245 552 L208 345 Q200 296 192 248 Q184 200 178 151 Q176 136 174.5 121 Q173 106 173 91 Q173 38 225 38 Q233 38 240.5 38.5 Q248 39 257 39 L250 -4 Q221 -2 193.5 -1 Q166 0 138 0 Q107 0 76 -1 Q45 -2 12 -3 L22 41 L34 41 Q47 41 58 43 Q69 45 81 56 Q91 65 98 78.5 Q105 92 109.5 107.5 Q114 123 117 138.5 Q120 154 122 167 L184 509 Q189 535 192.5 558.5 Q196 582 196 604 Q196 615 194 624.5 Q192 634 184 642 Q172 656 157.5 661 Q143 666 126 666 L115 666 L121 709 Q149 708 176 707 Q203 706 229 706 Q248 706 266.5 707 Q285 708 305 710 Q393 584 480 460 Q567 336 656 202 Q671 282 686 361 Q701 440 716 530 Q719 549 722 570.5 Q725 592 725 612 Q725 641 711.5 654.5 Q698 668 666 668 L638 668 L650 710 Q685 708 717.5 707 Q750 706 783 706 Q808 706 832.5 707 Q857 708 883 710 L876 664 Z M732 920 Q725 888 711.5 860.5 Q698 833 671 810 Q657 797 639.5 791 Q622 785 608 785 Q582 785 561 795.5 Q540 806 522 818 Q510 826 492.5 836 Q475 846 458 846 Q443 846 433 839 Q410 825 402 797 L349 797 Q355 822 367 847.5 Q379 873 397 892.5 Q415 912 439 924.5 Q463 937 492 937 Q518 937 536 927 Q554 917 571 906 Q582 898 598.5 887 Q615 876 632 876 Q651 876 663 889 Q675 902 681 920 L732 920 L732 920 Z " />
<glyph glyph-name="Ncommaaccent" unicode="&#x145;" horiz-adv-x="802" d="M876 664 Q848 664 831 656.5 Q814 649 800 626 Q789 609 778.5 565.5 Q768 522 758 471 Q735 350 710.5 225 Q686 100 661 -38 L650 -38 L245 552 L208 345 Q200 296 192 248 Q184 200 178 151 Q176 136 174.5 121 Q173 106 173 91 Q173 38 225 38 Q233 38 240.5 38.5 Q248 39 257 39 L250 -4 Q221 -2 193.5 -1 Q166 0 138 0 Q107 0 76 -1 Q45 -2 12 -3 L22 41 L34 41 Q47 41 58 43 Q69 45 81 56 Q91 65 98 78.5 Q105 92 109.5 107.5 Q114 123 117 138.5 Q120 154 122 167 L184 509 Q189 535 192.5 558.5 Q196 582 196 604 Q196 615 194 624.5 Q192 634 184 642 Q172 656 157.5 661 Q143 666 126 666 L115 666 L121 709 Q149 708 176 707 Q203 706 229 706 Q248 706 266.5 707 Q285 708 305 710 Q393 584 480 460 Q567 336 656 202 Q671 282 686 361 Q701 440 716 530 Q719 549 722 570.5 Q725 592 725 612 Q725 641 711.5 654.5 Q698 668 666 668 L638 668 L650 710 Q685 708 717.5 707 Q750 706 783 706 Q808 706 832.5 707 Q857 708 883 710 L876 664 Z M467 -55 Q467 -89 450 -120 Q436 -146 419 -164 Q402 -182 381.5 -195 Q361 -208 337.5 -217.5 Q314 -227 287 -236 L268 -211 Q298 -185 312.5 -160 Q327 -135 327 -95 L327 -90 Q363 -81 396.5 -69 Q430 -57 464 -41 Q467 -52 467 -55 Z " />
<glyph glyph-name="Ograve" unicode="&#xd2;" horiz-adv-x="885" d="M885 352 Q885 310 874.5 268 Q864 226 847 188 Q823 136 784.5 97.5 Q746 59 698.5 33.5 Q651 8 597 -5 Q543 -18 488 -18 Q406 -18 332.5 8 Q259 34 203.5 82.5 Q148 131 115.5 200 Q83 269 83 355 Q83 450 129 529 Q175 608 253 660 Q302 692 359.5 708 Q417 724 475 724 Q542 724 605 707 Q668 690 720 656 Q772 622 810.5 572 Q849 522 869 456 Q877 430 881 404 Q885 378 885 352 Z M739 372 Q739 409 732 447.5 Q725 486 710 521 Q695 556 671 585.5 Q647 615 614 635 Q588 651 559.5 660 Q531 669 500 669 Q464 669 425.5 654 Q387 639 358 616 Q326 592 302.5 558.5 Q279 525 263 486.5 Q247 448 239 407 Q231 366 231 327 Q231 277 245 225.5 Q259 174 287.5 132.5 Q316 91 358.5 65 Q401 39 457 39 Q518 39 571.5 68 Q625 97 663 143 Q706 196 722.5 251 Q739 306 739 372 Z M606 768 Q566 780 534.5 795.5 Q503 811 477 829 Q451 847 429 868 Q407 889 386 912 Q423 919 454 927.5 Q485 936 519 948 Q529 924 539.5 905 Q550 886 563.5 869 Q577 852 595 836 Q613 820 639 803 L606 768 Z " />
<glyph glyph-name="Oacute" unicode="&#xd3;" horiz-adv-x="885" d="M885 352 Q885 310 874.5 268 Q864 226 847 188 Q823 136 784.5 97.5 Q746 59 698.5 33.5 Q651 8 597 -5 Q543 -18 488 -18 Q406 -18 332.5 8 Q259 34 203.5 82.5 Q148 131 115.5 200 Q83 269 83 355 Q83 450 129 529 Q175 608 253 660 Q302 692 359.5 708 Q417 724 475 724 Q542 724 605 707 Q668 690 720 656 Q772 622 810.5 572 Q849 522 869 456 Q877 430 881 404 Q885 378 885 352 Z M739 372 Q739 409 732 447.5 Q725 486 710 521 Q695 556 671 585.5 Q647 615 614 635 Q588 651 559.5 660 Q531 669 500 669 Q464 669 425.5 654 Q387 639 358 616 Q326 592 302.5 558.5 Q279 525 263 486.5 Q247 448 239 407 Q231 366 231 327 Q231 277 245 225.5 Q259 174 287.5 132.5 Q316 91 358.5 65 Q401 39 457 39 Q518 39 571.5 68 Q625 97 663 143 Q706 196 722.5 251 Q739 306 739 372 Z M696 910 Q669 879 645.5 858 Q622 837 597 821.5 Q572 806 544 794 Q516 782 479 769 L449 801 Q474 817 491.5 831 Q509 845 522.5 861.5 Q536 878 546.5 897.5 Q557 917 568 944 Q602 932 630.5 924 Q659 916 696 910 Z " />
<glyph glyph-name="Ocircumflex" unicode="&#xd4;" horiz-adv-x="885" d="M885 352 Q885 310 874.5 268 Q864 226 847 188 Q823 136 784.5 97.5 Q746 59 698.5 33.5 Q651 8 597 -5 Q543 -18 488 -18 Q406 -18 332.5 8 Q259 34 203.5 82.5 Q148 131 115.5 200 Q83 269 83 355 Q83 450 129 529 Q175 608 253 660 Q302 692 359.5 708 Q417 724 475 724 Q542 724 605 707 Q668 690 720 656 Q772 622 810.5 572 Q849 522 869 456 Q877 430 881 404 Q885 378 885 352 Z M739 372 Q739 409 732 447.5 Q725 486 710 521 Q695 556 671 585.5 Q647 615 614 635 Q588 651 559.5 660 Q531 669 500 669 Q464 669 425.5 654 Q387 639 358 616 Q326 592 302.5 558.5 Q279 525 263 486.5 Q247 448 239 407 Q231 366 231 327 Q231 277 245 225.5 Q259 174 287.5 132.5 Q316 91 358.5 65 Q401 39 457 39 Q518 39 571.5 68 Q625 97 663 143 Q706 196 722.5 251 Q739 306 739 372 Z M663 763 Q640 783 621.5 800 Q603 817 587 843 Q579 837 571.5 831 Q564 825 555 819 Q524 800 491 786.5 Q458 773 424 760 L385 804 Q398 810 410 815.5 Q422 821 433 827 Q472 848 506.5 878.5 Q541 909 564 948 L674 948 Q669 933 666.5 920.5 Q664 908 664 895 Q664 865 673.5 842.5 Q683 820 701 795 L663 763 Z " />
<glyph glyph-name="Otilde" unicode="&#xd5;" horiz-adv-x="885" d="M885 352 Q885 310 874.5 268 Q864 226 847 188 Q823 136 784.5 97.5 Q746 59 698.5 33.5 Q651 8 597 -5 Q543 -18 488 -18 Q406 -18 332.5 8 Q259 34 203.5 82.5 Q148 131 115.5 200 Q83 269 83 355 Q83 450 129 529 Q175 608 253 660 Q302 692 359.5 708 Q417 724 475 724 Q542 724 605 707 Q668 690 720 656 Q772 622 810.5 572 Q849 522 869 456 Q877 430 881 404 Q885 378 885 352 Z M739 372 Q739 409 732 447.5 Q725 486 710 521 Q695 556 671 585.5 Q647 615 614 635 Q588 651 559.5 660 Q531 669 500 669 Q464 669 425.5 654 Q387 639 358 616 Q326 592 302.5 558.5 Q279 525 263 486.5 Q247 448 239 407 Q231 366 231 327 Q231 277 245 225.5 Q259 174 287.5 132.5 Q316 91 358.5 65 Q401 39 457 39 Q518 39 571.5 68 Q625 97 663 143 Q706 196 722.5 251 Q739 306 739 372 Z M760 920 Q753 888 739.5 860.5 Q726 833 699 810 Q685 797 667.5 791 Q650 785 636 785 Q610 785 589 795.5 Q568 806 550 818 Q538 826 520.5 836 Q503 846 486 846 Q471 846 461 839 Q438 825 430 797 L377 797 Q383 822 395 847.5 Q407 873 425 892.5 Q443 912 467 924.5 Q491 937 520 937 Q546 937 564 927 Q582 917 599 906 Q610 898 626.5 887 Q643 876 660 876 Q679 876 691 889 Q703 902 709 920 L760 920 L760 920 Z " />
<glyph glyph-name="Odieresis" unicode="&#xd6;" horiz-adv-x="885" d="M885 352 Q885 310 874.5 268 Q864 226 847 188 Q823 136 784.5 97.5 Q746 59 698.5 33.5 Q651 8 597 -5 Q543 -18 488 -18 Q406 -18 332.5 8 Q259 34 203.5 82.5 Q148 131 115.5 200 Q83 269 83 355 Q83 450 129 529 Q175 608 253 660 Q302 692 359.5 708 Q417 724 475 724 Q542 724 605 707 Q668 690 720 656 Q772 622 810.5 572 Q849 522 869 456 Q877 430 881 404 Q885 378 885 352 Z M739 372 Q739 409 732 447.5 Q725 486 710 521 Q695 556 671 585.5 Q647 615 614 635 Q588 651 559.5 660 Q531 669 500 669 Q464 669 425.5 654 Q387 639 358 616 Q326 592 302.5 558.5 Q279 525 263 486.5 Q247 448 239 407 Q231 366 231 327 Q231 277 245 225.5 Q259 174 287.5 132.5 Q316 91 358.5 65 Q401 39 457 39 Q518 39 571.5 68 Q625 97 663 143 Q706 196 722.5 251 Q739 306 739 372 Z M518 870 Q518 834 493 809 Q468 784 435 784 Q413 784 396 798 Q379 812 379 835 Q379 873 404.5 899 Q430 925 464 925 Q488 925 503 909 Q518 893 518 870 Z M738 870 Q738 834 713 809 Q688 784 655 784 Q633 784 616 798 Q599 812 599 835 Q599 873 624.5 899 Q650 925 684 925 Q708 925 723 909 Q738 893 738 870 Z " />
<glyph glyph-name="Omacron" unicode="&#x14c;" horiz-adv-x="885" d="M885 352 Q885 310 874.5 268 Q864 226 847 188 Q823 136 784.5 97.5 Q746 59 698.5 33.5 Q651 8 597 -5 Q543 -18 488 -18 Q406 -18 332.5 8 Q259 34 203.5 82.5 Q148 131 115.5 200 Q83 269 83 355 Q83 450 129 529 Q175 608 253 660 Q302 692 359.5 708 Q417 724 475 724 Q542 724 605 707 Q668 690 720 656 Q772 622 810.5 572 Q849 522 869 456 Q877 430 881 404 Q885 378 885 352 Z M739 372 Q739 409 732 447.5 Q725 486 710 521 Q695 556 671 585.5 Q647 615 614 635 Q588 651 559.5 660 Q531 669 500 669 Q464 669 425.5 654 Q387 639 358 616 Q326 592 302.5 558.5 Q279 525 263 486.5 Q247 448 239 407 Q231 366 231 327 Q231 277 245 225.5 Q259 174 287.5 132.5 Q316 91 358.5 65 Q401 39 457 39 Q518 39 571.5 68 Q625 97 663 143 Q706 196 722.5 251 Q739 306 739 372 Z M388 812 L388 896 L722 896 L722 812 L388 812 Z " />
<glyph glyph-name="Ohungarumlaut" unicode="&#x150;" horiz-adv-x="885" d="M885 352 Q885 310 874.5 268 Q864 226 847 188 Q823 136 784.5 97.5 Q746 59 698.5 33.5 Q651 8 597 -5 Q543 -18 488 -18 Q406 -18 332.5 8 Q259 34 203.5 82.5 Q148 131 115.5 200 Q83 269 83 355 Q83 450 129 529 Q175 608 253 660 Q302 692 359.5 708 Q417 724 475 724 Q542 724 605 707 Q668 690 720 656 Q772 622 810.5 572 Q849 522 869 456 Q877 430 881 404 Q885 378 885 352 Z M739 372 Q739 409 732 447.5 Q725 486 710 521 Q695 556 671 585.5 Q647 615 614 635 Q588 651 559.5 660 Q531 669 500 669 Q464 669 425.5 654 Q387 639 358 616 Q326 592 302.5 558.5 Q279 525 263 486.5 Q247 448 239 407 Q231 366 231 327 Q231 277 245 225.5 Q259 174 287.5 132.5 Q316 91 358.5 65 Q401 39 457 39 Q518 39 571.5 68 Q625 97 663 143 Q706 196 722.5 251 Q739 306 739 372 Z M822 914 Q795 883 771 862 Q747 841 722.5 825.5 Q698 810 669.5 798 Q641 786 604 773 L575 805 Q600 821 617.5 835 Q635 849 648 865.5 Q661 882 672 901.5 Q683 921 694 948 Q728 936 756 928 Q784 920 822 914 Z M630 914 Q603 883 579 862 Q555 841 530.5 825.5 Q506 810 477.5 798 Q449 786 412 773 L383 805 Q408 821 425.5 835 Q443 849 456 865.5 Q469 882 480 901.5 Q491 921 502 948 Q536 936 564 928 Q592 920 630 914 Z " />
<glyph glyph-name="Oslash" unicode="&#xd8;" horiz-adv-x="885" d="M885 352 Q885 310 874.5 268 Q864 226 847 188 Q823 136 784.5 97.5 Q746 59 698.5 33.5 Q651 8 597 -5 Q543 -18 488 -18 Q406 -18 332.5 8 Q259 34 203 82 Q201 84 198 87 L108 10 L71 51 L160 127 Q134 160 115 200 Q83 269 83 355 Q83 450 129 529 Q175 608 253 660 Q302 692 359.5 708 Q417 724 475 724 Q542 724 605 707 Q668 690 720 656 Q738 644 754 630 L839 703 L873 663 L792 594 Q801 583 810 572 Q849 522 869 456 Q877 430 881 404 Q885 378 885 352 Z M739 372 Q739 409 732 447.5 Q725 486 710 521 L709 523 L275 152 Q281 142 287 132 Q316 91 358.5 65 Q401 39 457 39 Q518 39 571.5 68 Q625 97 663 143 Q706 196 722.5 251 Q739 306 739 372 Z M671 585 Q647 615 614 635 Q588 651 559.5 660 Q531 669 500 669 Q464 669 425.5 654 Q387 639 358 616 Q326 592 302.5 558.5 Q279 525 263 486.5 Q247 448 239 407 Q231 366 231 327 Q231 277 245 225 Q248 214 251 204 L682 570 Q677 578 671 585 Z " />
<glyph glyph-name="OE" unicode="&#x152;" horiz-adv-x="1127" d="M1106 544 L1044 545 Q1049 560 1053.5 576 Q1058 592 1058 608 Q1058 626 1046 636 Q1034 646 1016.5 651 Q999 656 978.5 657 Q958 658 941 658 L839 658 L789 407 Q820 408 850.5 407.5 Q881 407 911 409 Q928 410 950 412.5 Q972 415 986 429 Q995 439 998 451.5 Q1001 464 1003 476 L1053 475 Q1041 430 1030 385 Q1019 340 1014 293 L963 294 Q966 302 969.5 311.5 Q973 321 973 329 Q973 345 957 351 Q941 358 910 359.5 Q879 361 850 361 Q833 361 815 360.5 Q797 360 780 360 L740 156 Q738 144 736 130.5 Q734 117 734 108 Q734 95 736 84 Q738 73 747 64 Q754 57 765.5 53 Q777 49 789.5 47 Q802 45 814 44.5 Q826 44 836 44 Q876 44 908.5 49 Q941 54 965 69.5 Q989 85 1003.5 112.5 Q1018 140 1021 185 L1075 185 Q1064 134 1055 91 Q1046 48 1038 0 L716 0 Q644 0 573.5 -8 Q503 -16 428 -16 Q356 -16 293 9.5 Q230 35 183.5 80 Q137 125 110 186.5 Q83 248 83 320 Q83 387 106 458.5 Q129 530 182 588.5 Q235 647 321.5 685 Q408 723 536 723 Q576 723 625 720.5 Q674 718 723 714.5 Q772 711 818 708.5 Q864 706 900 706 L1053 706 Q1075 706 1097 706.5 Q1119 707 1143 708 L1106 544 Z M681 571 Q681 616 647 641.5 Q613 667 528 667 Q467 667 421.5 649 Q376 631 343 602 Q310 573 288.5 535 Q267 497 254 457 Q241 417 236 378 Q231 339 231 308 Q231 254 245.5 206 Q260 158 288 121 Q316 84 357 62.5 Q398 41 450 41 Q520 41 555.5 61 Q591 81 601 133 L678 539 Q681 555 681 571 Z " />
<glyph glyph-name="Racute" unicode="&#x154;" horiz-adv-x="739" d="M715 -4 Q692 -12 667.5 -14.5 Q643 -17 620 -17 Q570 -17 537 -1.5 Q504 14 480.5 40 Q457 66 440.5 100.5 Q424 135 408 173 Q390 215 372 255 Q354 295 334 336 L293 336 L250 130 Q248 121 246.5 110 Q245 99 245 90 Q245 73 252 63 Q259 53 270.5 48.5 Q282 44 296.5 43 Q311 42 326 42 L315 -5 Q282 -3 250 -1.5 Q218 0 186 0 Q139 0 93 -1 Q47 -2 -1 -4 L9 44 Q16 43 21 43 Q26 43 31 43 Q74 43 96 77 Q101 85 105.5 98 Q110 111 113.5 126 Q117 141 119.5 155 Q122 169 124 179 Q144 280 164.5 380.5 Q185 481 205 582 Q207 592 208.5 601 Q210 610 210 620 Q210 648 192 655.5 Q174 663 153 663 L122 663 L131 710 Q207 708 280.5 707 Q354 706 429 706 Q471 706 513.5 704.5 Q556 703 598 686 Q682 651 682 561 Q682 522 667 485 Q652 448 626 421 Q594 388 558 372 Q522 356 477 348 Q491 318 506.5 282 Q522 246 539 210 Q557 173 575.5 139 Q594 105 614 78 Q629 58 647 47 Q665 36 691 36 Q696 36 702 36 Q708 36 715 37 L715 -4 Z M544 557 Q544 579 536 601 Q528 623 511 638 Q491 655 465.5 659 Q440 663 414 663 L358 663 L302 386 Q316 384 330 383 Q344 382 358 382 Q413 382 459 404.5 Q505 427 527 479 Q535 497 539.5 516 Q544 535 544 557 Z M585 910 Q558 879 534.5 858 Q511 837 486 821.5 Q461 806 433 794 Q405 782 368 769 L338 801 Q363 817 380.5 831 Q398 845 411.5 861.5 Q425 878 435.5 897.5 Q446 917 457 944 Q491 932 519.5 924 Q548 916 585 910 Z " />
<glyph glyph-name="Rcaron" unicode="&#x158;" horiz-adv-x="739" d="M715 -4 Q692 -12 667.5 -14.5 Q643 -17 620 -17 Q570 -17 537 -1.5 Q504 14 480.5 40 Q457 66 440.5 100.5 Q424 135 408 173 Q390 215 372 255 Q354 295 334 336 L293 336 L250 130 Q248 121 246.5 110 Q245 99 245 90 Q245 73 252 63 Q259 53 270.5 48.5 Q282 44 296.5 43 Q311 42 326 42 L315 -5 Q282 -3 250 -1.5 Q218 0 186 0 Q139 0 93 -1 Q47 -2 -1 -4 L9 44 Q16 43 21 43 Q26 43 31 43 Q74 43 96 77 Q101 85 105.5 98 Q110 111 113.5 126 Q117 141 119.5 155 Q122 169 124 179 Q144 280 164.5 380.5 Q185 481 205 582 Q207 592 208.5 601 Q210 610 210 620 Q210 648 192 655.5 Q174 663 153 663 L122 663 L131 710 Q207 708 280.5 707 Q354 706 429 706 Q471 706 513.5 704.5 Q556 703 598 686 Q682 651 682 561 Q682 522 667 485 Q652 448 626 421 Q594 388 558 372 Q522 356 477 348 Q491 318 506.5 282 Q522 246 539 210 Q557 173 575.5 139 Q594 105 614 78 Q629 58 647 47 Q665 36 691 36 Q696 36 702 36 Q708 36 715 37 L715 -4 Z M544 557 Q544 579 536 601 Q528 623 511 638 Q491 655 465.5 659 Q440 663 414 663 L358 663 L302 386 Q316 384 330 383 Q344 382 358 382 Q413 382 459 404.5 Q505 427 527 479 Q535 497 539.5 516 Q544 535 544 557 Z M651 905 Q626 896 599.5 881 Q573 866 548.5 847.5 Q524 829 504 807.5 Q484 786 472 763 L361 763 Q372 793 372 818 Q372 844 362 869 Q352 894 335 916 L373 946 Q396 933 415 911.5 Q434 890 448 868 Q483 897 525.5 915.5 Q568 934 611 950 L651 905 L651 905 Z " />
<glyph glyph-name="Rcommaaccent" unicode="&#x156;" horiz-adv-x="739" d="M715 -4 Q692 -12 667.5 -14.5 Q643 -17 620 -17 Q570 -17 537 -1.5 Q504 14 480.5 40 Q457 66 440.5 100.5 Q424 135 408 173 Q390 215 372 255 Q354 295 334 336 L293 336 L250 130 Q248 121 246.5 110 Q245 99 245 90 Q245 73 252 63 Q259 53 270.5 48.5 Q282 44 296.5 43 Q311 42 326 42 L315 -5 Q282 -3 250 -1.5 Q218 0 186 0 Q139 0 93 -1 Q47 -2 -1 -4 L9 44 Q16 43 21 43 Q26 43 31 43 Q74 43 96 77 Q101 85 105.5 98 Q110 111 113.5 126 Q117 141 119.5 155 Q122 169 124 179 Q144 280 164.5 380.5 Q185 481 205 582 Q207 592 208.5 601 Q210 610 210 620 Q210 648 192 655.5 Q174 663 153 663 L122 663 L131 710 Q207 708 280.5 707 Q354 706 429 706 Q471 706 513.5 704.5 Q556 703 598 686 Q682 651 682 561 Q682 522 667 485 Q652 448 626 421 Q594 388 558 372 Q522 356 477 348 Q491 318 506.5 282 Q522 246 539 210 Q557 173 575.5 139 Q594 105 614 78 Q629 58 647 47 Q665 36 691 36 Q696 36 702 36 Q708 36 715 37 L715 -4 Z M544 557 Q544 579 536 601 Q528 623 511 638 Q491 655 465.5 659 Q440 663 414 663 L358 663 L302 386 Q316 384 330 383 Q344 382 358 382 Q413 382 459 404.5 Q505 427 527 479 Q535 497 539.5 516 Q544 535 544 557 Z M434 -55 Q434 -89 417 -120 Q403 -146 386 -164 Q369 -182 348.5 -195 Q328 -208 304.5 -217.5 Q281 -227 254 -236 L235 -211 Q265 -185 279.5 -160 Q294 -135 294 -95 L294 -90 Q330 -81 363.5 -69 Q397 -57 431 -41 Q434 -52 434 -55 Z " />
<glyph glyph-name="Sacute" unicode="&#x15a;" horiz-adv-x="552" d="M522 545 L465 545 Q467 557 468 568 Q469 579 469 590 Q469 609 459 623.5 Q449 638 433.5 648.5 Q418 659 399.5 664.5 Q381 670 364 670 Q337 670 316.5 664 Q296 658 275 641 Q256 626 245.5 607 Q235 588 235 562 Q235 537 247.5 518.5 Q260 500 280 483 Q299 469 321.5 456.5 Q344 444 379 424 Q406 409 432.5 391 Q459 373 480 349.5 Q501 326 513.5 295.5 Q526 265 526 225 Q526 197 517 169.5 Q508 142 494 118 Q471 80 442 55 Q413 30 379 15 Q345 0 306.5 -6.5 Q268 -13 226 -13 Q179 -13 133.5 -8 Q88 -3 40 3 L67 177 L125 177 Q122 157 122 143 Q122 116 132 95.5 Q142 75 158.5 61.5 Q175 48 197 41.5 Q219 35 244 35 Q271 35 297 43.5 Q323 52 343.5 68 Q364 84 376.5 106.5 Q389 129 389 158 Q389 204 363 233.5 Q337 263 302 286 Q272 306 238 325 Q204 344 175.5 367.5 Q147 391 128.5 422.5 Q110 454 110 498 Q110 522 115.5 544 Q121 566 132 588 Q167 659 230 690.5 Q293 722 369 722 Q413 722 456 715.5 Q499 709 544 701 L522 545 Z M559 910 Q532 879 508.5 858 Q485 837 460 821.5 Q435 806 407 794 Q379 782 342 769 L312 801 Q337 817 354.5 831 Q372 845 385.5 861.5 Q399 878 409.5 897.5 Q420 917 431 944 Q465 932 493.5 924 Q522 916 559 910 Z " />
<glyph glyph-name="Scaron" unicode="&#x160;" horiz-adv-x="552" d="M522 545 L465 545 Q467 557 468 568 Q469 579 469 590 Q469 609 459 623.5 Q449 638 433.5 648.5 Q418 659 399.5 664.5 Q381 670 364 670 Q337 670 316.5 664 Q296 658 275 641 Q256 626 245.5 607 Q235 588 235 562 Q235 537 247.5 518.5 Q260 500 280 483 Q299 469 321.5 456.5 Q344 444 379 424 Q406 409 432.5 391 Q459 373 480 349.5 Q501 326 513.5 295.5 Q526 265 526 225 Q526 197 517 169.5 Q508 142 494 118 Q471 80 442 55 Q413 30 379 15 Q345 0 306.5 -6.5 Q268 -13 226 -13 Q179 -13 133.5 -8 Q88 -3 40 3 L67 177 L125 177 Q122 157 122 143 Q122 116 132 95.5 Q142 75 158.5 61.5 Q175 48 197 41.5 Q219 35 244 35 Q271 35 297 43.5 Q323 52 343.5 68 Q364 84 376.5 106.5 Q389 129 389 158 Q389 204 363 233.5 Q337 263 302 286 Q272 306 238 325 Q204 344 175.5 367.5 Q147 391 128.5 422.5 Q110 454 110 498 Q110 522 115.5 544 Q121 566 132 588 Q167 659 230 690.5 Q293 722 369 722 Q413 722 456 715.5 Q499 709 544 701 L522 545 Z M613 905 Q588 896 561.5 881 Q535 866 510.5 847.5 Q486 829 466 807.5 Q446 786 434 763 L323 763 Q334 793 334 818 Q334 844 324 869 Q314 894 297 916 L335 946 Q358 933 377 911.5 Q396 890 410 868 Q445 897 487.5 915.5 Q530 934 573 950 L613 905 L613 905 Z " />
<glyph glyph-name="Scedilla" unicode="&#x15e;" horiz-adv-x="552" d="M522 545 L465 545 Q467 557 468 568 Q469 579 469 590 Q469 609 459 623.5 Q449 638 433.5 648.5 Q418 659 399.5 664.5 Q381 670 364 670 Q337 670 316.5 664 Q296 658 275 641 Q256 626 245.5 607 Q235 588 235 562 Q235 537 247.5 518.5 Q260 500 280 483 Q299 469 321.5 456.5 Q344 444 379 424 Q406 409 432.5 391 Q459 373 480 349.5 Q501 326 513.5 295.5 Q526 265 526 225 Q526 197 517 169.5 Q508 142 494 118 Q471 80 442 55 Q413 30 379 15 Q345 0 306.5 -6.5 Q268 -13 226 -13 Q179 -13 133.5 -8 Q88 -3 40 3 L67 177 L125 177 Q122 157 122 143 Q122 116 132 95.5 Q142 75 158.5 61.5 Q175 48 197 41.5 Q219 35 244 35 Q271 35 297 43.5 Q323 52 343.5 68 Q364 84 376.5 106.5 Q389 129 389 158 Q389 204 363 233.5 Q337 263 302 286 Q272 306 238 325 Q204 344 175.5 367.5 Q147 391 128.5 422.5 Q110 454 110 498 Q110 522 115.5 544 Q121 566 132 588 Q167 659 230 690.5 Q293 722 369 722 Q413 722 456 715.5 Q499 709 544 701 L522 545 Z M314 -57 Q314 -71 310.5 -88 Q307 -105 298 -120 Q283 -146 265.5 -163.5 Q248 -181 228 -194.5 Q208 -208 185 -217.5 Q162 -227 135 -236 L116 -211 Q143 -187 159 -159 Q175 -131 175 -90 Q211 -81 244.5 -69 Q278 -57 312 -41 Q314 -46 314 -49 Q314 -52 314 -57 Z " />
<glyph glyph-name="Scommaaccent" unicode="&#x218;" horiz-adv-x="552" d="M522 545 L465 545 Q467 557 468 568 Q469 579 469 590 Q469 609 459 623.5 Q449 638 433.5 648.5 Q418 659 399.5 664.5 Q381 670 364 670 Q337 670 316.5 664 Q296 658 275 641 Q256 626 245.5 607 Q235 588 235 562 Q235 537 247.5 518.5 Q260 500 280 483 Q299 469 321.5 456.5 Q344 444 379 424 Q406 409 432.5 391 Q459 373 480 349.5 Q501 326 513.5 295.5 Q526 265 526 225 Q526 197 517 169.5 Q508 142 494 118 Q471 80 442 55 Q413 30 379 15 Q345 0 306.5 -6.5 Q268 -13 226 -13 Q179 -13 133.5 -8 Q88 -3 40 3 L67 177 L125 177 Q122 157 122 143 Q122 116 132 95.5 Q142 75 158.5 61.5 Q175 48 197 41.5 Q219 35 244 35 Q271 35 297 43.5 Q323 52 343.5 68 Q364 84 376.5 106.5 Q389 129 389 158 Q389 204 363 233.5 Q337 263 302 286 Q272 306 238 325 Q204 344 175.5 367.5 Q147 391 128.5 422.5 Q110 454 110 498 Q110 522 115.5 544 Q121 566 132 588 Q167 659 230 690.5 Q293 722 369 722 Q413 722 456 715.5 Q499 709 544 701 L522 545 Z M314 -57 Q314 -71 310.5 -88 Q307 -105 298 -120 Q283 -146 265.5 -163.5 Q248 -181 228 -194.5 Q208 -208 185 -217.5 Q162 -227 135 -236 L116 -211 Q143 -187 159 -159 Q175 -131 175 -90 Q211 -81 244.5 -69 Q278 -57 312 -41 Q314 -46 314 -49 Q314 -52 314 -57 Z " />
<glyph glyph-name="Tcaron" unicode="&#x164;" horiz-adv-x="645" d="M699 542 L641 542 Q647 559 650.5 574.5 Q654 590 654 607 Q654 624 646 633.5 Q638 643 625 648 Q612 653 597 654.5 Q582 656 569 656 Q548 656 526 655 Q504 654 483 653 L390 186 Q385 161 380 136.5 Q375 112 375 87 Q375 60 393.5 50.5 Q412 41 437 41 L464 41 L449 -3 Q411 -1 373 -0.5 Q335 0 297 0 Q254 0 210.5 -1 Q167 -2 122 -4 L133 44 Q155 45 174.5 48.5 Q194 52 209 67 Q218 77 224.5 93 Q231 109 235.5 126.5 Q240 144 243 161.5 Q246 179 249 192 L341 657 Q332 658 323.5 658 Q315 658 307 658 Q273 658 244 654.5 Q215 651 192.5 638.5 Q170 626 155.5 603 Q141 580 137 541 L80 541 L103 707 Q181 705 259.5 705.5 Q338 706 428 706 Q453 706 479.5 706 Q506 706 541 706.5 Q576 707 622 707 Q668 707 732 707 L699 542 Z M658 905 Q633 896 606.5 881 Q580 866 555.5 847.5 Q531 829 511 807.5 Q491 786 479 763 L368 763 Q379 793 379 818 Q379 844 369 869 Q359 894 342 916 L380 946 Q403 933 422 911.5 Q441 890 455 868 Q490 897 532.5 915.5 Q575 934 618 950 L658 905 L658 905 Z " />
<glyph glyph-name="Tcommaaccent" unicode="&#x162;" horiz-adv-x="645" d="M699 542 L641 542 Q647 559 650.5 574.5 Q654 590 654 607 Q654 624 646 633.5 Q638 643 625 648 Q612 653 597 654.5 Q582 656 569 656 Q548 656 526 655 Q504 654 483 653 L390 186 Q385 161 380 136.5 Q375 112 375 87 Q375 60 393.5 50.5 Q412 41 437 41 L464 41 L449 -3 Q411 -1 373 -0.5 Q335 0 297 0 Q254 0 210.5 -1 Q167 -2 122 -4 L133 44 Q155 45 174.5 48.5 Q194 52 209 67 Q218 77 224.5 93 Q231 109 235.5 126.5 Q240 144 243 161.5 Q246 179 249 192 L341 657 Q332 658 323.5 658 Q315 658 307 658 Q273 658 244 654.5 Q215 651 192.5 638.5 Q170 626 155.5 603 Q141 580 137 541 L80 541 L103 707 Q181 705 259.5 705.5 Q338 706 428 706 Q453 706 479.5 706 Q506 706 541 706.5 Q576 707 622 707 Q668 707 732 707 L699 542 Z M331 -57 Q331 -71 327.5 -88 Q324 -105 315 -120 Q300 -146 282.5 -163.5 Q265 -181 245 -194.5 Q225 -208 202 -217.5 Q179 -227 152 -236 L133 -211 Q160 -187 176 -159 Q192 -131 192 -90 Q228 -81 261.5 -69 Q295 -57 329 -41 Q331 -46 331 -49 Q331 -52 331 -57 Z " />
<glyph glyph-name="uni021A" unicode="&#x21a;" horiz-adv-x="645" d="M699 542 L641 542 Q647 559 650.5 574.5 Q654 590 654 607 Q654 624 646 633.5 Q638 643 625 648 Q612 653 597 654.5 Q582 656 569 656 Q548 656 526 655 Q504 654 483 653 L390 186 Q385 161 380 136.5 Q375 112 375 87 Q375 60 393.5 50.5 Q412 41 437 41 L464 41 L449 -3 Q411 -1 373 -0.5 Q335 0 297 0 Q254 0 210.5 -1 Q167 -2 122 -4 L133 44 Q155 45 174.5 48.5 Q194 52 209 67 Q218 77 224.5 93 Q231 109 235.5 126.5 Q240 144 243 161.5 Q246 179 249 192 L341 657 Q332 658 323.5 658 Q315 658 307 658 Q273 658 244 654.5 Q215 651 192.5 638.5 Q170 626 155.5 603 Q141 580 137 541 L80 541 L103 707 Q181 705 259.5 705.5 Q338 706 428 706 Q453 706 479.5 706 Q506 706 541 706.5 Q576 707 622 707 Q668 707 732 707 L699 542 Z M331 -57 Q331 -71 327.5 -88 Q324 -105 315 -120 Q300 -146 282.5 -163.5 Q265 -181 245 -194.5 Q225 -208 202 -217.5 Q179 -227 152 -236 L133 -211 Q160 -187 176 -159 Q192 -131 192 -90 Q228 -81 261.5 -69 Q295 -57 329 -41 Q331 -46 331 -49 Q331 -52 331 -57 Z " />
<glyph glyph-name="Ugrave" unicode="&#xd9;" horiz-adv-x="781" d="M852 667 Q832 666 814.5 662.5 Q797 659 785 644 Q771 627 765 604.5 Q759 582 754 561 L682 233 Q670 178 645.5 132 Q621 86 582 53 Q543 20 489.5 1.5 Q436 -17 366 -17 Q315 -17 269 -4 Q223 9 188 35.5 Q153 62 132 101 Q111 140 111 191 Q111 229 118.5 269.5 Q126 310 134 349 L177 571 Q179 582 181 593.5 Q183 605 183 617 Q183 630 178 638 Q173 646 165 651 Q157 656 147 658.5 Q137 661 127 661 Q119 662 112.5 662 Q106 662 98 662 L107 711 Q139 708 175.5 707 Q212 706 243 706 Q294 706 339 705.5 Q384 705 437 710 L427 665 L408 665 Q390 665 375.5 661.5 Q361 658 347 647 Q336 638 327 619 Q321 608 313.5 576 Q306 544 298 505 L256 280 Q252 260 249.5 240.5 Q247 221 247 201 Q247 129 288 85 Q329 41 403 41 Q443 41 479.5 52.5 Q516 64 545 91 Q573 117 592 151 Q611 185 623.5 223 Q636 261 643.5 300 Q651 339 658 375 L695 567 Q698 581 700.5 595 Q703 609 703 622 Q703 648 686 656 Q669 664 648 664 L618 664 L626 708 Q647 707 674 706.5 Q701 706 724 706 L773 706 Q795 706 816.5 707 Q838 708 862 709 L852 667 Z M544 768 Q504 780 472.5 795.5 Q441 811 415 829 Q389 847 367 868 Q345 889 324 912 Q361 919 392 927.5 Q423 936 457 948 Q467 924 477.5 905 Q488 886 501.5 869 Q515 852 533 836 Q551 820 577 803 L544 768 Z " />
<glyph glyph-name="Uacute" unicode="&#xda;" horiz-adv-x="781" d="M852 667 Q832 666 814.5 662.5 Q797 659 785 644 Q771 627 765 604.5 Q759 582 754 561 L682 233 Q670 178 645.5 132 Q621 86 582 53 Q543 20 489.5 1.5 Q436 -17 366 -17 Q315 -17 269 -4 Q223 9 188 35.5 Q153 62 132 101 Q111 140 111 191 Q111 229 118.5 269.5 Q126 310 134 349 L177 571 Q179 582 181 593.5 Q183 605 183 617 Q183 630 178 638 Q173 646 165 651 Q157 656 147 658.5 Q137 661 127 661 Q119 662 112.5 662 Q106 662 98 662 L107 711 Q139 708 175.5 707 Q212 706 243 706 Q294 706 339 705.5 Q384 705 437 710 L427 665 L408 665 Q390 665 375.5 661.5 Q361 658 347 647 Q336 638 327 619 Q321 608 313.5 576 Q306 544 298 505 L256 280 Q252 260 249.5 240.5 Q247 221 247 201 Q247 129 288 85 Q329 41 403 41 Q443 41 479.5 52.5 Q516 64 545 91 Q573 117 592 151 Q611 185 623.5 223 Q636 261 643.5 300 Q651 339 658 375 L695 567 Q698 581 700.5 595 Q703 609 703 622 Q703 648 686 656 Q669 664 648 664 L618 664 L626 708 Q647 707 674 706.5 Q701 706 724 706 L773 706 Q795 706 816.5 707 Q838 708 862 709 L852 667 Z M728 910 Q701 879 677.5 858 Q654 837 629 821.5 Q604 806 576 794 Q548 782 511 769 L481 801 Q506 817 523.5 831 Q541 845 554.5 861.5 Q568 878 578.5 897.5 Q589 917 600 944 Q634 932 662.5 924 Q691 916 728 910 Z " />
<glyph glyph-name="Ucircumflex" unicode="&#xdb;" horiz-adv-x="781" d="M852 667 Q832 666 814.5 662.5 Q797 659 785 644 Q771 627 765 604.5 Q759 582 754 561 L682 233 Q670 178 645.5 132 Q621 86 582 53 Q543 20 489.5 1.5 Q436 -17 366 -17 Q315 -17 269 -4 Q223 9 188 35.5 Q153 62 132 101 Q111 140 111 191 Q111 229 118.5 269.5 Q126 310 134 349 L177 571 Q179 582 181 593.5 Q183 605 183 617 Q183 630 178 638 Q173 646 165 651 Q157 656 147 658.5 Q137 661 127 661 Q119 662 112.5 662 Q106 662 98 662 L107 711 Q139 708 175.5 707 Q212 706 243 706 Q294 706 339 705.5 Q384 705 437 710 L427 665 L408 665 Q390 665 375.5 661.5 Q361 658 347 647 Q336 638 327 619 Q321 608 313.5 576 Q306 544 298 505 L256 280 Q252 260 249.5 240.5 Q247 221 247 201 Q247 129 288 85 Q329 41 403 41 Q443 41 479.5 52.5 Q516 64 545 91 Q573 117 592 151 Q611 185 623.5 223 Q636 261 643.5 300 Q651 339 658 375 L695 567 Q698 581 700.5 595 Q703 609 703 622 Q703 648 686 656 Q669 664 648 664 L618 664 L626 708 Q647 707 674 706.5 Q701 706 724 706 L773 706 Q795 706 816.5 707 Q838 708 862 709 L852 667 Z M654 763 Q631 783 612.5 800 Q594 817 578 843 Q570 837 562.5 831 Q555 825 546 819 Q515 800 482 786.5 Q449 773 415 760 L376 804 Q389 810 401 815.5 Q413 821 424 827 Q463 848 497.5 878.5 Q532 909 555 948 L665 948 Q660 933 657.5 920.5 Q655 908 655 895 Q655 865 664.5 842.5 Q674 820 692 795 L654 763 Z " />
<glyph glyph-name="Udieresis" unicode="&#xdc;" horiz-adv-x="781" d="M852 667 Q832 666 814.5 662.5 Q797 659 785 644 Q771 627 765 604.5 Q759 582 754 561 L682 233 Q670 178 645.5 132 Q621 86 582 53 Q543 20 489.5 1.5 Q436 -17 366 -17 Q315 -17 269 -4 Q223 9 188 35.5 Q153 62 132 101 Q111 140 111 191 Q111 229 118.5 269.5 Q126 310 134 349 L177 571 Q179 582 181 593.5 Q183 605 183 617 Q183 630 178 638 Q173 646 165 651 Q157 656 147 658.5 Q137 661 127 661 Q119 662 112.5 662 Q106 662 98 662 L107 711 Q139 708 175.5 707 Q212 706 243 706 Q294 706 339 705.5 Q384 705 437 710 L427 665 L408 665 Q390 665 375.5 661.5 Q361 658 347 647 Q336 638 327 619 Q321 608 313.5 576 Q306 544 298 505 L256 280 Q252 260 249.5 240.5 Q247 221 247 201 Q247 129 288 85 Q329 41 403 41 Q443 41 479.5 52.5 Q516 64 545 91 Q573 117 592 151 Q611 185 623.5 223 Q636 261 643.5 300 Q651 339 658 375 L695 567 Q698 581 700.5 595 Q703 609 703 622 Q703 648 686 656 Q669 664 648 664 L618 664 L626 708 Q647 707 674 706.5 Q701 706 724 706 L773 706 Q795 706 816.5 707 Q838 708 862 709 L852 667 Z M498 870 Q498 834 473 809 Q448 784 415 784 Q393 784 376 798 Q359 812 359 835 Q359 873 384.5 899 Q410 925 444 925 Q468 925 483 909 Q498 893 498 870 Z M718 870 Q718 834 693 809 Q668 784 635 784 Q613 784 596 798 Q579 812 579 835 Q579 873 604.5 899 Q630 925 664 925 Q688 925 703 909 Q718 893 718 870 Z " />
<glyph glyph-name="Umacron" unicode="&#x16a;" horiz-adv-x="781" d="M852 667 Q832 666 814.5 662.5 Q797 659 785 644 Q771 627 765 604.5 Q759 582 754 561 L682 233 Q670 178 645.5 132 Q621 86 582 53 Q543 20 489.5 1.5 Q436 -17 366 -17 Q315 -17 269 -4 Q223 9 188 35.5 Q153 62 132 101 Q111 140 111 191 Q111 229 118.5 269.5 Q126 310 134 349 L177 571 Q179 582 181 593.5 Q183 605 183 617 Q183 630 178 638 Q173 646 165 651 Q157 656 147 658.5 Q137 661 127 661 Q119 662 112.5 662 Q106 662 98 662 L107 711 Q139 708 175.5 707 Q212 706 243 706 Q294 706 339 705.5 Q384 705 437 710 L427 665 L408 665 Q390 665 375.5 661.5 Q361 658 347 647 Q336 638 327 619 Q321 608 313.5 576 Q306 544 298 505 L256 280 Q252 260 249.5 240.5 Q247 221 247 201 Q247 129 288 85 Q329 41 403 41 Q443 41 479.5 52.5 Q516 64 545 91 Q573 117 592 151 Q611 185 623.5 223 Q636 261 643.5 300 Q651 339 658 375 L695 567 Q698 581 700.5 595 Q703 609 703 622 Q703 648 686 656 Q669 664 648 664 L618 664 L626 708 Q647 707 674 706.5 Q701 706 724 706 L773 706 Q795 706 816.5 707 Q838 708 862 709 L852 667 Z M379 812 L379 896 L713 896 L713 812 L379 812 Z " />
<glyph glyph-name="Uring" unicode="&#x16e;" horiz-adv-x="781" d="M852 667 Q832 666 814.5 662.5 Q797 659 785 644 Q771 627 765 604.5 Q759 582 754 561 L682 233 Q670 178 645.5 132 Q621 86 582 53 Q543 20 489.5 1.5 Q436 -17 366 -17 Q315 -17 269 -4 Q223 9 188 35.5 Q153 62 132 101 Q111 140 111 191 Q111 229 118.5 269.5 Q126 310 134 349 L177 571 Q179 582 181 593.5 Q183 605 183 617 Q183 630 178 638 Q173 646 165 651 Q157 656 147 658.5 Q137 661 127 661 Q119 662 112.5 662 Q106 662 98 662 L107 711 Q139 708 175.5 707 Q212 706 243 706 Q294 706 339 705.5 Q384 705 437 710 L427 665 L408 665 Q390 665 375.5 661.5 Q361 658 347 647 Q336 638 327 619 Q321 608 313.5 576 Q306 544 298 505 L256 280 Q252 260 249.5 240.5 Q247 221 247 201 Q247 129 288 85 Q329 41 403 41 Q443 41 479.5 52.5 Q516 64 545 91 Q573 117 592 151 Q611 185 623.5 223 Q636 261 643.5 300 Q651 339 658 375 L695 567 Q698 581 700.5 595 Q703 609 703 622 Q703 648 686 656 Q669 664 648 664 L618 664 L626 708 Q647 707 674 706.5 Q701 706 724 706 L773 706 Q795 706 816.5 707 Q838 708 862 709 L852 667 Z M646 831 Q646 809 637.5 790 Q629 771 614.5 756.5 Q600 742 581 733.5 Q562 725 540 725 Q518 725 499 733.5 Q480 742 465.5 756.5 Q451 771 442.5 790 Q434 809 434 831 Q434 853 442.5 872 Q451 891 465.5 905.5 Q480 920 499 928.5 Q518 937 540 937 Q562 937 581 928.5 Q600 920 614.5 905.5 Q629 891 637.5 872 Q646 853 646 831 Z M596 831 Q596 854 579.5 870.5 Q563 887 540 887 Q517 887 500.5 870.5 Q484 854 484 831 Q484 808 500.5 791.5 Q517 775 540 775 Q563 775 579.5 791.5 Q596 808 596 831 Z " />
<glyph glyph-name="Uhungarumlaut" unicode="&#x170;" horiz-adv-x="781" d="M852 667 Q832 666 814.5 662.5 Q797 659 785 644 Q771 627 765 604.5 Q759 582 754 561 L682 233 Q670 178 645.5 132 Q621 86 582 53 Q543 20 489.5 1.5 Q436 -17 366 -17 Q315 -17 269 -4 Q223 9 188 35.5 Q153 62 132 101 Q111 140 111 191 Q111 229 118.5 269.5 Q126 310 134 349 L177 571 Q179 582 181 593.5 Q183 605 183 617 Q183 630 178 638 Q173 646 165 651 Q157 656 147 658.5 Q137 661 127 661 Q119 662 112.5 662 Q106 662 98 662 L107 711 Q139 708 175.5 707 Q212 706 243 706 Q294 706 339 705.5 Q384 705 437 710 L427 665 L408 665 Q390 665 375.5 661.5 Q361 658 347 647 Q336 638 327 619 Q321 608 313.5 576 Q306 544 298 505 L256 280 Q252 260 249.5 240.5 Q247 221 247 201 Q247 129 288 85 Q329 41 403 41 Q443 41 479.5 52.5 Q516 64 545 91 Q573 117 592 151 Q611 185 623.5 223 Q636 261 643.5 300 Q651 339 658 375 L695 567 Q698 581 700.5 595 Q703 609 703 622 Q703 648 686 656 Q669 664 648 664 L618 664 L626 708 Q647 707 674 706.5 Q701 706 724 706 L773 706 Q795 706 816.5 707 Q838 708 862 709 L852 667 Z M790 914 Q763 883 739 862 Q715 841 690.5 825.5 Q666 810 637.5 798 Q609 786 572 773 L543 805 Q568 821 585.5 835 Q603 849 616 865.5 Q629 882 640 901.5 Q651 921 662 948 Q696 936 724 928 Q752 920 790 914 Z M598 914 Q571 883 547 862 Q523 841 498.5 825.5 Q474 810 445.5 798 Q417 786 380 773 L351 805 Q376 821 393.5 835 Q411 849 424 865.5 Q437 882 448 901.5 Q459 921 470 948 Q504 936 532 928 Q560 920 598 914 Z " />
<glyph glyph-name="Uogonek" unicode="&#x172;" horiz-adv-x="781" d="M452 -172 Q444 -182 431 -190.5 Q418 -199 402.5 -205.5 Q387 -212 369.5 -216 Q352 -220 336 -220 Q290 -220 261.5 -201.5 Q233 -183 233 -137 Q233 -111 249 -87.5 Q265 -64 288 -45 Q310 -28 332 -15 Q299 -12 269 -4 Q223 9 188 35.5 Q153 62 132 101 Q111 140 111 191 Q111 229 118.5 269.5 Q126 310 134 349 L177 571 Q179 582 181 593.5 Q183 605 183 617 Q183 630 178 638 Q173 646 165 651 Q157 656 147 658.5 Q137 661 127 661 Q119 662 112 662 L98 662 L107 711 Q139 708 175.5 707 Q212 706 243 706 Q294 706 339 705.5 Q384 705 437 710 L427 665 L408 665 Q390 665 375.5 661.5 Q361 658 347 647 Q336 638 327 619 Q321 608 313.5 576 Q306 544 298 505 L256 280 Q252 260 249.5 240.5 Q247 221 247 201 Q247 129 288 85 Q329 41 403 41 Q443 41 479.5 52.5 Q516 64 545 91 Q573 117 592 151 Q611 185 623.5 223 Q636 261 643.5 300 Q651 339 658 375 L695 567 Q698 581 700.5 595 Q703 609 703 622 Q703 648 686 656 Q669 664 648 664 L618 664 L626 708 Q647 707 674 706.5 Q701 706 724 706 L773 706 Q795 706 816.5 707 Q838 708 862 709 L852 667 Q832 666 814.5 662.5 Q797 659 785 644 Q771 627 765 604.5 Q759 582 754 561 L682 233 Q670 178 645.5 132 Q621 86 582 53 Q543 20 489 1 Q449 -12 400 -16 Q387 -28 376 -39 Q358 -59 348 -75 Q338 -91 334.5 -104 Q331 -117 331 -128 Q331 -151 341 -161 Q351 -171 368 -171 Q402 -171 431 -148 L452 -172 Z " />
<glyph glyph-name="Yacute" unicode="&#xdd;" horiz-adv-x="698" d="M783 672 Q754 670 737 663.5 Q720 657 700 637 Q686 622 674.5 604.5 Q663 587 651 570 Q601 499 552 429.5 Q503 360 455 288 Q449 258 443.5 228 Q438 198 432 169 Q428 149 423 130 Q418 111 418 91 Q418 63 436.5 55.5 Q455 48 476 48 L478 48 Q486 48 493.5 48.5 Q501 49 510 50 L498 1 Q476 1 455.5 1.5 Q435 2 415 2 Q354 2 293 1 Q232 0 169 -2 L177 43 L196 43 Q213 43 228.5 46 Q244 49 257 62 Q271 76 275.5 93 Q280 110 284 128 Q292 166 298.5 202.5 Q305 239 312 277 Q283 358 254 438.5 Q225 519 192 599 Q184 617 175 631.5 Q166 646 149 655 Q142 659 134 660 Q126 661 118 661 L99 661 L108 710 Q152 708 194.5 706.5 Q237 705 280 705 Q309 705 339 706.5 Q369 708 400 710 L393 665 Q388 665 383.5 665.5 Q379 666 375 666 Q360 666 349.5 658 Q339 650 339 633 Q339 617 346 600.5 Q353 584 358 570 L391 486 Q404 451 415.5 417 Q427 383 440 349 Q443 353 445.5 356 Q448 359 450 362 Q456 370 460.5 378 Q465 386 470 394 Q481 411 491 427.5 Q501 444 512 461 Q532 495 553.5 528 Q575 561 595 596 Q601 606 607.5 619.5 Q614 633 614 644 Q614 660 605.5 665 Q597 670 584 671 Q579 672 574.5 672 Q570 672 565 672 L572 716 Q598 715 622.5 714.5 Q647 714 671 714 Q701 714 731 715 Q761 716 793 719 L783 672 Z M662 910 Q635 879 611.5 858 Q588 837 563 821.5 Q538 806 510 794 Q482 782 445 769 L415 801 Q440 817 457.5 831 Q475 845 488.5 861.5 Q502 878 512.5 897.5 Q523 917 534 944 Q568 932 596.5 924 Q625 916 662 910 Z " />
<glyph glyph-name="Ydieresis" unicode="&#x178;" horiz-adv-x="698" d="M783 672 Q754 670 737 663.5 Q720 657 700 637 Q686 622 674.5 604.5 Q663 587 651 570 Q601 499 552 429.5 Q503 360 455 288 Q449 258 443.5 228 Q438 198 432 169 Q428 149 423 130 Q418 111 418 91 Q418 63 436.5 55.5 Q455 48 476 48 L478 48 Q486 48 493.5 48.5 Q501 49 510 50 L498 1 Q476 1 455.5 1.5 Q435 2 415 2 Q354 2 293 1 Q232 0 169 -2 L177 43 L196 43 Q213 43 228.5 46 Q244 49 257 62 Q271 76 275.5 93 Q280 110 284 128 Q292 166 298.5 202.5 Q305 239 312 277 Q283 358 254 438.5 Q225 519 192 599 Q184 617 175 631.5 Q166 646 149 655 Q142 659 134 660 Q126 661 118 661 L99 661 L108 710 Q152 708 194.5 706.5 Q237 705 280 705 Q309 705 339 706.5 Q369 708 400 710 L393 665 Q388 665 383.5 665.5 Q379 666 375 666 Q360 666 349.5 658 Q339 650 339 633 Q339 617 346 600.5 Q353 584 358 570 L391 486 Q404 451 415.5 417 Q427 383 440 349 Q443 353 445.5 356 Q448 359 450 362 Q456 370 460.5 378 Q465 386 470 394 Q481 411 491 427.5 Q501 444 512 461 Q532 495 553.5 528 Q575 561 595 596 Q601 606 607.5 619.5 Q614 633 614 644 Q614 660 605.5 665 Q597 670 584 671 Q579 672 574.5 672 Q570 672 565 672 L572 716 Q598 715 622.5 714.5 Q647 714 671 714 Q701 714 731 715 Q761 716 793 719 L783 672 Z M454 870 Q454 834 429 809 Q404 784 371 784 Q349 784 332 798 Q315 812 315 835 Q315 873 340.5 899 Q366 925 400 925 Q424 925 439 909 Q454 893 454 870 Z M674 870 Q674 834 649 809 Q624 784 591 784 Q569 784 552 798 Q535 812 535 835 Q535 873 560.5 899 Q586 925 620 925 Q644 925 659 909 Q674 893 674 870 Z " />
<glyph glyph-name="Zacute" unicode="&#x179;" horiz-adv-x="677" d="M719 715 Q593 546 468.5 382.5 Q344 219 219 53 Q265 54 309.5 55 Q354 56 400 58 Q420 59 439.5 60 Q459 61 477 65 Q495 69 512.5 77 Q530 85 545 100 Q565 118 576.5 137 Q588 156 599 181 L649 181 L612 0 Q523 2 436.5 2 Q350 2 262 2 Q223 2 184 1.5 Q145 1 105 1 Q81 1 56 0.5 Q31 0 4 -1 Q14 13 23.5 25 Q33 37 41 48 Q59 71 75.5 93 Q92 115 109 138 Q165 211 220 284 Q275 357 331 431 Q357 465 381.5 498.5 Q406 532 432 566 Q450 589 468 612.5 Q486 636 503 660 L448 660 Q419 660 386 659 Q353 658 322 654 Q291 650 264 642.5 Q237 635 220 622 Q198 605 188.5 587 Q179 569 170 542 L115 545 L146 716 Q178 715 208.5 714 Q239 713 270 713 Q312 713 354.5 713.5 Q397 714 439 714 Q481 714 521.5 713.5 Q562 713 604 713 Q632 713 660 713 Q688 713 719 715 Z M632 910 Q605 879 581.5 858 Q558 837 533 821.5 Q508 806 480 794 Q452 782 415 769 L385 801 Q410 817 427.5 831 Q445 845 458.5 861.5 Q472 878 482.5 897.5 Q493 917 504 944 Q538 932 566.5 924 Q595 916 632 910 Z " />
<glyph glyph-name="Zcaron" unicode="&#x17d;" horiz-adv-x="677" d="M719 715 Q593 546 468.5 382.5 Q344 219 219 53 Q265 54 309.5 55 Q354 56 400 58 Q420 59 439.5 60 Q459 61 477 65 Q495 69 512.5 77 Q530 85 545 100 Q565 118 576.5 137 Q588 156 599 181 L649 181 L612 0 Q523 2 436.5 2 Q350 2 262 2 Q223 2 184 1.5 Q145 1 105 1 Q81 1 56 0.5 Q31 0 4 -1 Q14 13 23.5 25 Q33 37 41 48 Q59 71 75.5 93 Q92 115 109 138 Q165 211 220 284 Q275 357 331 431 Q357 465 381.5 498.5 Q406 532 432 566 Q450 589 468 612.5 Q486 636 503 660 L448 660 Q419 660 386 659 Q353 658 322 654 Q291 650 264 642.5 Q237 635 220 622 Q198 605 188.5 587 Q179 569 170 542 L115 545 L146 716 Q178 715 208.5 714 Q239 713 270 713 Q312 713 354.5 713.5 Q397 714 439 714 Q481 714 521.5 713.5 Q562 713 604 713 Q632 713 660 713 Q688 713 719 715 Z M681 905 Q656 896 629.5 881 Q603 866 578.5 847.5 Q554 829 534 807.5 Q514 786 502 763 L391 763 Q402 793 402 818 Q402 844 392 869 Q382 894 365 916 L403 946 Q426 933 445 911.5 Q464 890 478 868 Q513 897 555.5 915.5 Q598 934 641 950 L681 905 L681 905 Z " />
<glyph glyph-name="Zdotaccent" unicode="&#x17b;" horiz-adv-x="677" d="M719 715 Q593 546 468.5 382.5 Q344 219 219 53 Q265 54 309.5 55 Q354 56 400 58 Q420 59 439.5 60 Q459 61 477 65 Q495 69 512.5 77 Q530 85 545 100 Q565 118 576.5 137 Q588 156 599 181 L649 181 L612 0 Q523 2 436.5 2 Q350 2 262 2 Q223 2 184 1.5 Q145 1 105 1 Q81 1 56 0.5 Q31 0 4 -1 Q14 13 23.5 25 Q33 37 41 48 Q59 71 75.5 93 Q92 115 109 138 Q165 211 220 284 Q275 357 331 431 Q357 465 381.5 498.5 Q406 532 432 566 Q450 589 468 612.5 Q486 636 503 660 L448 660 Q419 660 386 659 Q353 658 322 654 Q291 650 264 642.5 Q237 635 220 622 Q198 605 188.5 587 Q179 569 170 542 L115 545 L146 716 Q178 715 208.5 714 Q239 713 270 713 Q312 713 354.5 713.5 Q397 714 439 714 Q481 714 521.5 713.5 Q562 713 604 713 Q632 713 660 713 Q688 713 719 715 Z M529 859 Q529 823 504 798 Q479 773 446 773 Q424 773 407 787 Q390 801 390 824 Q390 862 415.5 888 Q441 914 475 914 Q499 914 514 898 Q529 882 529 859 Z " />
<glyph glyph-name="Eth" unicode="&#xd0;" horiz-adv-x="843" d="M59 332 L70 390 L485 390 L474 332 L59 332 Z M854 418 Q854 316 806.5 229.5 Q759 143 679 82 Q655 64 630.5 49.5 Q606 35 577 24 Q532 7 490 2 Q448 -3 401 -3 Q345 -3 289.5 -1.5 Q234 0 178 0 Q135 0 92.5 -1 Q50 -2 5 -4 L12 44 L45 44 Q70 44 86 63 Q93 72 99 88.5 Q105 105 109.5 123 Q114 141 117.5 158.5 Q121 176 123 188 L190 527 Q197 561 199.5 579.5 Q202 598 202 618 Q202 638 190.5 648.5 Q179 659 160 659 Q151 659 140 659 Q129 659 118 658 L129 708 Q142 708 170.5 707.5 Q199 707 230 706.5 Q261 706 289 706 Q317 706 329 706 L432 706 Q487 706 541.5 703.5 Q596 701 645.5 688 Q695 675 737.5 648 Q780 621 812 572 Q834 538 844 498 Q854 458 854 418 Z M700 406 Q700 490 658.5 550.5 Q617 611 537 638 Q507 649 472.5 652 Q438 655 406 655 Q393 655 380 655 Q367 655 354 654 Q331 535 306.5 419 Q282 303 259 184 Q255 165 252 147 Q249 129 249 110 Q249 72 271.5 58 Q294 44 336 44 L363 44 Q409 44 444 51.5 Q479 59 520 80 Q565 103 598.5 138.5 Q632 174 654.5 217 Q677 260 688.5 308.5 Q700 357 700 406 Z " />
<glyph glyph-name="Thorn" unicode="&#xde;" horiz-adv-x="608" d="M622 409 Q622 364 603.5 322 Q585 280 552 250 Q529 229 501 215.5 Q473 202 443 195 Q413 188 382 185.5 Q351 183 321 183 Q305 183 289 183.5 Q273 184 257 185 Q252 162 247 139.5 Q242 117 242 94 Q242 74 248 62.5 Q254 51 265 46 Q276 41 290.5 39.5 Q305 38 323 38 L315 -4 Q281 -2 249 -1 Q217 0 185 0 Q139 0 93.5 -1.5 Q48 -3 0 -3 L10 41 L22 41 Q41 41 55 45.5 Q69 50 83 64 Q99 82 105.5 113.5 Q112 145 121 190 L181 489 Q188 521 195 554 Q202 587 202 620 Q202 649 183.5 658.5 Q165 668 140 668 L119 668 L127 710 Q165 708 200.5 707 Q236 706 272 706 Q315 706 358 707 Q401 708 446 710 L438 667 Q422 667 408.5 666 Q395 665 383 658 Q372 652 363 641.5 Q354 631 347.5 618 Q341 605 337 590.5 Q333 576 332 564 Q352 565 372 565.5 Q392 566 409 566 Q447 566 486 561.5 Q525 557 556 537 Q588 516 605 481.5 Q622 447 622 409 Z M483 404 Q483 433 469 460 Q455 487 430 503 Q414 514 397.5 517 Q381 520 362 520 Q350 520 341.5 519.5 Q333 519 323 518 L267 238 Q283 236 297 235.5 Q311 235 330 235 Q366 235 394 248.5 Q422 262 442 285.5 Q462 309 472.5 339.5 Q483 370 483 404 Z " />
<glyph glyph-name="a" unicode="a" horiz-adv-x="579" d="M584 98 Q567 80 543.5 61 Q520 42 494.5 26 Q469 10 442.5 -0.5 Q416 -11 393 -11 Q361 -11 347 8 Q333 27 333 58 Q333 65 334 75 Q335 85 336.5 95.5 Q338 106 340 116 Q342 126 344 133 Q321 102 295.5 76 Q270 50 243 30.5 Q216 11 186.5 0 Q157 -11 125 -11 Q80 -11 56 16.5 Q32 44 32 89 Q32 144 54 198.5 Q76 253 112 302 Q148 351 194.5 390 Q241 429 290 452 Q324 468 367 478.5 Q410 489 470 489 Q489 489 515.5 488.5 Q542 488 567 486 Q562 471 552 440 Q542 409 529.5 370 Q517 331 503.5 289 Q490 247 479.5 209.5 Q469 172 462 144 Q455 116 455 105 Q455 94 458 86.5 Q461 79 472 79 Q482 79 494.5 85 Q507 91 518.5 99.5 Q530 108 540 117 Q550 126 556 132 L584 98 Z M435 441 Q409 441 384.5 434.5 Q360 428 330 410 Q298 391 268.5 356 Q239 321 216 279 Q193 237 179.5 194.5 Q166 152 166 118 Q166 98 174 84.5 Q182 71 203 71 Q216 71 230 78.5 Q244 86 257 97.5 Q270 109 283 124 Q296 139 308 154 Q330 182 348 216 Q366 250 382 287.5 Q398 325 411 364 Q424 403 435 441 Z " />
<glyph glyph-name="b" unicode="b" horiz-adv-x="571" d="M558 378 Q558 338 543.5 293.5 Q529 249 503 205.5 Q477 162 440.5 123 Q404 84 359.5 54 Q315 24 264 6.5 Q213 -11 159 -11 Q139 -11 120 -6.5 Q101 -2 86.5 7.5 Q72 17 63 33 Q54 49 54 73 Q54 93 57.5 117 Q61 141 67 165 L177 600 Q182 622 185.5 640 Q189 658 189 672 Q189 694 175.5 699.5 Q162 705 145 705 Q139 705 132.5 704.5 Q126 704 117 704 L125 750 Q180 752 233.5 759 Q287 766 341 778 L231 355 Q252 383 277.5 408.5 Q303 434 331.5 453.5 Q360 473 391.5 484.5 Q423 496 456 496 Q510 496 534 461.5 Q558 427 558 378 Z M428 357 Q428 381 420 399.5 Q412 418 390 418 Q367 418 342 401.5 Q317 385 293 358 Q269 331 247.5 297 Q226 263 210 227.5 Q194 192 184.5 158.5 Q175 125 175 100 Q175 74 185 60 Q195 46 218 46 Q246 46 272.5 62 Q299 78 322.5 104 Q346 130 365.5 163 Q385 196 399 231 Q413 266 420.5 298.5 Q428 331 428 357 Z " />
<glyph glyph-name="c" unicode="c" horiz-adv-x="452" d="M443 367 L378 367 L378 382 Q378 404 371 421 Q364 438 338 438 Q302 438 271.5 410 Q241 382 218.5 341.5 Q196 301 183 256 Q170 211 170 176 Q170 133 187.5 107.5 Q205 82 246 82 Q283 82 315.5 106.5 Q348 131 391 187 L431 164 Q407 127 380 95 Q353 63 321.5 39 Q290 15 253.5 1 Q217 -13 173 -13 Q140 -13 115.5 -2 Q91 9 75 28.5 Q59 48 51.5 74 Q44 100 44 129 Q44 184 62 236.5 Q80 289 110 333 Q140 377 179.5 411 Q219 445 263 463 Q298 477 330 482.5 Q362 488 408 488 Q424 488 439.5 487.5 Q455 487 467 486 L443 367 Z " />
<glyph glyph-name="d" unicode="d" horiz-adv-x="595" d="M505 232 Q493 184 484.5 153.5 Q476 123 476 105 Q476 93 479.5 84.5 Q483 76 497 76 Q506 76 517 81.5 Q528 87 538.5 94.5 Q549 102 558.5 111 Q568 120 574 126 L601 93 Q580 75 557 56 Q534 37 510 21 Q486 5 461 -5 Q436 -15 411 -15 Q385 -15 368 0 Q351 15 351 45 Q351 53 352.5 64.5 Q354 76 356 88 Q358 100 361 111.5 Q364 123 367 132 Q346 106 323 80.5 Q300 55 272 34.5 Q244 14 210.5 1 Q177 -12 137 -12 Q90 -12 65.5 16.5 Q41 45 41 91 Q41 166 77.5 237.5 Q114 309 172.5 364.5 Q231 420 304.5 454 Q378 488 452 488 L471 569 Q480 609 483.5 631.5 Q487 654 487 670 Q487 686 477 698 Q467 710 444 710 Q438 710 430 709.5 Q422 709 411 707 L422 753 Q476 753 530.5 760.5 Q585 768 641 778 L505 232 Z M441 444 Q385 444 336.5 413 Q288 382 252.5 334.5 Q217 287 196.5 231 Q176 175 176 126 Q176 104 186.5 88.5 Q197 73 220 73 Q251 73 281.5 98.5 Q312 124 337 160.5 Q362 197 380 237 Q398 277 406 307 L441 444 Z " />
<glyph glyph-name="e" unicode="e" horiz-adv-x="493" d="M499 390 Q499 343 470.5 309.5 Q442 276 396.5 255 Q351 234 293.5 225 Q236 216 178 218 Q176 207 175 198 Q174 189 174 181 Q174 121 193.5 90.5 Q213 60 257 60 Q278 60 300 68 Q322 76 343 89 Q364 102 383 118 Q402 134 417 150 L446 110 Q420 86 391.5 64 Q363 42 331.5 25.5 Q300 9 266.5 -1 Q233 -11 199 -11 Q126 -11 87 37 Q48 85 48 160 Q48 220 75.5 280.5 Q103 341 148.5 389 Q194 437 252.5 467 Q311 497 372 497 Q397 497 420.5 489.5 Q444 482 461 468.5 Q478 455 488.5 435 Q499 415 499 390 Z M346 449 Q320 449 296.5 431.5 Q273 414 252.5 387 Q232 360 215.5 326.5 Q199 293 189 261 Q235 261 272.5 271.5 Q310 282 336 300.5 Q362 319 376.5 345 Q391 371 391 403 Q391 424 377 436.5 Q363 449 346 449 Z " />
<glyph glyph-name="f" unicode="f" horiz-adv-x="316" d="M493 627 L423 627 Q431 643 439 660.5 Q447 678 447 693 Q447 707 433 715 Q419 723 405 723 Q391 723 380 719 Q355 710 341 683.5 Q327 657 319 633 Q311 611 306 594 Q301 577 297 560.5 Q293 544 289.5 526.5 Q286 509 282 486 L384 486 L370 434 L272 434 L239 291 Q229 247 219.5 204.5 Q210 162 197.5 120 Q185 78 168 37.5 Q151 -3 127 -41 Q101 -82 63 -115 Q25 -148 -26 -160 Q-40 -164 -55 -165 Q-70 -166 -84 -166 Q-80 -145 -79 -124.5 Q-78 -104 -78 -81 Q-65 -92 -54.5 -98 Q-44 -104 -30 -104 Q-1 -104 16 -79.5 Q33 -55 44 -21 Q61 33 71.5 83.5 Q82 134 93 187 L149 434 L67 434 L102 486 L160 486 Q166 508 170 524 Q174 540 178.5 555 Q183 570 189.5 585.5 Q196 601 208 622 Q253 702 321 741.5 Q389 781 480 781 Q493 781 505.5 780.5 Q518 780 532 779 L493 627 Z " />
<glyph glyph-name="g" unicode="g" horiz-adv-x="497" d="M552 531 Q552 510 544 493 Q536 476 523 461.5 Q510 447 494 435.5 Q478 424 463 415 Q468 402 472.5 388 Q477 374 477 359 Q477 335 470 311.5 Q463 288 447 268 Q418 230 374.5 211 Q331 192 269 176 Q260 174 247 170 Q234 166 221.5 160 Q209 154 200.5 145.5 Q192 137 192 127 Q192 118 203 112 Q214 106 228 103 Q242 100 256.5 99 Q271 98 278 97 Q310 93 343 88 Q376 83 407 67 Q435 53 450 25 Q465 -3 465 -30 Q465 -62 453 -84.5 Q441 -107 420 -126 Q398 -146 370.5 -160 Q343 -174 313 -182 Q283 -190 252.5 -193.5 Q222 -197 194 -197 Q171 -197 144.5 -195 Q118 -193 91.5 -186.5 Q65 -180 41 -168.5 Q17 -157 1 -138 Q-10 -126 -15 -113 Q-20 -100 -20 -83 Q-20 -58 -4.5 -40 Q11 -22 34 -10.5 Q57 1 83 8 Q109 15 130 18 Q118 22 102.5 27 Q87 32 74 39.5 Q61 47 52 58 Q43 69 43 84 Q43 105 58.5 121.5 Q74 138 95.5 150.5 Q117 163 140.5 172 Q164 181 181 187 Q138 204 111 236 Q84 268 84 313 Q84 343 97 371.5 Q110 400 130 424 Q162 461 209 477 Q256 493 303 493 Q344 493 375 483.5 Q406 474 438 450 Q444 461 447.5 469 Q451 477 451 489 Q451 502 445.5 512 Q440 522 431 533 L541 579 Q546 566 549 554 Q552 542 552 531 Z M353 384 Q353 410 342 430 Q331 450 308 450 Q283 450 265 431.5 Q247 413 235 387 Q223 361 217 334 Q211 307 211 289 Q211 252 225.5 234.5 Q240 217 260 217 Q284 217 301.5 236.5 Q319 256 330.5 282.5 Q342 309 347.5 337.5 Q353 366 353 384 Z M356 -73 Q356 -50 339.5 -37 Q323 -24 300 -16.5 Q277 -9 252 -5.5 Q227 -2 211 1 Q194 -2 172.5 -8.5 Q151 -15 132 -26 Q113 -37 99.5 -52.5 Q86 -68 86 -88 Q86 -108 98.5 -120.5 Q111 -133 130 -140.5 Q149 -148 169.5 -151 Q190 -154 207 -154 Q226 -154 251.5 -150 Q277 -146 300 -136.5 Q323 -127 339.5 -111.5 Q356 -96 356 -73 Z " />
<glyph glyph-name="h" unicode="h" horiz-adv-x="580" d="M579 95 Q560 78 537.5 59 Q515 40 490 24.5 Q465 9 438.5 -1.5 Q412 -12 386 -12 Q366 -12 348 2 Q330 16 330 42 Q330 48 330.5 55 Q331 62 333.5 73 Q336 84 340 99.5 Q344 115 350 137 L396 292 Q403 315 406 328.5 Q409 342 409 356 Q409 367 403.5 376.5 Q398 386 384 386 Q358 386 333 369 Q308 352 286 327 Q264 302 246.5 273 Q229 244 219 219 Q210 198 201.5 171.5 Q193 145 184.5 117 Q176 89 169 62 Q162 35 156 13 L36 -5 L178 553 Q186 586 192 616.5 Q198 647 198 664 Q198 685 186 696.5 Q174 708 147 708 L124 708 L135 751 Q190 754 243 758.5 Q296 763 350 778 L240 343 Q258 367 286.5 394 Q315 421 348 444.5 Q381 468 416.5 483.5 Q452 499 485 499 Q513 499 531 482.5 Q549 466 549 437 Q549 425 545.5 407.5 Q542 390 537 371 L475 158 Q468 135 464.5 122 Q461 109 461 101 Q461 82 477 82 Q486 82 496.5 87 Q507 92 517 99.5 Q527 107 535.5 114.5 Q544 122 550 127 L579 95 L579 95 Z " />
<glyph glyph-name="i" unicode="i" horiz-adv-x="315" d="M307 86 Q291 71 267.5 54.5 Q244 38 218.5 23.5 Q193 9 167 -0.5 Q141 -10 119 -10 Q94 -10 77.5 5 Q61 20 61 46 Q61 72 68.5 96 Q76 120 84 144 L145 343 Q149 354 151 365 Q153 376 153 380 Q153 389 150.5 393.5 Q148 398 137 398 Q131 398 122.5 394 Q114 390 105.5 384.5 Q97 379 89 373.5 Q81 368 77 364 L47 398 Q64 413 88.5 430.5 Q113 448 139 462.5 Q165 477 191.5 486.5 Q218 496 240 496 Q260 496 275 484 Q290 472 290 453 Q290 430 279 392 L201 138 Q197 127 194.5 115 Q192 103 192 97 Q192 87 195 81.5 Q198 76 208 76 Q215 76 225 81 Q235 86 245 92.5 Q255 99 264 106 Q273 113 278 117 L307 86 L307 86 Z M334 664 Q334 628 309 603 Q284 578 251 578 Q229 578 212 592 Q195 606 195 629 Q195 667 220.5 693 Q246 719 280 719 Q304 719 319 703 Q334 687 334 664 Z " />
<glyph glyph-name="j" unicode="j" horiz-adv-x="319" d="M313 440 Q313 429 309.5 410 Q306 391 300.5 367 Q295 343 287.5 317.5 Q280 292 273 268 Q266 244 260 224.5 Q254 205 250 194 Q238 163 223.5 124.5 Q209 86 190.5 46.5 Q172 7 149 -30 Q126 -67 97.5 -96 Q69 -125 35 -142.5 Q1 -160 -40 -160 Q-48 -160 -56 -159.5 Q-64 -159 -75 -158 L-55 -79 L-14 -81 Q-16 -88 -18 -94 Q-20 -100 -20 -105 Q-20 -111 -14 -116 Q-8 -121 -2 -121 Q5 -121 12.5 -115 Q20 -109 24 -103 Q34 -89 39.5 -72.5 Q45 -56 51 -39 Q55 -27 65.5 5 Q76 37 88.5 79.5 Q101 122 114.5 168.5 Q128 215 139.5 255.5 Q151 296 158 326 Q165 356 165 364 Q165 375 159.5 385 Q154 395 143 395 Q130 395 115.5 384.5 Q101 374 91 366 L63 398 Q81 411 106 428 Q131 445 158.5 460 Q186 475 213 485.5 Q240 496 262 496 Q288 496 300.5 480.5 Q313 465 313 440 Z M346 654 Q346 618 321 593 Q296 568 263 568 Q241 568 224 582 Q207 596 207 619 Q207 657 232.5 683 Q258 709 292 709 Q316 709 331 693 Q346 677 346 654 Z " />
<glyph glyph-name="k" unicode="k" horiz-adv-x="561" d="M564 439 Q564 404 542 374 Q520 344 488.5 319 Q457 294 421.5 276 Q386 258 360 247 L387 146 Q393 124 403.5 102.5 Q414 81 431 81 Q441 81 452 86.5 Q463 92 473.5 100 Q484 108 493 117 Q502 126 508 132 L536 96 Q521 81 500.5 62 Q480 43 457 26.5 Q434 10 409.5 -1 Q385 -12 363 -12 Q342 -12 327.5 -2 Q313 8 302.5 25.5 Q292 43 284 66.5 Q276 90 269 117 L236 243 Q279 251 315 265 Q351 279 377.5 296 Q404 313 418.5 332 Q433 351 433 369 Q433 383 424 389.5 Q415 396 400 396 Q380 396 358.5 383.5 Q337 371 320 357 Q288 329 263.5 296.5 Q239 264 220 223.5 Q201 183 186.5 133.5 Q172 84 159 22 L31 -9 L174 549 Q187 600 192 625 Q197 650 197 664 Q197 686 184 695.5 Q171 705 151 705 Q143 705 136.5 704.5 Q130 704 122 703 L130 748 Q186 754 239 760 Q292 766 348 778 L233 323 Q256 353 285 384.5 Q314 416 347.5 441.5 Q381 467 419 483 Q457 499 497 499 Q526 499 545 484 Q564 469 564 439 Z " />
<glyph glyph-name="l" unicode="l" horiz-adv-x="312" d="M202 191 Q194 162 189 139.5 Q184 117 184 103 Q184 94 188.5 85 Q193 76 206 76 Q216 76 228 82 Q240 88 251 96 Q262 104 272.5 113.5 Q283 123 290 129 L320 95 Q301 76 277 57 Q253 38 227 23 Q201 8 173.5 -1.5 Q146 -11 119 -11 Q93 -11 72 1 Q51 13 51 44 Q51 57 53.5 72 Q56 87 62 109 L185 591 Q190 608 194 626.5 Q198 645 198 665 Q198 682 187.5 693 Q177 704 155 704 Q144 704 136.5 703.5 Q129 703 118 702 L130 751 Q187 755 240.5 761 Q294 767 351 778 L202 191 Z " />
<glyph glyph-name="m" unicode="m" horiz-adv-x="861" d="M870 81 Q849 65 825.5 48.5 Q802 32 776.5 18.5 Q751 5 724 -4 Q697 -13 668 -13 Q641 -13 626 4.5 Q611 22 611 47 Q611 60 616 83.5 Q621 107 629 134 L679 297 Q684 312 688 329.5 Q692 347 692 358 Q692 376 672 376 Q647 376 623 360 Q599 344 582 326 Q553 294 532.5 260.5 Q512 227 496 189.5 Q480 152 467.5 109 Q455 66 442 16 Q408 8 376 -1 Q344 -10 309 -24 L391 254 Q405 302 410 325.5 Q415 349 415 359 Q415 367 411 373.5 Q407 380 396 380 Q382 380 366.5 372 Q351 364 336 351.5 Q321 339 308 324 Q295 309 285 296 Q263 267 246 232.5 Q229 198 216.5 161.5 Q204 125 194 88 Q184 51 175 17 Q141 11 110.5 2 Q80 -7 46 -21 L135 298 Q140 317 143.5 333.5 Q147 350 147 361 Q147 380 128 380 Q112 380 95 367.5 Q78 355 65 346 L41 381 Q57 394 83.5 414 Q110 434 138.5 452.5 Q167 471 195 484.5 Q223 498 244 498 Q262 498 273 485 Q284 472 284 455 Q284 447 280.5 430.5 Q277 414 272 395.5 Q267 377 261.5 358 Q256 339 251 325 Q270 351 300 381.5 Q330 412 364 437.5 Q398 463 433.5 480 Q469 497 499 497 Q522 497 537 482 Q552 467 552 444 Q552 435 550 420.5 Q548 406 544 390.5 Q540 375 535.5 359 Q531 343 527 330 Q540 346 556 362 Q573 381 599 404 Q625 427 654 447.5 Q683 468 714 482 Q745 496 773 496 Q830 496 830 438 Q830 418 823 388.5 Q816 359 806 327 L764 197 Q754 165 747.5 143.5 Q741 122 741 103 Q741 94 745.5 85.5 Q750 77 763 77 Q785 77 808.5 93.5 Q832 110 848 125 L870 81 L870 81 Z " />
<glyph glyph-name="n" unicode="n" horiz-adv-x="598" d="M609 89 Q588 71 564.5 53 Q541 35 515.5 20 Q490 5 462.5 -4 Q435 -13 407 -13 Q377 -13 360.5 4.5 Q344 22 344 48 Q344 63 347.5 82.5 Q351 102 359 130 L407 290 Q413 310 418.5 332 Q424 354 424 366 Q424 371 421.5 377.5 Q419 384 406 384 Q385 384 361 366 Q337 348 320 329 Q299 306 280 276 Q261 246 243 207 Q225 168 208 118.5 Q191 69 175 7 L54 -14 L136 297 Q141 314 145 333.5 Q149 353 149 364 Q149 388 128 388 Q109 388 94.5 377 Q80 366 69 356 L41 389 Q46 395 52.5 399.5 Q59 404 65 409 Q81 422 103.5 438 Q126 454 150 468 Q174 482 198 491.5 Q222 501 242 501 Q254 501 261.5 495.5 Q269 490 273 482 Q277 474 278 464.5 Q279 455 279 448 Q279 437 277 421 Q275 405 271.5 387 Q268 369 263.5 351.5 Q259 334 255 320 Q272 346 300 377 Q328 408 361 434.5 Q394 461 429 478.5 Q464 496 494 496 Q521 496 542 480 Q563 464 563 435 Q563 422 556 392 Q549 362 538 327 L494 183 Q487 160 480.5 138.5 Q474 117 474 98 Q474 89 478.5 82.5 Q483 76 494 76 Q504 76 516 81 Q528 86 540 93.5 Q552 101 563 109.5 Q574 118 582 126 L609 89 L609 89 Z " />
<glyph glyph-name="o" unicode="o" horiz-adv-x="561" d="M547 313 Q547 254 525 196 Q503 138 461.5 92 Q420 46 361.5 17.5 Q303 -11 230 -11 Q193 -11 159 1.5 Q125 14 99.5 37 Q74 60 59 93 Q44 126 44 167 Q44 230 67.5 289.5 Q91 349 133 395 Q175 441 233.5 468.5 Q292 496 362 496 Q401 496 435 483.5 Q469 471 493.5 447.5 Q518 424 532.5 390 Q547 356 547 313 Z M418 345 Q418 364 416 383 Q414 402 407 417.5 Q400 433 387.5 442.5 Q375 452 353 452 Q326 452 302 436 Q278 420 258 394.5 Q238 369 222.5 336.5 Q207 304 196 270 Q185 236 179.5 203.5 Q174 171 174 147 Q174 128 176.5 108 Q179 88 186.5 72 Q194 56 207.5 45.5 Q221 35 244 35 Q271 35 294 52 Q317 69 336.5 96 Q356 123 371 157 Q386 191 396.5 225.5 Q407 260 412.5 291.5 Q418 323 418 345 Z " />
<glyph glyph-name="p" unicode="p" horiz-adv-x="580" d="M563 353 Q563 285 530 220 Q497 155 445 105 Q393 55 330.5 24.5 Q268 -6 209 -6 Q187 -6 168 1 L152 -57 Q145 -81 142.5 -96 Q140 -111 140 -121 Q140 -145 157 -151.5 Q174 -158 192 -158 L221 -158 L207 -201 Q165 -199 126.5 -198 Q88 -197 60 -197 Q17 -197 -14 -197.5 Q-45 -198 -76 -201 L-65 -159 L-38 -159 Q-27 -159 -17.5 -158 Q-8 -157 1 -151 Q15 -142 20 -124 Q25 -106 29 -90 L144 371 L77 338 L51 374 Q78 389 102.5 400.5 Q127 412 157 424 L191 558 Q223 562 252.5 567.5 Q282 573 314 583 L284 464 Q320 481 354.5 488 Q389 495 424 495 Q493 495 528 456 Q563 417 563 353 Z M435 354 Q435 435 358 435 Q330 435 311.5 428.5 Q293 422 271 413 L202 140 Q197 123 194.5 107.5 Q192 92 192 79 Q192 60 199.5 50.5 Q207 41 226 41 Q265 41 302.5 73 Q340 105 369.5 152.5 Q399 200 417 254.5 Q435 309 435 354 Z " />
<glyph glyph-name="q" unicode="q" horiz-adv-x="584" d="M455 -51 Q450 -70 445 -88.5 Q440 -107 440 -127 Q440 -144 451 -152.5 Q462 -161 480 -161 Q488 -161 496 -161 Q504 -161 515 -160 L505 -201 Q464 -198 424.5 -197 Q385 -196 346 -196 Q286 -196 220 -199 L233 -155 Q240 -156 246 -156 Q252 -156 258 -156 Q278 -156 292.5 -149.5 Q307 -143 317 -126 Q319 -122 322.5 -111.5 Q326 -101 329 -89 L386 139 Q333 72 275 30.5 Q217 -11 146 -11 Q103 -11 73 16 Q43 43 43 91 Q43 173 83 245.5 Q123 318 187 372 Q251 426 330.5 457 Q410 488 490 488 Q522 488 545.5 487.5 Q569 487 591 486 L455 -51 Z M466 439 Q409 439 357.5 409 Q306 379 266 332.5 Q226 286 202.5 230.5 Q179 175 179 124 Q179 101 189.5 86 Q200 71 221 71 Q252 71 286.5 97.5 Q321 124 352 166.5 Q383 209 408 262 Q433 315 447 369 L466 439 Z " />
<glyph glyph-name="r" unicode="r" horiz-adv-x="418" d="M457 498 Q449 478 442 460.5 Q435 443 430 425.5 Q425 408 422 390 Q419 372 418 350 Q410 351 403 351.5 Q396 352 389 352 Q358 352 332 333 Q306 314 284.5 284 Q263 254 245.5 216 Q228 178 214.5 140 Q201 102 191.5 67 Q182 32 176 8 L52 -12 L136 298 Q141 318 144.5 333 Q148 348 148 362 Q148 373 142 379.5 Q136 386 125 386 Q118 386 109 382 Q100 378 91.5 372 Q83 366 75 360 Q67 354 62 350 L38 384 Q56 398 82.5 417.5 Q109 437 137.5 454.5 Q166 472 194.5 484 Q223 496 246 496 Q265 496 272.5 480.5 Q280 465 280 451 Q280 438 277.5 422 Q275 406 271 388 L257 326 Q267 342 281 361.5 Q295 381 310 400 Q325 419 340.5 435 Q356 451 369 461 Q391 478 409.5 486 Q428 494 457 498 Z " />
<glyph glyph-name="s" unicode="s" horiz-adv-x="465" d="M437 353 L369 355 Q371 363 372 371.5 Q373 380 373 388 Q373 417 355 435 Q337 453 306 453 Q272 453 249.5 433 Q227 413 227 385 Q227 354 250.5 333.5 Q274 313 312 289 Q332 277 351 263.5 Q370 250 385 234 Q400 218 409.5 198 Q419 178 419 153 Q419 115 402.5 85 Q386 55 357.5 34 Q329 13 290 2 Q251 -9 206 -9 Q160 -9 114.5 -2.5 Q69 4 24 16 Q32 49 39.5 82 Q47 115 52 150 L129 146 Q128 137 127.5 129.5 Q127 122 127 114 Q127 76 151.5 57 Q176 38 211 38 Q253 38 273.5 61.5 Q294 85 294 114 Q294 149 270.5 170 Q247 191 210 211 Q192 221 173.5 232.5 Q155 244 140.5 259 Q126 274 117 293 Q108 312 108 337 Q108 376 124.5 406 Q141 436 169 456.5 Q197 477 233.5 487.5 Q270 498 310 498 Q354 498 392 492 Q430 486 466 476 L437 353 Z " />
<glyph glyph-name="t" unicode="t" horiz-adv-x="329" d="M361 434 L265 434 L212 223 Q209 212 205 196.5 Q201 181 197.5 165 Q194 149 191 135 Q188 121 188 113 Q188 87 213 87 Q221 87 231.5 92 Q242 97 252 104.5 Q262 112 271 120 Q280 128 286 133 L315 99 Q296 81 273.5 62 Q251 43 226.5 27 Q202 11 175 1 Q148 -9 119 -9 Q96 -9 77 5.5 Q58 20 58 44 Q58 62 62.5 86.5 Q67 111 75 143 L150 434 L60 434 L96 486 L162 486 L186 580 Q217 585 247 591.5 Q277 598 308 606 L278 486 L375 486 L361 434 Z " />
<glyph glyph-name="u" unicode="u" horiz-adv-x="586" d="M588 102 Q568 85 544 66.5 Q520 48 494 30 Q467 12 440.5 1.5 Q414 -9 389 -9 Q366 -9 354 4 Q342 17 342 40 Q342 51 345 68 Q348 85 356 114 L368 157 Q345 126 316 96.5 Q287 67 256 43.5 Q225 20 193.5 5.5 Q162 -9 132 -9 Q103 -9 89 9 Q75 27 75 50 Q75 59 77.5 77.5 Q80 96 86 120 L139 320 Q141 330 144 343 Q147 356 147 365 Q147 389 126 389 Q112 389 94.5 376 Q77 363 67 351 L40 386 Q59 400 84 419.5 Q109 439 137 456.5 Q165 474 193 486 Q221 498 245 498 Q265 498 275 485 Q285 472 285 452 Q285 434 280 412 Q275 390 270 370 L215 164 Q212 153 209 138.5 Q206 124 206 115 Q206 106 209.5 100 Q213 94 224 94 Q239 94 254 102.5 Q269 111 277 118 Q311 145 336 183 Q361 221 380 267.5 Q399 314 413.5 366.5 Q428 419 442 476 Q474 481 505 488.5 Q536 496 568 504 L485 189 Q480 171 473 146 Q466 121 466 108 Q466 103 468.5 97 Q471 91 483 91 Q492 91 502.5 95.5 Q513 100 524 107 Q535 114 545 122.5 Q555 131 563 138 L588 102 Z " />
<glyph glyph-name="v" unicode="v" horiz-adv-x="545" d="M562 450 Q562 414 544.5 368.5 Q527 323 495 272.5 Q463 222 417 168.5 Q371 115 313 64 Q298 50 279.5 37 Q261 24 240.5 13 Q220 2 199 -4.5 Q178 -11 158 -11 Q125 -11 106.5 9.5 Q88 30 88 63 Q88 79 92 100 Q96 121 101 138 L137 284 Q144 311 148.5 335 Q153 359 153 375 Q153 386 147.5 390 Q142 394 134 394 Q128 394 119 389.5 Q110 385 100.5 379 Q91 373 82.5 366 Q74 359 69 355 L42 390 Q60 403 85.5 421.5 Q111 440 139.5 456.5 Q168 473 196 485 Q224 497 245 497 Q265 497 280.5 487.5 Q296 478 296 454 Q296 446 293 431.5 Q290 417 286 401 L237 196 Q226 151 221.5 130.5 Q217 110 217 100 Q217 92 220 85 Q223 78 235 78 Q245 78 257.5 84.5 Q270 91 282 100 Q294 109 305 118.5 Q316 128 322 135 Q340 153 362 182.5 Q384 212 403.5 246.5 Q423 281 436 317.5 Q449 354 449 387 Q449 398 443 407 Q437 416 426 416 Q418 416 407.5 410 Q397 404 389 397 L374 439 Q404 461 439 479.5 Q474 498 512 498 Q533 498 547.5 484.5 Q562 471 562 450 Z " />
<glyph glyph-name="w" unicode="w" horiz-adv-x="791" d="M811 456 Q811 430 799.5 401.5 Q788 373 777 349 Q762 318 738.5 279.5 Q715 241 685 201 Q655 161 620 123 Q585 85 548.5 55 Q512 25 475 7 Q438 -11 404 -11 Q374 -11 361 7 Q348 25 348 54 Q348 74 354.5 103.5 Q361 133 369 162 Q350 136 328.5 109.5 Q307 83 285 62 Q271 49 255.5 36 Q240 23 222 13 Q204 3 184.5 -3.5 Q165 -10 145 -10 Q116 -10 99 6.5 Q82 23 82 52 Q82 69 87 95 Q92 121 100 149 L140 300 Q144 315 149.5 334.5 Q155 354 155 368 Q155 381 151.5 388.5 Q148 396 134 396 Q126 396 117.5 391.5 Q109 387 100 380.5 Q91 374 83 367 Q75 360 69 356 L40 388 Q57 404 83 424 Q109 444 138 461 Q167 478 196 490 Q225 502 248 502 Q268 502 281 491 Q294 480 294 458 Q294 451 291.5 436 Q289 421 284 404 L233 205 Q226 178 220 152.5 Q214 127 214 113 Q214 105 216 98 Q218 91 229 91 Q240 91 255.5 102.5 Q271 114 286.5 129.5 Q302 145 315 161 Q328 177 334 186 Q353 213 371.5 250 Q390 287 405.5 327 Q421 367 432.5 407 Q444 447 451 480 Q481 485 510 490.5 Q539 496 571 504 L495 202 Q489 179 485 155.5 Q481 132 481 119 Q481 94 500 94 Q512 94 524.5 101 Q537 108 545 115 Q565 131 593.5 167 Q622 203 648 245 Q674 287 692.5 328 Q711 369 711 396 Q711 408 705.5 417.5 Q700 427 688 427 Q683 427 675 422.5 Q667 418 662 416 L647 456 Q671 472 700.5 490 Q730 508 761 508 Q786 508 798.5 493.5 Q811 479 811 456 Z " />
<glyph glyph-name="x" unicode="x" horiz-adv-x="522" d="M526 401 Q514 405 504 407.5 Q494 410 483 410 Q461 410 439 395.5 Q417 381 396.5 360 Q376 339 359 316.5 Q342 294 330 278 L392 141 Q397 130 406 116 Q415 102 428 102 Q440 102 450 114 Q460 126 467 135 L502 113 Q492 97 477 75 Q462 53 443.5 33.5 Q425 14 404.5 0 Q384 -14 363 -14 Q340 -14 325.5 5.5 Q311 25 297 57 L247 169 Q232 145 211.5 114.5 Q191 84 166.5 56 Q142 28 113.5 9 Q85 -10 54 -10 Q44 -10 34 -9 Q24 -8 12 -6 Q21 20 29.5 43.5 Q38 67 43 93 Q56 85 65 81 Q74 77 87 77 Q108 77 129 91.5 Q150 106 169.5 126.5 Q189 147 205.5 169.5 Q222 192 233 209 L173 345 Q164 365 154 377.5 Q144 390 128 390 Q114 390 100 378.5 Q86 367 75 356 L49 389 Q61 402 79.5 420.5 Q98 439 119 455.5 Q140 472 161.5 483.5 Q183 495 201 495 Q214 495 225.5 485.5 Q237 476 246 462.5 Q255 449 261.5 434 Q268 419 273 409 L313 318 Q327 342 348.5 373 Q370 404 396.5 431.5 Q423 459 453 478 Q483 497 515 497 Q529 497 547 494 L526 401 Z " />
<glyph glyph-name="y" unicode="y" horiz-adv-x="561" d="M217 486 Q233 471 248 420 Q263 369 285 274 L330 76 Q345 99 362.5 127.5 Q380 156 397 186 Q414 216 430 246.5 Q446 277 458 303.5 Q470 330 477.5 350.5 Q485 371 485 382 Q485 410 456 410 Q445 410 436 405.5 Q427 401 419 396 L399 428 Q412 437 428.5 448.5 Q445 460 463.5 471 Q482 482 500 489.5 Q518 497 534 497 Q556 497 570 481 Q584 465 584 444 Q584 427 572.5 398 Q561 369 543 334 Q525 299 503 261 Q481 223 459 188.5 Q437 154 418.5 126 Q400 98 389 83 Q371 59 351 30.5 Q331 2 310 -26.5 Q289 -55 267 -82 Q245 -109 224 -131 Q194 -163 158.5 -183 Q123 -203 77 -203 Q57 -203 42.5 -199 Q28 -195 10 -187 Q15 -156 18.5 -126 Q22 -96 24 -64 L64 -64 L64 -73 Q64 -94 78 -110 Q92 -126 115 -126 Q141 -126 171 -106 Q201 -86 239 -43 L179 216 Q168 262 160.5 293.5 Q153 325 146 351 Q141 368 137 382 Q133 396 115 396 Q102 396 87 383.5 Q72 371 64 362 L33 387 Q43 400 61.5 419 Q80 438 101 456 Q122 474 143 486.5 Q164 499 181 499 Q204 499 217 486 Z " />
<glyph glyph-name="z" unicode="z" horiz-adv-x="473" d="M180 48 L229 48 Q253 48 278 49.5 Q303 51 325 58 Q351 66 370.5 84 Q390 102 401 137 L451 137 L414 0 L5 0 L327 447 L279 447 Q253 447 225.5 444.5 Q198 442 176 422 Q164 411 157.5 396.5 Q151 382 144 367 L87 367 Q98 398 107.5 427 Q117 456 125 486 L498 486 L180 48 Z " />
<glyph glyph-name="agrave" unicode="&#xe0;" horiz-adv-x="579" d="M584 98 Q567 80 543.5 61 Q520 42 494.5 26 Q469 10 442.5 -0.5 Q416 -11 393 -11 Q361 -11 347 8 Q333 27 333 58 Q333 65 334 75 Q335 85 336.5 95.5 Q338 106 340 116 Q342 126 344 133 Q321 102 295.5 76 Q270 50 243 30.5 Q216 11 186.5 0 Q157 -11 125 -11 Q80 -11 56 16.5 Q32 44 32 89 Q32 144 54 198.5 Q76 253 112 302 Q148 351 194.5 390 Q241 429 290 452 Q324 468 367 478.5 Q410 489 470 489 Q489 489 515.5 488.5 Q542 488 567 486 Q562 471 552 440 Q542 409 529.5 370 Q517 331 503.5 289 Q490 247 479.5 209.5 Q469 172 462 144 Q455 116 455 105 Q455 94 458 86.5 Q461 79 472 79 Q482 79 494.5 85 Q507 91 518.5 99.5 Q530 108 540 117 Q550 126 556 132 L584 98 Z M435 441 Q409 441 384.5 434.5 Q360 428 330 410 Q298 391 268.5 356 Q239 321 216 279 Q193 237 179.5 194.5 Q166 152 166 118 Q166 98 174 84.5 Q182 71 203 71 Q216 71 230 78.5 Q244 86 257 97.5 Q270 109 283 124 Q296 139 308 154 Q330 182 348 216 Q366 250 382 287.5 Q398 325 411 364 Q424 403 435 441 Z M471 548 Q397 568 345.5 607 Q294 646 251 692 Q288 699 319 707.5 Q350 716 384 728 Q404 680 431 644.5 Q458 609 504 583 L471 548 Z " />
<glyph glyph-name="aacute" unicode="&#xe1;" horiz-adv-x="579" d="M584 98 Q567 80 543.5 61 Q520 42 494.5 26 Q469 10 442.5 -0.5 Q416 -11 393 -11 Q361 -11 347 8 Q333 27 333 58 Q333 65 334 75 Q335 85 336.5 95.5 Q338 106 340 116 Q342 126 344 133 Q321 102 295.5 76 Q270 50 243 30.5 Q216 11 186.5 0 Q157 -11 125 -11 Q80 -11 56 16.5 Q32 44 32 89 Q32 144 54 198.5 Q76 253 112 302 Q148 351 194.5 390 Q241 429 290 452 Q324 468 367 478.5 Q410 489 470 489 Q489 489 515.5 488.5 Q542 488 567 486 Q562 471 552 440 Q542 409 529.5 370 Q517 331 503.5 289 Q490 247 479.5 209.5 Q469 172 462 144 Q455 116 455 105 Q455 94 458 86.5 Q461 79 472 79 Q482 79 494.5 85 Q507 91 518.5 99.5 Q530 108 540 117 Q550 126 556 132 L584 98 Z M435 441 Q409 441 384.5 434.5 Q360 428 330 410 Q298 391 268.5 356 Q239 321 216 279 Q193 237 179.5 194.5 Q166 152 166 118 Q166 98 174 84.5 Q182 71 203 71 Q216 71 230 78.5 Q244 86 257 97.5 Q270 109 283 124 Q296 139 308 154 Q330 182 348 216 Q366 250 382 287.5 Q398 325 411 364 Q424 403 435 441 Z M563 688 Q536 657 512 636 Q488 615 463.5 599.5 Q439 584 410.5 572 Q382 560 345 547 L316 579 Q341 595 358.5 609 Q376 623 389 639.5 Q402 656 413 675.5 Q424 695 435 722 Q469 710 497 702 Q525 694 563 688 Z " />
<glyph glyph-name="acircumflex" unicode="&#xe2;" horiz-adv-x="579" d="M584 98 Q567 80 543.5 61 Q520 42 494.5 26 Q469 10 442.5 -0.5 Q416 -11 393 -11 Q361 -11 347 8 Q333 27 333 58 Q333 65 334 75 Q335 85 336.5 95.5 Q338 106 340 116 Q342 126 344 133 Q321 102 295.5 76 Q270 50 243 30.5 Q216 11 186.5 0 Q157 -11 125 -11 Q80 -11 56 16.5 Q32 44 32 89 Q32 144 54 198.5 Q76 253 112 302 Q148 351 194.5 390 Q241 429 290 452 Q324 468 367 478.5 Q410 489 470 489 Q489 489 515.5 488.5 Q542 488 567 486 Q562 471 552 440 Q542 409 529.5 370 Q517 331 503.5 289 Q490 247 479.5 209.5 Q469 172 462 144 Q455 116 455 105 Q455 94 458 86.5 Q461 79 472 79 Q482 79 494.5 85 Q507 91 518.5 99.5 Q530 108 540 117 Q550 126 556 132 L584 98 Z M435 441 Q409 441 384.5 434.5 Q360 428 330 410 Q298 391 268.5 356 Q239 321 216 279 Q193 237 179.5 194.5 Q166 152 166 118 Q166 98 174 84.5 Q182 71 203 71 Q216 71 230 78.5 Q244 86 257 97.5 Q270 109 283 124 Q296 139 308 154 Q330 182 348 216 Q366 250 382 287.5 Q398 325 411 364 Q424 403 435 441 Z M547 546 Q524 566 505.5 583 Q487 600 471 626 Q463 620 455.5 614 Q448 608 439 602 Q408 583 375 569.5 Q342 556 308 543 L269 587 Q282 593 294 598.5 Q306 604 317 610 Q356 631 390.5 661.5 Q425 692 448 731 L558 731 Q553 716 550.5 703.5 Q548 691 548 678 Q548 648 557.5 625.5 Q567 603 585 578 L547 546 Z " />
<glyph glyph-name="atilde" unicode="&#xe3;" horiz-adv-x="579" d="M584 98 Q567 80 543.5 61 Q520 42 494.5 26 Q469 10 442.5 -0.5 Q416 -11 393 -11 Q361 -11 347 8 Q333 27 333 58 Q333 65 334 75 Q335 85 336.5 95.5 Q338 106 340 116 Q342 126 344 133 Q321 102 295.5 76 Q270 50 243 30.5 Q216 11 186.5 0 Q157 -11 125 -11 Q80 -11 56 16.5 Q32 44 32 89 Q32 144 54 198.5 Q76 253 112 302 Q148 351 194.5 390 Q241 429 290 452 Q324 468 367 478.5 Q410 489 470 489 Q489 489 515.5 488.5 Q542 488 567 486 Q562 471 552 440 Q542 409 529.5 370 Q517 331 503.5 289 Q490 247 479.5 209.5 Q469 172 462 144 Q455 116 455 105 Q455 94 458 86.5 Q461 79 472 79 Q482 79 494.5 85 Q507 91 518.5 99.5 Q530 108 540 117 Q550 126 556 132 L584 98 Z M435 441 Q409 441 384.5 434.5 Q360 428 330 410 Q298 391 268.5 356 Q239 321 216 279 Q193 237 179.5 194.5 Q166 152 166 118 Q166 98 174 84.5 Q182 71 203 71 Q216 71 230 78.5 Q244 86 257 97.5 Q270 109 283 124 Q296 139 308 154 Q330 182 348 216 Q366 250 382 287.5 Q398 325 411 364 Q424 403 435 441 Z M605 692 Q598 660 584.5 632.5 Q571 605 544 582 Q530 569 512.5 563 Q495 557 481 557 Q455 557 434 567.5 Q413 578 395 590 Q383 598 365.5 608 Q348 618 331 618 Q316 618 306 611 Q283 597 275 569 L222 569 Q228 594 240 619.5 Q252 645 270 664.5 Q288 684 312 696.5 Q336 709 365 709 Q391 709 409 699 Q427 689 444 678 Q455 670 471.5 659 Q488 648 505 648 Q524 648 536 661 Q548 674 554 692 L605 692 L605 692 Z " />
<glyph glyph-name="adieresis" unicode="&#xe4;" horiz-adv-x="579" d="M584 98 Q567 80 543.5 61 Q520 42 494.5 26 Q469 10 442.5 -0.5 Q416 -11 393 -11 Q361 -11 347 8 Q333 27 333 58 Q333 65 334 75 Q335 85 336.5 95.5 Q338 106 340 116 Q342 126 344 133 Q321 102 295.5 76 Q270 50 243 30.5 Q216 11 186.5 0 Q157 -11 125 -11 Q80 -11 56 16.5 Q32 44 32 89 Q32 144 54 198.5 Q76 253 112 302 Q148 351 194.5 390 Q241 429 290 452 Q324 468 367 478.5 Q410 489 470 489 Q489 489 515.5 488.5 Q542 488 567 486 Q562 471 552 440 Q542 409 529.5 370 Q517 331 503.5 289 Q490 247 479.5 209.5 Q469 172 462 144 Q455 116 455 105 Q455 94 458 86.5 Q461 79 472 79 Q482 79 494.5 85 Q507 91 518.5 99.5 Q530 108 540 117 Q550 126 556 132 L584 98 Z M435 441 Q409 441 384.5 434.5 Q360 428 330 410 Q298 391 268.5 356 Q239 321 216 279 Q193 237 179.5 194.5 Q166 152 166 118 Q166 98 174 84.5 Q182 71 203 71 Q216 71 230 78.5 Q244 86 257 97.5 Q270 109 283 124 Q296 139 308 154 Q330 182 348 216 Q366 250 382 287.5 Q398 325 411 364 Q424 403 435 441 Z M381 664 Q381 628 356 603 Q331 578 298 578 Q276 578 259 592 Q242 606 242 629 Q242 667 267.5 693 Q293 719 327 719 Q351 719 366 703 Q381 687 381 664 Z M601 664 Q601 628 576 603 Q551 578 518 578 Q496 578 479 592 Q462 606 462 629 Q462 667 487.5 693 Q513 719 547 719 Q571 719 586 703 Q601 687 601 664 Z " />
<glyph glyph-name="amacron" unicode="&#x101;" horiz-adv-x="579" d="M584 98 Q567 80 543.5 61 Q520 42 494.5 26 Q469 10 442.5 -0.5 Q416 -11 393 -11 Q361 -11 347 8 Q333 27 333 58 Q333 65 334 75 Q335 85 336.5 95.5 Q338 106 340 116 Q342 126 344 133 Q321 102 295.5 76 Q270 50 243 30.5 Q216 11 186.5 0 Q157 -11 125 -11 Q80 -11 56 16.5 Q32 44 32 89 Q32 144 54 198.5 Q76 253 112 302 Q148 351 194.5 390 Q241 429 290 452 Q324 468 367 478.5 Q410 489 470 489 Q489 489 515.5 488.5 Q542 488 567 486 Q562 471 552 440 Q542 409 529.5 370 Q517 331 503.5 289 Q490 247 479.5 209.5 Q469 172 462 144 Q455 116 455 105 Q455 94 458 86.5 Q461 79 472 79 Q482 79 494.5 85 Q507 91 518.5 99.5 Q530 108 540 117 Q550 126 556 132 L584 98 Z M435 441 Q409 441 384.5 434.5 Q360 428 330 410 Q298 391 268.5 356 Q239 321 216 279 Q193 237 179.5 194.5 Q166 152 166 118 Q166 98 174 84.5 Q182 71 203 71 Q216 71 230 78.5 Q244 86 257 97.5 Q270 109 283 124 Q296 139 308 154 Q330 182 348 216 Q366 250 382 287.5 Q398 325 411 364 Q424 403 435 441 Z M245 600 L245 684 L579 684 L579 600 L245 600 Z " />
<glyph glyph-name="abreve" unicode="&#x103;" horiz-adv-x="579" d="M584 98 Q567 80 543.5 61 Q520 42 494.5 26 Q469 10 442.5 -0.5 Q416 -11 393 -11 Q361 -11 347 8 Q333 27 333 58 Q333 65 334 75 Q335 85 336.5 95.5 Q338 106 340 116 Q342 126 344 133 Q321 102 295.5 76 Q270 50 243 30.5 Q216 11 186.5 0 Q157 -11 125 -11 Q80 -11 56 16.5 Q32 44 32 89 Q32 144 54 198.5 Q76 253 112 302 Q148 351 194.5 390 Q241 429 290 452 Q324 468 367 478.5 Q410 489 470 489 Q489 489 515.5 488.5 Q542 488 567 486 Q562 471 552 440 Q542 409 529.5 370 Q517 331 503.5 289 Q490 247 479.5 209.5 Q469 172 462 144 Q455 116 455 105 Q455 94 458 86.5 Q461 79 472 79 Q482 79 494.5 85 Q507 91 518.5 99.5 Q530 108 540 117 Q550 126 556 132 L584 98 Z M435 441 Q409 441 384.5 434.5 Q360 428 330 410 Q298 391 268.5 356 Q239 321 216 279 Q193 237 179.5 194.5 Q166 152 166 118 Q166 98 174 84.5 Q182 71 203 71 Q216 71 230 78.5 Q244 86 257 97.5 Q270 109 283 124 Q296 139 308 154 Q330 182 348 216 Q366 250 382 287.5 Q398 325 411 364 Q424 403 435 441 Z M594 702 Q576 660 557.5 633 Q539 606 519 590.5 Q499 575 476.5 569.5 Q454 564 428 564 Q402 564 379.5 569.5 Q357 575 337 590.5 Q317 606 298.5 633 Q280 660 262 702 L290 716 Q310 687 348 672.5 Q386 658 428 658 Q470 658 508 672.5 Q546 687 566 716 L594 702 L594 702 Z " />
<glyph glyph-name="aring" unicode="&#xe5;" horiz-adv-x="579" d="M584 98 Q567 80 543.5 61 Q520 42 494.5 26 Q469 10 442.5 -0.5 Q416 -11 393 -11 Q361 -11 347 8 Q333 27 333 58 Q333 65 334 75 Q335 85 336.5 95.5 Q338 106 340 116 Q342 126 344 133 Q321 102 295.5 76 Q270 50 243 30.5 Q216 11 186.5 0 Q157 -11 125 -11 Q80 -11 56 16.5 Q32 44 32 89 Q32 144 54 198.5 Q76 253 112 302 Q148 351 194.5 390 Q241 429 290 452 Q324 468 367 478.5 Q410 489 470 489 Q489 489 515.5 488.5 Q542 488 567 486 Q562 471 552 440 Q542 409 529.5 370 Q517 331 503.5 289 Q490 247 479.5 209.5 Q469 172 462 144 Q455 116 455 105 Q455 94 458 86.5 Q461 79 472 79 Q482 79 494.5 85 Q507 91 518.5 99.5 Q530 108 540 117 Q550 126 556 132 L584 98 Z M435 441 Q409 441 384.5 434.5 Q360 428 330 410 Q298 391 268.5 356 Q239 321 216 279 Q193 237 179.5 194.5 Q166 152 166 118 Q166 98 174 84.5 Q182 71 203 71 Q216 71 230 78.5 Q244 86 257 97.5 Q270 109 283 124 Q296 139 308 154 Q330 182 348 216 Q366 250 382 287.5 Q398 325 411 364 Q424 403 435 441 Z M533 641 Q533 619 524.5 600 Q516 581 501.5 566.5 Q487 552 468 543.5 Q449 535 427 535 Q405 535 386 543.5 Q367 552 352.5 566.5 Q338 581 329.5 600 Q321 619 321 641 Q321 663 329.5 682 Q338 701 352.5 715.5 Q367 730 386 738.5 Q405 747 427 747 Q449 747 468 738.5 Q487 730 501.5 715.5 Q516 701 524.5 682 Q533 663 533 641 Z M483 641 Q483 664 466.5 680.5 Q450 697 427 697 Q404 697 387.5 680.5 Q371 664 371 641 Q371 618 387.5 601.5 Q404 585 427 585 Q450 585 466.5 601.5 Q483 618 483 641 Z " />
<glyph glyph-name="aogonek" unicode="&#x105;" horiz-adv-x="579" d="M459 -172 Q451 -182 438 -190.5 Q425 -199 409.5 -205.5 Q394 -212 376.5 -216 Q359 -220 343 -220 Q297 -220 268.5 -201.5 Q240 -183 240 -137 Q240 -111 256 -87.5 Q272 -64 295.5 -45 Q319 -26 344 -13 Q354 -9 362 -5 Q353 0 347 8 Q333 27 333 58 Q333 65 334 75 Q335 85 336.5 95.5 Q338 106 340 116 Q342 126 344 133 Q321 102 295.5 76 Q270 50 243 30.5 Q216 11 186.5 0 Q157 -11 125 -11 Q80 -11 56 16.5 Q32 44 32 89 Q32 144 54 198.5 Q76 253 112 302 Q148 351 194.5 390 Q241 429 290 452 Q324 468 367 478.5 Q410 489 470 489 Q489 489 515.5 488.5 Q542 488 567 486 Q562 471 552 440 Q542 409 529.5 370 Q517 331 503.5 289 Q490 247 479.5 209.5 Q469 172 462 144 Q455 116 455 105 Q455 94 458 86.5 Q461 79 472 79 Q482 79 494.5 85 Q507 91 518.5 99.5 Q530 108 540 117 Q550 126 556 132 L584 98 Q567 80 543.5 61 Q520 42 494.5 26 Q469 10 442 0 Q429 -6 416 -8 Q397 -25 383 -39 Q365 -59 355 -75 Q345 -91 341.5 -104 Q338 -117 338 -128 Q338 -151 348 -161 Q358 -171 375 -171 Q409 -171 438 -148 L459 -172 Z M435 441 Q409 441 384.5 434.5 Q360 428 330 410 Q298 391 268.5 356 Q239 321 216 279 Q193 237 179.5 194.5 Q166 152 166 118 Q166 98 174 84.5 Q182 71 203 71 Q216 71 230 78.5 Q244 86 257 97.5 Q270 109 283 124 Q296 139 308 154 Q330 182 348 216 Q366 250 382 287.5 Q398 325 411 364 Q424 403 435 441 Z " />
<glyph glyph-name="ae" unicode="&#xe6;" horiz-adv-x="799" d="M805 390 Q805 343 776.5 309.5 Q748 276 702.5 255 Q657 234 599.5 225 Q542 216 484 218 Q482 207 481 198 Q480 189 480 181 Q480 121 499.5 90.5 Q519 60 563 60 Q584 60 606 68 Q628 76 649 89 Q670 102 689 118 Q708 134 723 150 L752 110 Q726 86 697.5 64 Q669 42 637.5 25.5 Q606 9 572.5 -1 Q539 -11 505 -11 Q441 -11 403 26 Q365 63 356 124 Q301 61 247 25 Q193 -11 134 -11 Q82 -11 57 16.5 Q32 44 32 89 Q32 144 54 198.5 Q76 253 112 302 Q148 351 194.5 390 Q241 429 290 452 Q324 468 367 478.5 Q410 489 470 489 Q489 489 513.5 488.5 Q538 488 564 488 Q576 488 592 489 Q608 490 624 491.5 Q640 493 654.5 494 Q669 495 678 495 Q703 495 726.5 488 Q750 481 767 467.5 Q784 454 794.5 434.5 Q805 415 805 390 Z M435 441 Q409 441 384.5 434.5 Q360 428 330 410 Q298 391 268.5 356 Q239 321 216 279 Q193 237 179.5 194.5 Q166 152 166 118 Q166 98 174 84.5 Q182 71 203 71 Q216 71 230 78.5 Q244 86 257 97.5 Q270 109 283 124 Q296 139 308 154 Q330 182 348 216 Q366 250 382 287.5 Q398 325 411 364 Q424 403 435 441 Z M652 447 Q626 447 602.5 430 Q579 413 558.5 386 Q538 359 521.5 326 Q505 293 495 261 Q541 261 578.5 271.5 Q616 282 642 300.5 Q668 319 682.5 345 Q697 371 697 403 Q697 424 683 435.5 Q669 447 652 447 Z " />
<glyph glyph-name="cacute" unicode="&#x107;" horiz-adv-x="452" d="M443 367 L378 367 L378 382 Q378 404 371 421 Q364 438 338 438 Q302 438 271.5 410 Q241 382 218.5 341.5 Q196 301 183 256 Q170 211 170 176 Q170 133 187.5 107.5 Q205 82 246 82 Q283 82 315.5 106.5 Q348 131 391 187 L431 164 Q407 127 380 95 Q353 63 321.5 39 Q290 15 253.5 1 Q217 -13 173 -13 Q140 -13 115.5 -2 Q91 9 75 28.5 Q59 48 51.5 74 Q44 100 44 129 Q44 184 62 236.5 Q80 289 110 333 Q140 377 179.5 411 Q219 445 263 463 Q298 477 330 482.5 Q362 488 408 488 Q424 488 439.5 487.5 Q455 487 467 486 L443 367 Z M518 688 Q491 657 467 636 Q443 615 418.5 599.5 Q394 584 365.5 572 Q337 560 300 547 L271 579 Q296 595 313.5 609 Q331 623 344 639.5 Q357 656 368 675.5 Q379 695 390 722 Q424 710 452 702 Q480 694 518 688 Z " />
<glyph glyph-name="ccaron" unicode="&#x10d;" horiz-adv-x="452" d="M443 367 L378 367 L378 382 Q378 404 371 421 Q364 438 338 438 Q302 438 271.5 410 Q241 382 218.5 341.5 Q196 301 183 256 Q170 211 170 176 Q170 133 187.5 107.5 Q205 82 246 82 Q283 82 315.5 106.5 Q348 131 391 187 L431 164 Q407 127 380 95 Q353 63 321.5 39 Q290 15 253.5 1 Q217 -13 173 -13 Q140 -13 115.5 -2 Q91 9 75 28.5 Q59 48 51.5 74 Q44 100 44 129 Q44 184 62 236.5 Q80 289 110 333 Q140 377 179.5 411 Q219 445 263 463 Q298 477 330 482.5 Q362 488 408 488 Q424 488 439.5 487.5 Q455 487 467 486 L443 367 Z M578 697 Q553 688 526.5 673 Q500 658 475.5 639.5 Q451 621 431 599.5 Q411 578 399 555 L288 555 Q299 585 299 610 Q299 636 289 661 Q279 686 262 708 L300 738 Q323 725 342 703.5 Q361 682 375 660 Q410 689 452.5 707.5 Q495 726 538 742 L578 697 L578 697 Z " />
<glyph glyph-name="ccedilla" unicode="&#xe7;" horiz-adv-x="452" d="M443 367 L378 367 L378 382 Q378 404 371 421 Q364 438 338 438 Q302 438 271.5 410 Q241 382 218.5 341.5 Q196 301 183 256 Q170 211 170 176 Q170 133 187.5 107.5 Q205 82 246 82 Q283 82 315.5 106.5 Q348 131 391 187 L431 164 Q407 127 380 95 Q353 63 321.5 39 Q290 15 253.5 1 Q217 -13 173 -13 Q140 -13 115.5 -2 Q91 9 75 28.5 Q59 48 51.5 74 Q44 100 44 129 Q44 184 62 236.5 Q80 289 110 333 Q140 377 179.5 411 Q219 445 263 463 Q298 477 330 482.5 Q362 488 408 488 Q424 488 439.5 487.5 Q455 487 467 486 L443 367 Z M253 -57 Q253 -71 249.5 -88 Q246 -105 237 -120 Q222 -146 204.5 -163.5 Q187 -181 167 -194.5 Q147 -208 124 -217.5 Q101 -227 74 -236 L55 -211 Q82 -187 98 -159 Q114 -131 114 -90 Q150 -81 183.5 -69 Q217 -57 251 -41 Q253 -46 253 -49 Q253 -52 253 -57 Z " />
<glyph glyph-name="dcaron" unicode="&#x10f;" horiz-adv-x="595" d="M505 232 Q493 184 484.5 153.5 Q476 123 476 105 Q476 93 479.5 84.5 Q483 76 497 76 Q506 76 517 81.5 Q528 87 538.5 94.5 Q549 102 558.5 111 Q568 120 574 126 L601 93 Q580 75 557 56 Q534 37 510 21 Q486 5 461 -5 Q436 -15 411 -15 Q385 -15 368 0 Q351 15 351 45 Q351 53 352.5 64.5 Q354 76 356 88 Q358 100 361 111.5 Q364 123 367 132 Q346 106 323 80.5 Q300 55 272 34.5 Q244 14 210.5 1 Q177 -12 137 -12 Q90 -12 65.5 16.5 Q41 45 41 91 Q41 166 77.5 237.5 Q114 309 172.5 364.5 Q231 420 304.5 454 Q378 488 452 488 L471 569 Q480 609 483.5 631.5 Q487 654 487 670 Q487 686 477 698 Q467 710 444 710 Q438 710 430 709.5 Q422 709 411 707 L422 753 Q476 753 530.5 760.5 Q585 768 641 778 L505 232 Z M441 444 Q385 444 336.5 413 Q288 382 252.5 334.5 Q217 287 196.5 231 Q176 175 176 126 Q176 104 186.5 88.5 Q197 73 220 73 Q251 73 281.5 98.5 Q312 124 337 160.5 Q362 197 380 237 Q398 277 406 307 L441 444 Z M819 688 Q819 657 808 630 Q797 603 778 580 Q768 568 750.5 553 Q733 538 713 523.5 Q693 509 673 497 Q653 485 637 479 L612 513 Q644 533 666.5 560 Q689 587 689 625 Q689 647 681.5 664.5 Q674 682 660 701 Q697 716 730.5 733.5 Q764 751 799 771 Q808 749 813.5 730 Q819 711 819 688 Z " />
<glyph glyph-name="dcroat" unicode="&#x111;" horiz-adv-x="595" d="M505 232 Q493 184 484.5 153.5 Q476 123 476 105 Q476 93 479.5 84.5 Q483 76 497 76 Q506 76 517 81.5 Q528 87 538.5 94.5 Q549 102 558.5 111 Q568 120 574 126 L601 93 Q580 75 557 56 Q534 37 510 21 Q486 5 461 -5 Q436 -15 411 -15 Q385 -15 368 0 Q351 15 351 45 Q351 53 352.5 64.5 Q354 76 356 88 Q358 100 361 111.5 Q364 123 367 132 Q346 106 323 80.5 Q300 55 272 34.5 Q244 14 210.5 1 Q177 -12 137 -12 Q90 -12 65.5 16.5 Q41 45 41 91 Q41 166 77.5 237.5 Q114 309 172.5 364.5 Q231 420 304.5 454 Q378 488 452 488 L468 559 L341 559 L358 617 L481 617 Q482 625 483 631 Q487 654 487 670 Q487 686 477 698 Q467 710 444 710 Q438 710 430 709.5 Q422 709 411 707 L422 753 Q476 753 530.5 760.5 Q585 768 641 778 L601 617 L643 617 L627 559 L586 559 L505 232 Z M441 444 Q385 444 336.5 413 Q288 382 252.5 334.5 Q217 287 196.5 231 Q176 175 176 126 Q176 104 186.5 88.5 Q197 73 220 73 Q251 73 281.5 98.5 Q312 124 337 160.5 Q362 197 380 237 Q398 277 406 307 L441 444 Z " />
<glyph glyph-name="egrave" unicode="&#xe8;" horiz-adv-x="493" d="M499 390 Q499 343 470.5 309.5 Q442 276 396.5 255 Q351 234 293.5 225 Q236 216 178 218 Q176 207 175 198 Q174 189 174 181 Q174 121 193.5 90.5 Q213 60 257 60 Q278 60 300 68 Q322 76 343 89 Q364 102 383 118 Q402 134 417 150 L446 110 Q420 86 391.5 64 Q363 42 331.5 25.5 Q300 9 266.5 -1 Q233 -11 199 -11 Q126 -11 87 37 Q48 85 48 160 Q48 220 75.5 280.5 Q103 341 148.5 389 Q194 437 252.5 467 Q311 497 372 497 Q397 497 420.5 489.5 Q444 482 461 468.5 Q478 455 488.5 435 Q499 415 499 390 Z M346 449 Q320 449 296.5 431.5 Q273 414 252.5 387 Q232 360 215.5 326.5 Q199 293 189 261 Q235 261 272.5 271.5 Q310 282 336 300.5 Q362 319 376.5 345 Q391 371 391 403 Q391 424 377 436.5 Q363 449 346 449 Z M407 548 Q333 568 281.5 607 Q230 646 187 692 Q224 699 255 707.5 Q286 716 320 728 Q340 680 367 644.5 Q394 609 440 583 L407 548 Z " />
<glyph glyph-name="eacute" unicode="&#xe9;" horiz-adv-x="493" d="M499 390 Q499 343 470.5 309.5 Q442 276 396.5 255 Q351 234 293.5 225 Q236 216 178 218 Q176 207 175 198 Q174 189 174 181 Q174 121 193.5 90.5 Q213 60 257 60 Q278 60 300 68 Q322 76 343 89 Q364 102 383 118 Q402 134 417 150 L446 110 Q420 86 391.5 64 Q363 42 331.5 25.5 Q300 9 266.5 -1 Q233 -11 199 -11 Q126 -11 87 37 Q48 85 48 160 Q48 220 75.5 280.5 Q103 341 148.5 389 Q194 437 252.5 467 Q311 497 372 497 Q397 497 420.5 489.5 Q444 482 461 468.5 Q478 455 488.5 435 Q499 415 499 390 Z M346 449 Q320 449 296.5 431.5 Q273 414 252.5 387 Q232 360 215.5 326.5 Q199 293 189 261 Q235 261 272.5 271.5 Q310 282 336 300.5 Q362 319 376.5 345 Q391 371 391 403 Q391 424 377 436.5 Q363 449 346 449 Z M518 688 Q491 657 467 636 Q443 615 418.5 599.5 Q394 584 365.5 572 Q337 560 300 547 L271 579 Q296 595 313.5 609 Q331 623 344 639.5 Q357 656 368 675.5 Q379 695 390 722 Q424 710 452 702 Q480 694 518 688 Z " />
<glyph glyph-name="ecircumflex" unicode="&#xea;" horiz-adv-x="493" d="M499 390 Q499 343 470.5 309.5 Q442 276 396.5 255 Q351 234 293.5 225 Q236 216 178 218 Q176 207 175 198 Q174 189 174 181 Q174 121 193.5 90.5 Q213 60 257 60 Q278 60 300 68 Q322 76 343 89 Q364 102 383 118 Q402 134 417 150 L446 110 Q420 86 391.5 64 Q363 42 331.5 25.5 Q300 9 266.5 -1 Q233 -11 199 -11 Q126 -11 87 37 Q48 85 48 160 Q48 220 75.5 280.5 Q103 341 148.5 389 Q194 437 252.5 467 Q311 497 372 497 Q397 497 420.5 489.5 Q444 482 461 468.5 Q478 455 488.5 435 Q499 415 499 390 Z M346 449 Q320 449 296.5 431.5 Q273 414 252.5 387 Q232 360 215.5 326.5 Q199 293 189 261 Q235 261 272.5 271.5 Q310 282 336 300.5 Q362 319 376.5 345 Q391 371 391 403 Q391 424 377 436.5 Q363 449 346 449 Z M480 546 Q457 566 438.5 583 Q420 600 404 626 Q396 620 388.5 614 Q381 608 372 602 Q341 583 308 569.5 Q275 556 241 543 L202 587 Q215 593 227 598.5 Q239 604 250 610 Q289 631 323.5 661.5 Q358 692 381 731 L491 731 Q486 716 483.5 703.5 Q481 691 481 678 Q481 648 490.5 625.5 Q500 603 518 578 L480 546 Z " />
<glyph glyph-name="ecaron" unicode="&#x11b;" horiz-adv-x="493" d="M499 390 Q499 343 470.5 309.5 Q442 276 396.5 255 Q351 234 293.5 225 Q236 216 178 218 Q176 207 175 198 Q174 189 174 181 Q174 121 193.5 90.5 Q213 60 257 60 Q278 60 300 68 Q322 76 343 89 Q364 102 383 118 Q402 134 417 150 L446 110 Q420 86 391.5 64 Q363 42 331.5 25.5 Q300 9 266.5 -1 Q233 -11 199 -11 Q126 -11 87 37 Q48 85 48 160 Q48 220 75.5 280.5 Q103 341 148.5 389 Q194 437 252.5 467 Q311 497 372 497 Q397 497 420.5 489.5 Q444 482 461 468.5 Q478 455 488.5 435 Q499 415 499 390 Z M346 449 Q320 449 296.5 431.5 Q273 414 252.5 387 Q232 360 215.5 326.5 Q199 293 189 261 Q235 261 272.5 271.5 Q310 282 336 300.5 Q362 319 376.5 345 Q391 371 391 403 Q391 424 377 436.5 Q363 449 346 449 Z M596 697 Q571 688 544.5 673 Q518 658 493.5 639.5 Q469 621 449 599.5 Q429 578 417 555 L306 555 Q317 585 317 610 Q317 636 307 661 Q297 686 280 708 L318 738 Q341 725 360 703.5 Q379 682 393 660 Q428 689 470.5 707.5 Q513 726 556 742 L596 697 L596 697 Z " />
<glyph glyph-name="edieresis" unicode="&#xeb;" horiz-adv-x="493" d="M499 390 Q499 343 470.5 309.5 Q442 276 396.5 255 Q351 234 293.5 225 Q236 216 178 218 Q176 207 175 198 Q174 189 174 181 Q174 121 193.5 90.5 Q213 60 257 60 Q278 60 300 68 Q322 76 343 89 Q364 102 383 118 Q402 134 417 150 L446 110 Q420 86 391.5 64 Q363 42 331.5 25.5 Q300 9 266.5 -1 Q233 -11 199 -11 Q126 -11 87 37 Q48 85 48 160 Q48 220 75.5 280.5 Q103 341 148.5 389 Q194 437 252.5 467 Q311 497 372 497 Q397 497 420.5 489.5 Q444 482 461 468.5 Q478 455 488.5 435 Q499 415 499 390 Z M346 449 Q320 449 296.5 431.5 Q273 414 252.5 387 Q232 360 215.5 326.5 Q199 293 189 261 Q235 261 272.5 271.5 Q310 282 336 300.5 Q362 319 376.5 345 Q391 371 391 403 Q391 424 377 436.5 Q363 449 346 449 Z M339 664 Q339 628 314 603 Q289 578 256 578 Q234 578 217 592 Q200 606 200 629 Q200 667 225.5 693 Q251 719 285 719 Q309 719 324 703 Q339 687 339 664 Z M559 664 Q559 628 534 603 Q509 578 476 578 Q454 578 437 592 Q420 606 420 629 Q420 667 445.5 693 Q471 719 505 719 Q529 719 544 703 Q559 687 559 664 Z " />
<glyph glyph-name="emacron" unicode="&#x113;" horiz-adv-x="493" d="M499 390 Q499 343 470.5 309.5 Q442 276 396.5 255 Q351 234 293.5 225 Q236 216 178 218 Q176 207 175 198 Q174 189 174 181 Q174 121 193.5 90.5 Q213 60 257 60 Q278 60 300 68 Q322 76 343 89 Q364 102 383 118 Q402 134 417 150 L446 110 Q420 86 391.5 64 Q363 42 331.5 25.5 Q300 9 266.5 -1 Q233 -11 199 -11 Q126 -11 87 37 Q48 85 48 160 Q48 220 75.5 280.5 Q103 341 148.5 389 Q194 437 252.5 467 Q311 497 372 497 Q397 497 420.5 489.5 Q444 482 461 468.5 Q478 455 488.5 435 Q499 415 499 390 Z M346 449 Q320 449 296.5 431.5 Q273 414 252.5 387 Q232 360 215.5 326.5 Q199 293 189 261 Q235 261 272.5 271.5 Q310 282 336 300.5 Q362 319 376.5 345 Q391 371 391 403 Q391 424 377 436.5 Q363 449 346 449 Z M203 600 L203 684 L537 684 L537 600 L203 600 Z " />
<glyph glyph-name="edotaccent" unicode="&#x117;" horiz-adv-x="493" d="M499 390 Q499 343 470.5 309.5 Q442 276 396.5 255 Q351 234 293.5 225 Q236 216 178 218 Q176 207 175 198 Q174 189 174 181 Q174 121 193.5 90.5 Q213 60 257 60 Q278 60 300 68 Q322 76 343 89 Q364 102 383 118 Q402 134 417 150 L446 110 Q420 86 391.5 64 Q363 42 331.5 25.5 Q300 9 266.5 -1 Q233 -11 199 -11 Q126 -11 87 37 Q48 85 48 160 Q48 220 75.5 280.5 Q103 341 148.5 389 Q194 437 252.5 467 Q311 497 372 497 Q397 497 420.5 489.5 Q444 482 461 468.5 Q478 455 488.5 435 Q499 415 499 390 Z M346 449 Q320 449 296.5 431.5 Q273 414 252.5 387 Q232 360 215.5 326.5 Q199 293 189 261 Q235 261 272.5 271.5 Q310 282 336 300.5 Q362 319 376.5 345 Q391 371 391 403 Q391 424 377 436.5 Q363 449 346 449 Z M449 664 Q449 628 424 603 Q399 578 366 578 Q344 578 327 592 Q310 606 310 629 Q310 667 335.5 693 Q361 719 395 719 Q419 719 434 703 Q449 687 449 664 Z " />
<glyph glyph-name="eogonek" unicode="&#x119;" horiz-adv-x="493" d="M312 -172 Q304 -182 291 -190.5 Q278 -199 262.5 -205.5 Q247 -212 229.5 -216 Q212 -220 196 -220 Q150 -220 121.5 -201.5 Q93 -183 93 -137 Q93 -111 109 -87.5 Q125 -64 148.5 -45 Q172 -26 197 -13 Q200 -12 202 -11 L199 -11 Q126 -11 87 37 Q48 85 48 160 Q48 220 75.5 280.5 Q103 341 148.5 389 Q194 437 252.5 467 Q311 497 372 497 Q397 497 420.5 489.5 Q444 482 461 468.5 Q478 455 488.5 435 Q499 415 499 390 Q499 343 470.5 309.5 Q442 276 396.5 255 Q351 234 293.5 225 Q236 216 178 218 Q176 207 175 198 Q174 189 174 181 Q174 121 193.5 90.5 Q213 60 257 60 Q278 60 300 68 Q322 76 343 89 Q364 102 383 118 Q402 134 417 150 L446 110 Q420 86 391.5 64 Q363 42 331 25 Q307 13 282 4 L285 4 Q255 -20 236.5 -39.5 Q218 -59 208 -75 Q198 -91 194.5 -104 Q191 -117 191 -128 Q191 -151 201 -161 Q211 -171 228 -171 Q262 -171 291 -148 L312 -172 Z M346 449 Q320 449 296.5 431.5 Q273 414 252.5 387 Q232 360 215.5 326.5 Q199 293 189 261 Q235 261 272.5 271.5 Q310 282 336 300.5 Q362 319 376.5 345 Q391 371 391 403 Q391 424 377 436.5 Q363 449 346 449 Z " />
<glyph glyph-name="gbreve" unicode="&#x11f;" horiz-adv-x="497" d="M552 531 Q552 510 544 493 Q536 476 523 461.5 Q510 447 494 435.5 Q478 424 463 415 Q468 402 472.5 388 Q477 374 477 359 Q477 335 470 311.5 Q463 288 447 268 Q418 230 374.5 211 Q331 192 269 176 Q260 174 247 170 Q234 166 221.5 160 Q209 154 200.5 145.5 Q192 137 192 127 Q192 118 203 112 Q214 106 228 103 Q242 100 256.5 99 Q271 98 278 97 Q310 93 343 88 Q376 83 407 67 Q435 53 450 25 Q465 -3 465 -30 Q465 -62 453 -84.5 Q441 -107 420 -126 Q398 -146 370.5 -160 Q343 -174 313 -182 Q283 -190 252.5 -193.5 Q222 -197 194 -197 Q171 -197 144.5 -195 Q118 -193 91.5 -186.5 Q65 -180 41 -168.5 Q17 -157 1 -138 Q-10 -126 -15 -113 Q-20 -100 -20 -83 Q-20 -58 -4.5 -40 Q11 -22 34 -10.5 Q57 1 83 8 Q109 15 130 18 Q118 22 102.5 27 Q87 32 74 39.5 Q61 47 52 58 Q43 69 43 84 Q43 105 58.5 121.5 Q74 138 95.5 150.5 Q117 163 140.5 172 Q164 181 181 187 Q138 204 111 236 Q84 268 84 313 Q84 343 97 371.5 Q110 400 130 424 Q162 461 209 477 Q256 493 303 493 Q344 493 375 483.5 Q406 474 438 450 Q444 461 447.5 469 Q451 477 451 489 Q451 502 445.5 512 Q440 522 431 533 L541 579 Q546 566 549 554 Q552 542 552 531 Z M353 384 Q353 410 342 430 Q331 450 308 450 Q283 450 265 431.5 Q247 413 235 387 Q223 361 217 334 Q211 307 211 289 Q211 252 225.5 234.5 Q240 217 260 217 Q284 217 301.5 236.5 Q319 256 330.5 282.5 Q342 309 347.5 337.5 Q353 366 353 384 Z M356 -73 Q356 -50 339.5 -37 Q323 -24 300 -16.5 Q277 -9 252 -5.5 Q227 -2 211 1 Q194 -2 172.5 -8.5 Q151 -15 132 -26 Q113 -37 99.5 -52.5 Q86 -68 86 -88 Q86 -108 98.5 -120.5 Q111 -133 130 -140.5 Q149 -148 169.5 -151 Q190 -154 207 -154 Q226 -154 251.5 -150 Q277 -146 300 -136.5 Q323 -127 339.5 -111.5 Q356 -96 356 -73 Z M501 702 Q483 660 464.5 633 Q446 606 426 590.5 Q406 575 383.5 569.5 Q361 564 335 564 Q309 564 286.5 569.5 Q264 575 244 590.5 Q224 606 205.5 633 Q187 660 169 702 L197 716 Q217 687 255 672.5 Q293 658 335 658 Q377 658 415 672.5 Q453 687 473 716 L501 702 L501 702 Z " />
<glyph glyph-name="gcommaaccent" unicode="&#x123;" horiz-adv-x="497" d="M552 531 Q552 510 544 493 Q536 476 523 461.5 Q510 447 494 435.5 Q478 424 463 415 Q468 402 472.5 388 Q477 374 477 359 Q477 335 470 311.5 Q463 288 447 268 Q418 230 374.5 211 Q331 192 269 176 Q260 174 247 170 Q234 166 221.5 160 Q209 154 200.5 145.5 Q192 137 192 127 Q192 118 203 112 Q214 106 228 103 Q242 100 256.5 99 Q271 98 278 97 Q310 93 343 88 Q376 83 407 67 Q435 53 450 25 Q465 -3 465 -30 Q465 -62 453 -84.5 Q441 -107 420 -126 Q398 -146 370.5 -160 Q343 -174 313 -182 Q283 -190 252.5 -193.5 Q222 -197 194 -197 Q171 -197 144.5 -195 Q118 -193 91.5 -186.5 Q65 -180 41 -168.5 Q17 -157 1 -138 Q-10 -126 -15 -113 Q-20 -100 -20 -83 Q-20 -58 -4.5 -40 Q11 -22 34 -10.5 Q57 1 83 8 Q109 15 130 18 Q118 22 102.5 27 Q87 32 74 39.5 Q61 47 52 58 Q43 69 43 84 Q43 105 58.5 121.5 Q74 138 95.5 150.5 Q117 163 140.5 172 Q164 181 181 187 Q138 204 111 236 Q84 268 84 313 Q84 343 97 371.5 Q110 400 130 424 Q162 461 209 477 Q256 493 303 493 Q344 493 375 483.5 Q406 474 438 450 Q444 461 447.5 469 Q451 477 451 489 Q451 502 445.5 512 Q440 522 431 533 L541 579 Q546 566 549 554 Q552 542 552 531 Z M353 384 Q353 410 342 430 Q331 450 308 450 Q283 450 265 431.5 Q247 413 235 387 Q223 361 217 334 Q211 307 211 289 Q211 252 225.5 234.5 Q240 217 260 217 Q284 217 301.5 236.5 Q319 256 330.5 282.5 Q342 309 347.5 337.5 Q353 366 353 384 Z M356 -73 Q356 -50 339.5 -37 Q323 -24 300 -16.5 Q277 -9 252 -5.5 Q227 -2 211 1 Q194 -2 172.5 -8.5 Q151 -15 132 -26 Q113 -37 99.5 -52.5 Q86 -68 86 -88 Q86 -108 98.5 -120.5 Q111 -133 130 -140.5 Q149 -148 169.5 -151 Q190 -154 207 -154 Q226 -154 251.5 -150 Q277 -146 300 -136.5 Q323 -127 339.5 -111.5 Q356 -96 356 -73 Z M254 568 Q254 582 258 599 Q262 616 270 630 Q299 680 339.5 704 Q380 728 433 746 L452 721 Q419 694 406 668.5 Q393 643 393 603 L393 598 Q357 589 323.5 578 Q290 567 256 551 Q254 556 254 560 Q254 564 254 568 Z " />
<glyph glyph-name="igrave" unicode="&#xec;" horiz-adv-x="315" d="M307 86 Q291 71 267.5 54.5 Q244 38 218.5 23.5 Q193 9 167 -0.5 Q141 -10 119 -10 Q94 -10 77.5 5 Q61 20 61 46 Q61 72 68.5 96 Q76 120 84 144 L145 343 Q149 354 151 365 Q153 376 153 380 Q153 389 150.5 393.5 Q148 398 137 398 Q131 398 122.5 394 Q114 390 105.5 384.5 Q97 379 89 373.5 Q81 368 77 364 L47 398 Q64 413 88.5 430.5 Q113 448 139 462.5 Q165 477 191.5 486.5 Q218 496 240 496 Q260 496 275 484 Q290 472 290 453 Q290 430 279 392 L201 138 Q197 127 194.5 115 Q192 103 192 97 Q192 87 195 81.5 Q198 76 208 76 Q215 76 225 81 Q235 86 245 92.5 Q255 99 264 106 Q273 113 278 117 L307 86 L307 86 Z M269 548 Q195 568 143.5 607 Q92 646 49 692 Q86 699 117 707.5 Q148 716 182 728 Q202 680 229 644.5 Q256 609 302 583 L269 548 Z " />
<glyph glyph-name="iacute" unicode="&#xed;" horiz-adv-x="315" d="M307 86 Q291 71 267.5 54.5 Q244 38 218.5 23.5 Q193 9 167 -0.5 Q141 -10 119 -10 Q94 -10 77.5 5 Q61 20 61 46 Q61 72 68.5 96 Q76 120 84 144 L145 343 Q149 354 151 365 Q153 376 153 380 Q153 389 150.5 393.5 Q148 398 137 398 Q131 398 122.5 394 Q114 390 105.5 384.5 Q97 379 89 373.5 Q81 368 77 364 L47 398 Q64 413 88.5 430.5 Q113 448 139 462.5 Q165 477 191.5 486.5 Q218 496 240 496 Q260 496 275 484 Q290 472 290 453 Q290 430 279 392 L201 138 Q197 127 194.5 115 Q192 103 192 97 Q192 87 195 81.5 Q198 76 208 76 Q215 76 225 81 Q235 86 245 92.5 Q255 99 264 106 Q273 113 278 117 L307 86 L307 86 Z M380 688 Q353 657 329 636 Q305 615 280.5 599.5 Q256 584 227.5 572 Q199 560 162 547 L133 579 Q158 595 175.5 609 Q193 623 206 639.5 Q219 656 230 675.5 Q241 695 252 722 Q286 710 314 702 Q342 694 380 688 Z " />
<glyph glyph-name="icircumflex" unicode="&#xee;" horiz-adv-x="315" d="M307 86 Q291 71 267.5 54.5 Q244 38 218.5 23.5 Q193 9 167 -0.5 Q141 -10 119 -10 Q94 -10 77.5 5 Q61 20 61 46 Q61 72 68.5 96 Q76 120 84 144 L145 343 Q149 354 151 365 Q153 376 153 380 Q153 389 150.5 393.5 Q148 398 137 398 Q131 398 122.5 394 Q114 390 105.5 384.5 Q97 379 89 373.5 Q81 368 77 364 L47 398 Q64 413 88.5 430.5 Q113 448 139 462.5 Q165 477 191.5 486.5 Q218 496 240 496 Q260 496 275 484 Q290 472 290 453 Q290 430 279 392 L201 138 Q197 127 194.5 115 Q192 103 192 97 Q192 87 195 81.5 Q198 76 208 76 Q215 76 225 81 Q235 86 245 92.5 Q255 99 264 106 Q273 113 278 117 L307 86 L307 86 Z M347 546 Q324 566 305.5 583 Q287 600 271 626 Q263 620 255.5 614 Q248 608 239 602 Q208 583 175 569.5 Q142 556 108 543 L69 587 Q82 593 94 598.5 Q106 604 117 610 Q156 631 190.5 661.5 Q225 692 248 731 L358 731 Q353 716 350.5 703.5 Q348 691 348 678 Q348 648 357.5 625.5 Q367 603 385 578 L347 546 Z " />
<glyph glyph-name="idieresis" unicode="&#xef;" horiz-adv-x="315" d="M307 86 Q291 71 267.5 54.5 Q244 38 218.5 23.5 Q193 9 167 -0.5 Q141 -10 119 -10 Q94 -10 77.5 5 Q61 20 61 46 Q61 72 68.5 96 Q76 120 84 144 L145 343 Q149 354 151 365 Q153 376 153 380 Q153 389 150.5 393.5 Q148 398 137 398 Q131 398 122.5 394 Q114 390 105.5 384.5 Q97 379 89 373.5 Q81 368 77 364 L47 398 Q64 413 88.5 430.5 Q113 448 139 462.5 Q165 477 191.5 486.5 Q218 496 240 496 Q260 496 275 484 Q290 472 290 453 Q290 430 279 392 L201 138 Q197 127 194.5 115 Q192 103 192 97 Q192 87 195 81.5 Q198 76 208 76 Q215 76 225 81 Q235 86 245 92.5 Q255 99 264 106 Q273 113 278 117 L307 86 L307 86 Z M202 664 Q202 628 177 603 Q152 578 119 578 Q97 578 80 592 Q63 606 63 629 Q63 667 88.5 693 Q114 719 148 719 Q172 719 187 703 Q202 687 202 664 Z M422 664 Q422 628 397 603 Q372 578 339 578 Q317 578 300 592 Q283 606 283 629 Q283 667 308.5 693 Q334 719 368 719 Q392 719 407 703 Q422 687 422 664 Z " />
<glyph glyph-name="imacron" unicode="&#x12b;" horiz-adv-x="315" d="M307 86 Q291 71 267.5 54.5 Q244 38 218.5 23.5 Q193 9 167 -0.5 Q141 -10 119 -10 Q94 -10 77.5 5 Q61 20 61 46 Q61 72 68.5 96 Q76 120 84 144 L145 343 Q149 354 151 365 Q153 376 153 380 Q153 389 150.5 393.5 Q148 398 137 398 Q131 398 122.5 394 Q114 390 105.5 384.5 Q97 379 89 373.5 Q81 368 77 364 L47 398 Q64 413 88.5 430.5 Q113 448 139 462.5 Q165 477 191.5 486.5 Q218 496 240 496 Q260 496 275 484 Q290 472 290 453 Q290 430 279 392 L201 138 Q197 127 194.5 115 Q192 103 192 97 Q192 87 195 81.5 Q198 76 208 76 Q215 76 225 81 Q235 86 245 92.5 Q255 99 264 106 Q273 113 278 117 L307 86 L307 86 Z M67 600 L67 684 L401 684 L401 600 L67 600 Z " />
<glyph glyph-name="iogonek" unicode="&#x12f;" horiz-adv-x="304" d="M302 86 Q286 71 262.5 54.5 Q239 38 213 23 Q189 9 164 0 Q137 -21 120 -39 Q102 -59 92 -75 Q82 -91 78.5 -104 Q75 -117 75 -128 Q75 -151 85 -161 Q95 -171 112 -171 Q146 -171 175 -148 L196 -172 Q188 -182 175 -190.5 Q162 -199 146.5 -205.5 Q131 -212 113.5 -216 Q96 -220 80 -220 Q34 -220 5.5 -201.5 Q-23 -183 -23 -137 Q-23 -111 -7 -87.5 Q9 -64 32.5 -45 Q56 -26 81 -13 Q88 -10 94 -7 Q82 -3 72 5 Q56 20 56 46 Q56 72 63.5 96 Q71 120 79 144 L140 343 Q144 354 146 365 Q148 376 148 380 Q148 389 145.5 393.5 Q143 398 132 398 Q126 398 117.5 394 Q109 390 100.5 384.5 Q92 379 84 373.5 Q76 368 72 364 L42 398 Q59 413 83.5 430.5 Q108 448 134 462.5 Q160 477 186.5 486.5 Q213 496 235 496 Q255 496 270 484 Q285 472 285 453 Q285 430 274 392 L196 138 Q192 127 189.5 115 Q187 103 187 97 Q187 87 190 81.5 Q193 76 203 76 Q210 76 220 81 Q230 86 240 92.5 Q250 99 259 106 Q268 113 273 117 L302 86 Z M329 664 Q329 628 304 603 Q279 578 246 578 Q224 578 207 592 Q190 606 190 629 Q190 667 215.5 693 Q241 719 275 719 Q299 719 314 703 Q329 687 329 664 Z " />
<glyph glyph-name="dotlessi" unicode="&#x131;" horiz-adv-x="315" d="M307 86 Q291 71 267.5 54.5 Q244 38 218.5 23.5 Q193 9 167 -0.5 Q141 -10 119 -10 Q94 -10 77.5 5 Q61 20 61 46 Q61 72 68.5 96 Q76 120 84 144 L145 343 Q149 354 151 365 Q153 376 153 380 Q153 389 150.5 393.5 Q148 398 137 398 Q131 398 122.5 394 Q114 390 105.5 384.5 Q97 379 89 373.5 Q81 368 77 364 L47 398 Q64 413 88.5 430.5 Q113 448 139 462.5 Q165 477 191.5 486.5 Q218 496 240 496 Q260 496 275 484 Q290 472 290 453 Q290 430 279 392 L201 138 Q197 127 194.5 115 Q192 103 192 97 Q192 87 195 81.5 Q198 76 208 76 Q215 76 225 81 Q235 86 245 92.5 Q255 99 264 106 Q273 113 278 117 L307 86 L307 86 Z " />
<glyph glyph-name="kcommaaccent" unicode="&#x137;" horiz-adv-x="561" d="M564 439 Q564 404 542 374 Q520 344 488.5 319 Q457 294 421.5 276 Q386 258 360 247 L387 146 Q393 124 403.5 102.5 Q414 81 431 81 Q441 81 452 86.5 Q463 92 473.5 100 Q484 108 493 117 Q502 126 508 132 L536 96 Q521 81 500.5 62 Q480 43 457 26.5 Q434 10 409.5 -1 Q385 -12 363 -12 Q342 -12 327.5 -2 Q313 8 302.5 25.5 Q292 43 284 66.5 Q276 90 269 117 L236 243 Q279 251 315 265 Q351 279 377.5 296 Q404 313 418.5 332 Q433 351 433 369 Q433 383 424 389.5 Q415 396 400 396 Q380 396 358.5 383.5 Q337 371 320 357 Q288 329 263.5 296.5 Q239 264 220 223.5 Q201 183 186.5 133.5 Q172 84 159 22 L31 -9 L174 549 Q187 600 192 625 Q197 650 197 664 Q197 686 184 695.5 Q171 705 151 705 Q143 705 136.5 704.5 Q130 704 122 703 L130 748 Q186 754 239 760 Q292 766 348 778 L233 323 Q256 353 285 384.5 Q314 416 347.5 441.5 Q381 467 419 483 Q457 499 497 499 Q526 499 545 484 Q564 469 564 439 Z M283 -55 Q283 -89 266 -120 Q252 -146 235 -164 Q218 -182 197.5 -195 Q177 -208 153.5 -217.5 Q130 -227 103 -236 L84 -211 Q114 -185 128.5 -160 Q143 -135 143 -95 L143 -90 Q179 -81 212.5 -69 Q246 -57 280 -41 Q283 -52 283 -55 Z " />
<glyph glyph-name="lacute" unicode="&#x13a;" horiz-adv-x="312" d="M202 191 Q194 162 189 139.5 Q184 117 184 103 Q184 94 188.5 85 Q193 76 206 76 Q216 76 228 82 Q240 88 251 96 Q262 104 272.5 113.5 Q283 123 290 129 L320 95 Q301 76 277 57 Q253 38 227 23 Q201 8 173.5 -1.5 Q146 -11 119 -11 Q93 -11 72 1 Q51 13 51 44 Q51 57 53.5 72 Q56 87 62 109 L185 591 Q190 608 194 626.5 Q198 645 198 665 Q198 682 187.5 693 Q177 704 155 704 Q144 704 136.5 703.5 Q129 703 118 702 L130 751 Q187 755 240.5 761 Q294 767 351 778 L202 191 Z M474 946 Q447 915 423 894 Q399 873 374.5 857.5 Q350 842 321.5 830 Q293 818 256 805 L227 837 Q252 853 269.5 867 Q287 881 300 897.5 Q313 914 324 933.5 Q335 953 346 980 Q380 968 408 960 Q436 952 474 946 Z " />
<glyph glyph-name="lcaron" unicode="&#x13e;" horiz-adv-x="312" d="M202 191 Q194 162 189 139.5 Q184 117 184 103 Q184 94 188.5 85 Q193 76 206 76 Q216 76 228 82 Q240 88 251 96 Q262 104 272.5 113.5 Q283 123 290 129 L320 95 Q301 76 277 57 Q253 38 227 23 Q201 8 173.5 -1.5 Q146 -11 119 -11 Q93 -11 72 1 Q51 13 51 44 Q51 57 53.5 72 Q56 87 62 109 L185 591 Q190 608 194 626.5 Q198 645 198 665 Q198 682 187.5 693 Q177 704 155 704 Q144 704 136.5 703.5 Q129 703 118 702 L130 751 Q187 755 240.5 761 Q294 767 351 778 L202 191 Z M555 740 Q555 709 544 682 Q533 655 514 632 Q504 620 486.5 605 Q469 590 449 575.5 Q429 561 409 549 Q389 537 373 531 L348 565 Q380 585 402.5 612 Q425 639 425 677 Q425 699 417.5 716.5 Q410 734 396 753 Q433 768 466.5 785.5 Q500 803 535 823 Q544 801 549.5 782 Q555 763 555 740 Z " />
<glyph glyph-name="lcommaaccent" unicode="&#x13c;" horiz-adv-x="312" d="M202 191 Q194 162 189 139.5 Q184 117 184 103 Q184 94 188.5 85 Q193 76 206 76 Q216 76 228 82 Q240 88 251 96 Q262 104 272.5 113.5 Q283 123 290 129 L320 95 Q301 76 277 57 Q253 38 227 23 Q201 8 173.5 -1.5 Q146 -11 119 -11 Q93 -11 72 1 Q51 13 51 44 Q51 57 53.5 72 Q56 87 62 109 L185 591 Q190 608 194 626.5 Q198 645 198 665 Q198 682 187.5 693 Q177 704 155 704 Q144 704 136.5 703.5 Q129 703 118 702 L130 751 Q187 755 240.5 761 Q294 767 351 778 L202 191 Z M198 -55 Q198 -89 181 -120 Q167 -146 150 -164 Q133 -182 112.5 -195 Q92 -208 68.5 -217.5 Q45 -227 18 -236 L-1 -211 Q29 -185 43.5 -160 Q58 -135 58 -95 L58 -90 Q94 -81 127.5 -69 Q161 -57 195 -41 Q198 -52 198 -55 Z " />
<glyph glyph-name="lslash" unicode="&#x142;" horiz-adv-x="312" d="M202 191 Q194 162 189 139.5 Q184 117 184 103 Q184 94 188.5 85 Q193 76 206 76 Q216 76 228 82 Q240 88 251 96 Q262 104 272.5 113.5 Q283 123 290 129 L320 95 Q301 76 277 57 Q253 38 227 23 Q201 8 173.5 -1.5 Q146 -11 119 -11 Q93 -11 72 1 Q51 13 51 44 Q51 57 53.5 72 Q56 87 62 109 L120 338 L42 286 L55 359 L140 416 L185 591 Q190 608 194 626.5 Q198 645 198 665 Q198 682 187.5 693 Q177 704 155 704 Q144 704 136.5 703.5 Q129 703 118 702 L130 751 Q187 755 240.5 761 Q294 767 351 778 L283 512 L354 559 L343 486 L263 433 L202 191 Z " />
<glyph glyph-name="nacute" unicode="&#x144;" horiz-adv-x="598" d="M609 89 Q588 71 564.5 53 Q541 35 515.5 20 Q490 5 462.5 -4 Q435 -13 407 -13 Q377 -13 360.5 4.5 Q344 22 344 48 Q344 63 347.5 82.5 Q351 102 359 130 L407 290 Q413 310 418.5 332 Q424 354 424 366 Q424 371 421.5 377.5 Q419 384 406 384 Q385 384 361 366 Q337 348 320 329 Q299 306 280 276 Q261 246 243 207 Q225 168 208 118.5 Q191 69 175 7 L54 -14 L136 297 Q141 314 145 333.5 Q149 353 149 364 Q149 388 128 388 Q109 388 94.5 377 Q80 366 69 356 L41 389 Q46 395 52.5 399.5 Q59 404 65 409 Q81 422 103.5 438 Q126 454 150 468 Q174 482 198 491.5 Q222 501 242 501 Q254 501 261.5 495.5 Q269 490 273 482 Q277 474 278 464.5 Q279 455 279 448 Q279 437 277 421 Q275 405 271.5 387 Q268 369 263.5 351.5 Q259 334 255 320 Q272 346 300 377 Q328 408 361 434.5 Q394 461 429 478.5 Q464 496 494 496 Q521 496 542 480 Q563 464 563 435 Q563 422 556 392 Q549 362 538 327 L494 183 Q487 160 480.5 138.5 Q474 117 474 98 Q474 89 478.5 82.5 Q483 76 494 76 Q504 76 516 81 Q528 86 540 93.5 Q552 101 563 109.5 Q574 118 582 126 L609 89 L609 89 Z M584 688 Q557 657 533 636 Q509 615 484.5 599.5 Q460 584 431.5 572 Q403 560 366 547 L337 579 Q362 595 379.5 609 Q397 623 410 639.5 Q423 656 434 675.5 Q445 695 456 722 Q490 710 518 702 Q546 694 584 688 Z " />
<glyph glyph-name="ncaron" unicode="&#x148;" horiz-adv-x="598" d="M609 89 Q588 71 564.5 53 Q541 35 515.5 20 Q490 5 462.5 -4 Q435 -13 407 -13 Q377 -13 360.5 4.5 Q344 22 344 48 Q344 63 347.5 82.5 Q351 102 359 130 L407 290 Q413 310 418.5 332 Q424 354 424 366 Q424 371 421.5 377.5 Q419 384 406 384 Q385 384 361 366 Q337 348 320 329 Q299 306 280 276 Q261 246 243 207 Q225 168 208 118.5 Q191 69 175 7 L54 -14 L136 297 Q141 314 145 333.5 Q149 353 149 364 Q149 388 128 388 Q109 388 94.5 377 Q80 366 69 356 L41 389 Q46 395 52.5 399.5 Q59 404 65 409 Q81 422 103.5 438 Q126 454 150 468 Q174 482 198 491.5 Q222 501 242 501 Q254 501 261.5 495.5 Q269 490 273 482 Q277 474 278 464.5 Q279 455 279 448 Q279 437 277 421 Q275 405 271.5 387 Q268 369 263.5 351.5 Q259 334 255 320 Q272 346 300 377 Q328 408 361 434.5 Q394 461 429 478.5 Q464 496 494 496 Q521 496 542 480 Q563 464 563 435 Q563 422 556 392 Q549 362 538 327 L494 183 Q487 160 480.5 138.5 Q474 117 474 98 Q474 89 478.5 82.5 Q483 76 494 76 Q504 76 516 81 Q528 86 540 93.5 Q552 101 563 109.5 Q574 118 582 126 L609 89 L609 89 Z M607 697 Q582 688 555.5 673 Q529 658 504.5 639.5 Q480 621 460 599.5 Q440 578 428 555 L317 555 Q328 585 328 610 Q328 636 318 661 Q308 686 291 708 L329 738 Q352 725 371 703.5 Q390 682 404 660 Q439 689 481.5 707.5 Q524 726 567 742 L607 697 L607 697 Z " />
<glyph glyph-name="ntilde" unicode="&#xf1;" horiz-adv-x="598" d="M609 89 Q588 71 564.5 53 Q541 35 515.5 20 Q490 5 462.5 -4 Q435 -13 407 -13 Q377 -13 360.5 4.5 Q344 22 344 48 Q344 63 347.5 82.5 Q351 102 359 130 L407 290 Q413 310 418.5 332 Q424 354 424 366 Q424 371 421.5 377.5 Q419 384 406 384 Q385 384 361 366 Q337 348 320 329 Q299 306 280 276 Q261 246 243 207 Q225 168 208 118.5 Q191 69 175 7 L54 -14 L136 297 Q141 314 145 333.5 Q149 353 149 364 Q149 388 128 388 Q109 388 94.5 377 Q80 366 69 356 L41 389 Q46 395 52.5 399.5 Q59 404 65 409 Q81 422 103.5 438 Q126 454 150 468 Q174 482 198 491.5 Q222 501 242 501 Q254 501 261.5 495.5 Q269 490 273 482 Q277 474 278 464.5 Q279 455 279 448 Q279 437 277 421 Q275 405 271.5 387 Q268 369 263.5 351.5 Q259 334 255 320 Q272 346 300 377 Q328 408 361 434.5 Q394 461 429 478.5 Q464 496 494 496 Q521 496 542 480 Q563 464 563 435 Q563 422 556 392 Q549 362 538 327 L494 183 Q487 160 480.5 138.5 Q474 117 474 98 Q474 89 478.5 82.5 Q483 76 494 76 Q504 76 516 81 Q528 86 540 93.5 Q552 101 563 109.5 Q574 118 582 126 L609 89 L609 89 Z M575 692 Q568 660 554.5 632.5 Q541 605 514 582 Q500 569 482.5 563 Q465 557 451 557 Q425 557 404 567.5 Q383 578 365 590 Q353 598 335.5 608 Q318 618 301 618 Q286 618 276 611 Q253 597 245 569 L192 569 Q198 594 210 619.5 Q222 645 240 664.5 Q258 684 282 696.5 Q306 709 335 709 Q361 709 379 699 Q397 689 414 678 Q425 670 441.5 659 Q458 648 475 648 Q494 648 506 661 Q518 674 524 692 L575 692 L575 692 Z " />
<glyph glyph-name="ncommaaccent" unicode="&#x146;" horiz-adv-x="598" d="M609 89 Q588 71 564.5 53 Q541 35 515.5 20 Q490 5 462.5 -4 Q435 -13 407 -13 Q377 -13 360.5 4.5 Q344 22 344 48 Q344 63 347.5 82.5 Q351 102 359 130 L407 290 Q413 310 418.5 332 Q424 354 424 366 Q424 371 421.5 377.5 Q419 384 406 384 Q385 384 361 366 Q337 348 320 329 Q299 306 280 276 Q261 246 243 207 Q225 168 208 118.5 Q191 69 175 7 L54 -14 L136 297 Q141 314 145 333.5 Q149 353 149 364 Q149 388 128 388 Q109 388 94.5 377 Q80 366 69 356 L41 389 Q46 395 52.5 399.5 Q59 404 65 409 Q81 422 103.5 438 Q126 454 150 468 Q174 482 198 491.5 Q222 501 242 501 Q254 501 261.5 495.5 Q269 490 273 482 Q277 474 278 464.5 Q279 455 279 448 Q279 437 277 421 Q275 405 271.5 387 Q268 369 263.5 351.5 Q259 334 255 320 Q272 346 300 377 Q328 408 361 434.5 Q394 461 429 478.5 Q464 496 494 496 Q521 496 542 480 Q563 464 563 435 Q563 422 556 392 Q549 362 538 327 L494 183 Q487 160 480.5 138.5 Q474 117 474 98 Q474 89 478.5 82.5 Q483 76 494 76 Q504 76 516 81 Q528 86 540 93.5 Q552 101 563 109.5 Q574 118 582 126 L609 89 L609 89 Z M316 -55 Q316 -89 299 -120 Q285 -146 268 -164 Q251 -182 230.5 -195 Q210 -208 186.5 -217.5 Q163 -227 136 -236 L117 -211 Q147 -185 161.5 -160 Q176 -135 176 -95 L176 -90 Q212 -81 245.5 -69 Q279 -57 313 -41 Q316 -52 316 -55 Z " />
<glyph glyph-name="ograve" unicode="&#xf2;" horiz-adv-x="561" d="M547 313 Q547 254 525 196 Q503 138 461.5 92 Q420 46 361.5 17.5 Q303 -11 230 -11 Q193 -11 159 1.5 Q125 14 99.5 37 Q74 60 59 93 Q44 126 44 167 Q44 230 67.5 289.5 Q91 349 133 395 Q175 441 233.5 468.5 Q292 496 362 496 Q401 496 435 483.5 Q469 471 493.5 447.5 Q518 424 532.5 390 Q547 356 547 313 Z M418 345 Q418 364 416 383 Q414 402 407 417.5 Q400 433 387.5 442.5 Q375 452 353 452 Q326 452 302 436 Q278 420 258 394.5 Q238 369 222.5 336.5 Q207 304 196 270 Q185 236 179.5 203.5 Q174 171 174 147 Q174 128 176.5 108 Q179 88 186.5 72 Q194 56 207.5 45.5 Q221 35 244 35 Q271 35 294 52 Q317 69 336.5 96 Q356 123 371 157 Q386 191 396.5 225.5 Q407 260 412.5 291.5 Q418 323 418 345 Z M415 548 Q341 568 289.5 607 Q238 646 195 692 Q232 699 263 707.5 Q294 716 328 728 Q348 680 375 644.5 Q402 609 448 583 L415 548 Z " />
<glyph glyph-name="oacute" unicode="&#xf3;" horiz-adv-x="561" d="M547 313 Q547 254 525 196 Q503 138 461.5 92 Q420 46 361.5 17.5 Q303 -11 230 -11 Q193 -11 159 1.5 Q125 14 99.5 37 Q74 60 59 93 Q44 126 44 167 Q44 230 67.5 289.5 Q91 349 133 395 Q175 441 233.5 468.5 Q292 496 362 496 Q401 496 435 483.5 Q469 471 493.5 447.5 Q518 424 532.5 390 Q547 356 547 313 Z M418 345 Q418 364 416 383 Q414 402 407 417.5 Q400 433 387.5 442.5 Q375 452 353 452 Q326 452 302 436 Q278 420 258 394.5 Q238 369 222.5 336.5 Q207 304 196 270 Q185 236 179.5 203.5 Q174 171 174 147 Q174 128 176.5 108 Q179 88 186.5 72 Q194 56 207.5 45.5 Q221 35 244 35 Q271 35 294 52 Q317 69 336.5 96 Q356 123 371 157 Q386 191 396.5 225.5 Q407 260 412.5 291.5 Q418 323 418 345 Z M535 688 Q508 657 484 636 Q460 615 435.5 599.5 Q411 584 382.5 572 Q354 560 317 547 L288 579 Q313 595 330.5 609 Q348 623 361 639.5 Q374 656 385 675.5 Q396 695 407 722 Q441 710 469 702 Q497 694 535 688 Z " />
<glyph glyph-name="ocircumflex" unicode="&#xf4;" horiz-adv-x="561" d="M547 313 Q547 254 525 196 Q503 138 461.5 92 Q420 46 361.5 17.5 Q303 -11 230 -11 Q193 -11 159 1.5 Q125 14 99.5 37 Q74 60 59 93 Q44 126 44 167 Q44 230 67.5 289.5 Q91 349 133 395 Q175 441 233.5 468.5 Q292 496 362 496 Q401 496 435 483.5 Q469 471 493.5 447.5 Q518 424 532.5 390 Q547 356 547 313 Z M418 345 Q418 364 416 383 Q414 402 407 417.5 Q400 433 387.5 442.5 Q375 452 353 452 Q326 452 302 436 Q278 420 258 394.5 Q238 369 222.5 336.5 Q207 304 196 270 Q185 236 179.5 203.5 Q174 171 174 147 Q174 128 176.5 108 Q179 88 186.5 72 Q194 56 207.5 45.5 Q221 35 244 35 Q271 35 294 52 Q317 69 336.5 96 Q356 123 371 157 Q386 191 396.5 225.5 Q407 260 412.5 291.5 Q418 323 418 345 Z M482 546 Q459 566 440.5 583 Q422 600 406 626 Q398 620 390.5 614 Q383 608 374 602 Q343 583 310 569.5 Q277 556 243 543 L204 587 Q217 593 229 598.5 Q241 604 252 610 Q291 631 325.5 661.5 Q360 692 383 731 L493 731 Q488 716 485.5 703.5 Q483 691 483 678 Q483 648 492.5 625.5 Q502 603 520 578 L482 546 Z " />
<glyph glyph-name="otilde" unicode="&#xf5;" horiz-adv-x="561" d="M547 313 Q547 254 525 196 Q503 138 461.5 92 Q420 46 361.5 17.5 Q303 -11 230 -11 Q193 -11 159 1.5 Q125 14 99.5 37 Q74 60 59 93 Q44 126 44 167 Q44 230 67.5 289.5 Q91 349 133 395 Q175 441 233.5 468.5 Q292 496 362 496 Q401 496 435 483.5 Q469 471 493.5 447.5 Q518 424 532.5 390 Q547 356 547 313 Z M418 345 Q418 364 416 383 Q414 402 407 417.5 Q400 433 387.5 442.5 Q375 452 353 452 Q326 452 302 436 Q278 420 258 394.5 Q238 369 222.5 336.5 Q207 304 196 270 Q185 236 179.5 203.5 Q174 171 174 147 Q174 128 176.5 108 Q179 88 186.5 72 Q194 56 207.5 45.5 Q221 35 244 35 Q271 35 294 52 Q317 69 336.5 96 Q356 123 371 157 Q386 191 396.5 225.5 Q407 260 412.5 291.5 Q418 323 418 345 Z M581 692 Q574 660 560.5 632.5 Q547 605 520 582 Q506 569 488.5 563 Q471 557 457 557 Q431 557 410 567.5 Q389 578 371 590 Q359 598 341.5 608 Q324 618 307 618 Q292 618 282 611 Q259 597 251 569 L198 569 Q204 594 216 619.5 Q228 645 246 664.5 Q264 684 288 696.5 Q312 709 341 709 Q367 709 385 699 Q403 689 420 678 Q431 670 447.5 659 Q464 648 481 648 Q500 648 512 661 Q524 674 530 692 L581 692 L581 692 Z " />
<glyph glyph-name="odieresis" unicode="&#xf6;" horiz-adv-x="561" d="M547 313 Q547 254 525 196 Q503 138 461.5 92 Q420 46 361.5 17.5 Q303 -11 230 -11 Q193 -11 159 1.5 Q125 14 99.5 37 Q74 60 59 93 Q44 126 44 167 Q44 230 67.5 289.5 Q91 349 133 395 Q175 441 233.5 468.5 Q292 496 362 496 Q401 496 435 483.5 Q469 471 493.5 447.5 Q518 424 532.5 390 Q547 356 547 313 Z M418 345 Q418 364 416 383 Q414 402 407 417.5 Q400 433 387.5 442.5 Q375 452 353 452 Q326 452 302 436 Q278 420 258 394.5 Q238 369 222.5 336.5 Q207 304 196 270 Q185 236 179.5 203.5 Q174 171 174 147 Q174 128 176.5 108 Q179 88 186.5 72 Q194 56 207.5 45.5 Q221 35 244 35 Q271 35 294 52 Q317 69 336.5 96 Q356 123 371 157 Q386 191 396.5 225.5 Q407 260 412.5 291.5 Q418 323 418 345 Z M352 664 Q352 628 327 603 Q302 578 269 578 Q247 578 230 592 Q213 606 213 629 Q213 667 238.5 693 Q264 719 298 719 Q322 719 337 703 Q352 687 352 664 Z M572 664 Q572 628 547 603 Q522 578 489 578 Q467 578 450 592 Q433 606 433 629 Q433 667 458.5 693 Q484 719 518 719 Q542 719 557 703 Q572 687 572 664 Z " />
<glyph glyph-name="omacron" unicode="&#x14d;" horiz-adv-x="561" d="M547 313 Q547 254 525 196 Q503 138 461.5 92 Q420 46 361.5 17.5 Q303 -11 230 -11 Q193 -11 159 1.5 Q125 14 99.5 37 Q74 60 59 93 Q44 126 44 167 Q44 230 67.5 289.5 Q91 349 133 395 Q175 441 233.5 468.5 Q292 496 362 496 Q401 496 435 483.5 Q469 471 493.5 447.5 Q518 424 532.5 390 Q547 356 547 313 Z M418 345 Q418 364 416 383 Q414 402 407 417.5 Q400 433 387.5 442.5 Q375 452 353 452 Q326 452 302 436 Q278 420 258 394.5 Q238 369 222.5 336.5 Q207 304 196 270 Q185 236 179.5 203.5 Q174 171 174 147 Q174 128 176.5 108 Q179 88 186.5 72 Q194 56 207.5 45.5 Q221 35 244 35 Q271 35 294 52 Q317 69 336.5 96 Q356 123 371 157 Q386 191 396.5 225.5 Q407 260 412.5 291.5 Q418 323 418 345 Z M226 600 L226 684 L560 684 L560 600 L226 600 Z " />
<glyph glyph-name="ohungarumlaut" unicode="&#x151;" horiz-adv-x="561" d="M547 313 Q547 254 525 196 Q503 138 461.5 92 Q420 46 361.5 17.5 Q303 -11 230 -11 Q193 -11 159 1.5 Q125 14 99.5 37 Q74 60 59 93 Q44 126 44 167 Q44 230 67.5 289.5 Q91 349 133 395 Q175 441 233.5 468.5 Q292 496 362 496 Q401 496 435 483.5 Q469 471 493.5 447.5 Q518 424 532.5 390 Q547 356 547 313 Z M418 345 Q418 364 416 383 Q414 402 407 417.5 Q400 433 387.5 442.5 Q375 452 353 452 Q326 452 302 436 Q278 420 258 394.5 Q238 369 222.5 336.5 Q207 304 196 270 Q185 236 179.5 203.5 Q174 171 174 147 Q174 128 176.5 108 Q179 88 186.5 72 Q194 56 207.5 45.5 Q221 35 244 35 Q271 35 294 52 Q317 69 336.5 96 Q356 123 371 157 Q386 191 396.5 225.5 Q407 260 412.5 291.5 Q418 323 418 345 Z M662 686 Q635 655 611 634 Q587 613 562.5 597.5 Q538 582 509.5 570 Q481 558 444 545 L415 577 Q440 593 457.5 607 Q475 621 488 637.5 Q501 654 512 673.5 Q523 693 534 720 Q568 708 596 700 Q624 692 662 686 Z M470 686 Q443 655 419 634 Q395 613 370.5 597.5 Q346 582 317.5 570 Q289 558 252 545 L223 577 Q248 593 265.5 607 Q283 621 296 637.5 Q309 654 320 673.5 Q331 693 342 720 Q376 708 404 700 Q432 692 470 686 Z " />
<glyph glyph-name="oslash" unicode="&#xf8;" horiz-adv-x="561" d="M547 313 Q547 254 525 196 Q503 138 461.5 92 Q420 46 361.5 17.5 Q303 -11 230 -11 Q184 -11 145 7 L99 -55 L47 -55 L109 29 Q80 52 62 87 Q44 122 44 167 Q44 230 67.5 289.5 Q91 349 133 395 Q175 441 233.5 468.5 Q292 496 362 496 Q404 496 444 480 L490 542 L540 542 L479 459 Q510 436 528.5 399 Q547 362 547 313 Z M418 345 Q418 353 418 360 Q418 367 417 375 L189 66 Q197 52 210 43.5 Q223 35 244 35 Q271 35 294 52 Q317 69 336.5 96 Q356 123 371 157 Q386 191 396.5 225.5 Q407 260 412.5 291.5 Q418 323 418 345 Z M174 147 Q174 139 174 132 Q174 125 175 117 L403 425 Q395 437 383.5 444.5 Q372 452 353 452 Q326 452 302 436 Q278 420 258 394.5 Q238 369 222.5 336.5 Q207 304 196 270 Q185 236 179.5 203.5 Q174 171 174 147 Z " />
<glyph glyph-name="oe" unicode="&#x153;" horiz-adv-x="852" d="M858 390 Q858 343 829.5 309.5 Q801 276 755.5 255 Q710 234 652.5 225 Q595 216 537 218 Q535 207 534 198 Q533 189 533 181 Q533 121 552.5 90.5 Q572 60 616 60 Q637 60 659 68 Q681 76 702 89 Q723 102 742 118 Q761 134 776 150 L805 110 Q779 86 750.5 64 Q722 42 690.5 25.5 Q659 9 625.5 -1 Q592 -11 558 -11 Q513 -11 480.5 8 Q448 27 429 60 Q390 28 340 8.5 Q290 -11 230 -11 Q193 -11 159 1.5 Q125 14 99.5 37 Q74 60 59 93 Q44 126 44 167 Q44 230 67.5 289.5 Q91 349 133 395 Q175 441 233.5 468.5 Q292 496 362 496 Q416 496 459 472.5 Q502 449 525 406 Q569 447 622 472 Q675 497 731 497 Q756 497 779.5 489.5 Q803 482 820 468.5 Q837 455 847.5 435 Q858 415 858 390 Z M418 345 Q418 364 416 383 Q414 402 407 417.5 Q400 433 387.5 442.5 Q375 452 353 452 Q326 452 302 436 Q278 420 258 394.5 Q238 369 222.5 336.5 Q207 304 196 270 Q185 236 179.5 203.5 Q174 171 174 147 Q174 128 176.5 108 Q179 88 186.5 72 Q194 56 207.5 45.5 Q221 35 244 35 Q271 35 294 52 Q317 69 336.5 96 Q356 123 371 157 Q386 191 396.5 225.5 Q407 260 412.5 291.5 Q418 323 418 345 Z M705 449 Q679 449 655.5 431.5 Q632 414 611.5 387 Q591 360 574.5 326.5 Q558 293 548 261 Q594 261 631.5 271.5 Q669 282 695 300.5 Q721 319 735.5 345 Q750 371 750 403 Q750 424 736 436.5 Q722 449 705 449 Z " />
<glyph glyph-name="racute" unicode="&#x155;" horiz-adv-x="418" d="M457 498 Q449 478 442 460.5 Q435 443 430 425.5 Q425 408 422 390 Q419 372 418 350 Q410 351 403 351.5 Q396 352 389 352 Q358 352 332 333 Q306 314 284.5 284 Q263 254 245.5 216 Q228 178 214.5 140 Q201 102 191.5 67 Q182 32 176 8 L52 -12 L136 298 Q141 318 144.5 333 Q148 348 148 362 Q148 373 142 379.5 Q136 386 125 386 Q118 386 109 382 Q100 378 91.5 372 Q83 366 75 360 Q67 354 62 350 L38 384 Q56 398 82.5 417.5 Q109 437 137.5 454.5 Q166 472 194.5 484 Q223 496 246 496 Q265 496 272.5 480.5 Q280 465 280 451 Q280 438 277.5 422 Q275 406 271 388 L257 326 Q267 342 281 361.5 Q295 381 310 400 Q325 419 340.5 435 Q356 451 369 461 Q391 478 409.5 486 Q428 494 457 498 Z M498 688 Q471 657 447 636 Q423 615 398.5 599.5 Q374 584 345.5 572 Q317 560 280 547 L251 579 Q276 595 293.5 609 Q311 623 324 639.5 Q337 656 348 675.5 Q359 695 370 722 Q404 710 432 702 Q460 694 498 688 Z " />
<glyph glyph-name="rcaron" unicode="&#x159;" horiz-adv-x="418" d="M457 498 Q449 478 442 460.5 Q435 443 430 425.5 Q425 408 422 390 Q419 372 418 350 Q410 351 403 351.5 Q396 352 389 352 Q358 352 332 333 Q306 314 284.5 284 Q263 254 245.5 216 Q228 178 214.5 140 Q201 102 191.5 67 Q182 32 176 8 L52 -12 L136 298 Q141 318 144.5 333 Q148 348 148 362 Q148 373 142 379.5 Q136 386 125 386 Q118 386 109 382 Q100 378 91.5 372 Q83 366 75 360 Q67 354 62 350 L38 384 Q56 398 82.5 417.5 Q109 437 137.5 454.5 Q166 472 194.5 484 Q223 496 246 496 Q265 496 272.5 480.5 Q280 465 280 451 Q280 438 277.5 422 Q275 406 271 388 L257 326 Q267 342 281 361.5 Q295 381 310 400 Q325 419 340.5 435 Q356 451 369 461 Q391 478 409.5 486 Q428 494 457 498 Z M531 697 Q506 688 479.5 673 Q453 658 428.5 639.5 Q404 621 384 599.5 Q364 578 352 555 L241 555 Q252 585 252 610 Q252 636 242 661 Q232 686 215 708 L253 738 Q276 725 295 703.5 Q314 682 328 660 Q363 689 405.5 707.5 Q448 726 491 742 L531 697 L531 697 Z " />
<glyph glyph-name="rcommaaccent" unicode="&#x157;" horiz-adv-x="418" d="M457 498 Q449 478 442 460.5 Q435 443 430 425.5 Q425 408 422 390 Q419 372 418 350 Q410 351 403 351.5 Q396 352 389 352 Q358 352 332 333 Q306 314 284.5 284 Q263 254 245.5 216 Q228 178 214.5 140 Q201 102 191.5 67 Q182 32 176 8 L52 -12 L136 298 Q141 318 144.5 333 Q148 348 148 362 Q148 373 142 379.5 Q136 386 125 386 Q118 386 109 382 Q100 378 91.5 372 Q83 366 75 360 Q67 354 62 350 L38 384 Q56 398 82.5 417.5 Q109 437 137.5 454.5 Q166 472 194.5 484 Q223 496 246 496 Q265 496 272.5 480.5 Q280 465 280 451 Q280 438 277.5 422 Q275 406 271 388 L257 326 Q267 342 281 361.5 Q295 381 310 400 Q325 419 340.5 435 Q356 451 369 461 Q391 478 409.5 486 Q428 494 457 498 Z M165 -55 Q165 -89 148 -120 Q134 -146 117 -164 Q100 -182 79.5 -195 Q59 -208 35.5 -217.5 Q12 -227 -15 -236 L-34 -211 Q-4 -185 10.5 -160 Q25 -135 25 -95 L25 -90 Q61 -81 94.5 -69 Q128 -57 162 -41 Q165 -52 165 -55 Z " />
<glyph glyph-name="sacute" unicode="&#x15b;" horiz-adv-x="465" d="M437 353 L369 355 Q371 363 372 371.5 Q373 380 373 388 Q373 417 355 435 Q337 453 306 453 Q272 453 249.5 433 Q227 413 227 385 Q227 354 250.5 333.5 Q274 313 312 289 Q332 277 351 263.5 Q370 250 385 234 Q400 218 409.5 198 Q419 178 419 153 Q419 115 402.5 85 Q386 55 357.5 34 Q329 13 290 2 Q251 -9 206 -9 Q160 -9 114.5 -2.5 Q69 4 24 16 Q32 49 39.5 82 Q47 115 52 150 L129 146 Q128 137 127.5 129.5 Q127 122 127 114 Q127 76 151.5 57 Q176 38 211 38 Q253 38 273.5 61.5 Q294 85 294 114 Q294 149 270.5 170 Q247 191 210 211 Q192 221 173.5 232.5 Q155 244 140.5 259 Q126 274 117 293 Q108 312 108 337 Q108 376 124.5 406 Q141 436 169 456.5 Q197 477 233.5 487.5 Q270 498 310 498 Q354 498 392 492 Q430 486 466 476 L437 353 Z M497 688 Q470 657 446 636 Q422 615 397.5 599.5 Q373 584 344.5 572 Q316 560 279 547 L250 579 Q275 595 292.5 609 Q310 623 323 639.5 Q336 656 347 675.5 Q358 695 369 722 Q403 710 431 702 Q459 694 497 688 Z " />
<glyph glyph-name="scaron" unicode="&#x161;" horiz-adv-x="465" d="M437 353 L369 355 Q371 363 372 371.5 Q373 380 373 388 Q373 417 355 435 Q337 453 306 453 Q272 453 249.5 433 Q227 413 227 385 Q227 354 250.5 333.5 Q274 313 312 289 Q332 277 351 263.5 Q370 250 385 234 Q400 218 409.5 198 Q419 178 419 153 Q419 115 402.5 85 Q386 55 357.5 34 Q329 13 290 2 Q251 -9 206 -9 Q160 -9 114.5 -2.5 Q69 4 24 16 Q32 49 39.5 82 Q47 115 52 150 L129 146 Q128 137 127.5 129.5 Q127 122 127 114 Q127 76 151.5 57 Q176 38 211 38 Q253 38 273.5 61.5 Q294 85 294 114 Q294 149 270.5 170 Q247 191 210 211 Q192 221 173.5 232.5 Q155 244 140.5 259 Q126 274 117 293 Q108 312 108 337 Q108 376 124.5 406 Q141 436 169 456.5 Q197 477 233.5 487.5 Q270 498 310 498 Q354 498 392 492 Q430 486 466 476 L437 353 Z M565 697 Q540 688 513.5 673 Q487 658 462.5 639.5 Q438 621 418 599.5 Q398 578 386 555 L275 555 Q286 585 286 610 Q286 636 276 661 Q266 686 249 708 L287 738 Q310 725 329 703.5 Q348 682 362 660 Q397 689 439.5 707.5 Q482 726 525 742 L565 697 L565 697 Z " />
<glyph glyph-name="scedilla" unicode="&#x15f;" horiz-adv-x="465" d="M437 353 L369 355 Q371 363 372 371.5 Q373 380 373 388 Q373 417 355 435 Q337 453 306 453 Q272 453 249.5 433 Q227 413 227 385 Q227 354 250.5 333.5 Q274 313 312 289 Q332 277 351 263.5 Q370 250 385 234 Q400 218 409.5 198 Q419 178 419 153 Q419 115 402.5 85 Q386 55 357.5 34 Q329 13 290 2 Q251 -9 206 -9 Q160 -9 114.5 -2.5 Q69 4 24 16 Q32 49 39.5 82 Q47 115 52 150 L129 146 Q128 137 127.5 129.5 Q127 122 127 114 Q127 76 151.5 57 Q176 38 211 38 Q253 38 273.5 61.5 Q294 85 294 114 Q294 149 270.5 170 Q247 191 210 211 Q192 221 173.5 232.5 Q155 244 140.5 259 Q126 274 117 293 Q108 312 108 337 Q108 376 124.5 406 Q141 436 169 456.5 Q197 477 233.5 487.5 Q270 498 310 498 Q354 498 392 492 Q430 486 466 476 L437 353 Z M256 -57 Q256 -71 252.5 -88 Q249 -105 240 -120 Q225 -146 207.5 -163.5 Q190 -181 170 -194.5 Q150 -208 127 -217.5 Q104 -227 77 -236 L58 -211 Q85 -187 101 -159 Q117 -131 117 -90 Q153 -81 186.5 -69 Q220 -57 254 -41 Q256 -46 256 -49 Q256 -52 256 -57 Z " />
<glyph glyph-name="scommaaccent" unicode="&#x219;" horiz-adv-x="465" d="M437 353 L369 355 Q371 363 372 371.5 Q373 380 373 388 Q373 417 355 435 Q337 453 306 453 Q272 453 249.5 433 Q227 413 227 385 Q227 354 250.5 333.5 Q274 313 312 289 Q332 277 351 263.5 Q370 250 385 234 Q400 218 409.5 198 Q419 178 419 153 Q419 115 402.5 85 Q386 55 357.5 34 Q329 13 290 2 Q251 -9 206 -9 Q160 -9 114.5 -2.5 Q69 4 24 16 Q32 49 39.5 82 Q47 115 52 150 L129 146 Q128 137 127.5 129.5 Q127 122 127 114 Q127 76 151.5 57 Q176 38 211 38 Q253 38 273.5 61.5 Q294 85 294 114 Q294 149 270.5 170 Q247 191 210 211 Q192 221 173.5 232.5 Q155 244 140.5 259 Q126 274 117 293 Q108 312 108 337 Q108 376 124.5 406 Q141 436 169 456.5 Q197 477 233.5 487.5 Q270 498 310 498 Q354 498 392 492 Q430 486 466 476 L437 353 Z M256 -57 Q256 -71 252.5 -88 Q249 -105 240 -120 Q225 -146 207.5 -163.5 Q190 -181 170 -194.5 Q150 -208 127 -217.5 Q104 -227 77 -236 L58 -211 Q85 -187 101 -159 Q117 -131 117 -90 Q153 -81 186.5 -69 Q220 -57 254 -41 Q256 -46 256 -49 Q256 -52 256 -57 Z " />
<glyph glyph-name="germandbls" unicode="&#xdf;" horiz-adv-x="608" d="M611 667 Q611 633 596 601 Q581 569 557.5 541.5 Q534 514 505.5 491.5 Q477 469 449 454 Q472 429 495.5 402 Q519 375 538.5 345 Q558 315 570 282 Q582 249 582 213 Q582 166 563 124.5 Q544 83 512.5 51 Q481 19 438.5 0.5 Q396 -18 350 -18 Q312 -18 284.5 -6.5 Q257 5 225 25 L257 147 L314 147 Q310 133 306 120 Q302 107 302 93 Q302 66 320.5 50.5 Q339 35 365 35 Q396 35 420.5 51.5 Q445 68 459 95 Q464 104 467 121.5 Q470 139 470 150 Q470 179 457.5 211 Q445 243 426 274.5 Q407 306 385 334 Q363 362 344 384 Q332 397 319.5 409 Q307 421 295 435 Q333 445 366 463 Q399 481 422 509 Q449 541 464 580.5 Q479 620 479 662 Q479 690 466 709 Q453 728 424 728 Q413 728 398 722 Q383 716 374 708 Q359 695 348 676.5 Q337 658 329 637.5 Q321 617 315 595.5 Q309 574 305 555 Q297 524 291 493.5 Q285 463 279 432 Q267 374 254.5 318 Q242 262 228 205 Q215 151 201.5 99 Q188 47 159 -1 Q152 -12 145.5 -24 Q139 -36 131 -47 Q93 -104 43 -133.5 Q-7 -163 -76 -167 Q-74 -152 -73 -139 Q-72 -126 -71 -112 Q-71 -105 -71 -97.5 Q-71 -90 -70 -79 Q-58 -93 -47 -100 Q-36 -107 -22 -107 Q-7 -107 10 -95 Q27 -83 35.5 -64.5 Q44 -46 51 -26 Q68 25 78.5 76 Q89 127 100 180 Q109 227 119 272.5 Q129 318 138 365 Q142 384 145 402 Q148 420 152 439 Q162 484 176 528 Q190 572 211 612 Q232 652 262.5 685.5 Q293 719 335 743 Q367 761 403.5 773 Q440 785 478 785 Q504 785 528 777 Q552 769 570.5 754 Q589 739 600 717 Q611 695 611 667 Z " />
<glyph glyph-name="tcaron" unicode="&#x165;" horiz-adv-x="329" d="M361 434 L265 434 L212 223 Q209 212 205 196.5 Q201 181 197.5 165 Q194 149 191 135 Q188 121 188 113 Q188 87 213 87 Q221 87 231.5 92 Q242 97 252 104.5 Q262 112 271 120 Q280 128 286 133 L315 99 Q296 81 273.5 62 Q251 43 226.5 27 Q202 11 175 1 Q148 -9 119 -9 Q96 -9 77 5.5 Q58 20 58 44 Q58 62 62.5 86.5 Q67 111 75 143 L150 434 L60 434 L96 486 L162 486 L186 580 Q217 585 247 591.5 Q277 598 308 606 L278 486 L375 486 L361 434 Z M540 751 Q540 720 529 693 Q518 666 499 643 Q489 631 471.5 616 Q454 601 434 586.5 Q414 572 394 560 Q374 548 358 542 L333 576 Q365 596 387.5 623 Q410 650 410 688 Q410 710 402.5 727.5 Q395 745 381 764 Q418 779 451.5 796.5 Q485 814 520 834 Q529 812 534.5 793 Q540 774 540 751 Z " />
<glyph glyph-name="tcommaaccent" unicode="&#x163;" horiz-adv-x="329" d="M361 434 L265 434 L212 223 Q209 212 205 196.5 Q201 181 197.5 165 Q194 149 191 135 Q188 121 188 113 Q188 87 213 87 Q221 87 231.5 92 Q242 97 252 104.5 Q262 112 271 120 Q280 128 286 133 L315 99 Q296 81 273.5 62 Q251 43 226.5 27 Q202 11 175 1 Q148 -9 119 -9 Q96 -9 77 5.5 Q58 20 58 44 Q58 62 62.5 86.5 Q67 111 75 143 L150 434 L60 434 L96 486 L162 486 L186 580 Q217 585 247 591.5 Q277 598 308 606 L278 486 L375 486 L361 434 Z M193 -57 Q193 -71 189.5 -88 Q186 -105 177 -120 Q162 -146 144.5 -163.5 Q127 -181 107 -194.5 Q87 -208 64 -217.5 Q41 -227 14 -236 L-5 -211 Q22 -187 38 -159 Q54 -131 54 -90 Q90 -81 123.5 -69 Q157 -57 191 -41 Q193 -46 193 -49 Q193 -52 193 -57 Z " />
<glyph glyph-name="uni021B" unicode="&#x21b;" horiz-adv-x="329" d="M361 434 L265 434 L212 223 Q209 212 205 196.5 Q201 181 197.5 165 Q194 149 191 135 Q188 121 188 113 Q188 87 213 87 Q221 87 231.5 92 Q242 97 252 104.5 Q262 112 271 120 Q280 128 286 133 L315 99 Q296 81 273.5 62 Q251 43 226.5 27 Q202 11 175 1 Q148 -9 119 -9 Q96 -9 77 5.5 Q58 20 58 44 Q58 62 62.5 86.5 Q67 111 75 143 L150 434 L60 434 L96 486 L162 486 L186 580 Q217 585 247 591.5 Q277 598 308 606 L278 486 L375 486 L361 434 Z M193 -57 Q193 -71 189.5 -88 Q186 -105 177 -120 Q162 -146 144.5 -163.5 Q127 -181 107 -194.5 Q87 -208 64 -217.5 Q41 -227 14 -236 L-5 -211 Q22 -187 38 -159 Q54 -131 54 -90 Q90 -81 123.5 -69 Q157 -57 191 -41 Q193 -46 193 -49 Q193 -52 193 -57 Z " />
</font>
</svg>
