<?xml version="1.0" encoding="UTF-8" standalone="no"?>
<!DOCTYPE svg  PUBLIC '-//W3C//DTD SVG 1.1//EN'  'http://www.w3.org/Graphics/SVG/1.1/DTD/svg11.dtd'>
<svg version="1.1" xmlns="http://www.w3.org/2000/svg">
<defs>
<font id="Antonio-Bold" horiz-adv-x="970">
<font-face ascent="1638" units-per-em="2048" panose-1="2 0 8 3 0 0 0 0 0 0" x-height="1500" cap-height="1760" descent="-410" unicode-range="U+0020-02DC" font-family="Antonio" font-stretch="ultra-condensed" bbox="-115 -638 2080 2345" font-weight="700" underline-position="0" underline-thickness="0"/>
<missing-glyph/>
<glyph unicode=" " glyph-name="space" horiz-adv-x="367"/>
<glyph unicode="!" glyph-name="exclam" d="M115 1760h284l-85 -1337h-110zM126 256h260v-256h-260v256z" horiz-adv-x="514"/>
<glyph unicode='&quot;' glyph-name="quotedbl" d="M536 1760h244l-66 -635h-108zM170 1760h245l-66 -635h-108z" horiz-adv-x="944"/>
<glyph unicode="#" glyph-name="numbersign" d="M905 1760h217l-111 -556h123v-173h-157l-55 -278h145v-174h-180l-114 -579h-216l113 579h-188l-113 -579h-216l113 579h-126v174h160l55 278h-148v173h182l112 556h217l-113 -556h188zM705 752l55 276h-189l-55 -276h189z" horiz-adv-x="1288"/>
<glyph unicode="$" glyph-name="dollar" d="M334 419q0 -200 102 -200q53 0 77.5 35.5t24.5 120.5q0 150 -138 278q-5 4 -65 58t-70 64q-185 169 -185 397q0 348 316 367v221h144v-230q140 -30 195 -170q38 -96 38 -255v-82h-237v99q0 102 -23 151.5t-76.5 49.5t-79 -31t-25.5 -106q0 -119 106 -221l142 -129 q219 -205 219 -449q0 -324 -250 -374v-233h-144v224q-155 10 -237.5 109t-82.5 330v97h249v-121z" horiz-adv-x="902"/>
<glyph unicode="%" glyph-name="percent" d="M1347 1760h204l-676 -1760h-213zM580 1431q0 90 -23 126.5t-89 36.5t-89 -36.5t-23 -126.5v-492q0 -92 24.5 -131.5t87.5 -39.5t87.5 39.5t24.5 131.5v492zM130 1363q0 223 77.5 320.5t260.5 97.5t260.5 -97.5t77.5 -320.5v-358q0 -220 -80.5 -322.5t-257.5 -102.5 t-257.5 102.5t-80.5 322.5v358zM1403 762q0 223 77.5 320.5t260.5 97.5t261 -97.5t78 -320.5v-358q0 -220 -80 -322t-258 -102.5t-258.5 102t-80.5 322.5v358zM1854 830q0 90 -23 126t-89 36.5t-89.5 -36t-23.5 -126.5v-492q0 -92 24.5 -131.5t88.5 -39.5t88 40t24 131v492z " horiz-adv-x="2209"/>
<glyph unicode="&amp;" glyph-name="ampersand" d="M295 1689.5q87 91.5 240 91.5t232.5 -89t79.5 -237.5t-61.5 -270t-172.5 -262.5q43 -113 129 -321q96 161 190 273l109 -184q-78 -86 -189 -299q-8 -15 -12 -22q38 -90 92.5 -216t65.5 -153h-248q-13 32 -57 130q-125 -150 -287.5 -150t-247.5 103.5t-85 294.5 q-1 146 79 280t199 272q-143 370 -143 519t87 240.5zM442 706q-142 -190 -142 -318q0 -179 139 -179q42 0 79 34t79 103q-79 178 -155 360zM530 1144q132 171 132 294q0 88 -22 125t-79 37q-110 0 -110 -159q0 -73 79 -297z" horiz-adv-x="1052"/>
<glyph unicode="&apos;" glyph-name="quotesingle" d="M100 1760h238l-65 -635h-113z" horiz-adv-x="423"/>
<glyph unicode="(" glyph-name="parenleft" d="M129 1374q0 137 20.5 223.5t71 137t123.5 69.5t190 19v-200q-89 0 -114 -46.5t-25 -198.5v-1069q0 -152 25 -198.5t114 -46.5v-200q-117 0 -190 19t-123.5 69.5t-71 137t-20.5 223.5v1061z" horiz-adv-x="619"/>
<glyph unicode=")" glyph-name="parenright" d="M490 1374v-1061q0 -137 -20.5 -223.5t-70.5 -137t-123 -69.5t-190 -19v200q89 0 114 46.5t25 198.5v1069q0 152 -25 198.5t-114 46.5v200q117 0 190 -19t123 -69.5t70.5 -137t20.5 -223.5z" horiz-adv-x="619"/>
<glyph unicode="*" glyph-name="asterisk" d="M386 1673h188l-28 -278l228 173l95 -164l-264 -119l264 -127l-95 -163l-228 179l28 -285h-188l35 291l-231 -182l-95 164l260 123l-264 115l95 164l234 -173z" horiz-adv-x="960"/>
<glyph unicode="+" glyph-name="plus" d="M312 1062h182v-231h219v-177h-219v-233h-182v233h-218v177h218v231z" horiz-adv-x="808"/>
<glyph unicode="," glyph-name="comma" d="M117 268h288v-259l-102 -347h-131l70 338h-125v268z" horiz-adv-x="488"/>
<glyph unicode="-" glyph-name="hyphen" d="M89 836h478v-175h-478v175z" horiz-adv-x="696"/>
<glyph unicode="." glyph-name="period" d="M149 246h225v-246h-225v246z" horiz-adv-x="532"/>
<glyph unicode="/" glyph-name="slash" d="M513 1769h235l-428 -1769h-234z" horiz-adv-x="826"/>
<glyph unicode="0" glyph-name="zero" d="M103 1316q0 232 95.5 348.5t302.5 116.5t302.5 -116.5t95.5 -348.5v-841q0 -244 -94.5 -370t-303.5 -126t-303.5 126t-94.5 370v841zM631 1327q-1 195 -91 219q-18 4 -44 4q-54 0 -90 -39.5t-36 -182.5v-858q0 -164 32.5 -212t97.5 -48q101 0 122 126q9 53 9 134v857z " horiz-adv-x="1010"/>
<glyph unicode="1" glyph-name="one" d="M318 1760h208v-1760h-268v1428q-34 -41 -96 -63.5t-122 -22.5v199q85 12 161.5 68.5t116.5 150.5z" horiz-adv-x="676"/>
<glyph unicode="2" glyph-name="two" d="M160 0v104q0 138 45.5 271.5t142.5 303.5q4 6 73 125t101 164q78 128 78 354.5t-96 226.5q-80 0 -99 -126q-8 -54 -8 -135v-223h-256v108q0 327 61.5 441t169.5 146q60 18 145 20q172 4 255 -138q82 -139 82 -352.5t-83 -374.5t-164 -286q-148 -229 -192 -419h406v-210 h-661z" horiz-adv-x="951"/>
<glyph unicode="3" glyph-name="three" d="M107 1316q1 240 85 352t284 112t294 -115t94 -349q0 -145 -45 -243.5t-136 -131.5q100 -47 142 -156t42 -282q-1 -263 -93 -393t-298 -130t-288.5 118.5t-82.5 375.5v115h251v-122q0 -145 22.5 -201t98.5 -56q75 0 101 67t26 237t-33 242t-129 72h-76v204h74 q94 0 129 63.5t35 209t-29.5 195.5t-93.5 49.5t-89.5 -53t-25.5 -182.5v-53h-259v55z" horiz-adv-x="960"/>
<glyph unicode="4" glyph-name="four" d="M477 1760h286v-1234h136v-216h-136v-310h-239v310h-434v197zM524 526v869l-227 -869h227z" horiz-adv-x="951"/>
<glyph unicode="5" glyph-name="five" d="M133 1760h651v-240h-404v-357q19 37 68.5 60t108.5 23q154 0 214 -135.5t60 -430t-13.5 -369.5t-25.5 -123q-12 -45 -32 -76q-50 -76 -116 -104q-67 -28 -173 -28q-349 0 -349 363v221h251v-193q0 -123 47 -151q18 -11 57 -11h6q88 0 88 173v450q0 96 -20 143.5t-78 47.5 q-104 0 -104 -171l-236 10v898z" horiz-adv-x="951"/>
<glyph unicode="6" glyph-name="six" d="M370 459q0 -131 28.5 -189t100.5 -58t97.5 47t25.5 175v167q0 148 -25.5 209t-86.5 61t-97.5 -27.5t-42.5 -66.5v-318zM370 1019q63 84 219 84t224 -125t68 -398v-97v-6q0 -249 -79 -373q-80 -126 -303 -125q-274 1 -351 209q-46 125 -46 339v723q0 382 176 482 q86 48 244 48q1 0 2 1q156 1 238 -101t83 -344v-91h-250v36q0 159 -18 213t-90 54t-94.5 -58t-22.5 -220v-251z" horiz-adv-x="951"/>
<glyph unicode="7" glyph-name="seven" d="M104 1760h777v-194q-5 -47 -32 -122q-27 -73 -71 -189q-239 -625 -278 -1255h-292q24 342 103 627.5t143 469.5t90.5 259.5t42 118t17.5 51.5h-500v234z" horiz-adv-x="951"/>
<glyph unicode="8" glyph-name="eight" d="M100 1341q0 231 89.5 335.5t291 104.5t288.5 -102t87 -338q0 -283 -140 -380q66 -48 104 -159t38 -245v-121q-2 -233 -94.5 -345t-284.5 -112t-287.5 111.5t-98.5 340.5q-1 7 -1 134.5t40 237.5t109 158q-141 100 -141 380zM590 586q0 270 -110 270q-55 0 -87.5 -70 t-32.5 -201v-147q1 -129 24 -179.5t94.5 -50.5t91.5 50.5t20 183.5v144zM589 1317q0 111 -11.5 166.5t-33.5 72.5t-65 17t-65 -19q-46 -38 -46 -243t50 -255q22 -22 60 -22q1 0 1 -1q36 1 59 23t37 86t14 175z" horiz-adv-x="951"/>
<glyph unicode="9" glyph-name="nine" d="M67 1248q0 328 113 441q92 92 261 92l1 -1q170 0 251 -65.5t105.5 -181t24.5 -300.5v-703q0 -299 -89 -424.5t-277 -125.5t-275 103t-88 340v96h253v-37q1 -163 22.5 -217.5t81.5 -54.5t74 24t20 40q12 32 12 128v36v263q-55 -37 -163 -37q-178 0 -252.5 129t-74.5 391 v64zM557 1304q0 130 -23.5 187t-90 57t-90.5 -58t-24 -189v-157q0 -146 23.5 -203t91.5 -57q99 0 113 86v334z" horiz-adv-x="951"/>
<glyph unicode=":" glyph-name="colon" d="M136 1307h283v-269h-283v269zM136 539h283v-269h-283v269z" horiz-adv-x="555"/>
<glyph unicode=";" glyph-name="semicolon" d="M132 533h303v-269l-109 -371h-142l78 362h-130v278zM126 1250h301v-306h-301v306z" horiz-adv-x="561"/>
<glyph unicode="&lt;" glyph-name="less" d="M65 899l573 365v-275l-396 -236l396 -243v-272l-573 369v292z" horiz-adv-x="730"/>
<glyph unicode="=" glyph-name="equal" d="M104 738h514v-189h-514v189zM104 1076h514v-184h-514v184z" horiz-adv-x="722"/>
<glyph unicode="&gt;" glyph-name="greater" d="M90 992v272l574 -366v-293l-574 -367v275l396 236z" horiz-adv-x="730"/>
<glyph unicode="?" glyph-name="question" d="M120 1376q0 405 345 405q187 0 265 -96q85 -105 85 -385q0 -231 -28.5 -327.5t-64.5 -143.5q-77 -99 -235 -145v-190h-236v316q92 24 130 45.5t59.5 36t38 38t27.5 43.5q20 35 28 88q13 86 13 194v29v66q0 126 -7 144t-19 36t-45 18q-1 0 -3 1q-51 0 -73 -31 q-20 -25 -19 -182v-176h-261v216zM257 299h232v-299h-232v299z" horiz-adv-x="897"/>
<glyph unicode="@" glyph-name="at" d="M870 1180q-49 17 -82 17q-59 -1 -98 -71q-47 -80 -47 -288v-14q0 -293 115 -293q54 0 83 71.5t29 176.5v401zM1165 10q-196 -70 -358 -69q-151 1 -279 59q-268 121 -367 450q-51 169 -51 388q0 438 169 687t530 250q288 0 435.5 -224t147.5 -641q0 -247 -75.5 -389.5 t-220.5 -142.5q-64 0 -120 58.5t-79 160.5q-20 -119 -57 -177.5t-108 -58.5q-116 0 -189 117t-73 340q0 340 144 467q71 62 177 62t247 -64v-524q0 -215 73 -215q37 0 61 34q51 73 51 364q0 667 -427 667q-255 0 -372.5 -200t-117.5 -576q0 -453 216 -623q119 -94 277.5 -94 t338.5 62z" horiz-adv-x="1502"/>
<glyph unicode="A" glyph-name="A" d="M278 1760h354l268 -1760h-250l-42 314h-284l-38 -314h-258zM350 529h230l-118 884h-4z" horiz-adv-x="927"/>
<glyph unicode="B" glyph-name="B" d="M875 1308q0 -284 -154 -349q188 -63 188 -415v-45q-2 -265 -92.5 -382t-295.5 -117h-389v1760h381q197 0 279 -91.5t83 -306.5v-54zM639 602q0 134 -26 189.5t-100 55.5h-113v-639h95q80 0 112 55t32 197v142zM611 1379q-1 102 -28 136.5t-93 34.5h-90v-502h99 q69 0 90.5 44t21.5 181v106z" horiz-adv-x="984"/>
<glyph unicode="C" glyph-name="C" d="M110 1253q0 393 206 491q76 36 184 36q371 0 371 -468v-242h-259v225q0 136 -23 194.5t-90 58.5t-93 -62t-26 -190v-822q0 -142 25 -203t91 -61t91 62t25 205v252h263v-249q0 -255 -91 -377.5t-286 -122.5t-291.5 130.5t-96.5 375.5v767z" horiz-adv-x="969"/>
<glyph unicode="D" glyph-name="D" d="M132 1760h395q194 0 281.5 -114.5t87.5 -337.5l1 -794q0 -266 -88 -390t-291 -124h-386v1760zM628 1301q0 137 -33.5 195t-115.5 58h-79v-1346h88q74 0 107.5 48t33.5 176z" horiz-adv-x="1008"/>
<glyph unicode="E" glyph-name="E" d="M132 1760h590v-231h-322v-512h306v-226h-306v-560h334v-231h-602v1760z" horiz-adv-x="800"/>
<glyph unicode="F" glyph-name="F" d="M132 1760h604v-233h-336v-468h312v-234h-312v-825h-268v1760z" horiz-adv-x="791"/>
<glyph unicode="G" glyph-name="G" d="M110 1280q0 244 95.5 372t303.5 128q259 0 329 -193q42 -116 42 -317v-125h-250v184q0 122 -25.5 171t-96 48.5t-99.5 -59t-29 -207.5v-763q0 -173 26 -241t101.5 -68t107 73t31.5 246v237h-135v195h369v-961h-120l-41 173q-21 -89 -92 -140t-164 -51 q-166 0 -259.5 130.5t-93.5 402.5v765z" horiz-adv-x="1000"/>
<glyph unicode="H" glyph-name="H" d="M640 1760h268v-1760h-268v818h-240v-818h-268v1760h268v-712h240v712z" horiz-adv-x="1040"/>
<glyph unicode="I" glyph-name="I" d="M138 1760h268v-1760h-268v1760z" horiz-adv-x="543"/>
<glyph unicode="J" glyph-name="J" d="M540 1760h268v-1329q0 -216 -94.5 -333.5t-267 -117.5t-268.5 104.5t-96 304.5v314h260v-301q0 -146 46 -178q20 -14 49 -14t47 10q36 19 46 65.5t10 132.5v1342z" horiz-adv-x="946"/>
<glyph unicode="K" glyph-name="K" d="M668 1760h277l-292 -868l315 -892h-283l-283 822v-822h-270v1760h268v-810z" horiz-adv-x="981"/>
<glyph unicode="L" glyph-name="L" d="M132 1760h268v-1532h339v-228h-607v1760z" horiz-adv-x="752"/>
<glyph unicode="M" glyph-name="M" d="M950 1760h335v-1760h-239v656l10 602l-237 -1250h-213l-247 1250l10 -602v-656h-237v1760h333l250 -1286z" horiz-adv-x="1418"/>
<glyph unicode="N" glyph-name="N" d="M696 1760h241v-1760h-190l-383 1093l15 -462v-631h-247v1760h210l373 -1056l-19 480v576z" horiz-adv-x="1069"/>
<glyph unicode="O" glyph-name="O" d="M110 1297q0 484 395 484q204 0 293.5 -123t89.5 -361v-805q0 -258 -92 -385t-294 -127t-297 127.5t-95 384.5v805zM619 1309q0 125 -23.5 182.5t-91.5 57.5t-96 -57.5t-28 -181.5v-821q0 -155 23.5 -216t96.5 -61t96 62.5t23 214.5v820z" horiz-adv-x="999"/>
<glyph unicode="P" glyph-name="P" d="M132 1760h404q204 0 280 -124t80 -372v-37q0 -261 -74 -397t-277 -136h-145v-694h-268v1760zM628 1264q-1 156 -27.5 223t-106.5 67h-94v-639h92q85 0 110.5 65.5t25.5 249.5v34z" horiz-adv-x="943"/>
<glyph unicode="Q" glyph-name="Q" d="M888 492q0 -383 -204 -477l164 -192l-132 -115l-251 273q-175 11 -265 132.5t-90 378.5v805q0 484 395 484q204 0 293.5 -123t89.5 -361v-805zM619 1309q0 125 -23.5 182.5t-92 57.5t-96 -57.5t-27.5 -181.5v-821q0 -155 23.5 -216t96.5 -61t96 62.5t23 214.5v820z" horiz-adv-x="999"/>
<glyph unicode="R" glyph-name="R" d="M486 827l-86 4v-831h-268v1760h443q138 0 206 -55q67 -55 89 -155t22 -260.5t-34 -244.5t-126 -113q91 -16 127 -123t36 -445.5t10 -363.5h-268q-10 20 -10 631q0 117 -28 155.5t-113 40.5zM627 1323q0 143 -24 187t-111 44h-91v-515h107q51 0 75.5 23t34 79t9.5 171v11z " horiz-adv-x="991"/>
<glyph unicode="S" glyph-name="S" d="M73 1351q0 218 83.5 324t287.5 106q262 0 324 -223q28 -103 28 -261v-109h-247v126q-1 130 -23 186q-22 55 -73 53l-1 -1q-52 0 -78 -18q-49 -35 -49 -136t31.5 -153.5t97.5 -121.5l145 -157q220 -238 220 -480q0 -320 -119 -428q-87 -78 -247 -78q-236 0 -321 173 q-57 119 -57 342v157h254v-177q0 -147 25 -206.5t94 -59.5t91.5 49t22.5 144.5t-19 154.5q-35 108 -148 227l-130 134q-144 146 -178 300q-14 62 -14 133z" horiz-adv-x="875"/>
<glyph unicode="T" glyph-name="T" d="M18 1760h671v-232h-198v-1528h-267v1528h-206v232z" horiz-adv-x="707"/>
<glyph unicode="U" glyph-name="U" d="M627 1760h268v-1308q0 -163 -30 -240t-61 -116q-92 -116 -296 -116q-286 0 -360 238q-29 94 -29 234v1308h268v-1303q0 -139 13 -169t31.5 -54.5t75.5 -24.5q87 0 107 83q12 50 13 165v1303z" horiz-adv-x="1013"/>
<glyph unicode="V" glyph-name="V" d="M643 1760h250l-251 -1760h-331l-273 1760h255l115 -795l71 -560h7l61 560z" horiz-adv-x="930"/>
<glyph unicode="W" glyph-name="W" d="M1074 1760h241l-202 -1760h-267l-156 1170l-162 -1170h-267l-215 1760h240l129 -1254l164 1254h216l165 -1254z" horiz-adv-x="1360"/>
<glyph unicode="X" glyph-name="X" d="M584 1760h251l-266 -901l287 -859h-232l-179 541l-145 -541h-259l271 944l-270 816h226l175 -523z" horiz-adv-x="897"/>
<glyph unicode="Y" glyph-name="Y" d="M606 1760h255l-281 -1057v-703h-268v703l-295 1057h256l174 -658h4z" horiz-adv-x="878"/>
<glyph unicode="Z" glyph-name="Z" d="M96 1760h613v-217l-365 -1312h357v-231h-638v238l365 1291h-332v231z" horiz-adv-x="748"/>
<glyph unicode="[" glyph-name="bracketleft" d="M179 1760h471v-208h-205v-1343h205v-209h-471v1760z" horiz-adv-x="764"/>
<glyph unicode="\" glyph-name="backslash" d="M96 1760h238l410 -1760h-237z" horiz-adv-x="868"/>
<glyph unicode="]" glyph-name="bracketright" d="M606 1760v-1760h-471v209h205v1343h-205v208h471z" horiz-adv-x="764"/>
<glyph unicode="^" glyph-name="asciicircum" d="M355 1500h319l241 -924h-256l-144 712l-144 -712h-257z" horiz-adv-x="1030"/>
<glyph unicode="_" glyph-name="underscore" d="M48 -28h651v-183h-651v183z" horiz-adv-x="748"/>
<glyph unicode="`" glyph-name="grave" d="M334 881l-203 413h265l94 -413h-156z" horiz-adv-x="650"/>
<glyph unicode="a" glyph-name="a" d="M585 814q-126 -56 -170 -106t-44 -155v-168q0 -105 22 -150.5t71.5 -45.5t81 33.5t39.5 75.5v516zM121 1081q1 213 81 325t282 112t287 -107t85 -330v-1081h-267v149q-20 -69 -76.5 -116.5t-136.5 -47.5q-147 0 -210 105.5t-65 303.5v96q0 192 104 291q67 65 227 126 q29 11 80.5 30t72.5 27v131q0 122 -17.5 165.5t-80 43.5t-83.5 -46t-21 -155v-67h-262v45z"/>
<glyph unicode="b" glyph-name="b" d="M622 1073q0 179 -47 215q-21 16 -54 16q-65 0 -93 -50t-28 -180v-618q0 -136 24 -197.5t91.5 -61.5t87 59.5t19.5 202.5v614zM888 434q0 -449 -276 -449h-4q-148 0 -208 155v-140h-265v1775h265v-383q22 56 77 91t119 35t116 -21q99 -40 137.5 -150.5t38.5 -277.5v-635z " horiz-adv-x="998"/>
<glyph unicode="c" glyph-name="c" d="M110 986q0 327 114 441q91 91 275 91t266 -111.5t82 -321.5v-165h-256v174q0 136 -24.5 171t-82.5 35q-1 0 -1 1q-57 0 -81 -52t-25 -159v-676q0 -111 22.5 -163t87.5 -52q89 1 101 125q3 29 3 68v21v178h256v-152q0 -220 -82 -338.5t-271 -118.5q-225 0 -304.5 133 t-79.5 385v486z" horiz-adv-x="938"/>
<glyph unicode="d" glyph-name="d" d="M601 1775h265v-1775h-265v139q-60 -154 -215 -154q-121 0 -181 68t-77.5 172.5t-17.5 253.5v611q0 188 69 308t228 120q62 0 113.5 -30t80.5 -81v368zM602 1063q0 185 -56 224q-24 16 -58 16q-67 0 -89 -61t-22 -182v-617q0 -124 23.5 -185.5t88 -61.5t89 61.5 t24.5 205.5v600z" horiz-adv-x="998"/>
<glyph unicode="e" glyph-name="e" d="M110 1058q0 460 383 460q203 0 282 -121.5t79 -343.5v-321h-477v-295v-11q1 -149 27 -188q28 -42 82 -42q52 0 68 25q27 42 32 90q4 46 4 126v132h262v-80q0 -204 -32 -293t-74 -129q-88 -85 -265 -85q-252 0 -327 200q-44 117 -44 317v559zM590 1079q0 123 -19.5 176.5 t-79.5 53.5h-1q-104 0 -112 -159q-2 -30 -2 -78v-185h214v192z" horiz-adv-x="945"/>
<glyph unicode="f" glyph-name="f" d="M183 1519q0 126 65.5 195.5t174.5 70t176 -24.5v-167q-29 4 -69 4q-82 0 -83 -86v-70h152v-191h-152v-1250h-265v1250h-116v191h117v78z" horiz-adv-x="660"/>
<glyph unicode="g" glyph-name="g" d="M114 1065q0 453 284 453h4q156 0 198 -151v133h265v-1315q1 -192 -92.5 -301t-316.5 -109t-356 107l93 167q119 -76 222 -76t144 52t41 140v119q-25 -72 -76.5 -101.5t-131.5 -29.5q-157 0 -217.5 117t-60.5 312v483zM600 1087q0 105 -25.5 161t-91 56t-84.5 -58 q-18 -55 -18 -148v-10v-494q0 -123 23.5 -181.5t85 -58.5t86 52.5t24.5 189.5v491z" horiz-adv-x="990"/>
<glyph unicode="h" glyph-name="h" d="M135 1775h265v-447q21 81 83 135.5t150 54.5q130 0 197 -86.5t67 -250.5v-1181h-264v1156q0 145 -106 145q-61 0 -94 -50t-33 -136v-1115h-265v1775z" horiz-adv-x="1020"/>
<glyph unicode="i" glyph-name="i" d="M135 1500h265v-1500h-265v1500zM132 1868h267v-230h-267v230z" horiz-adv-x="530"/>
<glyph unicode="j" glyph-name="j" d="M221 -196q-18 -1 -78 -1t-83 17v183q17 -6 45 -3q63 3 63 69v1431h265v-1421q0 -137 -55.5 -205t-156.5 -70zM164 1868h267v-230h-267v230z" horiz-adv-x="556"/>
<glyph unicode="k" glyph-name="k" d="M135 1775h265v-957l256 682h269l-289 -738l306 -762h-270l-272 713v-713h-265v1775z" horiz-adv-x="961"/>
<glyph unicode="l" glyph-name="l" d="M132 1775h264v-1775h-264v1775z" horiz-adv-x="531"/>
<glyph unicode="m" glyph-name="m" d="M1117 0v1152q0 149 -101 149q-61 0 -94 -42t-33 -121v-1138h-265v1154q0 147 -98 147q-65 0 -97.5 -49.5t-32.5 -127.5v-1124h-265v1500h265v-163q23 84 83 132.5t157 48.5q166 0 222 -151q81 151 255 151q141 0 204.5 -94t63.5 -275v-1149h-264z" horiz-adv-x="1504"/>
<glyph unicode="n" glyph-name="n" d="M637 1518q260 0 260 -337v-1181h-265v1165q0 65 -29.5 102t-85.5 37t-88.5 -48t-32.5 -129v-1127h-265v1500h265v-172q20 80 86 135t155 55z" horiz-adv-x="1020"/>
<glyph unicode="o" glyph-name="o" d="M110 1037q0 481 375 481t375 -481v-561q0 -375 -193 -461q-74 -33 -181 -33q-213 0 -294.5 127t-81.5 367v561zM593 1084q0 110 -23 165t-85 55t-85 -54.5t-23 -165.5v-671q0 -165 54 -202q22 -15 55 -15q62 0 84.5 54.5t22.5 162.5v671z"/>
<glyph unicode="p" glyph-name="p" d="M397 1365q28 71 89 110.5t127.5 39.5t116.5 -24q93 -45 125.5 -158.5t32.5 -284.5v-547q0 -265 -52 -368t-136 -133q-50 -18 -110.5 -18t-111 31t-81.5 78v-376h-265v1785h265v-135zM621 1072q0 180 -49 216q-22 16 -56 16q-60 0 -89.5 -49.5t-29.5 -181.5v-634 q0 -125 24 -183.5t90 -58.5t88 60.5t22 192.5v622z" horiz-adv-x="998"/>
<glyph unicode="q" glyph-name="q" d="M110 1048q0 467 273 467q158 0 214 -129v114h265v-1785h-265v387q-21 -50 -73 -85t-119 -35t-121 25q-100 47 -137 168t-37 306v567zM597 1063q0 126 -26 183q-26 58 -91 58h-1q-63 0 -83 -61t-20 -185v-622q0 -186 46 -223q22 -17 56 -17q64 0 91.5 51.5t27.5 181.5v634 z" horiz-adv-x="994"/>
<glyph unicode="r" glyph-name="r" d="M654 1518q4 0 4 -168l-1 -56q-80 0 -157 -27t-101 -77v-1190h-267v1500h267v-167q26 88 91.5 136.5t163.5 48.5z" horiz-adv-x="697"/>
<glyph unicode="s" glyph-name="s" d="M334 397q0 -200 102 -200q53 0 77.5 35.5t24.5 120.5q0 150 -138 278q-5 4 -65 58t-70 64q-185 169 -185 397q0 188 88.5 278t266.5 90q116 0 189 -42q149 -86 149 -393v-82h-237v99q0 201 -99 201q-54 0 -79.5 -31t-25.5 -106q0 -119 106 -221l142 -129 q219 -204 219 -449q0 -192 -87 -288t-270 -96t-270 104.5t-87 335.5v97h249v-121z" horiz-adv-x="862"/>
<glyph unicode="t" glyph-name="t" d="M166 1760h265v-291h146v-192h-146v-1002q0 -29 5 -43q4 -14 28 -27t118 -13v-202h-180q-142 0 -189 55t-47 184v1048h-122v192h122v291z" horiz-adv-x="638"/>
<glyph unicode="u" glyph-name="u" d="M619 1500h264v-1500h-265v156q-63 -175 -229 -175q-267 0 -267 359v1160h266v-1119q0 -93 23 -137.5t86 -44.5q121 0 121 180z" horiz-adv-x="1010"/>
<glyph unicode="v" glyph-name="v" d="M558 1500h248l-217 -1500h-325l-217 1500h250l97 -798l33 -359h20l28 360z" horiz-adv-x="852"/>
<glyph unicode="w" glyph-name="w" d="M988 1500h222l-190 -1500h-232l-152 1127l-162 -1127h-224l-201 1500h223l76 -633l34 -322h6l33 323l89 632h236l98 -620l42 -335h6l29 334z" horiz-adv-x="1258"/>
<glyph unicode="x" glyph-name="x" d="M44 1500h235l154 -433l132 433h234l-254 -745l269 -755h-246l-157 449l-139 -449h-245l267 783z" horiz-adv-x="840"/>
<glyph unicode="y" glyph-name="y" d="M577 1500h251l-260 -1564q-17 -109 -47 -144.5t-64 -46t-86 -10.5h-282v183h87q50 0 77 8t31 32q6 10 6 37t-7 73l-240 1432h252l96 -767l40 -404h22l36 404z" horiz-adv-x="859"/>
<glyph unicode="z" glyph-name="z" d="M98 1500h574v-191l-328 -1087h314v-222h-585v200l330 1073h-305v227z" horiz-adv-x="732"/>
<glyph unicode="{" glyph-name="braceleft" d="M614 1781h60v-199q-89 0 -114 -28.5t-25 -123.5v-246q0 -131 -12.5 -197t-45 -101t-101.5 -56q69 -21 101.5 -56t45 -101t12.5 -197v-246q0 -95 25 -123.5t114 -28.5v-199h-60q-189 0 -265.5 72.5t-76.5 265.5v275q0 162 -34 190t-105 28v240q71 0 96 20t34 58t9 140v275 q0 193 76.5 265.5t265.5 72.5z" horiz-adv-x="798"/>
<glyph unicode="|" glyph-name="bar" d="M150 1863h243v-1947h-243v1947z" horiz-adv-x="537"/>
<glyph unicode="}" glyph-name="braceright" d="M193 1781q189 0 265.5 -72.5t76.5 -265.5v-275v-9q0 -154 33 -181q34 -28 106 -28v-240q-71 0 -96 -20t-34 -58t-9 -140v-275q0 -193 -76.5 -265.5t-265.5 -72.5h-60v199q89 0 114 28.5t25 123.5v246q0 131 12.5 197t45.5 101t102 56q-69 21 -102 56t-45.5 101t-12.5 197 v246q0 95 -25 123.5t-114 28.5v199h60z" horiz-adv-x="798"/>
<glyph unicode="~" glyph-name="asciitilde" d="M556 1120q149 -48 174 -47h2q24 1 49 28.5t42 81.5l186 -42q-20 -80 -68 -166q-91 -165 -175 -165q-58 0 -202.5 52t-187.5 52t-62.5 -21t-41.5 -72l-172 82q80 266 247 266q57 -1 209 -49z" horiz-adv-x="1117"/>
<glyph unicode=" " glyph-name="uni00A0" horiz-adv-x="367"/>
<glyph unicode="¡" glyph-name="exclamdown" d="M416 -236h-284l85 1337h110zM405 1268h-260v256h260v-256z" horiz-adv-x="525"/>
<glyph unicode="¢" glyph-name="cent" d="M110 986q0 327 114 441q69 69 192 86v253h113v-249q161 -9 239.5 -115.5t78.5 -316.5v-165h-256v174q0 136 -24.5 171t-82.5 35q-1 0 -1 1q-57 0 -81 -52t-25 -159v-676q0 -111 22.5 -163t87.5 -52q89 1 101 125q3 29 3 68v21v178h256v-152q0 -220 -78 -333t-240 -123 v-234h-113v238q-162 21 -234 141t-72 372v486z" horiz-adv-x="788"/>
<glyph unicode="£" glyph-name="sterling" d="M719 1393q0 174 -141 174q-160 0 -161 -153q0 -32 45.5 -192t69.5 -249h333v-190h-283q17 -85 17 -161q0 -150 -48.5 -251.5t-135.5 -144.5h539v-226h-872v205q126 55 190.5 157.5t64.5 268.5q0 77 -15 152h-230v190h189q-115 366 -115 416q0 190 106 291t320 101 q371 0 371 -400v-135h-244v147z" horiz-adv-x="1077"/>
<glyph unicode="¤" glyph-name="currency" d="M797 1331l87 87l150 -149l-90 -90q54 -97 54 -215t-54 -216l90 -90l-150 -149l-89 88q-92 -52 -216 -52t-216 53l-89 -89l-149 150l91 91q-53 98 -53 214.5t52 213.5l-90 90l149 150l87 -88q97 55 218 55t218 -54zM730 806q58 65 58 160.5t-57 157.5t-151 62t-151.5 -64 t-57.5 -158.5t57.5 -158.5t150.5 -64t151 65z" horiz-adv-x="1159"/>
<glyph unicode="¥" glyph-name="yen" d="M606 1760h255l-263 -990h176v-151h-194v-151h194v-153h-194v-315h-268v315h-218v153h218v151h-218v151h199l-276 990h256l174 -658h4z" horiz-adv-x="866"/>
<glyph unicode="¦" glyph-name="brokenbar" d="M122 1760h286v-829h-286v829zM122 724h286v-808h-286v808z" horiz-adv-x="530"/>
<glyph unicode="§" glyph-name="section" d="M541 735q45 75 45 121q0 94 -160 161q-45 -65 -45 -117.5t47.5 -95.5t112.5 -69zM492 220q74 0 74 67q0 46 -12.5 65.5t-20.5 31t-24.5 26.5t-28 25t-33 26.5t-34.5 25.5l-39 27t-56 40q-72 53 -129 118q-64 72 -64 172q0 187 123 299q-60 55 -91.5 132t-31.5 158 q0 165 104 256.5t273 91.5t260 -96.5t91 -312.5h-273q0 97 -18 133.5t-65 36.5q-85 0 -85 -91q0 -78 218 -224q3 -1 4 -2t3 -2t31 -19.5t73 -63t77.5 -114t33.5 -143.5t-43 -149t-109 -136q79 -73 117 -141t38 -164q0 -150 -97.5 -231.5t-278.5 -81.5t-276.5 96t-95.5 315 h299q0 -102 23 -136.5t63 -34.5z" horiz-adv-x="950"/>
<glyph unicode="¨" glyph-name="dieresis" d="M589 1129h282v-226h-282v226zM105 1129h282v-226h-282v226z" horiz-adv-x="976"/>
<glyph unicode="©" glyph-name="copyright" d="M497 1048q0 256 239 256q102 0 156.5 -50.5t54.5 -149.5v-153h-165v101q0 77 -46 77q-26 0 -35 -16t-9 -48v-409q0 -25 12 -45t32 -20q46 0 46 65v149h169v-163q0 -113 -50.5 -166t-162.5 -53t-176.5 60t-64.5 164v401zM76 861q0 184 86 334.5t236.5 236.5t334.5 86 t334.5 -86t236.5 -236.5t86 -334.5t-86 -334.5t-236.5 -236.5t-334.5 -86t-334.5 86t-236.5 236.5t-86 334.5zM733 1389q-141 0 -256 -71t-178.5 -192t-63.5 -265t63.5 -265t178.5 -192t256 -71t256 71t178.5 192t63.5 265t-63.5 265t-178.5 192t-256 71z" horiz-adv-x="1466"/>
<glyph unicode="ª" glyph-name="ordfeminine" d="M182 1259q0 175 65.5 261.5t225 86.5t227 -89t67.5 -268v-853h-212v110q-12 -44 -59.5 -83t-109.5 -39q-117 0 -167.5 83.5t-52.5 240.5v79q0 113 56 208q18 30 78 64t90 47q32 13 163 63v42q0 126 -8 160q-15 65 -67.5 65t-69.5 -35t-17 -121v-58h-208q-1 5 -1 36z M552 640v397q-103 -44 -137 -82t-34 -124v-121q0 -84 17.5 -120.5t57.5 -36.5t64.5 26.5t31.5 60.5z" horiz-adv-x="927"/>
<glyph unicode="«" glyph-name="guillemotleft" d="M642 887l491 271v-268l-312 -141l312 -150v-272l-491 285v275zM88 887l491 271v-268l-312 -141l312 -150v-272l-491 285v275z" horiz-adv-x="1304"/>
<glyph unicode="¬" glyph-name="logicalnot" d="M97 979h729v-540h-224v304h-505v236z" horiz-adv-x="947"/>
<glyph unicode="­" glyph-name="uni00AD" d="M90 741h516v-232h-516v232z" horiz-adv-x="696"/>
<glyph unicode="®" glyph-name="registered" d="M720 965h48q37 0 37 65t-15.5 79.5t-69.5 14.5v-159zM751 205q-184 0 -334.5 86t-236.5 236.5t-86 334.5t86 334.5t236.5 236.5t334.5 86t334.5 -86t236.5 -236.5t86 -334.5t-86 -334.5t-236.5 -236.5t-334.5 -86zM751 334q141 0 256 71t178.5 192t63.5 265t-63.5 265 t-178.5 192t-256 71t-256 -71t-178.5 -192t-63.5 -265t63.5 -265t178.5 -192t256 -71zM529 430v852h289q101 0 136 -59t35 -155t-20.5 -137t-72.5 -58q79 -15 79 -122v-321h-184v332q0 35 -15.5 45.5t-56.5 10.5v-388h-190z" horiz-adv-x="1502"/>
<glyph unicode="¯" glyph-name="macron" d="M90 1077h507v-151h-507v151z" horiz-adv-x="696"/>
<glyph unicode="°" glyph-name="degree" d="M457 931q-161 -1 -257 89t-96 248t95.5 248.5t257.5 90.5t258 -90.5t96 -247.5t-96 -247.5t-258 -90.5zM458 1112q65 0 103.5 45t38.5 112t-38.5 112t-103.5 45t-103.5 -45t-38.5 -112t38.5 -112t103.5 -45z" horiz-adv-x="915"/>
<glyph unicode="±" glyph-name="plusminus" d="M336 1116h182v-231h220v-177h-220v-233h-182v233h-218v177h218v231zM156 295h516v-183h-516v183z" horiz-adv-x="854"/>
<glyph unicode="²" glyph-name="uni00B2" d="M439 1621q-36 0 -55 -37.5t-19 -135.5v-154h-182l-1 74q0 168 22 240t51 104q62 68 192 68q85 0 141 -46q103 -84 103 -268t-87 -338q-38 -68 -78 -130q-107 -163 -139 -282h291v-151h-493v62q0 114 97.5 309.5t173.5 289.5q55 88 55 241.5t-72 153.5z" horiz-adv-x="831"/>
<glyph unicode="³" glyph-name="uni00B3" d="M352 1469l-1 -28h-187l-1 33q1 158 64 231t206 73t211 -75.5t68 -228.5q0 -201 -120 -241q70 -30 96.5 -100t26.5 -188q0 -172 -69.5 -257.5t-217 -85.5t-209 79t-61.5 246v78h186v-79q0 -96 17 -133t71 -37t70.5 43t16.5 150.5t-26 157.5t-98 50h-29v140h26q71 3 99 40 t28 129t-21.5 125.5t-66 33.5t-62 -35t-17.5 -121z" horiz-adv-x="856"/>
<glyph unicode="´" glyph-name="acute" d="M148 1716l90 442h258l-192 -442h-156z" horiz-adv-x="650"/>
<glyph unicode="¶" glyph-name="paragraph" d="M641 1760h332v-1760h-194v1527h-143v-1527h-194v1087q-170 19 -251.5 103t-81.5 247q0 229 195 287q120 36 337 36z" horiz-adv-x="1119"/>
<glyph unicode="·" glyph-name="periodcentered" d="M132 995h231v-245h-231v245z" horiz-adv-x="480"/>
<glyph unicode="¸" glyph-name="cedilla" d="M317 -501q231 0 231 141q0 64 -46.5 106.5t-113.5 57.5l40 196h82l15 -141q228 -78 228 -264q0 -91 -77.5 -162t-209.5 -71q-78 0 -149 26v111z" horiz-adv-x="1015"/>
<glyph unicode="¹" glyph-name="uni00B9" d="M295 1760h149v-1196h-206v964q-66 -49 -162 -49v130q65 5 135 48.5t84 102.5z" horiz-adv-x="628"/>
<glyph unicode="º" glyph-name="ordmasculine" d="M159 1222q0 388 305 384q174 -2 238 -106t64 -278v-446q0 -297 -158 -368q-60 -27 -144 -27q-166 0 -235.5 99.5t-69.5 295.5v446zM466 551q85 0 85 174v535q0 87 -19 131t-69 44t-69 -43.5t-19 -131.5v-535q0 -174 91 -174z" horiz-adv-x="908"/>
<glyph unicode="»" glyph-name="guillemotright" d="M704 890v268l491 -271v-275l-491 -285v272l312 150zM151 890v268l490 -271v-275l-490 -285v272l312 150z" horiz-adv-x="1304"/>
<glyph unicode="¼" glyph-name="onequarter" d="M923 1767h189l-500 -1767h-189zM280 1680h132v-1129h-180v915q-56 -47 -142 -47v119q57 5 116.5 45.5t73.5 96.5zM1127 1065h223v-741h69v-132h-69v-192h-159v192h-289v114zM1191 324v540l-141 -540h141z" horiz-adv-x="1535"/>
<glyph unicode="½" glyph-name="onehalf" d="M1296 1002q-71 0 -71 -168v-145h-170l-1 70q0 252 63.5 320.5t183.5 68.5t176 -87t56 -198.5t-23 -190t-59.5 -142t-74.5 -122.5q-99 -152 -131 -270h276v-138h-464v58q0 105 94 294t162 272q52 82 52 195t-17.5 148t-51.5 35zM280 1680h132v-1129h-180v915 q-56 -47 -142 -47v119q57 5 116.5 45.5t73.5 96.5zM923 1767h189l-500 -1767h-189z" horiz-adv-x="1620"/>
<glyph unicode="¾" glyph-name="threequarters" d="M250 1404l-1 -26h-161v30q0 146 56 214.5t179 68.5q238 0 238 -283q0 -187 -105 -225q60 -28 84 -94t24 -199.5t-59.5 -212.5t-185.5 -79t-181 74t-55 227v70h160v-70q0 -92 15 -127t63.5 -35t64 40.5t15.5 142t-23.5 148.5t-87.5 47q-22 0 -25 -1v136h21q42 1 66 13 q50 25 50 124q0 102 -21 134q-20 32 -59.5 32t-55.5 -33.5t-16 -115.5zM974 1767h189l-500 -1767h-189zM1147 1065h223v-741h69v-132h-69v-192h-159v192h-289v114zM1211 324v540l-141 -540h141z" horiz-adv-x="1555"/>
<glyph unicode="¿" glyph-name="questiondown" d="M856 122q0 -405 -345 -405q-187 0 -265 96q-85 105 -85 385q0 231 28.5 327.5t64.5 143.5q77 99 235 145v190h236v-316q-92 -24 -130 -45.5t-59.5 -36t-38 -38t-27.5 -43.5q-20 -35 -28 -88q-13 -86 -13 -194v-29v-66q0 -126 7 -144t19 -36t45 -18q1 0 3 -1q51 0 73 31 q20 25 19 182v176h261v-216zM719 1199h-232v299h232v-299z" horiz-adv-x="1044"/>
<glyph unicode="À" glyph-name="Agrave" d="M386 1903l-203 413h265l94 -413h-156zM278 1760h354l268 -1760h-250l-42 314h-284l-38 -314h-258zM350 529h230l-118 884h-4z" horiz-adv-x="927"/>
<glyph unicode="Á" glyph-name="Aacute" d="M386 1903l90 442h258l-192 -442h-156zM278 1760h354l268 -1760h-250l-42 314h-284l-38 -314h-258zM350 529h230l-118 884h-4z" horiz-adv-x="927"/>
<glyph unicode="Â" glyph-name="Acircumflex" d="M313 2240h302l188 -337h-253l-86 236l-86 -236h-254zM278 1760h354l268 -1760h-250l-42 314h-284l-38 -314h-258zM350 529h230l-118 884h-4z" horiz-adv-x="927"/>
<glyph unicode="Ã" glyph-name="Atilde" d="M129 1976q28 98 75.5 140t104 42t161.5 -37t126 -37h4q17 3 29.5 16.5t26.5 54.5l142 -28l-9 -48q-21 -99 -61.5 -137.5t-98 -38.5t-156.5 41t-127 41t-44 -4t-43 -57zM278 1760h354l268 -1760h-250l-42 314h-284l-38 -314h-258zM350 529h230l-118 884h-4z" horiz-adv-x="927"/>
<glyph unicode="Ä" glyph-name="Adieresis" d="M565 2129h282v-226h-282v226zM81 2129h282v-226h-282v226zM278 1760h354l268 -1760h-250l-42 314h-284l-38 -314h-258zM350 529h230l-118 884h-4z" horiz-adv-x="927"/>
<glyph unicode="Å" glyph-name="Aring" d="M230 1990q0 98 63 161t171 63t170 -63t62 -161t-62 -161t-170 -63t-171 63t-63 161zM583 1991q0 53 -31.5 91.5t-87.5 38.5t-87.5 -38.5t-31.5 -91.5t31.5 -92t87.5 -39t87.5 39t31.5 92zM278 1760h354l268 -1760h-250l-42 314h-284l-38 -314h-258zM350 529h230l-118 884 h-4z" horiz-adv-x="927"/>
<glyph unicode="Æ" glyph-name="AE" d="M366 1760h786v-231h-278v-512h262v-232h-262v-554h290v-231h-558v314h-240l-54 -314h-260zM606 512v1018l-35 -1l-175 -1017h210z" horiz-adv-x="1246"/>
<glyph unicode="Ç" glyph-name="Ccedilla" d="M216 -501q231 0 231 141q0 64 -46.5 106.5t-113.5 57.5l40 196h82l15 -141q228 -78 228 -264q0 -91 -77.5 -162t-209.5 -71q-78 0 -149 26v111zM110 1253q0 393 206 491q76 36 184 36q371 0 371 -468v-242h-259v225q0 136 -23 194.5t-90 58.5t-93 -62t-26 -190v-822 q0 -142 25 -203t91 -61t91 62t25 205v252h263v-249q0 -255 -91 -377.5t-286 -122.5t-291.5 130.5t-96.5 375.5v767z" horiz-adv-x="969"/>
<glyph unicode="È" glyph-name="Egrave" d="M355 1903l-203 413h265l94 -413h-156zM132 1760h590v-231h-322v-512h306v-226h-306v-560h334v-231h-602v1760z" horiz-adv-x="800"/>
<glyph unicode="É" glyph-name="Eacute" d="M355 1903l90 442h258l-192 -442h-156zM132 1760h590v-231h-322v-512h306v-226h-306v-560h334v-231h-602v1760z" horiz-adv-x="800"/>
<glyph unicode="Ê" glyph-name="Ecircumflex" d="M282 2240h302l188 -337h-253l-86 236l-86 -236h-254zM132 1760h590v-231h-322v-512h306v-226h-306v-560h334v-231h-602v1760z" horiz-adv-x="800"/>
<glyph unicode="Ë" glyph-name="Edieresis" d="M534 2129h282v-226h-282v226zM50 2129h282v-226h-282v226zM132 1760h590v-231h-322v-512h306v-226h-306v-560h334v-231h-602v1760z" horiz-adv-x="800"/>
<glyph unicode="Ì" glyph-name="Igrave" d="M194 1903l-203 413h265l94 -413h-156zM138 1760h268v-1760h-268v1760z" horiz-adv-x="543"/>
<glyph unicode="Í" glyph-name="Iacute" d="M194 1903l90 442h258l-192 -442h-156zM138 1760h268v-1760h-268v1760z" horiz-adv-x="543"/>
<glyph unicode="Î" glyph-name="Icircumflex" d="M121 2240h302l188 -337h-253l-86 236l-86 -236h-254zM138 1760h268v-1760h-268v1760z" horiz-adv-x="543"/>
<glyph unicode="Ï" glyph-name="Idieresis" d="M373 2129h282v-226h-282v226zM-111 2129h282v-226h-282v226zM138 1760h268v-1760h-268v1760z" horiz-adv-x="543"/>
<glyph unicode="Ð" glyph-name="Eth" d="M58 1023h478v-175h-478v175zM132 1760h395q194 0 281.5 -114.5t87.5 -337.5l1 -794q0 -266 -88 -390t-291 -124h-386v1760zM628 1301q0 137 -33.5 195t-115.5 58h-79v-1346h88q74 0 107.5 48t33.5 176z" horiz-adv-x="1005"/>
<glyph unicode="Ñ" glyph-name="Ntilde" d="M200 1976q28 98 75.5 140t104 42t161.5 -37t126 -37h4q17 3 29.5 16.5t26.5 54.5l142 -28l-9 -48q-21 -99 -61.5 -137.5t-98 -38.5t-156.5 41t-127 41t-44 -4t-43 -57zM696 1760h241v-1760h-190l-383 1093l15 -462v-631h-247v1760h210l373 -1056l-19 480v576z" horiz-adv-x="1069"/>
<glyph unicode="Ò" glyph-name="Ograve" d="M421 1903l-203 413h265l94 -413h-156zM110 1297q0 484 395 484q204 0 293.5 -123t89.5 -361v-805q0 -258 -92 -385t-294 -127t-297 127.5t-95 384.5v805zM619 1309q0 125 -23.5 182.5t-91.5 57.5t-96 -57.5t-28 -181.5v-821q0 -155 23.5 -216t96.5 -61t96 62.5t23 214.5 v820z" horiz-adv-x="999"/>
<glyph unicode="Ó" glyph-name="Oacute" d="M421 1903l90 442h258l-192 -442h-156zM110 1297q0 484 395 484q204 0 293.5 -123t89.5 -361v-805q0 -258 -92 -385t-294 -127t-297 127.5t-95 384.5v805zM619 1309q0 125 -23.5 182.5t-91.5 57.5t-96 -57.5t-28 -181.5v-821q0 -155 23.5 -216t96.5 -61t96 62.5t23 214.5 v820z" horiz-adv-x="999"/>
<glyph unicode="Ô" glyph-name="Ocircumflex" d="M348 2240h302l188 -337h-253l-86 236l-86 -236h-254zM110 1297q0 484 395 484q204 0 293.5 -123t89.5 -361v-805q0 -258 -92 -385t-294 -127t-297 127.5t-95 384.5v805zM619 1309q0 125 -23.5 182.5t-91.5 57.5t-96 -57.5t-28 -181.5v-821q0 -155 23.5 -216t96.5 -61 t96 62.5t23 214.5v820z" horiz-adv-x="999"/>
<glyph unicode="Õ" glyph-name="Otilde" d="M165 1976q28 98 75.5 140t104 42t161.5 -37t126 -37h4q17 3 29.5 16.5t26.5 54.5l142 -28l-9 -48q-21 -99 -61.5 -137.5t-98 -38.5t-156.5 41t-127 41t-44 -4t-43 -57zM110 1297q0 484 395 484q204 0 293.5 -123t89.5 -361v-805q0 -258 -92 -385t-294 -127t-297 127.5 t-95 384.5v805zM619 1309q0 125 -23.5 182.5t-91.5 57.5t-96 -57.5t-28 -181.5v-821q0 -155 23.5 -216t96.5 -61t96 62.5t23 214.5v820z" horiz-adv-x="999"/>
<glyph unicode="Ö" glyph-name="Odieresis" d="M600 2129h282v-226h-282v226zM116 2129h282v-226h-282v226zM110 1297q0 484 395 484q204 0 293.5 -123t89.5 -361v-805q0 -258 -92 -385t-294 -127t-297 127.5t-95 384.5v805zM619 1309q0 125 -23.5 182.5t-91.5 57.5t-96 -57.5t-28 -181.5v-821q0 -155 23.5 -216 t96.5 -61t96 62.5t23 214.5v820z" horiz-adv-x="999"/>
<glyph unicode="×" glyph-name="multiply" d="M502 936l164 -164l-147 -147l147 -147l-164 -164l-147 147l-147 -147l-164 164l147 147l-147 147l164 164l147 -147z" horiz-adv-x="710"/>
<glyph unicode="Ø" glyph-name="Oslash" d="M619 1328q-2 111 -24 166q-23 55 -91 55t-96 -57.5t-28 -181.5v-662zM388 343q6 -44 16 -70q24 -61 96 -61t95.5 62.5t23.5 214.5v507zM110 1297q0 484 395 484q158 0 247 -74l70 199l107 -36l-96 -271q55 -116 55 -302v-805q0 -258 -92 -385t-294 -127q-136 0 -223 57 l-86 -243l-99 40l101 287q-85 127 -85 371v805z" horiz-adv-x="900"/>
<glyph unicode="Ù" glyph-name="Ugrave" d="M429 1903l-203 413h265l94 -413h-156zM627 1760h268v-1308q0 -163 -30 -240t-61 -116q-92 -116 -296 -116q-286 0 -360 238q-29 94 -29 234v1308h268v-1303q0 -139 13 -169t31.5 -54.5t75.5 -24.5q87 0 107 83q12 50 13 165v1303z" horiz-adv-x="1013"/>
<glyph unicode="Ú" glyph-name="Uacute" d="M429 1903l90 442h258l-192 -442h-156zM627 1760h268v-1308q0 -163 -30 -240t-61 -116q-92 -116 -296 -116q-286 0 -360 238q-29 94 -29 234v1308h268v-1303q0 -139 13 -169t31.5 -54.5t75.5 -24.5q87 0 107 83q12 50 13 165v1303z" horiz-adv-x="1013"/>
<glyph unicode="Û" glyph-name="Ucircumflex" d="M356 2240h302l188 -337h-253l-86 236l-86 -236h-254zM627 1760h268v-1308q0 -163 -30 -240t-61 -116q-92 -116 -296 -116q-286 0 -360 238q-29 94 -29 234v1308h268v-1303q0 -139 13 -169t31.5 -54.5t75.5 -24.5q87 0 107 83q12 50 13 165v1303z" horiz-adv-x="1013"/>
<glyph unicode="Ü" glyph-name="Udieresis" d="M608 2129h282v-226h-282v226zM124 2129h282v-226h-282v226zM627 1760h268v-1308q0 -163 -30 -240t-61 -116q-92 -116 -296 -116q-286 0 -360 238q-29 94 -29 234v1308h268v-1303q0 -139 13 -169t31.5 -54.5t75.5 -24.5q87 0 107 83q12 50 13 165v1303z" horiz-adv-x="1013"/>
<glyph unicode="Ý" glyph-name="Yacute" d="M361 1903l90 442h258l-192 -442h-156zM606 1760h255l-281 -1057v-703h-268v703l-295 1057h256l174 -658h4z" horiz-adv-x="878"/>
<glyph unicode="Þ" glyph-name="Thorn" d="M146 1760h268v-263h136q206 -1 281 -131t79 -385v-28q0 -415 -180 -509q-69 -36 -171 -36h-145v-408h-268v1760zM642 979q0 164 -26.5 237.5t-107.5 73.5h-94v-660h92q84 0 110 70t26 255v24z" horiz-adv-x="982"/>
<glyph unicode="ß" glyph-name="germandbls" d="M135 1417q0 188 85 276t289 88t295.5 -82.5t91.5 -281.5v-197q0 -118 -36 -182.5t-123 -92.5q123 -29 171 -121.5t48 -270.5v-77q0 -188 -33 -272t-73 -123q-86 -81 -257 -81h-104v212q122 0 164 36.5t42 146.5v261q0 100 -42.5 138t-154.5 38v200q77 0 107 32.5 t30 105.5v268q0 69 -26.5 96.5t-89 27.5t-91 -28.5t-28.5 -95.5v-1438h-265v1417z" horiz-adv-x="1032"/>
<glyph unicode="à" glyph-name="agrave" d="M400 1640l-203 413h265l94 -413h-156zM585 814q-126 -56 -170 -106t-44 -155v-168q0 -105 22 -150.5t71.5 -45.5t81 33.5t39.5 75.5v516zM121 1081q1 213 81 325t282 112t287 -107t85 -330v-1081h-267v149q-20 -69 -76.5 -116.5t-136.5 -47.5q-147 0 -210 105.5 t-65 303.5v96q0 192 104 291q67 65 227 126q29 11 80.5 30t72.5 27v131q0 122 -17.5 165.5t-80 43.5t-83.5 -46t-21 -155v-67h-262v45z"/>
<glyph unicode="á" glyph-name="aacute" d="M400 1640l90 442h258l-192 -442h-156zM585 814q-126 -56 -170 -106t-44 -155v-168q0 -105 22 -150.5t71.5 -45.5t81 33.5t39.5 75.5v516zM121 1081q1 213 81 325t282 112t287 -107t85 -330v-1081h-267v149q-20 -69 -76.5 -116.5t-136.5 -47.5q-147 0 -210 105.5 t-65 303.5v96q0 192 104 291q67 65 227 126q29 11 80.5 30t72.5 27v131q0 122 -17.5 165.5t-80 43.5t-83.5 -46t-21 -155v-67h-262v45z"/>
<glyph unicode="â" glyph-name="acircumflex" d="M328 1977h302l188 -337h-253l-86 236l-86 -236h-254zM585 814q-126 -56 -170 -106t-44 -155v-168q0 -105 22 -150.5t71.5 -45.5t81 33.5t39.5 75.5v516zM121 1081q1 213 81 325t282 112t287 -107t85 -330v-1081h-267v149q-20 -69 -76.5 -116.5t-136.5 -47.5 q-147 0 -210 105.5t-65 303.5v96q0 192 104 291q67 65 227 126q29 11 80.5 30t72.5 27v131q0 122 -17.5 165.5t-80 43.5t-83.5 -46t-21 -155v-67h-262v45z"/>
<glyph unicode="ã" glyph-name="atilde" d="M144 1713q28 98 75.5 140t104 42t161.5 -37t126 -37h4q17 3 29.5 16.5t26.5 54.5l142 -28l-9 -48q-21 -99 -61.5 -137.5t-98 -38.5t-156.5 41t-127 41t-44 -4t-43 -57zM585 814q-126 -56 -170 -106t-44 -155v-168q0 -105 22 -150.5t71.5 -45.5t81 33.5t39.5 75.5v516z M121 1081q1 213 81 325t282 112t287 -107t85 -330v-1081h-267v149q-20 -69 -76.5 -116.5t-136.5 -47.5q-147 0 -210 105.5t-65 303.5v96q0 192 104 291q67 65 227 126q29 11 80.5 30t72.5 27v131q0 122 -17.5 165.5t-80 43.5t-83.5 -46t-21 -155v-67h-262v45z"/>
<glyph unicode="ä" glyph-name="adieresis" d="M579 1866h282v-226h-282v226zM95 1866h282v-226h-282v226zM585 814q-126 -56 -170 -106t-44 -155v-168q0 -105 22 -150.5t71.5 -45.5t81 33.5t39.5 75.5v516zM121 1081q1 213 81 325t282 112t287 -107t85 -330v-1081h-267v149q-20 -69 -76.5 -116.5t-136.5 -47.5 q-147 0 -210 105.5t-65 303.5v96q0 192 104 291q67 65 227 126q29 11 80.5 30t72.5 27v131q0 122 -17.5 165.5t-80 43.5t-83.5 -46t-21 -155v-67h-262v45z"/>
<glyph unicode="å" glyph-name="aring" d="M246 1864q0 98 63 161t171 63t170 -63t62 -161t-62 -161t-170 -63t-171 63t-63 161zM599 1865q0 53 -31.5 91.5t-87.5 38.5t-87.5 -38.5t-31.5 -91.5t31.5 -92t87.5 -39t87.5 39t31.5 92zM585 814q-126 -56 -170 -106t-44 -155v-168q0 -105 22 -150.5t71.5 -45.5t81 33.5 t39.5 75.5v516zM121 1081q1 213 81 325t282 112t287 -107t85 -330v-1081h-267v149q-20 -69 -76.5 -116.5t-136.5 -47.5q-147 0 -210 105.5t-65 303.5v96q0 192 104 291q67 65 227 126q29 11 80.5 30t72.5 27v131q0 122 -17.5 165.5t-80 43.5t-83.5 -46t-21 -155v-67h-262v45 z"/>
<glyph unicode="æ" glyph-name="ae" d="M1075 464l-1 84v21h263v-70q0 -203 -29.5 -294t-67.5 -133q-83 -90 -255 -90q-97 0 -165.5 39t-101.5 107q-38 -59 -114.5 -101t-165.5 -42q-162 0 -246.5 110t-84.5 311v100q2 140 74 250q25 38 95 78t109.5 56.5t112.5 43.5t94 35v117q0 87 -18 152.5t-80 65.5 t-83.5 -43.5t-21.5 -151.5v-73h-261q-1 6 -1 80q0 180 80 291t294 111q162 0 229 -109q77 109 247 109q205 0 284 -122q78 -120 78 -337v-6q0 -301 -2 -327h-477v-254q0 -147 23 -211.5t81.5 -64.5t78.5 39q32 61 32 229zM591 306v497q-68 -30 -103.5 -49.5t-63.5 -49.5 q-47 -50 -47 -160v-151q0 -105 22 -150.5t71.5 -45.5t81 33.5t39.5 75.5zM1074 1079q0 123 -19.5 176.5t-76 53.5t-74.5 -25q-31 -41 -37.5 -92.5t-6.5 -134.5v-151h214v173z" horiz-adv-x="1443"/>
<glyph unicode="ç" glyph-name="ccedilla" d="M293 -501q231 0 231 141q0 64 -46.5 106.5t-113.5 57.5l40 196h82l15 -141q228 -78 228 -264q0 -91 -77.5 -162t-209.5 -71q-78 0 -149 26v111zM110 986q0 327 114 441q91 91 275 91t266 -111.5t82 -321.5v-165h-256v174q0 136 -24.5 171t-82.5 35q-1 0 -1 1 q-57 0 -81 -52t-25 -159v-676q0 -111 22.5 -163t87.5 -52q89 1 101 125q3 29 3 68v21v178h256v-152q0 -220 -82 -338.5t-271 -118.5q-225 0 -304.5 133t-79.5 385v486z" horiz-adv-x="938"/>
<glyph unicode="è" glyph-name="egrave" d="M404 1640l-203 413h265l94 -413h-156zM110 1058q0 460 383 460q203 0 282 -121.5t79 -343.5v-321h-477v-295v-11q1 -149 27 -188q28 -42 82 -42q52 0 68 25q27 42 32 90q4 46 4 126v132h262v-80q0 -204 -32 -293t-74 -129q-88 -85 -265 -85q-252 0 -327 200 q-44 117 -44 317v559zM590 1079q0 123 -19.5 176.5t-79.5 53.5h-1q-104 0 -112 -159q-2 -30 -2 -78v-185h214v192z" horiz-adv-x="945"/>
<glyph unicode="é" glyph-name="eacute" d="M110 1058q0 460 383 460q203 0 282 -121.5t79 -343.5v-321h-477v-295v-11q1 -149 27 -188q28 -42 82 -42q52 0 68 25q27 42 32 90q4 46 4 126v132h262v-80q0 -204 -32 -293t-74 -129q-88 -85 -265 -85q-252 0 -327 200q-44 117 -44 317v559zM590 1079q0 123 -19.5 176.5 t-79.5 53.5h-1q-104 0 -112 -159q-2 -30 -2 -78v-185h214v192zM404 1640l90 442h258l-192 -442h-156z" horiz-adv-x="945"/>
<glyph unicode="ê" glyph-name="ecircumflex" d="M110 1058q0 460 383 460q203 0 282 -121.5t79 -343.5v-321h-477v-295v-11q1 -149 27 -188q28 -42 82 -42q52 0 68 25q27 42 32 90q4 46 4 126v132h262v-80q0 -204 -32 -293t-74 -129q-88 -85 -265 -85q-252 0 -327 200q-44 117 -44 317v559zM590 1079q0 123 -19.5 176.5 t-79.5 53.5h-1q-104 0 -112 -159q-2 -30 -2 -78v-185h214v192zM332 1977h302l188 -337h-253l-86 236l-86 -236h-254z" horiz-adv-x="945"/>
<glyph unicode="ë" glyph-name="edieresis" d="M110 1058q0 460 383 460q203 0 282 -121.5t79 -343.5v-321h-477v-295v-11q1 -149 27 -188q28 -42 82 -42q52 0 68 25q27 42 32 90q4 46 4 126v132h262v-80q0 -204 -32 -293t-74 -129q-88 -85 -265 -85q-252 0 -327 200q-44 117 -44 317v559zM590 1079q0 123 -19.5 176.5 t-79.5 53.5h-1q-104 0 -112 -159q-2 -30 -2 -78v-185h214v192zM583 1866h282v-226h-282v226zM99 1866h282v-226h-282v226z" horiz-adv-x="945"/>
<glyph unicode="ì" glyph-name="igrave" d="M190 1640l-203 413h265l94 -413h-156zM136 1500h265v-1500h-265v1500z" horiz-adv-x="537"/>
<glyph unicode="í" glyph-name="iacute" d="M136 1500h265v-1500h-265v1500zM190 1640l90 442h258l-192 -442h-156z" horiz-adv-x="537"/>
<glyph unicode="î" glyph-name="icircumflex" d="M136 1500h265v-1500h-265v1500zM118 1977h302l188 -337h-253l-86 236l-86 -236h-254z" horiz-adv-x="537"/>
<glyph unicode="ï" glyph-name="idieresis" d="M136 1500h265v-1500h-265v1500zM369 1866h282v-226h-282v226zM-115 1866h282v-226h-282v226z" horiz-adv-x="537"/>
<glyph unicode="ð" glyph-name="eth" d="M430 1098q116 0 175 -56q0 51 -15.5 170.5t-38.5 165.5l-209 -116l-65 137l189 106q-71 81 -197 125l137 151q170 -26 281 -156l199 110l66 -137l-179 -98q45 -80 77.5 -291t32.5 -352v-330q0 -347 -113 -457q-93 -91 -296 -91q0 1 -2 1q-204 0 -290.5 125t-86.5 378v103 q0 267 80 389.5t255 122.5zM615 776q-6 43 -41.5 70t-97.5 27t-87.5 -58t-25.5 -202v-179q0 -127 27 -174.5t99 -47.5t99 55.5t27 188.5v320z" horiz-adv-x="1013"/>
<glyph unicode="ñ" glyph-name="ntilde" d="M179 1713q28 98 75.5 140t104 42t161.5 -37t126 -37h4q17 3 29.5 16.5t26.5 54.5l142 -28l-9 -48q-21 -99 -61.5 -137.5t-98 -38.5t-156.5 41t-127 41t-44 -4t-43 -57zM637 1518q260 0 260 -337v-1181h-265v1165q0 65 -29.5 102t-85.5 37t-88.5 -48t-32.5 -129v-1127 h-265v1500h265v-172q20 80 86 135t155 55z" horiz-adv-x="1020"/>
<glyph unicode="ò" glyph-name="ograve" d="M110 1037q0 481 375 481t375 -481v-561q0 -375 -193 -461q-74 -33 -181 -33q-213 0 -294.5 127t-81.5 367v561zM593 1084q0 110 -23 165t-85 55t-85 -54.5t-23 -165.5v-671q0 -165 54 -202q22 -15 55 -15q62 0 84.5 54.5t22.5 162.5v671zM407 1640l-203 413h265l94 -413 h-156z"/>
<glyph unicode="ó" glyph-name="oacute" d="M110 1037q0 481 375 481t375 -481v-561q0 -375 -193 -461q-74 -33 -181 -33q-213 0 -294.5 127t-81.5 367v561zM593 1084q0 110 -23 165t-85 55t-85 -54.5t-23 -165.5v-671q0 -165 54 -202q22 -15 55 -15q62 0 84.5 54.5t22.5 162.5v671zM407 1640l90 442h258l-192 -442 h-156z"/>
<glyph unicode="ô" glyph-name="ocircumflex" d="M110 1037q0 481 375 481t375 -481v-561q0 -375 -193 -461q-74 -33 -181 -33q-213 0 -294.5 127t-81.5 367v561zM593 1084q0 110 -23 165t-85 55t-85 -54.5t-23 -165.5v-671q0 -165 54 -202q22 -15 55 -15q62 0 84.5 54.5t22.5 162.5v671zM334 1977h302l188 -337h-253 l-86 236l-86 -236h-254z"/>
<glyph unicode="õ" glyph-name="otilde" d="M151 1713q28 98 75.5 140t104 42t161.5 -37t126 -37h4q17 3 29.5 16.5t26.5 54.5l142 -28l-9 -48q-21 -99 -61.5 -137.5t-98 -38.5t-156.5 41t-127 41t-44 -4t-43 -57zM110 1037q0 481 375 481t375 -481v-561q0 -375 -193 -461q-74 -33 -181 -33q-213 0 -294.5 127 t-81.5 367v561zM593 1084q0 110 -23 165t-85 55t-85 -54.5t-23 -165.5v-671q0 -165 54 -202q22 -15 55 -15q62 0 84.5 54.5t22.5 162.5v671z"/>
<glyph unicode="ö" glyph-name="odieresis" d="M110 1037q0 481 375 481t375 -481v-561q0 -375 -193 -461q-74 -33 -181 -33q-213 0 -294.5 127t-81.5 367v561zM593 1084q0 110 -23 165t-85 55t-85 -54.5t-23 -165.5v-671q0 -165 54 -202q22 -15 55 -15q62 0 84.5 54.5t22.5 162.5v671zM586 1866h282v-226h-282v226z M102 1866h282v-226h-282v226z"/>
<glyph unicode="÷" glyph-name="divide" d="M94 870h616v-232h-616v232zM253 535h298v-298h-298v298zM253 1274h298v-298h-298v298z" horiz-adv-x="804"/>
<glyph unicode="ø" glyph-name="oslash" d="M573 1242q-23 62 -86.5 62t-86.5 -54.5t-23 -165.5v-540zM402 247q24 -51 85 -51t83.5 54.5t22.5 162.5v515zM240 55q-130 110 -130 421v561q0 481 376 481q89 0 156 -27l51 181l101 -28l-59 -211q125 -117 125 -396v-561q0 -375 -193 -461q-74 -33 -171 -33t-162 22 l-50 -177l-100 28z" horiz-adv-x="879"/>
<glyph unicode="ù" glyph-name="ugrave" d="M619 1500h264v-1500h-265v156q-63 -175 -229 -175q-267 0 -267 359v1160h266v-1119q0 -93 23 -137.5t86 -44.5q121 0 121 180zM424 1640l-203 413h265l94 -413h-156z" horiz-adv-x="1010"/>
<glyph unicode="ú" glyph-name="uacute" d="M619 1500h264v-1500h-265v156q-63 -175 -229 -175q-267 0 -267 359v1160h266v-1119q0 -93 23 -137.5t86 -44.5q121 0 121 180zM424 1640l90 442h258l-192 -442h-156z" horiz-adv-x="1010"/>
<glyph unicode="û" glyph-name="ucircumflex" d="M619 1500h264v-1500h-265v156q-63 -175 -229 -175q-267 0 -267 359v1160h266v-1119q0 -93 23 -137.5t86 -44.5q121 0 121 180zM352 1977h302l188 -337h-253l-86 236l-86 -236h-254z" horiz-adv-x="1010"/>
<glyph unicode="ü" glyph-name="udieresis" d="M619 1500h264v-1500h-265v156q-63 -175 -229 -175q-267 0 -267 359v1160h266v-1119q0 -93 23 -137.5t86 -44.5q121 0 121 180zM603 1866h282v-226h-282v226zM119 1866h282v-226h-282v226z" horiz-adv-x="1010"/>
<glyph unicode="ý" glyph-name="yacute" d="M577 1500h251l-260 -1564q-17 -109 -47 -144.5t-64 -46t-86 -10.5h-282v183h87q50 0 77 8t31 32q6 10 6 37t-7 73l-240 1432h252l96 -767l40 -404h22l36 404zM357 1640l90 442h258l-192 -442h-156z" horiz-adv-x="859"/>
<glyph unicode="þ" glyph-name="thorn" d="M133 1775h266v-410q28 71 87.5 110.5t125.5 39.5t116 -24q91 -44 124 -156t33 -287v-547v-8q-1 -304 -75 -407q-76 -104 -224 -104q-58 0 -107 31t-80 78v-376h-266v2060zM620 1069q0 122 -11 153.5t-23 47.5q-21 31 -63 31h-3q-44 -1 -68 -19q-53 -39 -53 -206v-6v-630 q0 -188 57 -226q23 -16 59 -16q63 0 84 60t21 193v618z" horiz-adv-x="1000"/>
<glyph unicode="ı" glyph-name="dotlessi" d="M136 1500h265v-1500h-265v1500z" horiz-adv-x="537"/>
<glyph unicode="ˆ" glyph-name="circumflex" d="M334 1945h302l188 -337h-253l-86 236l-86 -236h-254z"/>
<glyph unicode="˚" glyph-name="ring" d="M228 1130q0 98 63 161t171 63t170 -63t62 -161t-62 -161t-170 -63t-171 63t-63 161zM581 1131q0 53 -31.5 91.5t-87.5 38.5t-87.5 -38.5t-31.5 -91.5t31.5 -92t87.5 -39t87.5 39t31.5 92z" horiz-adv-x="923"/>
<glyph unicode="˜" glyph-name="tilde" d="M223 979q28 98 75.5 140t104 42t161.5 -37t126 -37h4q17 3 29.5 16.5t26.5 54.5l142 -28l-9 -48q-21 -99 -61.5 -137.5t-98 -38.5t-156.5 41t-127 41t-44 -4t-43 -57z" horiz-adv-x="1117"/>
</font>
</defs>
</svg>
