<?xml version="1.0" standalone="no"?>
<!DOCTYPE svg PUBLIC "-//W3C//DTD SVG 1.1//EN" "http://www.w3.org/Graphics/SVG/1.1/DTD/svg11.dtd" >
<svg xmlns="http://www.w3.org/2000/svg">
<defs>
  <font id="techFont" horiz-adv-x="1000">
    <font-face font-family="techFont"
      units-per-em="1000" ascent="1000"
      descent="0" />
    <missing-glyph horiz-adv-x="0" />
    <glyph glyph-name="background"
      unicode="&#xEA01;"
      horiz-adv-x="1000" d="M850 0H150C67.2 0 0 67.2000000000001 0 150V850C0 932.8 67.2 1000 150 1000H850C932.8 1000 1000 932.8 1000 850V150C1000 67.2000000000001 932.8 0 850 0z" />
    <glyph glyph-name="background-1"
      unicode="&#x62;&#x61;&#x63;&#x6B;&#x67;&#x72;&#x6F;&#x75;&#x6E;&#x64;"
      horiz-adv-x="1000" d="M850 0H150C67.2 0 0 67.2000000000001 0 150V850C0 932.8 67.2 1000 150 1000H850C932.8 1000 1000 932.8 1000 850V150C1000 67.2000000000001 932.8 0 850 0z" />
    <glyph glyph-name="blank"
      unicode="&#xEA02;"
      horiz-adv-x="1000" d="" />
    <glyph glyph-name="blank-1"
      unicode="&#x62;&#x6C;&#x61;&#x6E;&#x6B;"
      horiz-adv-x="1000" d="" />
    <glyph glyph-name="bootstrap"
      unicode="&#xEA03;"
      horiz-adv-x="1000" d="M267.9 807.7C222.5 807.7 188.9 767.9 190.4 724.8C191.8 683.4 190 629.6999999999999 176.5 586C162.9 542.0999999999999 140 514.3 102.6 510.8V470.5C140 466.9 162.9 439.1 176.5 395.3C190 351.5999999999999 191.9 297.9 190.4 256.5C188.9 213.4 222.5 173.6 267.9 173.6H733.3C778.6999999999999 173.6 812.3 213.4 810.8 256.5C809.4 297.9 811.1999999999999 351.6 824.6999999999999 395.3C838.3 439.2 861.0999999999999 467 898.4999999999999 470.5V510.8C861.0999999999999 514.4000000000001 838.1999999999999 542.2 824.6999999999999 586C811.1999999999999 629.7 809.3 683.4 810.8 724.8C812.3 767.9 778.6999999999999 807.7 733.3 807.7L267.9 807.7L267.9 807.7zM642.2 417.3C642.2 357.9 597.9000000000001 321.9 524.4000000000001 321.9H399.4C391.9 321.9 385.9 327.9 385.9 335.4L385.9 335.4V645.8C385.9 653.3 391.9 659.3 399.4 659.3H523.8C585.0999999999999 659.3 625.3 626.1 625.3 575.1C625.3 539.3 598.1999999999999 507.3 563.8 501.7V499.8000000000001C610.6 494.7 642.2 462.2 642.2 417.3zM510.8 616.5H439.5V515.7H499.6C546 515.7 571.7 534.4 571.7 567.8C571.6 599.2 549.6 616.5 510.8 616.5zM439.5 475.8V364.8H513.5C561.9 364.8 587.5 384.2 587.5 420.7S561.2 475.9 510.4 475.9L439.5 475.8L439.5 475.8z" />
    <glyph glyph-name="bootstrap-1"
      unicode="&#x62;&#x6F;&#x6F;&#x74;&#x73;&#x74;&#x72;&#x61;&#x70;"
      horiz-adv-x="1000" d="M267.9 807.7C222.5 807.7 188.9 767.9 190.4 724.8C191.8 683.4 190 629.6999999999999 176.5 586C162.9 542.0999999999999 140 514.3 102.6 510.8V470.5C140 466.9 162.9 439.1 176.5 395.3C190 351.5999999999999 191.9 297.9 190.4 256.5C188.9 213.4 222.5 173.6 267.9 173.6H733.3C778.6999999999999 173.6 812.3 213.4 810.8 256.5C809.4 297.9 811.1999999999999 351.6 824.6999999999999 395.3C838.3 439.2 861.0999999999999 467 898.4999999999999 470.5V510.8C861.0999999999999 514.4000000000001 838.1999999999999 542.2 824.6999999999999 586C811.1999999999999 629.7 809.3 683.4 810.8 724.8C812.3 767.9 778.6999999999999 807.7 733.3 807.7L267.9 807.7L267.9 807.7zM642.2 417.3C642.2 357.9 597.9000000000001 321.9 524.4000000000001 321.9H399.4C391.9 321.9 385.9 327.9 385.9 335.4L385.9 335.4V645.8C385.9 653.3 391.9 659.3 399.4 659.3H523.8C585.0999999999999 659.3 625.3 626.1 625.3 575.1C625.3 539.3 598.1999999999999 507.3 563.8 501.7V499.8000000000001C610.6 494.7 642.2 462.2 642.2 417.3zM510.8 616.5H439.5V515.7H499.6C546 515.7 571.7 534.4 571.7 567.8C571.6 599.2 549.6 616.5 510.8 616.5zM439.5 475.8V364.8H513.5C561.9 364.8 587.5 384.2 587.5 420.7S561.2 475.9 510.4 475.9L439.5 475.8L439.5 475.8z" />
    <glyph glyph-name="bootstrap-b"
      unicode="&#xEA04;"
      horiz-adv-x="1000" d="M563.7 499.8V501.7C598.2 507.3 625.2 539.3 625.2 575.1C625.2 626.1 585 659.3 523.7 659.3H399.4C391.9 659.3 385.9 653.3 385.9 645.8V335.5C385.9 328 391.9 322 399.4 322H524.5C598 322 642.3 358 642.3 417.4C642.2 462.2 610.6 494.7 563.7 499.8zM439.5 616.5H510.8C549.6 616.5 571.6 599.2 571.6 567.9C571.6 534.5 546 515.8 499.5 515.8H439.4V616.5zM513.4 364.7000000000001H439.4V475.7V475.7H510.2C560.9 475.7 587.3 457 587.3 420.5S561.8 364.7000000000001 513.4 364.7000000000001zM850 1000H150C67.2 1000 0 932.8 0 850V150C0 67.2000000000001 67.2 0 150 0H850C932.8 0 1000 67.2000000000001 1000 150V850C1000 932.8 932.8 1000 850 1000zM898.6 470.5C861.2 466.9 838.3000000000001 439.1 824.8000000000001 395.3C811.3000000000001 351.5999999999999 809.4000000000001 297.9 810.9000000000001 256.5C812.4000000000001 213.4 778.8000000000001 173.6 733.4000000000001 173.6H267.9C222.5 173.6 188.9 213.4 190.4 256.5C191.8 297.9 190 351.6 176.5 395.3C162.9 439.2 140 467 102.6 470.5V510.8C140 514.4000000000001 162.9 542.2 176.5 586C190 629.7 191.9 683.4 190.4 724.8C188.9 767.9 222.5 807.7 267.9 807.7H733.3C778.6999999999999 807.7 812.3 767.9000000000001 810.8 724.8C809.4 683.4000000000001 811.1999999999999 629.7 824.6999999999999 586C838.3 542.1 861.0999999999999 514.3 898.4999999999999 510.8V470.5z" />
    <glyph glyph-name="bootstrap-b-1"
      unicode="&#x62;&#x6F;&#x6F;&#x74;&#x73;&#x74;&#x72;&#x61;&#x70;&#x5F;&#x62;"
      horiz-adv-x="1000" d="M563.7 499.8V501.7C598.2 507.3 625.2 539.3 625.2 575.1C625.2 626.1 585 659.3 523.7 659.3H399.4C391.9 659.3 385.9 653.3 385.9 645.8V335.5C385.9 328 391.9 322 399.4 322H524.5C598 322 642.3 358 642.3 417.4C642.2 462.2 610.6 494.7 563.7 499.8zM439.5 616.5H510.8C549.6 616.5 571.6 599.2 571.6 567.9C571.6 534.5 546 515.8 499.5 515.8H439.4V616.5zM513.4 364.7000000000001H439.4V475.7V475.7H510.2C560.9 475.7 587.3 457 587.3 420.5S561.8 364.7000000000001 513.4 364.7000000000001zM850 1000H150C67.2 1000 0 932.8 0 850V150C0 67.2000000000001 67.2 0 150 0H850C932.8 0 1000 67.2000000000001 1000 150V850C1000 932.8 932.8 1000 850 1000zM898.6 470.5C861.2 466.9 838.3000000000001 439.1 824.8000000000001 395.3C811.3000000000001 351.5999999999999 809.4000000000001 297.9 810.9000000000001 256.5C812.4000000000001 213.4 778.8000000000001 173.6 733.4000000000001 173.6H267.9C222.5 173.6 188.9 213.4 190.4 256.5C191.8 297.9 190 351.6 176.5 395.3C162.9 439.2 140 467 102.6 470.5V510.8C140 514.4000000000001 162.9 542.2 176.5 586C190 629.7 191.9 683.4 190.4 724.8C188.9 767.9 222.5 807.7 267.9 807.7H733.3C778.6999999999999 807.7 812.3 767.9000000000001 810.8 724.8C809.4 683.4000000000001 811.1999999999999 629.7 824.6999999999999 586C838.3 542.1 861.0999999999999 514.3 898.4999999999999 510.8V470.5z" />
    <glyph glyph-name="c"
      unicode="&#xEA05;"
      horiz-adv-x="1000" d="M519 216.2000000000001C362.5 216.2000000000001 235.2 343.5 235.2 500.0000000000001S362.5 783.8 519 783.8C620 783.8 714.2 729.5 764.8 642L642 570.9C616.7 614.7 569.5 641.9 519 641.9C440.7 641.9 377.1 578.2 377.1 500C377.1 421.7000000000001 440.8 358.1 519 358.1C569.5 358.1 616.6 385.3000000000001 642 429.1L764.8 358C714.2 270.5 620 216.2000000000001 519 216.2000000000001L519 216.2000000000001z" />
    <glyph glyph-name="c-1"
      unicode="&#x63;"
      horiz-adv-x="1000" d="M519 216.2000000000001C362.5 216.2000000000001 235.2 343.5 235.2 500.0000000000001S362.5 783.8 519 783.8C620 783.8 714.2 729.5 764.8 642L642 570.9C616.7 614.7 569.5 641.9 519 641.9C440.7 641.9 377.1 578.2 377.1 500C377.1 421.7000000000001 440.8 358.1 519 358.1C569.5 358.1 616.6 385.3000000000001 642 429.1L764.8 358C714.2 270.5 620 216.2000000000001 519 216.2000000000001L519 216.2000000000001z" />
    <glyph glyph-name="c-b"
      unicode="&#xEA06;"
      horiz-adv-x="1000" d="M850 1000H150C67.2 1000 0 932.8 0 850V150C0 67.2000000000001 67.2 0 150 0H850C932.8 0 1000 67.2000000000001 1000 150V850C1000 932.8 932.8 1000 850 1000zM519 216.2000000000001L519 216.2000000000001L519 216.2000000000001L519 216.2000000000001C362.5 216.2000000000001 235.2 343.5 235.2 500.0000000000001S362.5 783.8 519 783.8C620 783.8 714.2 729.5 764.8 642L642 570.9C616.7 614.7 569.5 641.9 519 641.9C440.7 641.9 377.1 578.2 377.1 500C377.1 421.7000000000001 440.8 358.1 519 358.1C569.5 358.1 616.6 385.3000000000001 642 429.1L764.8 358C714.2 270.5 620 216.2000000000001 519 216.2000000000001z" />
    <glyph glyph-name="c-b-1"
      unicode="&#x63;&#x5F;&#x62;"
      horiz-adv-x="1000" d="M850 1000H150C67.2 1000 0 932.8 0 850V150C0 67.2000000000001 67.2 0 150 0H850C932.8 0 1000 67.2000000000001 1000 150V850C1000 932.8 932.8 1000 850 1000zM519 216.2000000000001L519 216.2000000000001L519 216.2000000000001L519 216.2000000000001C362.5 216.2000000000001 235.2 343.5 235.2 500.0000000000001S362.5 783.8 519 783.8C620 783.8 714.2 729.5 764.8 642L642 570.9C616.7 614.7 569.5 641.9 519 641.9C440.7 641.9 377.1 578.2 377.1 500C377.1 421.7000000000001 440.8 358.1 519 358.1C569.5 358.1 616.6 385.3000000000001 642 429.1L764.8 358C714.2 270.5 620 216.2000000000001 519 216.2000000000001z" />
    <glyph glyph-name="cloudflare"
      unicode="&#xEA07;"
      horiz-adv-x="1000" d="M608.7 400.7000000000001L322.7000000000001 404.4000000000001C320.8000000000001 404.4000000000001 319.2000000000001 405.3000000000001 318.3000000000001 406.7000000000001C317.4000000000001 408.1 317.1000000000001 409.9000000000001 317.6000000000001 411.8000000000001C318.5000000000001 414.6 321.3000000000001 416.7000000000001 324.3000000000001 416.9000000000001L612.8000000000001 420.6000000000002C647.0000000000001 422.2000000000002 684.1 449.9000000000001 697.1 483.8000000000002L713.6 526.8000000000002C714.3000000000001 528.6000000000001 714.5 530.5000000000002 714.1 532.4000000000002C695.5 616.5000000000002 620.5 679.2000000000003 530.8 679.2000000000003C448.1 679.2000000000003 378 625.8000000000002 352.9 551.6000000000003C336.6 563.7000000000003 315.7 570.2000000000003 293.7 568.1000000000003C254 564.1000000000003 221.9 532.3000000000002 218.2 492.6000000000003C217.2 482.7000000000003 217.9 472.7000000000003 220.3 463.1000000000003C155.3 461.3000000000003 103.6 408.1000000000003 103.7 343.1000000000003C103.7 337.3000000000003 104.2 331.5000000000003 104.9 325.7000000000003C105.4 322.9000000000003 107.7 320.8000000000003 110.5 320.8000000000003H638.3C641.4 320.9000000000003 644.0999999999999 322.9000000000003 645 325.9000000000003L649 340.1000000000004C653.9 356.8000000000004 652 372.2000000000004 643.9 383.5000000000004C636.4 394 623.8 400 608.7 400.7000000000001zM740 523.8L740 523.8L732.1 523.6C730.2 523.6 728.6 522.2 727.9 520.4000000000001L716.8 481.6C711.9 464.9 713.8 449.5 721.9 438.2000000000001C729.3 427.7000000000001 741.9 421.7000000000001 757 421L817.9 417.3C819.8 417.3 821.4 416.4 822.3 415C823.1999999999999 413.6 823.5 411.5 823 409.9C822.1 407.1 819.3 405 816.3 404.8L752.9 401.0999999999999C718.5 399.4999999999999 681.6 371.8 668.6 337.8999999999999L663.9 326.0999999999999C663 323.8 664.6 321.3999999999999 667.1 321.3999999999999H885C887.6 321.3999999999999 889.9 323.0999999999999 890.6 325.5999999999999C894.5 339.3 896.5 353.4999999999999 896.5 367.8C896.1 453.9 826.2 523.7 740 523.8zM850 0H150C67.2 0 0 67.2000000000001 0 150V850C0 932.8 67.2 1000 150 1000H850C932.8 1000 1000 932.8 1000 850V150C1000 67.2000000000001 932.8 0 850 0z" />
    <glyph glyph-name="cloudflare-1"
      unicode="&#x63;&#x6C;&#x6F;&#x75;&#x64;&#x66;&#x6C;&#x61;&#x72;&#x65;"
      horiz-adv-x="1000" d="M608.7 400.7000000000001L322.7000000000001 404.4000000000001C320.8000000000001 404.4000000000001 319.2000000000001 405.3000000000001 318.3000000000001 406.7000000000001C317.4000000000001 408.1 317.1000000000001 409.9000000000001 317.6000000000001 411.8000000000001C318.5000000000001 414.6 321.3000000000001 416.7000000000001 324.3000000000001 416.9000000000001L612.8000000000001 420.6000000000002C647.0000000000001 422.2000000000002 684.1 449.9000000000001 697.1 483.8000000000002L713.6 526.8000000000002C714.3000000000001 528.6000000000001 714.5 530.5000000000002 714.1 532.4000000000002C695.5 616.5000000000002 620.5 679.2000000000003 530.8 679.2000000000003C448.1 679.2000000000003 378 625.8000000000002 352.9 551.6000000000003C336.6 563.7000000000003 315.7 570.2000000000003 293.7 568.1000000000003C254 564.1000000000003 221.9 532.3000000000002 218.2 492.6000000000003C217.2 482.7000000000003 217.9 472.7000000000003 220.3 463.1000000000003C155.3 461.3000000000003 103.6 408.1000000000003 103.7 343.1000000000003C103.7 337.3000000000003 104.2 331.5000000000003 104.9 325.7000000000003C105.4 322.9000000000003 107.7 320.8000000000003 110.5 320.8000000000003H638.3C641.4 320.9000000000003 644.0999999999999 322.9000000000003 645 325.9000000000003L649 340.1000000000004C653.9 356.8000000000004 652 372.2000000000004 643.9 383.5000000000004C636.4 394 623.8 400 608.7 400.7000000000001zM740 523.8L740 523.8L732.1 523.6C730.2 523.6 728.6 522.2 727.9 520.4000000000001L716.8 481.6C711.9 464.9 713.8 449.5 721.9 438.2000000000001C729.3 427.7000000000001 741.9 421.7000000000001 757 421L817.9 417.3C819.8 417.3 821.4 416.4 822.3 415C823.1999999999999 413.6 823.5 411.5 823 409.9C822.1 407.1 819.3 405 816.3 404.8L752.9 401.0999999999999C718.5 399.4999999999999 681.6 371.8 668.6 337.8999999999999L663.9 326.0999999999999C663 323.8 664.6 321.3999999999999 667.1 321.3999999999999H885C887.6 321.3999999999999 889.9 323.0999999999999 890.6 325.5999999999999C894.5 339.3 896.5 353.4999999999999 896.5 367.8C896.1 453.9 826.2 523.7 740 523.8zM850 0H150C67.2 0 0 67.2000000000001 0 150V850C0 932.8 67.2 1000 150 1000H850C932.8 1000 1000 932.8 1000 850V150C1000 67.2000000000001 932.8 0 850 0z" />
    <glyph glyph-name="cloudflare-b"
      unicode="&#xEA08;"
      horiz-adv-x="1000" d="M850 1000H150C67.2 1000 0 932.8 0 850V150C0 67.2000000000001 67.2 0 150 0H850C932.8 0 1000 67.2000000000001 1000 150V850C1000 932.8 932.8 1000 850 1000zM648.9 340.1L644.9 325.9C644 322.9 641.3 320.9 638.1999999999999 320.8H110.4C107.6 320.8 105.3 322.9 104.8 325.7C104.1 331.4999999999999 103.6 337.3 103.6 343.0999999999999C103.5 408.0999999999999 155.2 461.3999999999999 220.2 463.0999999999999C217.9 472.6999999999999 217.2 482.6999999999999 218.1 492.5999999999999C221.8 532.3 253.9 564.0999999999999 293.6 568.0999999999999C315.7000000000001 570.1999999999999 336.6 563.6999999999999 352.8 551.5999999999999C377.9000000000001 625.6999999999999 448 679.1999999999999 530.7 679.1999999999999C620.4000000000001 679.1999999999999 695.4000000000001 616.5 714 532.3999999999999C714.4 530.5 714.2 528.5999999999999 713.5 526.8L697 483.8C684 449.9 646.9 422.3 612.7 420.5999999999999L324.4 417C321.4 416.8 318.6 414.7000000000001 317.7 411.9C317.2 410 317.5 408.2 318.4 406.8C319.3 405.4 321 404.5 322.8 404.5L608.8 400.8C623.9 400.0999999999999 636.4 394.0999999999999 643.9 383.5999999999999C651.9 372.1 653.8 356.8 648.9 340.1zM890.4 325.5C889.6999999999999 323 887.4 321.3 884.8 321.3H666.9C664.4 321.3 662.6999999999999 323.5999999999999 663.6999999999999 326L668.4 337.8C681.4 371.7 718.3 399.3 752.6999999999999 401L816.0999999999999 404.7000000000001C819.0999999999999 404.9000000000001 821.8999999999999 407 822.8 409.8000000000001C823.3 411.4000000000001 823 413.5000000000001 822.0999999999999 414.9000000000001C821.1999999999999 416.3000000000001 819.4999999999999 417.2000000000001 817.6999999999999 417.2000000000001L756.8 420.9000000000001C741.6999999999999 421.6000000000002 729.1999999999999 427.6000000000002 721.6999999999999 438.1000000000002C713.5999999999999 449.5000000000001 711.6999999999999 464.8000000000002 716.5999999999999 481.5000000000001L727.6999999999999 520.3000000000002C728.4 522.1000000000001 730.0999999999999 523.5000000000001 731.9 523.5000000000001L739.8 523.7V523.7C826 523.6000000000001 895.9 453.8000000000001 896.0999999999999 367.6000000000002C896.3 353.4 894.3 339.2000000000001 890.4 325.5z" />
    <glyph glyph-name="cloudflare-b-1"
      unicode="&#x63;&#x6C;&#x6F;&#x75;&#x64;&#x66;&#x6C;&#x61;&#x72;&#x65;&#x5F;&#x62;"
      horiz-adv-x="1000" d="M850 1000H150C67.2 1000 0 932.8 0 850V150C0 67.2000000000001 67.2 0 150 0H850C932.8 0 1000 67.2000000000001 1000 150V850C1000 932.8 932.8 1000 850 1000zM648.9 340.1L644.9 325.9C644 322.9 641.3 320.9 638.1999999999999 320.8H110.4C107.6 320.8 105.3 322.9 104.8 325.7C104.1 331.4999999999999 103.6 337.3 103.6 343.0999999999999C103.5 408.0999999999999 155.2 461.3999999999999 220.2 463.0999999999999C217.9 472.6999999999999 217.2 482.6999999999999 218.1 492.5999999999999C221.8 532.3 253.9 564.0999999999999 293.6 568.0999999999999C315.7000000000001 570.1999999999999 336.6 563.6999999999999 352.8 551.5999999999999C377.9000000000001 625.6999999999999 448 679.1999999999999 530.7 679.1999999999999C620.4000000000001 679.1999999999999 695.4000000000001 616.5 714 532.3999999999999C714.4 530.5 714.2 528.5999999999999 713.5 526.8L697 483.8C684 449.9 646.9 422.3 612.7 420.5999999999999L324.4 417C321.4 416.8 318.6 414.7000000000001 317.7 411.9C317.2 410 317.5 408.2 318.4 406.8C319.3 405.4 321 404.5 322.8 404.5L608.8 400.8C623.9 400.0999999999999 636.4 394.0999999999999 643.9 383.5999999999999C651.9 372.1 653.8 356.8 648.9 340.1zM890.4 325.5C889.6999999999999 323 887.4 321.3 884.8 321.3H666.9C664.4 321.3 662.6999999999999 323.5999999999999 663.6999999999999 326L668.4 337.8C681.4 371.7 718.3 399.3 752.6999999999999 401L816.0999999999999 404.7000000000001C819.0999999999999 404.9000000000001 821.8999999999999 407 822.8 409.8000000000001C823.3 411.4000000000001 823 413.5000000000001 822.0999999999999 414.9000000000001C821.1999999999999 416.3000000000001 819.4999999999999 417.2000000000001 817.6999999999999 417.2000000000001L756.8 420.9000000000001C741.6999999999999 421.6000000000002 729.1999999999999 427.6000000000002 721.6999999999999 438.1000000000002C713.5999999999999 449.5000000000001 711.6999999999999 464.8000000000002 716.5999999999999 481.5000000000001L727.6999999999999 520.3000000000002C728.4 522.1000000000001 730.0999999999999 523.5000000000001 731.9 523.5000000000001L739.8 523.7V523.7C826 523.6000000000001 895.9 453.8000000000001 896.0999999999999 367.6000000000002C896.3 353.4 894.3 339.2000000000001 890.4 325.5z" />
    <glyph glyph-name="cloudflare-pt1"
      unicode="&#xEA09;"
      horiz-adv-x="1000" d="M740 523.8L732.1 523.6C730.2 523.6 728.6 522.2 727.9 520.4000000000001L716.8 481.6C711.9 464.9 713.8 449.5 721.9 438.2000000000001C729.3 427.7000000000001 741.9 421.7000000000001 757 421L817.9 417.3C819.8 417.3 821.4 416.4 822.3 415C823.1999999999999 413.6 823.5 411.5 823 409.9C822.1 407.1 819.3 405 816.3 404.8L752.9 401.0999999999999C718.5 399.4999999999999 681.6 371.8 668.6 337.8999999999999L663.9 326.0999999999999C663 323.8 664.6 321.3999999999999 667.1 321.3999999999999H885C887.6 321.3999999999999 889.9 323.0999999999999 890.6 325.5999999999999C894.5 339.3 896.5 353.4999999999999 896.5 367.8C896.1 453.9 826.2 523.7 740 523.8" />
    <glyph glyph-name="cloudflare-pt1-1"
      unicode="&#x63;&#x6C;&#x6F;&#x75;&#x64;&#x66;&#x6C;&#x61;&#x72;&#x65;&#x5F;&#x70;&#x74;&#x31;"
      horiz-adv-x="1000" d="M740 523.8L732.1 523.6C730.2 523.6 728.6 522.2 727.9 520.4000000000001L716.8 481.6C711.9 464.9 713.8 449.5 721.9 438.2000000000001C729.3 427.7000000000001 741.9 421.7000000000001 757 421L817.9 417.3C819.8 417.3 821.4 416.4 822.3 415C823.1999999999999 413.6 823.5 411.5 823 409.9C822.1 407.1 819.3 405 816.3 404.8L752.9 401.0999999999999C718.5 399.4999999999999 681.6 371.8 668.6 337.8999999999999L663.9 326.0999999999999C663 323.8 664.6 321.3999999999999 667.1 321.3999999999999H885C887.6 321.3999999999999 889.9 323.0999999999999 890.6 325.5999999999999C894.5 339.3 896.5 353.4999999999999 896.5 367.8C896.1 453.9 826.2 523.7 740 523.8" />
    <glyph glyph-name="cloudflare-pt2"
      unicode="&#xEA0A;"
      horiz-adv-x="1000" d="M648.9 340.1C653.8 356.8000000000001 651.9 372.2000000000001 643.8 383.5C636.4 394 623.8 400 608.6999999999999 400.7000000000001L322.7 404.4000000000001C320.8 404.4000000000001 319.2 405.3000000000001 318.3 406.7000000000001C317.4 408.1 317.1 409.9000000000001 317.6 411.8000000000001C318.5 414.6 321.3 416.7000000000001 324.3 416.9000000000001L612.8 420.6000000000002C647 422.2000000000002 684.0999999999999 449.9000000000001 697.0999999999999 483.8000000000002L713.5999999999999 526.8000000000002C714.3 528.6000000000001 714.4999999999999 530.5000000000002 714.0999999999999 532.4000000000002C695.4999999999999 616.5000000000002 620.4999999999999 679.2000000000003 530.8 679.2000000000003C448.1 679.2000000000003 378 625.8000000000002 352.9 551.6000000000003C336.6 563.7000000000003 315.7 570.2000000000003 293.7 568.1000000000003C254 564.1000000000003 221.9 532.3000000000002 218.2 492.6000000000003C217.2 482.7000000000003 217.9 472.7000000000003 220.3 463.1000000000003C155.3 461.3000000000003 103.6 408.1000000000003 103.7 343.1000000000003C103.7 337.3000000000003 104.2 331.5000000000003 104.9 325.7000000000003C105.4 322.9000000000003 107.7 320.8000000000003 110.5 320.8000000000003H638.3C641.4 320.9000000000003 644.0999999999999 322.9000000000003 645 325.9000000000003L648.9 340.1z" />
    <glyph glyph-name="cloudflare-pt2-1"
      unicode="&#x63;&#x6C;&#x6F;&#x75;&#x64;&#x66;&#x6C;&#x61;&#x72;&#x65;&#x5F;&#x70;&#x74;&#x32;"
      horiz-adv-x="1000" d="M648.9 340.1C653.8 356.8000000000001 651.9 372.2000000000001 643.8 383.5C636.4 394 623.8 400 608.6999999999999 400.7000000000001L322.7 404.4000000000001C320.8 404.4000000000001 319.2 405.3000000000001 318.3 406.7000000000001C317.4 408.1 317.1 409.9000000000001 317.6 411.8000000000001C318.5 414.6 321.3 416.7000000000001 324.3 416.9000000000001L612.8 420.6000000000002C647 422.2000000000002 684.0999999999999 449.9000000000001 697.0999999999999 483.8000000000002L713.5999999999999 526.8000000000002C714.3 528.6000000000001 714.4999999999999 530.5000000000002 714.0999999999999 532.4000000000002C695.4999999999999 616.5000000000002 620.4999999999999 679.2000000000003 530.8 679.2000000000003C448.1 679.2000000000003 378 625.8000000000002 352.9 551.6000000000003C336.6 563.7000000000003 315.7 570.2000000000003 293.7 568.1000000000003C254 564.1000000000003 221.9 532.3000000000002 218.2 492.6000000000003C217.2 482.7000000000003 217.9 472.7000000000003 220.3 463.1000000000003C155.3 461.3000000000003 103.6 408.1000000000003 103.7 343.1000000000003C103.7 337.3000000000003 104.2 331.5000000000003 104.9 325.7000000000003C105.4 322.9000000000003 107.7 320.8000000000003 110.5 320.8000000000003H638.3C641.4 320.9000000000003 644.0999999999999 322.9000000000003 645 325.9000000000003L648.9 340.1z" />
    <glyph glyph-name="cplusplus"
      unicode="&#xEA0B;"
      horiz-adv-x="1000" d="M493.7 216.2000000000001C337.2 216.2000000000001 209.9 343.5 209.9 500.0000000000001S337.2 783.8000000000001 493.7 783.8000000000001C594.7 783.8000000000001 688.9 729.5 739.5 642L616.7 570.9000000000001C591.4000000000001 614.7 544.2 641.9000000000001 493.7 641.9000000000001C415.4000000000001 641.9000000000001 351.8000000000001 578.2 351.8000000000001 500.0000000000001C351.8000000000001 421.7000000000002 415.5000000000001 358.1000000000002 493.7 358.1000000000002C544.2 358.1000000000002 591.3000000000001 385.3000000000002 616.7 429.1000000000002L739.6 358C688.9 270.5 594.7 216.2000000000001 493.7 216.2000000000001L493.7 216.2000000000001zM746 547.3H714.5V515.8H683V484.3H714.5V452.8H746V484.3H777.5V515.8H746V547.3zM864.3 547.3H832.8V515.8H801.3V484.3H832.8V452.8H864.3V484.3H895.8V515.8H864.3V547.3z" />
    <glyph glyph-name="cplusplus-1"
      unicode="&#x63;&#x70;&#x6C;&#x75;&#x73;&#x70;&#x6C;&#x75;&#x73;"
      horiz-adv-x="1000" d="M493.7 216.2000000000001C337.2 216.2000000000001 209.9 343.5 209.9 500.0000000000001S337.2 783.8000000000001 493.7 783.8000000000001C594.7 783.8000000000001 688.9 729.5 739.5 642L616.7 570.9000000000001C591.4000000000001 614.7 544.2 641.9000000000001 493.7 641.9000000000001C415.4000000000001 641.9000000000001 351.8000000000001 578.2 351.8000000000001 500.0000000000001C351.8000000000001 421.7000000000002 415.5000000000001 358.1000000000002 493.7 358.1000000000002C544.2 358.1000000000002 591.3000000000001 385.3000000000002 616.7 429.1000000000002L739.6 358C688.9 270.5 594.7 216.2000000000001 493.7 216.2000000000001L493.7 216.2000000000001zM746 547.3H714.5V515.8H683V484.3H714.5V452.8H746V484.3H777.5V515.8H746V547.3zM864.3 547.3H832.8V515.8H801.3V484.3H832.8V452.8H864.3V484.3H895.8V515.8H864.3V547.3z" />
    <glyph glyph-name="cplusplus-b"
      unicode="&#xEA0C;"
      horiz-adv-x="1000" d="M850 1000H150C67.2 1000 0 932.8 0 850V150C0 67.2000000000001 67.2 0 150 0H850C932.8 0 1000 67.2000000000001 1000 150V850C1000 932.8 932.8 1000 850 1000zM493.7 216.2000000000001L493.7 216.2000000000001L493.7 216.2000000000001L493.7 216.2000000000001C337.2 216.2000000000001 209.9 343.5 209.9 500.0000000000001S337.2 783.8000000000001 493.7 783.8000000000001C594.7 783.8000000000001 688.9 729.5 739.5 642L616.7 570.9000000000001C591.4000000000001 614.7 544.2 641.9000000000001 493.7 641.9000000000001C415.4000000000001 641.9000000000001 351.8000000000001 578.2 351.8000000000001 500.0000000000001C351.8000000000001 421.7000000000002 415.5000000000001 358.1000000000002 493.7 358.1000000000002C544.2 358.1000000000002 591.3000000000001 385.3000000000002 616.7 429.1000000000002L739.6 358C688.9 270.5 594.7 216.2000000000001 493.7 216.2000000000001zM777.6 484.2H746V452.7H714.5V484.2H683V515.7H714.5V547.2H746V515.7H777.5V484.2zM895.9 484.2H864.4V452.7H832.9V484.2H801.4V515.7H832.9V547.2H864.4V515.7H895.9V484.2z" />
    <glyph glyph-name="cplusplus-b-1"
      unicode="&#x63;&#x70;&#x6C;&#x75;&#x73;&#x70;&#x6C;&#x75;&#x73;&#x5F;&#x62;"
      horiz-adv-x="1000" d="M850 1000H150C67.2 1000 0 932.8 0 850V150C0 67.2000000000001 67.2 0 150 0H850C932.8 0 1000 67.2000000000001 1000 150V850C1000 932.8 932.8 1000 850 1000zM493.7 216.2000000000001L493.7 216.2000000000001L493.7 216.2000000000001L493.7 216.2000000000001C337.2 216.2000000000001 209.9 343.5 209.9 500.0000000000001S337.2 783.8000000000001 493.7 783.8000000000001C594.7 783.8000000000001 688.9 729.5 739.5 642L616.7 570.9000000000001C591.4000000000001 614.7 544.2 641.9000000000001 493.7 641.9000000000001C415.4000000000001 641.9000000000001 351.8000000000001 578.2 351.8000000000001 500.0000000000001C351.8000000000001 421.7000000000002 415.5000000000001 358.1000000000002 493.7 358.1000000000002C544.2 358.1000000000002 591.3000000000001 385.3000000000002 616.7 429.1000000000002L739.6 358C688.9 270.5 594.7 216.2000000000001 493.7 216.2000000000001zM777.6 484.2H746V452.7H714.5V484.2H683V515.7H714.5V547.2H746V515.7H777.5V484.2zM895.9 484.2H864.4V452.7H832.9V484.2H801.4V515.7H832.9V547.2H864.4V515.7H895.9V484.2z" />
    <glyph glyph-name="css"
      unicode="&#xEA0D;"
      horiz-adv-x="1000" d="M164.6 867.7L225.6 183L499.6 106.9L774.3 183L835.4 867.6H164.6zM694.9 557.7L692.9 535.0999999999999L673.1999999999999 314L671.9 299.8L500 252.3V252.3L499.6 252.2L327.6 299.9999999999999L315.8 431.8999999999999H354.7H400.1L406.1 364.8999999999999L499.6 339.5999999999999L499.7 339.5999999999999V339.5999999999999L593.4 364.8999999999999L603.1 473.7999999999998H500H499.7H312.1L304.6 557.7999999999998H499.8H500.1H610.5L618.1 643.7999999999998H500H499.7H297.1L289.5 727.7999999999998H499.8H500.1H710.2L694.9 557.7z" />
    <glyph glyph-name="css-1"
      unicode="&#x63;&#x73;&#x73;"
      horiz-adv-x="1000" d="M164.6 867.7L225.6 183L499.6 106.9L774.3 183L835.4 867.6H164.6zM694.9 557.7L692.9 535.0999999999999L673.1999999999999 314L671.9 299.8L500 252.3V252.3L499.6 252.2L327.6 299.9999999999999L315.8 431.8999999999999H354.7H400.1L406.1 364.8999999999999L499.6 339.5999999999999L499.7 339.5999999999999V339.5999999999999L593.4 364.8999999999999L603.1 473.7999999999998H500H499.7H312.1L304.6 557.7999999999998H499.8H500.1H610.5L618.1 643.7999999999998H500H499.7H297.1L289.5 727.7999999999998H499.8H500.1H710.2L694.9 557.7z" />
    <glyph glyph-name="css-b"
      unicode="&#xEA0E;"
      horiz-adv-x="1000" d="M499.7 626L500 626L618 626L610.4 540L500 540L499.7 540L304.5 540L312.1 456L499.7 456L500 456L603.1 456L593.4 347.1L499.7 321.8L499.7 321.8L499.6 321.8L406.1 347.1L400.1 414L354.7 414L315.8 414L327.6 282.2000000000001L499.6 234.4L500 234.5L500 234.6L671.9 282.2000000000001L673.1 296.4L692.9 517.5L694.9 540L710.1 710L500 710L499.7 710L289.4 710L297.1 626zM850 1000H150C67.2 1000 0 932.8 0 850V150C0 67.2000000000001 67.2 0 150 0H850C932.8 0 1000 67.2000000000001 1000 150V850C1000 932.8 932.8 1000 850 1000zM774.3 165.3L499.6 89.0999999999999L225.6 165.1999999999999L164.6 849.9H835.3999999999999L774.3 165.3z" />
    <glyph glyph-name="css-b-1"
      unicode="&#x63;&#x73;&#x73;&#x5F;&#x62;"
      horiz-adv-x="1000" d="M499.7 626L500 626L618 626L610.4 540L500 540L499.7 540L304.5 540L312.1 456L499.7 456L500 456L603.1 456L593.4 347.1L499.7 321.8L499.7 321.8L499.6 321.8L406.1 347.1L400.1 414L354.7 414L315.8 414L327.6 282.2000000000001L499.6 234.4L500 234.5L500 234.6L671.9 282.2000000000001L673.1 296.4L692.9 517.5L694.9 540L710.1 710L500 710L499.7 710L289.4 710L297.1 626zM850 1000H150C67.2 1000 0 932.8 0 850V150C0 67.2000000000001 67.2 0 150 0H850C932.8 0 1000 67.2000000000001 1000 150V850C1000 932.8 932.8 1000 850 1000zM774.3 165.3L499.6 89.0999999999999L225.6 165.1999999999999L164.6 849.9H835.3999999999999L774.3 165.3z" />
    <glyph glyph-name="css-pt1"
      unicode="&#xEA0F;"
      horiz-adv-x="1000" d="M312.067 473.7L499.967 473.7L499.967 557.7L304.567 557.7zM499.6669999999999 727.7L289.467 727.7L297.067 643.7L499.967 643.7L499.967 727.7zM406.067 364.8L400.1670000000001 431.8L354.6670000000001 431.8L315.867 431.8L327.567 299.9L499.567 252.1L499.967 252.2000000000001L499.967 339.6L499.6669999999999 339.5z" />
    <glyph glyph-name="css-pt1-1"
      unicode="&#x63;&#x73;&#x73;&#x5F;&#x70;&#x74;&#x31;"
      horiz-adv-x="1000" d="M312.067 473.7L499.967 473.7L499.967 557.7L304.567 557.7zM499.6669999999999 727.7L289.467 727.7L297.067 643.7L499.967 643.7L499.967 727.7zM406.067 364.8L400.1670000000001 431.8L354.6670000000001 431.8L315.867 431.8L327.567 299.9L499.567 252.1L499.967 252.2000000000001L499.967 339.6L499.6669999999999 339.5z" />
    <glyph glyph-name="css-pt2"
      unicode="&#xEA10;"
      horiz-adv-x="1000" d="M618.067 643.7L499.967 643.7L499.967 557.7L610.367 557.7zM593.367 364.8L603.1669999999999 473.7L499.967 473.7L499.967 339.6zM499.967 811.7L499.967 727.7L710.067 727.7L694.967 557.7L692.867 535.2L673.1669999999999 314.1L671.867 299.9L499.967 252.3L499.967 165.1L721.967 226.6L774.1669999999999 811.7z" />
    <glyph glyph-name="css-pt2-1"
      unicode="&#x63;&#x73;&#x73;&#x5F;&#x70;&#x74;&#x32;"
      horiz-adv-x="1000" d="M618.067 643.7L499.967 643.7L499.967 557.7L610.367 557.7zM593.367 364.8L603.1669999999999 473.7L499.967 473.7L499.967 339.6zM499.967 811.7L499.967 727.7L710.067 727.7L694.967 557.7L692.867 535.2L673.1669999999999 314.1L671.867 299.9L499.967 252.3L499.967 165.1L721.967 226.6L774.1669999999999 811.7z" />
    <glyph glyph-name="css-pt3"
      unicode="&#xEA11;"
      horiz-adv-x="1000" d="M164.6 867.7L225.6 183L499.6 106.9L774.3 183L835.4 867.6H164.6zM694.9 557.7L692.9 535.0999999999999L673.1999999999999 314L671.9 299.8L500 252.3V252.3L499.6 252.2L327.6 299.9999999999999L315.8 431.8999999999999H354.7H400.1L406.1 364.8999999999999L499.6 339.5999999999999L499.7 339.5999999999999V339.5999999999999L593.4 364.8999999999999L603.1 473.7999999999998H500H499.7H312.1L304.6 557.7999999999998H499.8H500.1H610.5L618.1 643.7999999999998H500H499.7H297.1L289.5 727.7999999999998H499.8H500.1H710.2L694.9 557.7z" />
    <glyph glyph-name="css-pt3-1"
      unicode="&#x63;&#x73;&#x73;&#x5F;&#x70;&#x74;&#x33;"
      horiz-adv-x="1000" d="M164.6 867.7L225.6 183L499.6 106.9L774.3 183L835.4 867.6H164.6zM694.9 557.7L692.9 535.0999999999999L673.1999999999999 314L671.9 299.8L500 252.3V252.3L499.6 252.2L327.6 299.9999999999999L315.8 431.8999999999999H354.7H400.1L406.1 364.8999999999999L499.6 339.5999999999999L499.7 339.5999999999999V339.5999999999999L593.4 364.8999999999999L603.1 473.7999999999998H500H499.7H312.1L304.6 557.7999999999998H499.8H500.1H610.5L618.1 643.7999999999998H500H499.7H297.1L289.5 727.7999999999998H499.8H500.1H710.2L694.9 557.7z" />
    <glyph glyph-name="elasticsearch"
      unicode="&#xEA12;"
      horiz-adv-x="1000" d="M702.2 335H485.4V335H199C201.7 329.5 204.6 324.2000000000001 207.6 318.9C271.7 202.1 395.8 122.9 538.5 122.9C661.1 122.9 770 181.4 838.9 271.9C805.9 310.5 757 335 702.2 335zM657.4 393.9C715.1999999999999 393.9 763.5 441 763.5 500S716.4 606.1 657.4 606.1H491.3H176.4C166.6 572.5 161.3 536.9000000000001 161.3 500S166.6 427.6 176.4 393.9H491.3H657.4zM199.2 665H477.2H700C755.2 665 804.5 690.3 837.6 729.8C768.6 819.4 660.3 877.1 538.5 877.1C469.5 877.1 404.8 858.5 349.1 826.1C349 826.2 348.9000000000001 826.3 348.7000000000001 826.4000000000001C330.1 815.4000000000001 312.4000000000001 802.7 295.8000000000001 788.6C268.4000000000001 765.5 244.3000000000001 738.6 224.4000000000001 708.7C215.0000000000001 694.7 206.5000000000001 680.1 199.1000000000001 664.9000000000001H199.2z" />
    <glyph glyph-name="elasticsearch-1"
      unicode="&#x65;&#x6C;&#x61;&#x73;&#x74;&#x69;&#x63;&#x73;&#x65;&#x61;&#x72;&#x63;&#x68;"
      horiz-adv-x="1000" d="M702.2 335H485.4V335H199C201.7 329.5 204.6 324.2000000000001 207.6 318.9C271.7 202.1 395.8 122.9 538.5 122.9C661.1 122.9 770 181.4 838.9 271.9C805.9 310.5 757 335 702.2 335zM657.4 393.9C715.1999999999999 393.9 763.5 441 763.5 500S716.4 606.1 657.4 606.1H491.3H176.4C166.6 572.5 161.3 536.9000000000001 161.3 500S166.6 427.6 176.4 393.9H491.3H657.4zM199.2 665H477.2H700C755.2 665 804.5 690.3 837.6 729.8C768.6 819.4 660.3 877.1 538.5 877.1C469.5 877.1 404.8 858.5 349.1 826.1C349 826.2 348.9000000000001 826.3 348.7000000000001 826.4000000000001C330.1 815.4000000000001 312.4000000000001 802.7 295.8000000000001 788.6C268.4000000000001 765.5 244.3000000000001 738.6 224.4000000000001 708.7C215.0000000000001 694.7 206.5000000000001 680.1 199.1000000000001 664.9000000000001H199.2z" />
    <glyph glyph-name="elasticsearch-b"
      unicode="&#xEA13;"
      horiz-adv-x="1000" d="M850 1000H150C67.2 1000 0 932.8 0 850V150C0 67.2000000000001 67.2 0 150 0H850C932.8 0 1000 67.2000000000001 1000 150V850C1000 932.8 932.8 1000 850 1000zM224.3 708.8C244.2 738.7 268.3 765.6 295.7000000000001 788.7C312.3000000000001 802.8 330.0000000000001 815.4 348.6 826.5C348.7000000000001 826.4 348.8 826.3 349 826.2C404.7 858.6 469.4 877.2 538.4 877.2C660.1999999999999 877.2 768.5 819.5 837.5 729.9C804.4 690.4 755.1 665.0999999999999 699.9 665.0999999999999H477.1H199.1H199C206.4 680.2 214.9 694.8 224.3 708.8zM161.2 500C161.2 536.8 166.5 572.4 176.3 606.1H491.1999999999999H657.3999999999999C716.2999999999998 606.1 763.4999999999999 559 763.4999999999999 500S715.1999999999999 393.9 657.3999999999999 393.9H491.3H176.4C166.5 427.6 161.2 463.2 161.2 500zM538.4 122.8C395.8 122.8 271.6 202 207.5 318.8C204.5 324.0999999999999 201.7 329.5 198.9 334.9H485.3V334.9H702.1999999999999C756.9 334.9 805.9 310.4 838.6999999999999 271.8C769.9 181.3 661 122.8 538.4 122.8z" />
    <glyph glyph-name="elasticsearch-b-1"
      unicode="&#x65;&#x6C;&#x61;&#x73;&#x74;&#x69;&#x63;&#x73;&#x65;&#x61;&#x72;&#x63;&#x68;&#x5F;&#x62;"
      horiz-adv-x="1000" d="M850 1000H150C67.2 1000 0 932.8 0 850V150C0 67.2000000000001 67.2 0 150 0H850C932.8 0 1000 67.2000000000001 1000 150V850C1000 932.8 932.8 1000 850 1000zM224.3 708.8C244.2 738.7 268.3 765.6 295.7000000000001 788.7C312.3000000000001 802.8 330.0000000000001 815.4 348.6 826.5C348.7000000000001 826.4 348.8 826.3 349 826.2C404.7 858.6 469.4 877.2 538.4 877.2C660.1999999999999 877.2 768.5 819.5 837.5 729.9C804.4 690.4 755.1 665.0999999999999 699.9 665.0999999999999H477.1H199.1H199C206.4 680.2 214.9 694.8 224.3 708.8zM161.2 500C161.2 536.8 166.5 572.4 176.3 606.1H491.1999999999999H657.3999999999999C716.2999999999998 606.1 763.4999999999999 559 763.4999999999999 500S715.1999999999999 393.9 657.3999999999999 393.9H491.3H176.4C166.5 427.6 161.2 463.2 161.2 500zM538.4 122.8C395.8 122.8 271.6 202 207.5 318.8C204.5 324.0999999999999 201.7 329.5 198.9 334.9H485.3V334.9H702.1999999999999C756.9 334.9 805.9 310.4 838.6999999999999 271.8C769.9 181.3 661 122.8 538.4 122.8z" />
    <glyph glyph-name="elasticsearch-pt1"
      unicode="&#xEA14;"
      horiz-adv-x="1000" d="M360.4 167.6C414.6 211.2000000000001 458.2 269 485.4 335H199C234.3 264.3 290.9 205.3 360.4 167.6z" />
    <glyph glyph-name="elasticsearch-pt1-1"
      unicode="&#x65;&#x6C;&#x61;&#x73;&#x74;&#x69;&#x63;&#x73;&#x65;&#x61;&#x72;&#x63;&#x68;&#x5F;&#x70;&#x74;&#x31;"
      horiz-adv-x="1000" d="M360.4 167.6C414.6 211.2000000000001 458.2 269 485.4 335H199C234.3 264.3 290.9 205.3 360.4 167.6z" />
    <glyph glyph-name="elasticsearch-pt2"
      unicode="&#xEA15;"
      horiz-adv-x="1000" d="M348.6 826.5C285 788.8 232 732.2 199 665H477.2C448.8 729.8 404 784.1 348.6 826.5z" />
    <glyph glyph-name="elasticsearch-pt2-1"
      unicode="&#x65;&#x6C;&#x61;&#x73;&#x74;&#x69;&#x63;&#x73;&#x65;&#x61;&#x72;&#x63;&#x68;&#x5F;&#x70;&#x74;&#x32;"
      horiz-adv-x="1000" d="M348.6 826.5C285 788.8 232 732.2 199 665H477.2C448.8 729.8 404 784.1 348.6 826.5z" />
    <glyph glyph-name="elasticsearch-pt3"
      unicode="&#xEA16;"
      horiz-adv-x="1000" d="M176.4 606.1C166.6 572.5 161.3 536.9000000000001 161.3 500S166.6 427.6 176.4 393.9H491.3C499.6 425.7 504.3 461.1 504.3 500S499.6 574.3 491.3 606.1H176.4z" />
    <glyph glyph-name="elasticsearch-pt3-1"
      unicode="&#x65;&#x6C;&#x61;&#x73;&#x74;&#x69;&#x63;&#x73;&#x65;&#x61;&#x72;&#x63;&#x68;&#x5F;&#x70;&#x74;&#x33;"
      horiz-adv-x="1000" d="M176.4 606.1C166.6 572.5 161.3 536.9000000000001 161.3 500S166.6 427.6 176.4 393.9H491.3C499.6 425.7 504.3 461.1 504.3 500S499.6 574.3 491.3 606.1H176.4z" />
    <glyph glyph-name="elasticsearch-pt4"
      unicode="&#xEA17;"
      horiz-adv-x="1000" d="M657.4 606.1H176.4C166.6 572.5 161.3 536.9000000000001 161.3 500S166.6 427.6 176.4 393.9H657.5C715.3 393.9 763.6 441 763.6 500S716.4 606.1 657.4 606.1z" />
    <glyph glyph-name="elasticsearch-pt4-1"
      unicode="&#x65;&#x6C;&#x61;&#x73;&#x74;&#x69;&#x63;&#x73;&#x65;&#x61;&#x72;&#x63;&#x68;&#x5F;&#x70;&#x74;&#x34;"
      horiz-adv-x="1000" d="M657.4 606.1H176.4C166.6 572.5 161.3 536.9000000000001 161.3 500S166.6 427.6 176.4 393.9H657.5C715.3 393.9 763.6 441 763.6 500S716.4 606.1 657.4 606.1z" />
    <glyph glyph-name="elasticsearch-pt5"
      unicode="&#xEA18;"
      horiz-adv-x="1000" d="M838.8 271.9C805.9 310.5 757 335 702.2 335H199.2C260.4 209.4 389.3 122.8 538.4 122.8C661 122.8 769.9 181.3 838.8 271.9z" />
    <glyph glyph-name="elasticsearch-pt5-1"
      unicode="&#x65;&#x6C;&#x61;&#x73;&#x74;&#x69;&#x63;&#x73;&#x65;&#x61;&#x72;&#x63;&#x68;&#x5F;&#x70;&#x74;&#x35;"
      horiz-adv-x="1000" d="M838.8 271.9C805.9 310.5 757 335 702.2 335H199.2C260.4 209.4 389.3 122.8 538.4 122.8C661 122.8 769.9 181.3 838.8 271.9z" />
    <glyph glyph-name="elasticsearch-pt6"
      unicode="&#xEA19;"
      horiz-adv-x="1000" d="M199.2 665H699.9C755.1 665 804.4 690.3 837.5 729.8C768.5 819.4 660.2 877.1 538.4 877.1C389.3 877.2 260.4 790.6 199.2 665z" />
    <glyph glyph-name="elasticsearch-pt6-1"
      unicode="&#x65;&#x6C;&#x61;&#x73;&#x74;&#x69;&#x63;&#x73;&#x65;&#x61;&#x72;&#x63;&#x68;&#x5F;&#x70;&#x74;&#x36;"
      horiz-adv-x="1000" d="M199.2 665H699.9C755.1 665 804.4 690.3 837.5 729.8C768.5 819.4 660.2 877.1 538.4 877.1C389.3 877.2 260.4 790.6 199.2 665z" />
    <glyph glyph-name="electron"
      unicode="&#xEA1A;"
      horiz-adv-x="1000" d="M401.6 706.3C307 723.5 232.2 705.5 202.4 653.9000000000001C180.2000000000001 615.4000000000001 186.5 564.3000000000001 217.8000000000001 509.7C220.5 505.1 226.4000000000001 503.5000000000001 231.0000000000001 506.1C235.6 508.8 237.2 514.7 234.6 519.3C206.4 568.5 200.9 612.6 219.2 644.2C244.1 687.1 310.7000000000001 703.2 398.1 687.2C403.4000000000001 686.3000000000001 408.4000000000001 689.7 409.4000000000001 695C410.3 700.3 406.9 705.4 401.6 706.3L401.6 706.3zM267 443.4C305.3 401.4 354.9 361.9 411.6 329.2C549 250 695 228.8 766.9 277.9C771.3 280.9 772.5 287 769.4 291.4C766.4 295.8 760.3 297 755.9 293.9C691.6 250 552.8 270.1 421.2 346C366.2 377.7000000000001 318.1 415.9 281.2 456.4C277.6 460.4 271.5 460.6 267.5 457C263.5 453.4 263.3 447.3 266.9 443.3L267 443.4zM744.1 455.1C806 528.3 827.7 601.9000000000001 797.9 653.4000000000001C776 691.3 729.6999999999999 711.3 668.2 712.1C662.8000000000001 712.2 658.5 707.9000000000001 658.4000000000001 702.5C658.3000000000001 697.1 662.6000000000001 692.8 668.0000000000001 692.7C723.4000000000001 692 763.2000000000002 674.7 781.1000000000001 643.7C805.8000000000002 600.9 786.5000000000001 535.3 729.3000000000002 467.6C725.9000000000002 463.5 726.4000000000002 457.4 730.4000000000002 453.9C734.4 450.5 740.6 451 744.1 455.1L744.1 455.1zM584.9 703.1C528.9 691.1 469.3 667.6 412 634.6C270.4 552.9 178 432.1 190.8 344.8C191.6 339.5 196.5 335.8 201.8 336.5999999999999C207.1 337.3999999999999 210.8 342.3 210 347.5999999999999C198.6 425.2 286.2 539.4999999999999 421.7 617.8999999999999C477.1 650 534.9 672.6999999999999 588.9 684.1999999999999C594.1 685.3 597.5 690.5 596.4 695.6999999999999C595.3 700.8999999999999 590.1 704.3 584.9 703.1999999999999L584.9 703.1zM355.4 284.2000000000001C387.8 193.8000000000001 440.8 138.1 500.3 138.1C543.8 138.1 584 167.7000000000001 615.3 219.9C618 224.5 616.5999999999999 230.4 612 233.2C607.4 235.9 601.5 234.4999999999999 598.7 229.9C570.4000000000001 183 535.9000000000001 157.5 500.3000000000001 157.5C450.8000000000001 157.5 403.6000000000001 207.3 373.6000000000001 290.7000000000001C371.8000000000001 295.7000000000001 366.2000000000001 298.4000000000001 361.2000000000001 296.6C356.2 294.8 353.6 289.2000000000001 355.4 284.2000000000001zM651.2 301.9C668 355.4 677 417.2000000000001 677 481.6C677 642.3 620.8 780.8 540.6 816.4000000000001C535.7 818.6 530 816.4000000000001 527.8000000000001 811.5C525.6 806.6 527.8000000000001 800.9000000000001 532.7 798.7C604.2 767 657.5 635.5 657.5 481.6C657.5 419.1 648.8 359.3000000000001 632.6 307.6C631 302.5 633.9 297.1 639 295.4C644.1 293.9 649.6 296.7000000000001 651.2 301.9L651.2 301.9zM833.9 311.4C833.9 337 813.1 357.8 787.5 357.8S741 337.0999999999999 741 311.4S761.8 265 787.4 265S833.8 285.8 833.8 311.4H833.9zM814.5 311.4C814.5 296.5 802.4 284.4 787.5 284.4C772.6 284.4 760.5 296.5 760.5 311.4C760.5 326.3 772.6 338.4 787.5 338.4C802.4 338.4 814.5 326.3 814.5 311.4zM212.5 264.9C238.1 264.9 258.9 285.7 258.9 311.3C258.9 336.9 238.1 357.7 212.5 357.7C186.9 357.7 166.1 336.9 166.1 311.3C166.1 285.7000000000001 186.9 264.9 212.5 264.9L212.5 264.9zM212.5 284.3C197.6 284.3 185.5 296.4 185.5 311.3C185.5 326.2 197.6 338.3 212.5 338.3C227.4 338.3 239.5 326.2 239.5 311.3C239.6 296.4 227.5 284.3 212.5 284.3zM500.3 769.2C525.9 769.2 546.7 790 546.7 815.6S525.9000000000001 861.9 500.3000000000001 861.9S453.9000000000001 841.0999999999999 453.9000000000001 815.5S474.7 769.2 500.3 769.2zM500.3 788.6C485.4 788.6 473.3 800.7 473.3 815.6C473.3 830.5 485.4 842.6 500.3 842.6C515.2 842.6 527.3 830.5 527.3 815.6C527.4 800.7 515.3 788.6 500.3 788.6zM507.4 448.8C489.3 444.8 471.3 456.1999999999999 467.3 474.3C463.3 492.4 474.6999999999999 510.4 492.8 514.4C492.9 514.4 493.1 514.5 493.1999999999999 514.5C511.3 518.5 529.3 507.1 533.3 489C537.3 470.9 525.9 452.9 507.8 448.9C507.7 448.9 507.6 448.9 507.4 448.8z" />
    <glyph glyph-name="electron-1"
      unicode="&#x65;&#x6C;&#x65;&#x63;&#x74;&#x72;&#x6F;&#x6E;"
      horiz-adv-x="1000" d="M401.6 706.3C307 723.5 232.2 705.5 202.4 653.9000000000001C180.2000000000001 615.4000000000001 186.5 564.3000000000001 217.8000000000001 509.7C220.5 505.1 226.4000000000001 503.5000000000001 231.0000000000001 506.1C235.6 508.8 237.2 514.7 234.6 519.3C206.4 568.5 200.9 612.6 219.2 644.2C244.1 687.1 310.7000000000001 703.2 398.1 687.2C403.4000000000001 686.3000000000001 408.4000000000001 689.7 409.4000000000001 695C410.3 700.3 406.9 705.4 401.6 706.3L401.6 706.3zM267 443.4C305.3 401.4 354.9 361.9 411.6 329.2C549 250 695 228.8 766.9 277.9C771.3 280.9 772.5 287 769.4 291.4C766.4 295.8 760.3 297 755.9 293.9C691.6 250 552.8 270.1 421.2 346C366.2 377.7000000000001 318.1 415.9 281.2 456.4C277.6 460.4 271.5 460.6 267.5 457C263.5 453.4 263.3 447.3 266.9 443.3L267 443.4zM744.1 455.1C806 528.3 827.7 601.9000000000001 797.9 653.4000000000001C776 691.3 729.6999999999999 711.3 668.2 712.1C662.8000000000001 712.2 658.5 707.9000000000001 658.4000000000001 702.5C658.3000000000001 697.1 662.6000000000001 692.8 668.0000000000001 692.7C723.4000000000001 692 763.2000000000002 674.7 781.1000000000001 643.7C805.8000000000002 600.9 786.5000000000001 535.3 729.3000000000002 467.6C725.9000000000002 463.5 726.4000000000002 457.4 730.4000000000002 453.9C734.4 450.5 740.6 451 744.1 455.1L744.1 455.1zM584.9 703.1C528.9 691.1 469.3 667.6 412 634.6C270.4 552.9 178 432.1 190.8 344.8C191.6 339.5 196.5 335.8 201.8 336.5999999999999C207.1 337.3999999999999 210.8 342.3 210 347.5999999999999C198.6 425.2 286.2 539.4999999999999 421.7 617.8999999999999C477.1 650 534.9 672.6999999999999 588.9 684.1999999999999C594.1 685.3 597.5 690.5 596.4 695.6999999999999C595.3 700.8999999999999 590.1 704.3 584.9 703.1999999999999L584.9 703.1zM355.4 284.2000000000001C387.8 193.8000000000001 440.8 138.1 500.3 138.1C543.8 138.1 584 167.7000000000001 615.3 219.9C618 224.5 616.5999999999999 230.4 612 233.2C607.4 235.9 601.5 234.4999999999999 598.7 229.9C570.4000000000001 183 535.9000000000001 157.5 500.3000000000001 157.5C450.8000000000001 157.5 403.6000000000001 207.3 373.6000000000001 290.7000000000001C371.8000000000001 295.7000000000001 366.2000000000001 298.4000000000001 361.2000000000001 296.6C356.2 294.8 353.6 289.2000000000001 355.4 284.2000000000001zM651.2 301.9C668 355.4 677 417.2000000000001 677 481.6C677 642.3 620.8 780.8 540.6 816.4000000000001C535.7 818.6 530 816.4000000000001 527.8000000000001 811.5C525.6 806.6 527.8000000000001 800.9000000000001 532.7 798.7C604.2 767 657.5 635.5 657.5 481.6C657.5 419.1 648.8 359.3000000000001 632.6 307.6C631 302.5 633.9 297.1 639 295.4C644.1 293.9 649.6 296.7000000000001 651.2 301.9L651.2 301.9zM833.9 311.4C833.9 337 813.1 357.8 787.5 357.8S741 337.0999999999999 741 311.4S761.8 265 787.4 265S833.8 285.8 833.8 311.4H833.9zM814.5 311.4C814.5 296.5 802.4 284.4 787.5 284.4C772.6 284.4 760.5 296.5 760.5 311.4C760.5 326.3 772.6 338.4 787.5 338.4C802.4 338.4 814.5 326.3 814.5 311.4zM212.5 264.9C238.1 264.9 258.9 285.7 258.9 311.3C258.9 336.9 238.1 357.7 212.5 357.7C186.9 357.7 166.1 336.9 166.1 311.3C166.1 285.7000000000001 186.9 264.9 212.5 264.9L212.5 264.9zM212.5 284.3C197.6 284.3 185.5 296.4 185.5 311.3C185.5 326.2 197.6 338.3 212.5 338.3C227.4 338.3 239.5 326.2 239.5 311.3C239.6 296.4 227.5 284.3 212.5 284.3zM500.3 769.2C525.9 769.2 546.7 790 546.7 815.6S525.9000000000001 861.9 500.3000000000001 861.9S453.9000000000001 841.0999999999999 453.9000000000001 815.5S474.7 769.2 500.3 769.2zM500.3 788.6C485.4 788.6 473.3 800.7 473.3 815.6C473.3 830.5 485.4 842.6 500.3 842.6C515.2 842.6 527.3 830.5 527.3 815.6C527.4 800.7 515.3 788.6 500.3 788.6zM507.4 448.8C489.3 444.8 471.3 456.1999999999999 467.3 474.3C463.3 492.4 474.6999999999999 510.4 492.8 514.4C492.9 514.4 493.1 514.5 493.1999999999999 514.5C511.3 518.5 529.3 507.1 533.3 489C537.3 470.9 525.9 452.9 507.8 448.9C507.7 448.9 507.6 448.9 507.4 448.8z" />
    <glyph glyph-name="electron-b"
      unicode="&#xEA1B;"
      horiz-adv-x="1000" d="M212.5 338.4C197.6 338.4 185.5 326.3 185.5 311.4C185.5 296.5 197.6 284.4 212.5 284.4C227.4 284.4 239.5 296.5 239.5 311.4C239.6 326.3 227.5 338.4 212.5 338.4zM500.3 788.6C515.2 788.6 527.3 800.7 527.3 815.6C527.3 830.5 515.1999999999999 842.6 500.3 842.6C485.4 842.6 473.3 830.5 473.3 815.6C473.3 800.7 485.4 788.6 500.3 788.6zM787.5 338.4C772.6 338.4 760.5 326.3 760.5 311.4C760.5 304.8 762.9 298.7 766.9 294C767.9 293.3 768.8 292.5 769.6 291.4C769.7 291.3 769.7 291.2 769.8000000000001 291.1C774.6 286.9 780.8000000000001 284.4 787.6 284.4C802.5 284.4 814.6 296.5 814.6 311.4C814.5 326.3 802.4 338.4 787.5 338.4zM850 1000H150C67.2 1000 0 932.8 0 850V150C0 67.2000000000001 67.2 0 150 0H850C932.8 0 1000 67.2000000000001 1000 150V850C1000 932.8 932.8 1000 850 1000zM668.2 712.1C729.7 711.3 776 691.3 797.9000000000001 653.4000000000001C827.6000000000001 601.9000000000001 806.0000000000001 528.3000000000001 744.1000000000001 455.1L744.1000000000001 455.1C740.6000000000001 451 734.5000000000001 450.5 730.4000000000001 454C726.3000000000001 457.5 725.8000000000001 463.6 729.3000000000001 467.7C786.6 535.3000000000001 805.8000000000001 601 781.1 643.8000000000001C763.2 674.9000000000001 723.4 692.1000000000001 668 692.8000000000001C662.7 692.9000000000001 658.4 697.3000000000001 658.4 702.6000000000001C658.5 707.9 662.9 712.2 668.2 712.1zM500.3 861.9C525.9 861.9 546.7 841.2 546.7 815.6C546.7 814.9000000000001 546.7 814.2 546.6 813.5C623.6 773.7 677 638.2 677 481.6C677 417.2000000000001 668 355.4 651.2 301.8L651.2 301.8C649.6 296.7 644.2 293.9 639 295.4C633.9 297 631.1 302.4 632.6 307.6C648.8000000000001 359.3000000000001 657.5 419.1 657.5 481.6C657.5 629.1 608.5 756 541.5 794.2C533.8 779.3000000000001 518.2 769.2 500.3 769.2C474.7 769.2 453.9 789.9000000000001 453.9 815.5C453.9 841.1 474.7 861.9 500.3 861.9zM202.4 653.9C232.2 705.5 307 723.5999999999999 401.6 706.3V706.3C406.9000000000001 705.3 410.3 700.3 409.4000000000001 695C408.4000000000001 689.6999999999999 403.4000000000001 686.3 398.1 687.1999999999999C310.6 703.0999999999999 244.1 687 219.2 644.1999999999999C201 612.5999999999999 206.5 568.5 234.6 519.3C237.3 514.6999999999999 235.7 508.6999999999999 231.0000000000001 506.1C226.4000000000001 503.4 220.4 504.9999999999999 217.8000000000001 509.7C186.5 564.3 180.2 615.4 202.4 653.9zM212.5 264.9C212.6 264.9 212.6 264.9 212.5 264.9L212.5 264.9C212.5 264.9 212.5 264.9 212.5 264.9C186.9 264.9 166.1 285.7 166.1 311.3C166.1 328.8 175.7 344 190 351.9C183 438.6 274.2 555 412 634.5999999999999C469.2 667.5999999999999 528.9 691.0999999999999 584.9 703.0999999999999L584.9 703.2C590.1 704.3 595.3 701 596.4 695.7C597.5 690.5 594.1999999999999 685.3 588.9 684.2C535 672.7 477.1 650 421.7 618C291.9 542.9 206.1 434.9 209.1 357.7000000000001C210.2 357.8000000000001 211.4 357.8000000000001 212.6 357.8000000000001C238.2 357.8000000000001 259 337.0000000000001 259 311.4000000000001C259 285.7000000000001 238.2 264.9 212.5 264.9zM507.8 448.9C507.7 448.9 507.5 448.8 507.4 448.8C489.3 444.8 471.3 456.1999999999999 467.3 474.3C463.3 492.4 474.7 510.4 492.8 514.4C492.9 514.4 493.1 514.5 493.2 514.5C511.3 518.5 529.3 507.1 533.3 489C537.4 470.9 526 452.9 507.8 448.9zM615.3 219.8C584 167.6999999999999 543.8 138 500.3 138C440.7 138 387.7 193.7000000000001 355.4 284.1C353.6 289.1 356.2 294.7000000000001 361.3 296.5C366.3 298.3 371.9 295.7000000000001 373.7 290.6C403.5999999999999 207.1 450.8999999999999 157.4000000000001 500.3999999999999 157.4000000000001C535.9999999999999 157.4000000000001 570.4999999999999 182.9000000000001 598.8 229.8000000000001C601.5999999999999 234.4000000000001 607.5 235.9000000000001 612.0999999999999 233.1C616.6 230.4 618.1 224.4 615.3 219.8zM833.8 311.4C833.8 285.8 813 265 787.4 265C777.3 265 767.9 268.2000000000001 760.3 273.7000000000001C686.3 230.2000000000001 544.9 252.5 411.7 329.3000000000001C354.9 362 305.3 401.4 267 443.4L266.9 443.3C263.3 447.3 263.6 453.4 267.5 457C271.5 460.6 277.6 460.3 281.2 456.4C318.1 415.9 366.2 377.7 421.2 346C546.9 273.5 679.2 251.9 746.9 288.4C743.1 295.2 740.9 303 740.9 311.3C740.9 337.0999999999999 761.8 357.7 787.4 357.7S833.8 336.9 833.8 311.3H833.8z" />
    <glyph glyph-name="electron-b-1"
      unicode="&#x65;&#x6C;&#x65;&#x63;&#x74;&#x72;&#x6F;&#x6E;&#x5F;&#x62;"
      horiz-adv-x="1000" d="M212.5 338.4C197.6 338.4 185.5 326.3 185.5 311.4C185.5 296.5 197.6 284.4 212.5 284.4C227.4 284.4 239.5 296.5 239.5 311.4C239.6 326.3 227.5 338.4 212.5 338.4zM500.3 788.6C515.2 788.6 527.3 800.7 527.3 815.6C527.3 830.5 515.1999999999999 842.6 500.3 842.6C485.4 842.6 473.3 830.5 473.3 815.6C473.3 800.7 485.4 788.6 500.3 788.6zM787.5 338.4C772.6 338.4 760.5 326.3 760.5 311.4C760.5 304.8 762.9 298.7 766.9 294C767.9 293.3 768.8 292.5 769.6 291.4C769.7 291.3 769.7 291.2 769.8000000000001 291.1C774.6 286.9 780.8000000000001 284.4 787.6 284.4C802.5 284.4 814.6 296.5 814.6 311.4C814.5 326.3 802.4 338.4 787.5 338.4zM850 1000H150C67.2 1000 0 932.8 0 850V150C0 67.2000000000001 67.2 0 150 0H850C932.8 0 1000 67.2000000000001 1000 150V850C1000 932.8 932.8 1000 850 1000zM668.2 712.1C729.7 711.3 776 691.3 797.9000000000001 653.4000000000001C827.6000000000001 601.9000000000001 806.0000000000001 528.3000000000001 744.1000000000001 455.1L744.1000000000001 455.1C740.6000000000001 451 734.5000000000001 450.5 730.4000000000001 454C726.3000000000001 457.5 725.8000000000001 463.6 729.3000000000001 467.7C786.6 535.3000000000001 805.8000000000001 601 781.1 643.8000000000001C763.2 674.9000000000001 723.4 692.1000000000001 668 692.8000000000001C662.7 692.9000000000001 658.4 697.3000000000001 658.4 702.6000000000001C658.5 707.9 662.9 712.2 668.2 712.1zM500.3 861.9C525.9 861.9 546.7 841.2 546.7 815.6C546.7 814.9000000000001 546.7 814.2 546.6 813.5C623.6 773.7 677 638.2 677 481.6C677 417.2000000000001 668 355.4 651.2 301.8L651.2 301.8C649.6 296.7 644.2 293.9 639 295.4C633.9 297 631.1 302.4 632.6 307.6C648.8000000000001 359.3000000000001 657.5 419.1 657.5 481.6C657.5 629.1 608.5 756 541.5 794.2C533.8 779.3000000000001 518.2 769.2 500.3 769.2C474.7 769.2 453.9 789.9000000000001 453.9 815.5C453.9 841.1 474.7 861.9 500.3 861.9zM202.4 653.9C232.2 705.5 307 723.5999999999999 401.6 706.3V706.3C406.9000000000001 705.3 410.3 700.3 409.4000000000001 695C408.4000000000001 689.6999999999999 403.4000000000001 686.3 398.1 687.1999999999999C310.6 703.0999999999999 244.1 687 219.2 644.1999999999999C201 612.5999999999999 206.5 568.5 234.6 519.3C237.3 514.6999999999999 235.7 508.6999999999999 231.0000000000001 506.1C226.4000000000001 503.4 220.4 504.9999999999999 217.8000000000001 509.7C186.5 564.3 180.2 615.4 202.4 653.9zM212.5 264.9C212.6 264.9 212.6 264.9 212.5 264.9L212.5 264.9C212.5 264.9 212.5 264.9 212.5 264.9C186.9 264.9 166.1 285.7 166.1 311.3C166.1 328.8 175.7 344 190 351.9C183 438.6 274.2 555 412 634.5999999999999C469.2 667.5999999999999 528.9 691.0999999999999 584.9 703.0999999999999L584.9 703.2C590.1 704.3 595.3 701 596.4 695.7C597.5 690.5 594.1999999999999 685.3 588.9 684.2C535 672.7 477.1 650 421.7 618C291.9 542.9 206.1 434.9 209.1 357.7000000000001C210.2 357.8000000000001 211.4 357.8000000000001 212.6 357.8000000000001C238.2 357.8000000000001 259 337.0000000000001 259 311.4000000000001C259 285.7000000000001 238.2 264.9 212.5 264.9zM507.8 448.9C507.7 448.9 507.5 448.8 507.4 448.8C489.3 444.8 471.3 456.1999999999999 467.3 474.3C463.3 492.4 474.7 510.4 492.8 514.4C492.9 514.4 493.1 514.5 493.2 514.5C511.3 518.5 529.3 507.1 533.3 489C537.4 470.9 526 452.9 507.8 448.9zM615.3 219.8C584 167.6999999999999 543.8 138 500.3 138C440.7 138 387.7 193.7000000000001 355.4 284.1C353.6 289.1 356.2 294.7000000000001 361.3 296.5C366.3 298.3 371.9 295.7000000000001 373.7 290.6C403.5999999999999 207.1 450.8999999999999 157.4000000000001 500.3999999999999 157.4000000000001C535.9999999999999 157.4000000000001 570.4999999999999 182.9000000000001 598.8 229.8000000000001C601.5999999999999 234.4000000000001 607.5 235.9000000000001 612.0999999999999 233.1C616.6 230.4 618.1 224.4 615.3 219.8zM833.8 311.4C833.8 285.8 813 265 787.4 265C777.3 265 767.9 268.2000000000001 760.3 273.7000000000001C686.3 230.2000000000001 544.9 252.5 411.7 329.3000000000001C354.9 362 305.3 401.4 267 443.4L266.9 443.3C263.3 447.3 263.6 453.4 267.5 457C271.5 460.6 277.6 460.3 281.2 456.4C318.1 415.9 366.2 377.7 421.2 346C546.9 273.5 679.2 251.9 746.9 288.4C743.1 295.2 740.9 303 740.9 311.3C740.9 337.0999999999999 761.8 357.7 787.4 357.7S833.8 336.9 833.8 311.3H833.8z" />
    <glyph glyph-name="express"
      unicode="&#xEA1C;"
      horiz-adv-x="1000" d="M879.6 274.5C851.3000000000001 267.3 833.9 274.2000000000001 818.2 297.7000000000001L706.7 452L690.6 473.4L560.3 297.3C545.4 276.0999999999999 529.8 266.9 501.9999999999999 274.4L668.6999999999999 498.2L513.6 700.4C540.3000000000001 705.5999999999999 558.7 702.9 575.1 679L690.8000000000001 522.8L807.3000000000001 678.1C822.2 699.3 838.3000000000001 707.3 865.1 699.5L804.9 619.7L723.3 513.5C713.5999999999999 501.4 714.9 493.1 723.9 481.3L879.6 274.5zM103.1 501.9L116.7 569C153.9 701.8 306 756.9 411 674.9C472.3 626.5999999999999 487.6 558.4 484.5 481.9H138.8C133.6 344.3 232.7 261.2000000000001 358.9 303.5999999999999C403.2 318.4999999999999 429.3 353.2 442.3 396.5999999999999C448.9 418.3 459.9 421.7 480.3 415.4999999999999C469.9 361.2 446.3 315.8999999999999 396.6 287.4999999999999C322.3 244.9999999999999 216.1 258.7999999999999 160.3 317.7999999999999C127 351.9999999999999 113.3 395.3999999999999 107.1 441.8999999999999C106.1 449.5999999999999 104.2 456.8999999999999 102.7 464.1999999999998C103 476.8 103.1 489.3 103.1 501.9L103.1 501.9zM139.4 511.1H451.8C449.8 610.6 387.8 681.3 303.1 681.9000000000001C210.2 682.7 143.5 613.7 139.4 511.1z" />
    <glyph glyph-name="express-1"
      unicode="&#x65;&#x78;&#x70;&#x72;&#x65;&#x73;&#x73;"
      horiz-adv-x="1000" d="M879.6 274.5C851.3000000000001 267.3 833.9 274.2000000000001 818.2 297.7000000000001L706.7 452L690.6 473.4L560.3 297.3C545.4 276.0999999999999 529.8 266.9 501.9999999999999 274.4L668.6999999999999 498.2L513.6 700.4C540.3000000000001 705.5999999999999 558.7 702.9 575.1 679L690.8000000000001 522.8L807.3000000000001 678.1C822.2 699.3 838.3000000000001 707.3 865.1 699.5L804.9 619.7L723.3 513.5C713.5999999999999 501.4 714.9 493.1 723.9 481.3L879.6 274.5zM103.1 501.9L116.7 569C153.9 701.8 306 756.9 411 674.9C472.3 626.5999999999999 487.6 558.4 484.5 481.9H138.8C133.6 344.3 232.7 261.2000000000001 358.9 303.5999999999999C403.2 318.4999999999999 429.3 353.2 442.3 396.5999999999999C448.9 418.3 459.9 421.7 480.3 415.4999999999999C469.9 361.2 446.3 315.8999999999999 396.6 287.4999999999999C322.3 244.9999999999999 216.1 258.7999999999999 160.3 317.7999999999999C127 351.9999999999999 113.3 395.3999999999999 107.1 441.8999999999999C106.1 449.5999999999999 104.2 456.8999999999999 102.7 464.1999999999998C103 476.8 103.1 489.3 103.1 501.9L103.1 501.9zM139.4 511.1H451.8C449.8 610.6 387.8 681.3 303.1 681.9000000000001C210.2 682.7 143.5 613.7 139.4 511.1z" />
    <glyph glyph-name="express-b"
      unicode="&#xEA1D;"
      horiz-adv-x="1000" d="M303.2 681.9C210.2 682.5999999999999 143.5 613.5999999999999 139.5 511.1H451.9C449.8 610.6 387.9 681.3 303.2 681.9zM850 1000H150C67.2 1000 0 932.8 0 850V150C0 67.2000000000001 67.2 0 150 0H850C932.8 0 1000 67.2000000000001 1000 150V850C1000 932.8 932.8 1000 850 1000zM484.5 481.9H138.8C133.6 344.3 232.7 261.2000000000001 358.9 303.5999999999999C403.2 318.4999999999999 429.3 353.2 442.3 396.5999999999999C448.9 418.3 459.9 421.7 480.3 415.4999999999999C469.9 361.2 446.3 315.8999999999999 396.6 287.4999999999999C322.3 244.9999999999999 216.1 258.7999999999999 160.3 317.7999999999999C127 351.9999999999999 113.3 395.3999999999999 107.1 441.8999999999999C106.1 449.5999999999999 104.2 456.8999999999999 102.7 464.1999999999998C102.7999999999999 476.7999999999998 102.9 489.2999999999998 102.9 501.8999999999998V501.8999999999998L116.5 568.9999999999998C153.9 701.8 306 756.9 411 674.9C472.3 626.6 487.6 558.4 484.5 481.9zM818.2 297.8L706.7 452L690.6 473.4L560.3 297.3C545.4 276.0999999999999 529.8 266.9 501.9999999999999 274.4L668.6999999999999 498.2L513.6 700.4C540.3000000000001 705.5999999999999 558.7 702.9 575.1 679L690.8000000000001 522.8L807.3000000000001 678.1C822.2 699.3 838.3000000000001 707.3 865.1 699.5L804.9 619.7L723.3 513.5C713.5999999999999 501.4 714.9 493.1 723.9 481.3L879.5999999999999 274.4C851.3 267.3 833.8 274.2000000000001 818.2 297.8z" />
    <glyph glyph-name="express-b-1"
      unicode="&#x65;&#x78;&#x70;&#x72;&#x65;&#x73;&#x73;&#x5F;&#x62;"
      horiz-adv-x="1000" d="M303.2 681.9C210.2 682.5999999999999 143.5 613.5999999999999 139.5 511.1H451.9C449.8 610.6 387.9 681.3 303.2 681.9zM850 1000H150C67.2 1000 0 932.8 0 850V150C0 67.2000000000001 67.2 0 150 0H850C932.8 0 1000 67.2000000000001 1000 150V850C1000 932.8 932.8 1000 850 1000zM484.5 481.9H138.8C133.6 344.3 232.7 261.2000000000001 358.9 303.5999999999999C403.2 318.4999999999999 429.3 353.2 442.3 396.5999999999999C448.9 418.3 459.9 421.7 480.3 415.4999999999999C469.9 361.2 446.3 315.8999999999999 396.6 287.4999999999999C322.3 244.9999999999999 216.1 258.7999999999999 160.3 317.7999999999999C127 351.9999999999999 113.3 395.3999999999999 107.1 441.8999999999999C106.1 449.5999999999999 104.2 456.8999999999999 102.7 464.1999999999998C102.7999999999999 476.7999999999998 102.9 489.2999999999998 102.9 501.8999999999998V501.8999999999998L116.5 568.9999999999998C153.9 701.8 306 756.9 411 674.9C472.3 626.6 487.6 558.4 484.5 481.9zM818.2 297.8L706.7 452L690.6 473.4L560.3 297.3C545.4 276.0999999999999 529.8 266.9 501.9999999999999 274.4L668.6999999999999 498.2L513.6 700.4C540.3000000000001 705.5999999999999 558.7 702.9 575.1 679L690.8000000000001 522.8L807.3000000000001 678.1C822.2 699.3 838.3000000000001 707.3 865.1 699.5L804.9 619.7L723.3 513.5C713.5999999999999 501.4 714.9 493.1 723.9 481.3L879.5999999999999 274.4C851.3 267.3 833.8 274.2000000000001 818.2 297.8z" />
    <glyph glyph-name="git"
      unicode="&#xEA1E;"
      horiz-adv-x="1000" d="M889.8 535.9L536.1 889.7C515.7 910.1 482.7 910.1 462.3 889.7C462.3 889.7 462.3 889.7 462.3 889.7L388.9 816.3L482.1 723.1C503.8 730.7 528.5999999999999 725.5 545.9 708.2C562.6999999999999 691.4000000000001 568.4 666.5 560.6 644.1L650.4 554.3C672.1 561.8 697.1999999999999 557 714.5 539.6C738.7 515.3 738.7 476 714.5 451.8000000000001C690.2 427.6 650.9 427.6 626.7 451.8000000000001C608.5 470.0000000000001 604 496.9000000000001 613.2 519.3000000000001L529.4 603V382.6C535.5 379.6 541 375.6 545.9 370.9C570.1 346.7 570.1 307.3 545.9 283.1C521.6999999999999 258.9 482.3 258.9 458.1 283.1L458.1 283.1C433.9 307.3000000000001 433.8 346.6 457.9999999999999 370.8000000000001C457.9999999999999 370.8000000000001 458.1 370.9000000000001 458.1 370.9000000000001C464.1 376.9000000000001 470.8 381.4000000000001 478.4 384.4000000000001V606.9C471 609.9 464.1 614.4 458.1 620.4C440.3 638.2 435 665 444.7 688.3L352.8 780.1999999999999L110.2 537.8C89.8 517.4000000000001 89.8 484.4 110.2 464C110.2 464 110.2 464 110.2 464L464 110.3C484.4 89.9 517.4 89.9 537.8 110.3C537.8 110.3 537.8 110.3 537.8 110.3L889.9 461.9C910.3 482.3 910.3 515.3 889.9 535.7C889.9 535.7 889.9 535.7 889.9 535.7" />
    <glyph glyph-name="git-1"
      unicode="&#x67;&#x69;&#x74;"
      horiz-adv-x="1000" d="M889.8 535.9L536.1 889.7C515.7 910.1 482.7 910.1 462.3 889.7C462.3 889.7 462.3 889.7 462.3 889.7L388.9 816.3L482.1 723.1C503.8 730.7 528.5999999999999 725.5 545.9 708.2C562.6999999999999 691.4000000000001 568.4 666.5 560.6 644.1L650.4 554.3C672.1 561.8 697.1999999999999 557 714.5 539.6C738.7 515.3 738.7 476 714.5 451.8000000000001C690.2 427.6 650.9 427.6 626.7 451.8000000000001C608.5 470.0000000000001 604 496.9000000000001 613.2 519.3000000000001L529.4 603V382.6C535.5 379.6 541 375.6 545.9 370.9C570.1 346.7 570.1 307.3 545.9 283.1C521.6999999999999 258.9 482.3 258.9 458.1 283.1L458.1 283.1C433.9 307.3000000000001 433.8 346.6 457.9999999999999 370.8000000000001C457.9999999999999 370.8000000000001 458.1 370.9000000000001 458.1 370.9000000000001C464.1 376.9000000000001 470.8 381.4000000000001 478.4 384.4000000000001V606.9C471 609.9 464.1 614.4 458.1 620.4C440.3 638.2 435 665 444.7 688.3L352.8 780.1999999999999L110.2 537.8C89.8 517.4000000000001 89.8 484.4 110.2 464C110.2 464 110.2 464 110.2 464L464 110.3C484.4 89.9 517.4 89.9 537.8 110.3C537.8 110.3 537.8 110.3 537.8 110.3L889.9 461.9C910.3 482.3 910.3 515.3 889.9 535.7C889.9 535.7 889.9 535.7 889.9 535.7" />
    <glyph glyph-name="git-b"
      unicode="&#xEA1F;"
      horiz-adv-x="1000" d="M850 1000H150C67.2 1000 0 932.8 0 850V150C0 67.2000000000001 67.2 0 150 0H850C932.8 0 1000 67.2000000000001 1000 150V850C1000 932.8 932.8 1000 850 1000zM889.8 461.9L537.7 110.3C537.7 110.3 537.7 110.3 537.7 110.3C517.3000000000001 89.9 484.3000000000001 89.9 463.9 110.3L110.2 464C110.2 464 110.2 464 110.2 464C89.8 484.4 89.9 517.4 110.2 537.8L352.8 780.1L444.7000000000001 688.2C435.0000000000001 665 440.2000000000001 638.1 458.1 620.3000000000001C464.1 614.3000000000001 471 609.8000000000001 478.4 606.8000000000001V384.3000000000001C470.7 381.3000000000001 464.1 376.7000000000001 458.1 370.8000000000001C458.1 370.8000000000001 458 370.7000000000001 458 370.7000000000001C433.8 346.5 433.8 307.2000000000001 458.1 283C482.3 258.8 521.7 258.8 545.9 283C570.1 307.2000000000001 570.1 346.6 545.9 370.8C541.1 375.5999999999999 535.5 379.5 529.4 382.5V603L613.1999999999999 519.2C603.9999999999999 496.7 608.4999999999999 469.9 626.6999999999999 451.7C650.9 427.4000000000001 690.3 427.4000000000001 714.4999999999999 451.7C738.7999999999998 475.9000000000001 738.7999999999998 515.3000000000001 714.4999999999999 539.5C697.1999999999999 556.9000000000001 672.0999999999999 561.7 650.3999999999999 554.2L560.5999999999999 644C568.3999999999999 666.4000000000001 562.6999999999999 691.3000000000001 545.8999999999999 708.1C528.5999999999999 725.4000000000001 503.7999999999998 730.6 482.0999999999999 723L388.8999999999999 816.2L462.2999999999998 889.6C462.2999999999998 889.6 462.2999999999998 889.6 462.2999999999998 889.6C482.6999999999998 910 515.6999999999998 910 536.0999999999998 889.6L889.7999999999997 535.9V535.5999999999999C889.7999999999997 535.5999999999999 889.7999999999997 535.5999999999999 889.7999999999997 535.5999999999999C910.2 515.3 910.2 482.2 889.8 461.9z" />
    <glyph glyph-name="git-b-1"
      unicode="&#x67;&#x69;&#x74;&#x5F;&#x62;"
      horiz-adv-x="1000" d="M850 1000H150C67.2 1000 0 932.8 0 850V150C0 67.2000000000001 67.2 0 150 0H850C932.8 0 1000 67.2000000000001 1000 150V850C1000 932.8 932.8 1000 850 1000zM889.8 461.9L537.7 110.3C537.7 110.3 537.7 110.3 537.7 110.3C517.3000000000001 89.9 484.3000000000001 89.9 463.9 110.3L110.2 464C110.2 464 110.2 464 110.2 464C89.8 484.4 89.9 517.4 110.2 537.8L352.8 780.1L444.7000000000001 688.2C435.0000000000001 665 440.2000000000001 638.1 458.1 620.3000000000001C464.1 614.3000000000001 471 609.8000000000001 478.4 606.8000000000001V384.3000000000001C470.7 381.3000000000001 464.1 376.7000000000001 458.1 370.8000000000001C458.1 370.8000000000001 458 370.7000000000001 458 370.7000000000001C433.8 346.5 433.8 307.2000000000001 458.1 283C482.3 258.8 521.7 258.8 545.9 283C570.1 307.2000000000001 570.1 346.6 545.9 370.8C541.1 375.5999999999999 535.5 379.5 529.4 382.5V603L613.1999999999999 519.2C603.9999999999999 496.7 608.4999999999999 469.9 626.6999999999999 451.7C650.9 427.4000000000001 690.3 427.4000000000001 714.4999999999999 451.7C738.7999999999998 475.9000000000001 738.7999999999998 515.3000000000001 714.4999999999999 539.5C697.1999999999999 556.9000000000001 672.0999999999999 561.7 650.3999999999999 554.2L560.5999999999999 644C568.3999999999999 666.4000000000001 562.6999999999999 691.3000000000001 545.8999999999999 708.1C528.5999999999999 725.4000000000001 503.7999999999998 730.6 482.0999999999999 723L388.8999999999999 816.2L462.2999999999998 889.6C462.2999999999998 889.6 462.2999999999998 889.6 462.2999999999998 889.6C482.6999999999998 910 515.6999999999998 910 536.0999999999998 889.6L889.7999999999997 535.9V535.5999999999999C889.7999999999997 535.5999999999999 889.7999999999997 535.5999999999999 889.7999999999997 535.5999999999999C910.2 515.3 910.2 482.2 889.8 461.9z" />
    <glyph glyph-name="github"
      unicode="&#xEA20;"
      horiz-adv-x="1000" d="M500 883.3C283 883.3 107 707.4 107 490.3C107 316.7000000000001 219.6 169.3 375.8 117.4000000000001C395.4000000000001 113.8000000000001 402.7 125.9000000000001 402.7 136.3000000000001C402.7 145.7000000000001 402.3 176.6 402.2 209.5000000000001C292.9 185.7000000000002 269.8 255.9000000000001 269.8 255.9000000000001C251.9 301.3000000000001 226.2 313.4000000000001 226.2 313.4000000000001C190.5 337.8000000000001 228.9 337.3000000000001 228.9 337.3000000000001C268.4 334.5000000000001 289.1 296.8000000000001 289.1 296.8000000000001C324 236.6 380.9 254 403.3 264C406.8 289.4 417 306.7000000000001 428.3 316.6C341 326.5 249.2 360.2000000000001 249.2 510.8C249.2 553.7 264.6 588.8 289.7000000000001 616.3C285.6 626.2 272.2000000000001 666.2 293.5000000000001 720.3C293.5000000000001 720.3 326.5000000000001 730.9000000000001 401.6 680C433 688.7 466.6 693.1 500 693.2C533.4 693 567 688.7 598.5 680C673.5 730.8 706.5 720.3 706.5 720.3C727.9 666.2 714.4 626.2 710.4 616.3C735.6 588.8 750.8 553.7 750.8 510.8C750.8 359.9 658.9 326.6 571.3 316.9C585.4 304.7 598 280.8 598 244.1C598 191.5 597.5 149.2000000000001 597.5 136.2000000000001C597.5 125.7000000000001 604.6 113.5 624.5 117.3000000000001C780.5 169.5 893 316.7000000000001 893 490.3C893 707.4 717 883.3 500 883.3zM255.8 319C254.9 317 251.9 316.5 249.1 317.8C246.2 319.0999999999999 244.7 321.7 245.6 323.7C246.4000000000001 325.7 249.5000000000001 326.3 252.4000000000001 324.9C255.2 323.7000000000001 256.8 321 255.8 319L255.8 319zM251 322.6M271.8 301.3C269.9000000000001 299.5999999999999 266.3 300.4 263.8 303.0999999999999C261.2 305.8 260.7 309.4999999999999 262.6 311.3C264.5 313 268.1 312.2 270.7000000000001 309.5C273.2 306.7000000000001 273.7 303 271.8 301.3L271.8 301.3zM268 305.3M287.3 278.6C284.9000000000001 276.9 281 278.5 278.5 282C276.1 285.5 276.1 289.7000000000001 278.6 291.4C281 293.1 284.9000000000001 291.6 287.4000000000001 288.1C289.7 284.5 289.7 280.4 287.3 278.6L287.3 278.6zM287.3 278.6M308.5 256.8C306.3 254.4 301.8 255.0999999999999 298.4 258.3C295 261.5 294 266 296.2 268.3C298.4 270.7 303 270 306.4 266.8C309.7 263.7000000000001 310.8 259.1 308.5 256.8L308.5 256.8zM308.5 256.8M337.8 244.1C336.8 241 332.4000000000001 239.6 328 240.9C323.6 242.2 320.6 245.9 321.5 249C322.4 252.1 326.9 253.6 331.3 252.2000000000001C335.8 250.8 338.7 247.2000000000001 337.8 244.1L337.8 244.1zM337.8 244.1M369.9 241.7000000000001C370 238.5 366.2 235.8000000000001 361.6 235.7000000000001C356.9 235.6 353.1 238.2000000000001 353 241.4000000000001C353 244.7000000000001 356.7 247.3000000000001 361.3999999999999 247.4000000000001C366.1 247.5 369.9 244.9 369.9 241.7000000000001L369.9 241.7000000000001zM369.9 241.7000000000001M399.9 246.8C400.5 243.5999999999999 397.2 240.4 392.6 239.5C388 238.7000000000001 383.8 240.6 383.2 243.8C382.6 247 385.9 250.3 390.5 251.0999999999999C395.1 251.9 399.3 250 399.9 246.8L399.9 246.8zM399.9 246.8" />
    <glyph glyph-name="github-1"
      unicode="&#x67;&#x69;&#x74;&#x68;&#x75;&#x62;"
      horiz-adv-x="1000" d="M500 883.3C283 883.3 107 707.4 107 490.3C107 316.7000000000001 219.6 169.3 375.8 117.4000000000001C395.4000000000001 113.8000000000001 402.7 125.9000000000001 402.7 136.3000000000001C402.7 145.7000000000001 402.3 176.6 402.2 209.5000000000001C292.9 185.7000000000002 269.8 255.9000000000001 269.8 255.9000000000001C251.9 301.3000000000001 226.2 313.4000000000001 226.2 313.4000000000001C190.5 337.8000000000001 228.9 337.3000000000001 228.9 337.3000000000001C268.4 334.5000000000001 289.1 296.8000000000001 289.1 296.8000000000001C324 236.6 380.9 254 403.3 264C406.8 289.4 417 306.7000000000001 428.3 316.6C341 326.5 249.2 360.2000000000001 249.2 510.8C249.2 553.7 264.6 588.8 289.7000000000001 616.3C285.6 626.2 272.2000000000001 666.2 293.5000000000001 720.3C293.5000000000001 720.3 326.5000000000001 730.9000000000001 401.6 680C433 688.7 466.6 693.1 500 693.2C533.4 693 567 688.7 598.5 680C673.5 730.8 706.5 720.3 706.5 720.3C727.9 666.2 714.4 626.2 710.4 616.3C735.6 588.8 750.8 553.7 750.8 510.8C750.8 359.9 658.9 326.6 571.3 316.9C585.4 304.7 598 280.8 598 244.1C598 191.5 597.5 149.2000000000001 597.5 136.2000000000001C597.5 125.7000000000001 604.6 113.5 624.5 117.3000000000001C780.5 169.5 893 316.7000000000001 893 490.3C893 707.4 717 883.3 500 883.3zM255.8 319C254.9 317 251.9 316.5 249.1 317.8C246.2 319.0999999999999 244.7 321.7 245.6 323.7C246.4000000000001 325.7 249.5000000000001 326.3 252.4000000000001 324.9C255.2 323.7000000000001 256.8 321 255.8 319L255.8 319zM251 322.6M271.8 301.3C269.9000000000001 299.5999999999999 266.3 300.4 263.8 303.0999999999999C261.2 305.8 260.7 309.4999999999999 262.6 311.3C264.5 313 268.1 312.2 270.7000000000001 309.5C273.2 306.7000000000001 273.7 303 271.8 301.3L271.8 301.3zM268 305.3M287.3 278.6C284.9000000000001 276.9 281 278.5 278.5 282C276.1 285.5 276.1 289.7000000000001 278.6 291.4C281 293.1 284.9000000000001 291.6 287.4000000000001 288.1C289.7 284.5 289.7 280.4 287.3 278.6L287.3 278.6zM287.3 278.6M308.5 256.8C306.3 254.4 301.8 255.0999999999999 298.4 258.3C295 261.5 294 266 296.2 268.3C298.4 270.7 303 270 306.4 266.8C309.7 263.7000000000001 310.8 259.1 308.5 256.8L308.5 256.8zM308.5 256.8M337.8 244.1C336.8 241 332.4000000000001 239.6 328 240.9C323.6 242.2 320.6 245.9 321.5 249C322.4 252.1 326.9 253.6 331.3 252.2000000000001C335.8 250.8 338.7 247.2000000000001 337.8 244.1L337.8 244.1zM337.8 244.1M369.9 241.7000000000001C370 238.5 366.2 235.8000000000001 361.6 235.7000000000001C356.9 235.6 353.1 238.2000000000001 353 241.4000000000001C353 244.7000000000001 356.7 247.3000000000001 361.3999999999999 247.4000000000001C366.1 247.5 369.9 244.9 369.9 241.7000000000001L369.9 241.7000000000001zM369.9 241.7000000000001M399.9 246.8C400.5 243.5999999999999 397.2 240.4 392.6 239.5C388 238.7000000000001 383.8 240.6 383.2 243.8C382.6 247 385.9 250.3 390.5 251.0999999999999C395.1 251.9 399.3 250 399.9 246.8L399.9 246.8zM399.9 246.8" />
    <glyph glyph-name="github-b"
      unicode="&#xEA21;"
      horiz-adv-x="1000" d="M850 1000H150C67.2 1000 0 932.8 0 850V150C0 67.2000000000001 67.2 0 150 0H850C932.8 0 1000 67.2000000000001 1000 150V850C1000 932.8 932.8 1000 850 1000zM624.5 117.4C604.6 113.5 597.5 125.8 597.5 136.3C597.5 149.1999999999999 598 191.5999999999999 598 244.2C598 280.9 585.4 304.8 571.3 316.9999999999999C658.8 326.7 750.8 359.9999999999999 750.8 510.8999999999999C750.8 553.7999999999998 735.5999999999999 588.8999999999999 710.4 616.3999999999999C714.5 626.2999999999998 727.9 666.2999999999998 706.5 720.3999999999999C706.5 720.3999999999999 673.5 730.9999999999999 598.5 680.0999999999999C567.1 688.7999999999998 533.4 693.1999999999998 500 693.2999999999998C466.6 693.0999999999999 433 688.7999999999998 401.6 680.0999999999999C326.5 730.8999999999999 293.5 720.3999999999999 293.5 720.3999999999999C272.2 666.2999999999998 285.6 626.2999999999998 289.7 616.3999999999999C264.6 588.8999999999999 249.2 553.7999999999998 249.2 510.8999999999999C249.2 360.2999999999999 341 326.5999999999999 428.3 316.6999999999998C417.1 306.8999999999999 406.9 289.4999999999998 403.3 264.0999999999998C380.9 254.0999999999998 324 236.6999999999998 288.9 296.7999999999999C288.9 296.7999999999999 268.1 334.4999999999999 228.7 337.2999999999999C228.7 337.2999999999999 190.4 337.7999999999999 226 313.3999999999999C226 313.3999999999999 251.8 301.2999999999999 269.6 255.8999999999999C269.6 255.8999999999999 292.7000000000001 185.7999999999999 402 209.4999999999999C402.2 176.6999999999999 402.5 145.6999999999999 402.5 136.2999999999999C402.5 125.8999999999999 395.3 113.7999999999999 375.6 117.3999999999999C219.6 169.3 107 316.7000000000001 107 490.3C107 707.4 283 883.3 500 883.3C717 883.3 893 707.4 893 490.3C893 316.7000000000001 780.5 169.5 624.5 117.4zM392.5 239.5C387.9 238.7000000000001 383.7 240.6 383.1 243.8C382.5 247 385.8 250.3 390.4000000000001 251.0999999999999C395.0000000000001 251.8999999999999 399.2000000000001 249.9999999999999 399.8 246.8C400.4 243.7000000000001 397.2 240.4 392.5 239.5zM369.9 241.7000000000001C370 238.5 366.2 235.8000000000001 361.6 235.7000000000001C356.9 235.6 353.1 238.2000000000001 353 241.4000000000001C353 244.7000000000001 356.7 247.3000000000001 361.3999999999999 247.4000000000001C366.1 247.5 369.9 244.9 369.9 241.7000000000001zM337.8 244.1C336.8 241 332.4000000000001 239.6 328 240.9C323.6 242.2 320.6 245.9 321.5 249C322.4 252.1 326.9 253.6 331.3 252.2000000000001C335.8 250.8 338.7 247.2000000000001 337.8 244.1zM308.5 256.8C306.3 254.4 301.8 255.0999999999999 298.4 258.3C295 261.5 294 266 296.2 268.3C298.4 270.7 303 270 306.4 266.8C309.7 263.7000000000001 310.8 259.1 308.5 256.8zM287.3 278.6C284.9000000000001 276.9 281 278.5 278.5 282C276.1 285.5 276.1 289.7000000000001 278.6 291.4C281 293.1 284.9000000000001 291.6 287.4000000000001 288.1C289.7 284.5 289.7 280.4 287.3 278.6zM271.8 301.3C269.9000000000001 299.5999999999999 266.3 300.4 263.8 303.0999999999999C261.2 305.8 260.7 309.4999999999999 262.6 311.3C264.5 313 268.1 312.2 270.7000000000001 309.5C273.2 306.7000000000001 273.7 303 271.8 301.3zM255.8 319C254.9 317 251.9 316.5 249.1 317.8C246.2 319.0999999999999 244.7 321.7 245.6 323.7C246.4000000000001 325.7 249.5000000000001 326.3 252.4000000000001 324.9C255.2 323.7000000000001 256.8 321 255.8 319z" />
    <glyph glyph-name="github-b-1"
      unicode="&#x67;&#x69;&#x74;&#x68;&#x75;&#x62;&#x5F;&#x62;"
      horiz-adv-x="1000" d="M850 1000H150C67.2 1000 0 932.8 0 850V150C0 67.2000000000001 67.2 0 150 0H850C932.8 0 1000 67.2000000000001 1000 150V850C1000 932.8 932.8 1000 850 1000zM624.5 117.4C604.6 113.5 597.5 125.8 597.5 136.3C597.5 149.1999999999999 598 191.5999999999999 598 244.2C598 280.9 585.4 304.8 571.3 316.9999999999999C658.8 326.7 750.8 359.9999999999999 750.8 510.8999999999999C750.8 553.7999999999998 735.5999999999999 588.8999999999999 710.4 616.3999999999999C714.5 626.2999999999998 727.9 666.2999999999998 706.5 720.3999999999999C706.5 720.3999999999999 673.5 730.9999999999999 598.5 680.0999999999999C567.1 688.7999999999998 533.4 693.1999999999998 500 693.2999999999998C466.6 693.0999999999999 433 688.7999999999998 401.6 680.0999999999999C326.5 730.8999999999999 293.5 720.3999999999999 293.5 720.3999999999999C272.2 666.2999999999998 285.6 626.2999999999998 289.7 616.3999999999999C264.6 588.8999999999999 249.2 553.7999999999998 249.2 510.8999999999999C249.2 360.2999999999999 341 326.5999999999999 428.3 316.6999999999998C417.1 306.8999999999999 406.9 289.4999999999998 403.3 264.0999999999998C380.9 254.0999999999998 324 236.6999999999998 288.9 296.7999999999999C288.9 296.7999999999999 268.1 334.4999999999999 228.7 337.2999999999999C228.7 337.2999999999999 190.4 337.7999999999999 226 313.3999999999999C226 313.3999999999999 251.8 301.2999999999999 269.6 255.8999999999999C269.6 255.8999999999999 292.7000000000001 185.7999999999999 402 209.4999999999999C402.2 176.6999999999999 402.5 145.6999999999999 402.5 136.2999999999999C402.5 125.8999999999999 395.3 113.7999999999999 375.6 117.3999999999999C219.6 169.3 107 316.7000000000001 107 490.3C107 707.4 283 883.3 500 883.3C717 883.3 893 707.4 893 490.3C893 316.7000000000001 780.5 169.5 624.5 117.4zM392.5 239.5C387.9 238.7000000000001 383.7 240.6 383.1 243.8C382.5 247 385.8 250.3 390.4000000000001 251.0999999999999C395.0000000000001 251.8999999999999 399.2000000000001 249.9999999999999 399.8 246.8C400.4 243.7000000000001 397.2 240.4 392.5 239.5zM369.9 241.7000000000001C370 238.5 366.2 235.8000000000001 361.6 235.7000000000001C356.9 235.6 353.1 238.2000000000001 353 241.4000000000001C353 244.7000000000001 356.7 247.3000000000001 361.3999999999999 247.4000000000001C366.1 247.5 369.9 244.9 369.9 241.7000000000001zM337.8 244.1C336.8 241 332.4000000000001 239.6 328 240.9C323.6 242.2 320.6 245.9 321.5 249C322.4 252.1 326.9 253.6 331.3 252.2000000000001C335.8 250.8 338.7 247.2000000000001 337.8 244.1zM308.5 256.8C306.3 254.4 301.8 255.0999999999999 298.4 258.3C295 261.5 294 266 296.2 268.3C298.4 270.7 303 270 306.4 266.8C309.7 263.7000000000001 310.8 259.1 308.5 256.8zM287.3 278.6C284.9000000000001 276.9 281 278.5 278.5 282C276.1 285.5 276.1 289.7000000000001 278.6 291.4C281 293.1 284.9000000000001 291.6 287.4000000000001 288.1C289.7 284.5 289.7 280.4 287.3 278.6zM271.8 301.3C269.9000000000001 299.5999999999999 266.3 300.4 263.8 303.0999999999999C261.2 305.8 260.7 309.4999999999999 262.6 311.3C264.5 313 268.1 312.2 270.7000000000001 309.5C273.2 306.7000000000001 273.7 303 271.8 301.3zM255.8 319C254.9 317 251.9 316.5 249.1 317.8C246.2 319.0999999999999 244.7 321.7 245.6 323.7C246.4000000000001 325.7 249.5000000000001 326.3 252.4000000000001 324.9C255.2 323.7000000000001 256.8 321 255.8 319z" />
    <glyph glyph-name="handlebars"
      unicode="&#xEA22;"
      horiz-adv-x="1000" d="M165.5 509.1C165.5 509.1 165.5 509.2 165.5 509.2C165.4 509.1 165.4 509.1 165.3 509.0000000000001L165.5 509.1zM834.7 509C834.6 509.1 834.6 509.1 834.5 509.2C834.5 509.2 834.5 509.1 834.5 509.1L834.7 509zM914.3 540.7C910 550.3 880.4 591.7 834.5999999999999 568.5C820.4999999999999 562.8 813.5999999999999 546.9 818.9999999999999 532.7C821.6999999999999 523.5 827.0999999999999 515.4 834.3999999999999 509.3C834.2999999999998 516.5 835.8999999999999 523.6 839.3999999999999 530C844.9999999999999 537.9 851.9999999999999 539.6 860.9999999999999 530C869.9999999999999 520.4 862.7999999999998 489 837.3999999999999 481.3C811.9999999999999 473.5999999999999 773.7999999999998 517.1999999999999 753.6999999999998 535.8C733.5999999999998 554.3 700.1999999999998 597.5 616.1999999999998 604.0999999999999C569.0999999999998 608.5999999999999 523.8999999999999 585.3 499.9999999999998 544.7C476.0999999999999 585.3 430.7999999999999 608.5 383.7999999999999 604.0999999999999C299.7999999999999 597.5 266.4999999999999 554.3 246.2999999999999 535.8C226.1999999999999 517.3 187.9999999999998 473.6999999999999 162.5999999999999 481.3C137.1999999999999 488.9999999999999 129.9999999999999 520.3 138.9999999999999 530C147.9999999999999 539.5999999999999 154.9999999999999 537.8999999999999 160.5999999999999 530C163.9999999999999 523.5999999999999 165.6999999999999 516.5 165.5999999999999 509.3C172.9999999999999 515.4 178.2999999999999 523.5999999999999 180.9999999999999 532.6999999999999C186.3999999999999 546.8999999999999 179.4999999999999 562.8 165.3999999999999 568.5C119.5999999999999 591.6999999999999 89.9999999999999 550.3999999999999 85.6999999999999 540.6999999999999C81.3999999999999 531.0999999999999 73.8999999999999 515.8 78.5999999999999 480.9999999999999C83.3999999999999 446.2 100.1999999999999 413.9999999999999 152.7999999999999 401.2999999999999C203.0999999999999 389.5999999999998 255.8999999999999 395.6999999999998 302.1999999999999 418.6999999999998L457.5999999999999 483.4999999999998C471.4999999999999 486.8999999999997 485.6999999999999 488.6999999999998 499.9999999999999 488.8999999999997C514.2999999999998 488.6999999999998 528.4999999999999 486.8999999999997 542.3999999999999 483.4999999999998L697.7999999999998 418.6999999999998C744.0999999999998 395.6999999999998 796.7999999999998 389.5999999999998 847.1999999999998 401.2999999999999C899.7999999999998 413.9999999999999 916.5999999999998 446.0999999999998 921.3999999999997 480.9999999999999C926.2 515.8 918.6 531.1 914.3 540.7z" />
    <glyph glyph-name="handlebars-1"
      unicode="&#x68;&#x61;&#x6E;&#x64;&#x6C;&#x65;&#x62;&#x61;&#x72;&#x73;"
      horiz-adv-x="1000" d="M165.5 509.1C165.5 509.1 165.5 509.2 165.5 509.2C165.4 509.1 165.4 509.1 165.3 509.0000000000001L165.5 509.1zM834.7 509C834.6 509.1 834.6 509.1 834.5 509.2C834.5 509.2 834.5 509.1 834.5 509.1L834.7 509zM914.3 540.7C910 550.3 880.4 591.7 834.5999999999999 568.5C820.4999999999999 562.8 813.5999999999999 546.9 818.9999999999999 532.7C821.6999999999999 523.5 827.0999999999999 515.4 834.3999999999999 509.3C834.2999999999998 516.5 835.8999999999999 523.6 839.3999999999999 530C844.9999999999999 537.9 851.9999999999999 539.6 860.9999999999999 530C869.9999999999999 520.4 862.7999999999998 489 837.3999999999999 481.3C811.9999999999999 473.5999999999999 773.7999999999998 517.1999999999999 753.6999999999998 535.8C733.5999999999998 554.3 700.1999999999998 597.5 616.1999999999998 604.0999999999999C569.0999999999998 608.5999999999999 523.8999999999999 585.3 499.9999999999998 544.7C476.0999999999999 585.3 430.7999999999999 608.5 383.7999999999999 604.0999999999999C299.7999999999999 597.5 266.4999999999999 554.3 246.2999999999999 535.8C226.1999999999999 517.3 187.9999999999998 473.6999999999999 162.5999999999999 481.3C137.1999999999999 488.9999999999999 129.9999999999999 520.3 138.9999999999999 530C147.9999999999999 539.5999999999999 154.9999999999999 537.8999999999999 160.5999999999999 530C163.9999999999999 523.5999999999999 165.6999999999999 516.5 165.5999999999999 509.3C172.9999999999999 515.4 178.2999999999999 523.5999999999999 180.9999999999999 532.6999999999999C186.3999999999999 546.8999999999999 179.4999999999999 562.8 165.3999999999999 568.5C119.5999999999999 591.6999999999999 89.9999999999999 550.3999999999999 85.6999999999999 540.6999999999999C81.3999999999999 531.0999999999999 73.8999999999999 515.8 78.5999999999999 480.9999999999999C83.3999999999999 446.2 100.1999999999999 413.9999999999999 152.7999999999999 401.2999999999999C203.0999999999999 389.5999999999998 255.8999999999999 395.6999999999998 302.1999999999999 418.6999999999998L457.5999999999999 483.4999999999998C471.4999999999999 486.8999999999997 485.6999999999999 488.6999999999998 499.9999999999999 488.8999999999997C514.2999999999998 488.6999999999998 528.4999999999999 486.8999999999997 542.3999999999999 483.4999999999998L697.7999999999998 418.6999999999998C744.0999999999998 395.6999999999998 796.7999999999998 389.5999999999998 847.1999999999998 401.2999999999999C899.7999999999998 413.9999999999999 916.5999999999998 446.0999999999998 921.3999999999997 480.9999999999999C926.2 515.8 918.6 531.1 914.3 540.7z" />
    <glyph glyph-name="handlebars-b"
      unicode="&#xEA23;"
      horiz-adv-x="1000" d="M850 1000H150C67.2 1000 0 932.8 0 850V150C0 67.2000000000001 67.2 0 150 0H850C932.8 0 1000 67.2000000000001 1000 150V850C1000 932.8 932.8 1000 850 1000zM921.4 481C916.6 446.2000000000001 899.8 414 847.1999999999999 401.3C796.9 389.5999999999999 744.0999999999999 395.7 697.8 418.7L542.4 483.4999999999999C528.5 486.8999999999999 514.3 488.6999999999999 500 488.8999999999999C485.7 488.6999999999999 471.5 486.8999999999999 457.6 483.4999999999999L302.2000000000001 418.7C255.9000000000001 395.7 203.2000000000001 389.5999999999999 152.8000000000001 401.3C100.2 414 83.4 446.1 78.6 481C73.8 515.8 81.4 531.1 85.7 540.7C90 550.3 119.6 591.7 165.4 568.5C179.5 562.8 186.4 546.9 181 532.7C178.3 523.5 172.9 515.4 165.6 509.3C165.6 509.3 165.6 509.2 165.6 509.2L165.4 509.1C165.5 509.2 165.5 509.2 165.6 509.3C165.7 516.5 164.1 523.5999999999999 160.6 530C155 537.8999999999999 148 539.5999999999999 139 530C130 520.3999999999999 137.2 488.9999999999999 162.6 481.3S226.2 517.1999999999999 246.3 535.8S299.8 597.5 383.8 604.0999999999999C430.9 608.5999999999999 476.1 585.3 499.9999999999999 544.7C523.9 585.3 569.1999999999999 608.5 616.1999999999999 604.0999999999999C700.1999999999999 597.5 733.4999999999999 554.3 753.6999999999999 535.8C773.8 517.3 811.9999999999999 473.6999999999999 837.4 481.3C862.8 488.9999999999999 870 520.3 861 530C852 539.5999999999999 845 537.8999999999999 839.4 530C836 523.5999999999999 834.3 516.5 834.4 509.3C834.5 509.1999999999999 834.5 509.1999999999999 834.6 509.1L834.4 509.2C834.4 509.2 834.4 509.3 834.4 509.3C827 515.4000000000001 821.6999999999999 523.6 819 532.7C813.6 546.9 820.5 562.8 834.6 568.5C880.4 591.7 910 550.4 914.3 540.7C918.6 531.1 926.2 515.8 921.4 481z" />
    <glyph glyph-name="handlebars-b-1"
      unicode="&#x68;&#x61;&#x6E;&#x64;&#x6C;&#x65;&#x62;&#x61;&#x72;&#x73;&#x5F;&#x62;"
      horiz-adv-x="1000" d="M850 1000H150C67.2 1000 0 932.8 0 850V150C0 67.2000000000001 67.2 0 150 0H850C932.8 0 1000 67.2000000000001 1000 150V850C1000 932.8 932.8 1000 850 1000zM921.4 481C916.6 446.2000000000001 899.8 414 847.1999999999999 401.3C796.9 389.5999999999999 744.0999999999999 395.7 697.8 418.7L542.4 483.4999999999999C528.5 486.8999999999999 514.3 488.6999999999999 500 488.8999999999999C485.7 488.6999999999999 471.5 486.8999999999999 457.6 483.4999999999999L302.2000000000001 418.7C255.9000000000001 395.7 203.2000000000001 389.5999999999999 152.8000000000001 401.3C100.2 414 83.4 446.1 78.6 481C73.8 515.8 81.4 531.1 85.7 540.7C90 550.3 119.6 591.7 165.4 568.5C179.5 562.8 186.4 546.9 181 532.7C178.3 523.5 172.9 515.4 165.6 509.3C165.6 509.3 165.6 509.2 165.6 509.2L165.4 509.1C165.5 509.2 165.5 509.2 165.6 509.3C165.7 516.5 164.1 523.5999999999999 160.6 530C155 537.8999999999999 148 539.5999999999999 139 530C130 520.3999999999999 137.2 488.9999999999999 162.6 481.3S226.2 517.1999999999999 246.3 535.8S299.8 597.5 383.8 604.0999999999999C430.9 608.5999999999999 476.1 585.3 499.9999999999999 544.7C523.9 585.3 569.1999999999999 608.5 616.1999999999999 604.0999999999999C700.1999999999999 597.5 733.4999999999999 554.3 753.6999999999999 535.8C773.8 517.3 811.9999999999999 473.6999999999999 837.4 481.3C862.8 488.9999999999999 870 520.3 861 530C852 539.5999999999999 845 537.8999999999999 839.4 530C836 523.5999999999999 834.3 516.5 834.4 509.3C834.5 509.1999999999999 834.5 509.1999999999999 834.6 509.1L834.4 509.2C834.4 509.2 834.4 509.3 834.4 509.3C827 515.4000000000001 821.6999999999999 523.6 819 532.7C813.6 546.9 820.5 562.8 834.6 568.5C880.4 591.7 910 550.4 914.3 540.7C918.6 531.1 926.2 515.8 921.4 481z" />
    <glyph glyph-name="html"
      unicode="&#xEA24;"
      horiz-adv-x="1000" d="M164.9 867.7L225.8 184.2000000000001L499.2 106.9000000000001L774.0999999999999 184.2000000000001L834.9999999999999 867.7H164.9zM708.8 705.7L704.3 662.5999999999999L702.8 644.8H500.7H499.2H381.9L389.3 558.5999999999999H499.3H500.8H671.6999999999999H695.4999999999999L692.4999999999999 536.3L673.1999999999999 314.9L671.6999999999999 300L500.8 252.9V252.5H499.3L326.9 300L316.5 432.2000000000001H355.1H399.7000000000001L405.6 365.3000000000001L499.2 340.0000000000001L592.8000000000001 365.3000000000001L603.2 473.8000000000001H500.7H499.2H312L291.2 705.6000000000001L289.7 727.9000000000001H499.2H500.7H710.2L708.8 705.7z" />
    <glyph glyph-name="html-1"
      unicode="&#x68;&#x74;&#x6D;&#x6C;"
      horiz-adv-x="1000" d="M164.9 867.7L225.8 184.2000000000001L499.2 106.9000000000001L774.0999999999999 184.2000000000001L834.9999999999999 867.7H164.9zM708.8 705.7L704.3 662.5999999999999L702.8 644.8H500.7H499.2H381.9L389.3 558.5999999999999H499.3H500.8H671.6999999999999H695.4999999999999L692.4999999999999 536.3L673.1999999999999 314.9L671.6999999999999 300L500.8 252.9V252.5H499.3L326.9 300L316.5 432.2000000000001H355.1H399.7000000000001L405.6 365.3000000000001L499.2 340.0000000000001L592.8000000000001 365.3000000000001L603.2 473.8000000000001H500.7H499.2H312L291.2 705.6000000000001L289.7 727.9000000000001H499.2H500.7H710.2L708.8 705.7z" />
    <glyph glyph-name="html-b"
      unicode="&#xEA25;"
      horiz-adv-x="1000" d="M312 473.9L499.3 473.9L500.7 473.9L603.3 473.9L592.9 365.4L499.3 340.2000000000001L405.6 365.4L399.7 432.3L355.1 432.3L316.5 432.3L326.9 300.1L499.3 252.5L500.7 252.5L500.7 252.9L671.6 300.1L673.1 314.9L692.4 536.3L695.4 558.6L671.6 558.6L500.7 558.6L499.3 558.6L389.3 558.6L381.9 644.8L499.3 644.8L500.7 644.8L702.8 644.8L704.3 662.6L708.8 705.7L710.3 728L500.7 728L499.3 728L289.7 728L291.2 705.7zM850 1000H150C67.2 1000 0 932.8 0 850V150C0 67.2000000000001 67.2 0 150 0H850C932.8 0 1000 67.2000000000001 1000 150V850C1000 932.8 932.8 1000 850 1000zM774.2 184.2000000000001L499.3000000000001 106.9000000000001L225.9000000000001 184.2000000000001L165.0000000000001 867.7H835.1000000000001L774.2 184.2000000000001z" />
    <glyph glyph-name="html-b-1"
      unicode="&#x68;&#x74;&#x6D;&#x6C;&#x5F;&#x62;"
      horiz-adv-x="1000" d="M312 473.9L499.3 473.9L500.7 473.9L603.3 473.9L592.9 365.4L499.3 340.2000000000001L405.6 365.4L399.7 432.3L355.1 432.3L316.5 432.3L326.9 300.1L499.3 252.5L500.7 252.5L500.7 252.9L671.6 300.1L673.1 314.9L692.4 536.3L695.4 558.6L671.6 558.6L500.7 558.6L499.3 558.6L389.3 558.6L381.9 644.8L499.3 644.8L500.7 644.8L702.8 644.8L704.3 662.6L708.8 705.7L710.3 728L500.7 728L499.3 728L289.7 728L291.2 705.7zM850 1000H150C67.2 1000 0 932.8 0 850V150C0 67.2000000000001 67.2 0 150 0H850C932.8 0 1000 67.2000000000001 1000 150V850C1000 932.8 932.8 1000 850 1000zM774.2 184.2000000000001L499.3000000000001 106.9000000000001L225.9000000000001 184.2000000000001L165.0000000000001 867.7H835.1000000000001L774.2 184.2000000000001z" />
    <glyph glyph-name="html-pt1"
      unicode="&#xEA26;"
      horiz-adv-x="1000" d="M500.7 558.6H389.3L381.9000000000001 644.8H500.8000000000001V728H499.3000000000001H289.7L291.2 705.7L312 473.9H500.7V558.6zM500.7 340.2000000000001H499.2L405.6 365.5L399.7000000000001 432.4H355.1H316.5L326.9 300.2000000000001L499.3 252.7000000000001H500.8V340.2000000000001z" />
    <glyph glyph-name="html-pt1-1"
      unicode="&#x68;&#x74;&#x6D;&#x6C;&#x5F;&#x70;&#x74;&#x31;"
      horiz-adv-x="1000" d="M500.7 558.6H389.3L381.9000000000001 644.8H500.8000000000001V728H499.3000000000001H289.7L291.2 705.7L312 473.9H500.7V558.6zM500.7 340.2000000000001H499.2L405.6 365.5L399.7000000000001 432.4H355.1H316.5L326.9 300.2000000000001L499.3 252.7000000000001H500.8V340.2000000000001z" />
    <glyph glyph-name="html-pt2"
      unicode="&#xEA27;"
      horiz-adv-x="1000" d="M603.3 473.9L500.7 473.9L500.7 340.6L592.9 365.4zM500.7 812.7L500.7 728L710.3 728L708.8 705.7L704.3 662.6L702.8 644.8L500.7 644.8L500.7 558.6L671.6 558.6L695.4 558.6L692.4 536.3L673.1 314.9L671.6 300.1L500.7 252.9L500.7 166.3L722.1 227.2000000000001L774.2 812.7z" />
    <glyph glyph-name="html-pt2-1"
      unicode="&#x68;&#x74;&#x6D;&#x6C;&#x5F;&#x70;&#x74;&#x32;"
      horiz-adv-x="1000" d="M603.3 473.9L500.7 473.9L500.7 340.6L592.9 365.4zM500.7 812.7L500.7 728L710.3 728L708.8 705.7L704.3 662.6L702.8 644.8L500.7 644.8L500.7 558.6L671.6 558.6L695.4 558.6L692.4 536.3L673.1 314.9L671.6 300.1L500.7 252.9L500.7 166.3L722.1 227.2000000000001L774.2 812.7z" />
    <glyph glyph-name="html-pt3"
      unicode="&#xEA28;"
      horiz-adv-x="1000" d="M164.9 867.7L225.8 184.2000000000001L499.2 106.9000000000001L774.0999999999999 184.2000000000001L834.9999999999999 867.7H164.9zM708.8 705.7L704.3 662.5999999999999L702.8 644.8H500.7H499.2H381.9L389.3 558.5999999999999H499.3H500.8H671.6999999999999H695.4999999999999L692.4999999999999 536.3L673.1999999999999 314.9L671.6999999999999 300L500.8 252.9V252.5H499.3L326.9 300L316.5 432.2000000000001H355.1H399.7000000000001L405.6 365.3000000000001L499.2 340.0000000000001L592.8000000000001 365.3000000000001L603.2 473.8000000000001H500.7H499.2H312L291.2 705.6000000000001L289.7 727.9000000000001H499.2H500.7H710.2L708.8 705.7z" />
    <glyph glyph-name="html-pt3-1"
      unicode="&#x68;&#x74;&#x6D;&#x6C;&#x5F;&#x70;&#x74;&#x33;"
      horiz-adv-x="1000" d="M164.9 867.7L225.8 184.2000000000001L499.2 106.9000000000001L774.0999999999999 184.2000000000001L834.9999999999999 867.7H164.9zM708.8 705.7L704.3 662.5999999999999L702.8 644.8H500.7H499.2H381.9L389.3 558.5999999999999H499.3H500.8H671.6999999999999H695.4999999999999L692.4999999999999 536.3L673.1999999999999 314.9L671.6999999999999 300L500.8 252.9V252.5H499.3L326.9 300L316.5 432.2000000000001H355.1H399.7000000000001L405.6 365.3000000000001L499.2 340.0000000000001L592.8000000000001 365.3000000000001L603.2 473.8000000000001H500.7H499.2H312L291.2 705.6000000000001L289.7 727.9000000000001H499.2H500.7H710.2L708.8 705.7z" />
    <glyph glyph-name="javascript"
      unicode="&#xEA29;"
      horiz-adv-x="1000" d="M164.6 870.1L220.8 183.6L502.6 104.4L776 183.6L835.4 868.7L164.6 870.1zM473 207.4L275.5 258.8V385.9L343.1 375.1V318.3000000000001L399.9000000000001 307.5000000000001V729.5000000000001H472.9V207.4zM716.4 648.6H604.9V515.9000000000001H716.4L702.9 248L527.8 207.4V291.3L646.0999999999999 331.9L652.8999999999999 442.8L527.6999999999998 424.7V729.5H729.8999999999999L716.4 648.6z" />
    <glyph glyph-name="javascript-1"
      unicode="&#x6A;&#x61;&#x76;&#x61;&#x73;&#x63;&#x72;&#x69;&#x70;&#x74;"
      horiz-adv-x="1000" d="M164.6 870.1L220.8 183.6L502.6 104.4L776 183.6L835.4 868.7L164.6 870.1zM473 207.4L275.5 258.8V385.9L343.1 375.1V318.3000000000001L399.9000000000001 307.5000000000001V729.5000000000001H472.9V207.4zM716.4 648.6H604.9V515.9000000000001H716.4L702.9 248L527.8 207.4V291.3L646.0999999999999 331.9L652.8999999999999 442.8L527.6999999999998 424.7V729.5H729.8999999999999L716.4 648.6z" />
    <glyph glyph-name="javascript-alt"
      unicode="&#xEA2A;"
      horiz-adv-x="1000" d="M98.9 901.1V98.8000000000001H901.2V901.1H98.9zM535.8 275.4C535.8 197.3 489.9999999999999 161.8 423.2 161.8C362.8 161.8 327.8999999999999 193 310.0999999999999 230.7L371.4999999999999 267.9C383.2999999999999 246.9 394.0999999999999 229.1 419.9999999999999 229.1C444.7999999999999 229.1 460.3999999999999 238.8000000000001 460.3999999999999 276.5V532.8H535.7999999999998V275.4zM713.9 161.7000000000001C643.9 161.7000000000001 598.6 195.1 576.5 238.8000000000001L637.8 274.4000000000001C654 248.0000000000001 675 228.6000000000002 712.1999999999999 228.6000000000002C743.4 228.6000000000002 763.4 244.2000000000002 763.4 265.8000000000002C763.4 291.7000000000002 742.9 300.8000000000002 708.5 315.8000000000002L689.7 323.9000000000002C635.3000000000001 347.1000000000003 599.2 376.1000000000003 599.2 437.5000000000003C599.2 494.0000000000002 642.3000000000001 537.1000000000003 709.6 537.1000000000003C757.5 537.1000000000003 792 520.4000000000003 816.8000000000001 476.7000000000003L758 439C745.1 462.2 731.1 471.3 709.5 471.3C687.4 471.3 673.4 457.3 673.4 439C673.4 416.4 687.4 407.2000000000001 719.8 393.2000000000001L738.5999999999999 385.1C802.6999999999999 357.6 838.8 329.6 838.8 266.7000000000001C838.8 198.8 785.5 161.7000000000001 713.9 161.7000000000001z" />
    <glyph glyph-name="javascript-alt-1"
      unicode="&#x6A;&#x61;&#x76;&#x61;&#x73;&#x63;&#x72;&#x69;&#x70;&#x74;&#x5F;&#x61;&#x6C;&#x74;"
      horiz-adv-x="1000" d="M98.9 901.1V98.8000000000001H901.2V901.1H98.9zM535.8 275.4C535.8 197.3 489.9999999999999 161.8 423.2 161.8C362.8 161.8 327.8999999999999 193 310.0999999999999 230.7L371.4999999999999 267.9C383.2999999999999 246.9 394.0999999999999 229.1 419.9999999999999 229.1C444.7999999999999 229.1 460.3999999999999 238.8000000000001 460.3999999999999 276.5V532.8H535.7999999999998V275.4zM713.9 161.7000000000001C643.9 161.7000000000001 598.6 195.1 576.5 238.8000000000001L637.8 274.4000000000001C654 248.0000000000001 675 228.6000000000002 712.1999999999999 228.6000000000002C743.4 228.6000000000002 763.4 244.2000000000002 763.4 265.8000000000002C763.4 291.7000000000002 742.9 300.8000000000002 708.5 315.8000000000002L689.7 323.9000000000002C635.3000000000001 347.1000000000003 599.2 376.1000000000003 599.2 437.5000000000003C599.2 494.0000000000002 642.3000000000001 537.1000000000003 709.6 537.1000000000003C757.5 537.1000000000003 792 520.4000000000003 816.8000000000001 476.7000000000003L758 439C745.1 462.2 731.1 471.3 709.5 471.3C687.4 471.3 673.4 457.3 673.4 439C673.4 416.4 687.4 407.2000000000001 719.8 393.2000000000001L738.5999999999999 385.1C802.6999999999999 357.6 838.8 329.6 838.8 266.7000000000001C838.8 198.8 785.5 161.7000000000001 713.9 161.7000000000001z" />
    </font>
</defs>
</svg>
