<?xml version="1.0" standalone="no"?>
  <!DOCTYPE svg PUBLIC "-//W3C//DTD SVG 1.1//EN" "http://www.w3.org/Graphics/SVG/1.1/DTD/svg11.dtd" >
  <svg>
  <metadata>
  Created by font-carrier
  </metadata>
  <defs>
  <font id="NotoSans-ThinItalic" horiz-adv-x="2608" vert-adv-y="2608" >
    <font-face
      
      font-family="Noto Sans Thin"
      
      font-weight="400"
      
      font-stretch="normal"
      
      units-per-em="1000"
      
      ascent="1069"
      
      descent="-293"
      
    />
      <missing-glyph />

      

      
      <glyph glyph-name="uni21" unicode="&#x21;" d="M77 174L191 714L219 714L101 174L77 174M55-8Q32-8 32 14Q32 28 39.50 41Q47 54 62 54Q74 54 79 47Q84 40 84 32Q84 19 76.50 5.50Q69-8 55-8Z"  horiz-adv-x="210" vert-adv-y="1000"  />

      
      <glyph glyph-name="uni22" unicode="&#x22;" d="M248 456L299 714L327 714L268 456L248 456M110 456L161 714L189 714L130 456L110 456Z"  horiz-adv-x="310" vert-adv-y="1000"  />

      
      <glyph glyph-name="uni23" unicode="&#x23;" d="M107 0L172 227L35 227L37 251L178 251L240 462L97 462L99 486L247 486L313 714L338 714L273 486L459 486L525 714L550 714L484 486L624 486L622 462L478 462L419 251L562 251L560 227L413 227L345 0L319 0L387 227L198 227L132 0L107 0M204 251L393 251L452 462L266 462L204 251Z"  horiz-adv-x="614" vert-adv-y="1000"  />

      
      <glyph glyph-name="uni24" unicode="&#x24;" d="M215 50Q163 50 120 59.50Q77 69 51 79L51 107Q80 94 123.50 85Q167 76 221 75L280 353Q238 369 205.50 388Q173 407 154.50 435Q136 463 136 505Q136 561 165.50 597.50Q195 634 243.50 653.50Q292 673 348 675L365 758L389 758L372 675Q409 672 445 664Q481 656 513 641L502 617Q466 634 433 640.50Q400 647 367 650L307 370Q350 352 383 334.50Q416 317 434.50 291.50Q453 266 453 223Q453 169 423 131.50Q393 94 344.50 73.50Q296 53 239 50L215-58L191-58L215 50M343 650Q293 648 252.50 630.50Q212 613 188 582Q164 551 164 507Q164 469 180.50 446Q197 423 224.50 408Q252 393 285 378L343 650M245 75Q293 78 334.50 95.50Q376 113 401.50 144.50Q427 176 427 221Q427 255 411.50 276.50Q396 298 368 313Q340 328 301 344L245 75Z"  horiz-adv-x="550" vert-adv-y="1000"  />

      
      <glyph glyph-name="uni25" unicode="&#x25;" d="M188 276Q140 276 113 308.50Q86 341 86 408Q86 442 92.50 484Q99 526 112.50 568Q126 610 147 645.50Q168 681 198 702.50Q228 724 268 724Q369 724 369 595Q369 563 363 521Q357 479 344 436Q331 393 309.50 357Q288 321 258 298.50Q228 276 188 276M120 0L647 714L677 714L150 0L120 0M189 301Q223 301 248 321.50Q273 342 291 375Q309 408 320.50 447Q332 486 337 524.50Q342 563 342 593Q342 648 323.50 673.50Q305 699 267 699Q234 699 208.50 679Q183 659 165 626.50Q147 594 135.50 555.50Q124 517 118.50 478.50Q113 440 113 410Q113 354 133.50 327.50Q154 301 189 301M527-12Q479-12 452 20.50Q425 53 425 120Q425 154 431.50 196Q438 238 451.50 280Q465 322 486 357.50Q507 393 537 414.50Q567 436 607 436Q708 436 708 307Q708 275 702 233Q696 191 683 148Q670 105 648.50 69Q627 33 597 10.50Q567-12 527-12M528 13Q562 13 587 33.50Q612 54 630 87Q648 120 659.50 159Q671 198 676 236.50Q681 275 681 305Q681 360 662.50 385.50Q644 411 606 411Q573 411 547.50 391Q522 371 504 338.50Q486 306 474.50 267.50Q463 229 457.50 190.50Q452 152 452 122Q452 66 472.50 39.50Q493 13 528 13Z"  horiz-adv-x="763" vert-adv-y="1000"  />

      
      <glyph glyph-name="uni26" unicode="&#x26;" d="M223-10Q147-10 97 31.50Q47 73 47 146Q47 213 76 257.50Q105 302 155.50 334Q206 366 271 395Q239 438 221.50 474.50Q204 511 204 550Q204 601 226.50 640.50Q249 680 289.50 702.50Q330 725 383 725Q441 725 479.50 688.50Q518 652 518 597Q518 540 490.50 503.50Q463 467 416 440.50Q369 414 309 386L485 140Q522 176 556 225.50Q590 275 613 328L640 328Q613 267 577 216Q541 165 500 121L585 0L554 0L482 105Q427 55 367.50 22.50Q308-10 223-10M294 404Q325 418 359.50 434Q394 450 424 472Q454 494 472.50 524.50Q491 555 491 597Q491 643 458 671.50Q425 700 379 700Q339 700 305 682.50Q271 665 251 631.50Q231 598 231 551Q231 514 247 479.50Q263 445 294 404M226 15Q304 15 359 44.50Q414 74 468 123L285 377Q222 349 174.50 318.50Q127 288 100.50 247.50Q74 207 74 148Q74 105 95 75.50Q116 46 151 30.50Q186 15 226 15Z"  horiz-adv-x="682" vert-adv-y="1000"  />

      
      <glyph glyph-name="uni27" unicode="&#x27;" d="M110 456L161 714L189 714L130 456L110 456Z"  horiz-adv-x="172" vert-adv-y="1000"  />

      
      <glyph glyph-name="uni28" unicode="&#x28;" d="M97-158Q66-102 49-32Q32 38 32 118Q32 240 64 350Q96 460 151.50 553Q207 646 277 714L311 714Q232 638 175 541.50Q118 445 88 337Q58 229 58 118Q58-39 126-158L97-158Z"  horiz-adv-x="242" vert-adv-y="1000"  />

      
      <glyph glyph-name="uni29" unicode="&#x29;" d="M-63-158Q17-81 73.50 15Q130 111 160 219Q190 327 190 438Q190 595 122 714L151 714Q183 658 199.50 588Q216 518 216 438Q216 317 184 206.50Q152 96 97 3.50Q42-89-29-158L-63-158Z"  horiz-adv-x="242" vert-adv-y="1000"  />

      
      <glyph glyph-name="uni2a" unicode="&#x2a;" d="M396 338L318 528L169 387L150 407L306 540L127 637L141 662L315 554L353 757L380 751L331 550L535 577L534 549L334 534L422 349L396 338Z"  horiz-adv-x="531" vert-adv-y="1000"  />

      
      <glyph glyph-name="uni2b" unicode="&#x2b;" d="M317 365L535 365L535 341L317 341L317 123L293 123L293 341L75 341L75 365L293 365L293 583L317 583L317 365Z"  horiz-adv-x="570" vert-adv-y="1000"  />

      
      <glyph glyph-name="uni2c" unicode="&#x2c;" d="M-45-129Q-8-56 16.50 1.50Q41 59 60 116L87 116L88 104Q67 49 38.50-14Q10-77-22-129L-45-129Z"  horiz-adv-x="183" vert-adv-y="1000"  />

      
      <glyph glyph-name="uni2d" unicode="&#x2d;" d="M38 259L43 284L274 284L269 259L38 259Z"  horiz-adv-x="312" vert-adv-y="1000"  />

      
      <glyph glyph-name="uni2e" unicode="&#x2e;" d="M55-8Q32-8 32 14Q32 28 39.50 41Q47 54 62 54Q74 54 79 47Q84 40 84 32Q84 19 76.50 5.50Q69-8 55-8Z"  horiz-adv-x="210" vert-adv-y="1000"  />

      
      <glyph glyph-name="uni2f" unicode="&#x2f;" d="M-43 0L363 714L392 714L-14 0L-43 0Z"  horiz-adv-x="306" vert-adv-y="1000"  />

      
      <glyph glyph-name="uni30" unicode="&#x30;" d="M236-10Q160-10 113 43.50Q66 97 66 203Q66 269 76.50 341.50Q87 414 109 482Q131 550 166 605Q201 660 249 692.50Q297 725 359 725Q445 725 486.50 669.50Q528 614 528 522Q528 447 516.50 371.50Q505 296 481.50 227.50Q458 159 423 105.50Q388 52 341 21Q294-10 236-10M237 15Q289 15 331 45Q373 75 404.50 126.50Q436 178 457.50 243.50Q479 309 490 380Q501 451 501 520Q501 604 466.50 652Q432 700 358 700Q301 700 257.50 668.50Q214 637 182.50 584Q151 531 131.50 466Q112 401 102.50 333Q93 265 93 204Q93 108 131.50 61.50Q170 15 237 15Z"  horiz-adv-x="550" vert-adv-y="1000"  />

      
      <glyph glyph-name="uni31" unicode="&#x31;" d="M348 563Q357 606 364 635.50Q371 665 376 685Q363 675 349.50 665Q336 655 315 641L179 551L166 571L382 714L407 714L256 0L229 0L348 563Z"  horiz-adv-x="550" vert-adv-y="1000"  />

      
      <glyph glyph-name="uni32" unicode="&#x32;" d="M10 0L14 23L278 262Q312 293 347.50 327Q383 361 413.50 400Q444 439 462.50 483.50Q481 528 481 579Q481 636 446 667.50Q411 699 352 699Q269 699 178 635L165 655Q216 693 264.50 708.50Q313 724 352 724Q423 724 465 683.50Q507 643 507 579Q507 511 478 454.50Q449 398 401 347Q353 296 297 246L52 26L52 25L425 25L420 0L10 0Z"  horiz-adv-x="550" vert-adv-y="1000"  />

      
      <glyph glyph-name="uni33" unicode="&#x33;" d="M210-10Q149-10 101.50 2.50Q54 15 22 33L22 61Q54 42 103.50 28.50Q153 15 211 15Q283 15 335 40Q387 65 415.50 109Q444 153 444 209Q444 285 393.50 322Q343 359 260 359L181 359L186 384L265 384Q305 384 346 395Q387 406 421.50 429Q456 452 477 488Q498 524 498 575Q498 631 460.50 665Q423 699 363 699Q309 699 258 681.50Q207 664 154 629L141 650Q190 684 246 704Q302 724 364 724Q435 724 480 682Q525 640 525 574Q525 516 499.50 474Q474 432 432.50 406.50Q391 381 344 372L344 370Q403 359 437 317Q471 275 471 209Q471 145 438.50 95.50Q406 46 347.50 18Q289-10 210-10Z"  horiz-adv-x="550" vert-adv-y="1000"  />

      
      <glyph glyph-name="uni34" unicode="&#x34;" d="M330 0L371 194L15 194L19 212L477 718L508 718L402 219L529 219L523 194L397 194L356 0L330 0M57 219L376 219L441 524Q450 565 455.50 591Q461 617 466 638.50Q471 660 477 686L475 686Q456 661 440 642Q424 623 395 592L57 219Z"  horiz-adv-x="550" vert-adv-y="1000"  />

      
      <glyph glyph-name="uni35" unicode="&#x35;" d="M206-10Q154-10 109 2Q64 14 38 32L38 62Q66 42 112.50 28.50Q159 15 208 15Q272 15 326.50 39.50Q381 64 414.50 115.50Q448 167 448 246Q448 317 406 359.50Q364 402 285 402Q241 402 209 396Q177 390 139 379L124 393L220 714L537 714L532 689L239 689L154 408Q178 415 209.50 421Q241 427 285 427Q342 427 384.50 404.50Q427 382 451 341.50Q475 301 475 247Q475 160 437 103Q399 46 338 18Q277-10 206-10Z"  horiz-adv-x="550" vert-adv-y="1000"  />

      
      <glyph glyph-name="uni36" unicode="&#x36;" d="M253-10Q186-10 145 20Q104 50 86 100Q68 150 68 209Q68 261 80 320.50Q92 380 113.50 439Q135 498 165.50 550Q196 602 233 639Q280 686 336.50 706Q393 726 448 726Q475 726 500.50 722Q526 718 543 712L537 686Q521 693 498 697Q475 701 448 701Q375 701 309 665Q243 629 190.50 546Q138 463 105 322L107 322Q126 350 156 377Q186 404 228 421.50Q270 439 324 439Q401 439 446 391.50Q491 344 491 267Q491 186 457 123.50Q423 61 368.50 25.50Q314-10 253-10M252 15Q300 15 339 36.50Q378 58 406 94.50Q434 131 449 176Q464 221 464 267Q464 338 425 376Q386 414 321 414Q263 414 215.50 389.50Q168 365 138 329Q108 293 101 258Q99 245 97 229.50Q95 214 95 197Q95 166 102 134Q109 102 126 75Q143 48 173.50 31.50Q204 15 252 15Z"  horiz-adv-x="550" vert-adv-y="1000"  />

      
      <glyph glyph-name="uni37" unicode="&#x37;" d="M114 0L524 689L128 689L133 714L562 714L559 697L146 0L114 0Z"  horiz-adv-x="550" vert-adv-y="1000"  />

      
      <glyph glyph-name="uni38" unicode="&#x38;" d="M238-10Q183-10 140 11Q97 32 72 70Q47 108 47 158Q47 222 77.50 263Q108 304 159.50 330.50Q211 357 274 377Q245 396 219 418Q193 440 177 470.50Q161 501 161 542Q161 598 187 639Q213 680 258 702Q303 724 361 724Q411 724 449 704.50Q487 685 508.50 652.50Q530 620 530 580Q530 527 504 488.50Q478 450 433.50 422.50Q389 395 333 373Q371 353 402.50 330Q434 307 453 273.50Q472 240 472 190Q472 125 439.50 80.50Q407 36 353.50 13Q300-10 238-10M306 387Q362 408 406.50 433.50Q451 459 477 495Q503 531 503 580Q503 636 462 667.50Q421 699 360 699Q312 699 272.50 681.50Q233 664 210 629Q187 594 187 542Q187 487 220.50 451.50Q254 416 306 387M239 15Q293 15 340 34Q387 53 416.50 92Q446 131 446 190Q446 237 427.50 266.50Q409 296 377 318Q345 340 303 363Q243 343 190.50 319Q138 295 105.50 257.50Q73 220 73 158Q73 91 120.50 53Q168 15 239 15Z"  horiz-adv-x="550" vert-adv-y="1000"  />

      
      <glyph glyph-name="uni39" unicode="&#x39;" d="M165-10Q131-10 100-5.50Q69-1 47 6L47 34Q67 27 99 21Q131 15 165 15Q227 15 287.50 51.50Q348 88 399.50 169.50Q451 251 484 387L482 387Q465 360 435 334.50Q405 309 363.50 292Q322 275 269 275Q190 275 145 323Q100 371 100 443Q100 524 133 587.50Q166 651 221 687.50Q276 724 342 724Q405 724 445 695Q485 666 504 617Q523 568 523 507Q523 453 510 390.50Q497 328 473.50 266.50Q450 205 418 152.50Q386 100 348 65Q305 26 258 8Q211-10 165-10M270 300Q329 300 375.50 324Q422 348 452.50 384.50Q483 421 491 458Q494 471 495 483.50Q496 496 496 512Q496 560 482 602.50Q468 645 434.50 672Q401 699 342 699Q276 699 227.50 662Q179 625 153 566.50Q127 508 127 443Q127 377 166 338.50Q205 300 270 300Z"  horiz-adv-x="550" vert-adv-y="1000"  />

      
      <glyph glyph-name="uni3a" unicode="&#x3a;" d="M157 470Q134 470 134 492Q134 506 141.50 519Q149 532 164 532Q176 532 181 525Q186 518 186 510Q186 497 178.50 483.50Q171 470 157 470M55-8Q32-8 32 14Q32 28 39.50 41Q47 54 62 54Q74 54 79 47Q84 40 84 32Q84 19 76.50 5.50Q69-8 55-8Z"  horiz-adv-x="210" vert-adv-y="1000"  />

      
      <glyph glyph-name="uni3b" unicode="&#x3b;" d="M156 470Q133 470 133 492Q133 506 140.50 519Q148 532 163 532Q175 532 180 525Q185 518 185 510Q185 497 177.50 483.50Q170 470 156 470M-45-129Q-8-56 16.50 1.50Q41 59 60 116L87 116L88 104Q67 49 38.50-14Q10-77-22-129L-45-129Z"  horiz-adv-x="210" vert-adv-y="1000"  />

      
      <glyph glyph-name="uni3c" unicode="&#x3c;" d="M534 138L76 353L76 371L534 586L534 560L111 362L534 164L534 138Z"  horiz-adv-x="570" vert-adv-y="1000"  />

      
      <glyph glyph-name="uni3d" unicode="&#x3d;" d="M75 443L75 467L535 467L535 443L75 443M75 239L75 263L535 263L535 239L75 239Z"  horiz-adv-x="570" vert-adv-y="1000"  />

      
      <glyph glyph-name="uni3e" unicode="&#x3e;" d="M76 164L499 362L76 560L76 586L534 371L534 353L76 138L76 164Z"  horiz-adv-x="570" vert-adv-y="1000"  />

      
      <glyph glyph-name="uni3f" unicode="&#x3f;" d="M121 174Q131 232 149 266Q167 300 194.50 324.50Q222 349 258 377Q292 403 323 428Q354 453 374.50 486.50Q395 520 395 569Q395 628 358.50 663.50Q322 699 263 699Q204 699 131 667L121 690Q165 710 198.50 717Q232 724 263 724Q336 724 378.50 680Q421 636 421 570Q421 518 401 481.50Q381 445 347 416Q313 387 270 357Q239 334 214 311Q189 288 171.50 256.50Q154 225 145 174L121 174M104-8Q81-8 81 14Q81 28 88.50 41Q96 54 111 54Q123 54 128 47Q133 40 133 32Q133 19 125.50 5.50Q118-8 104-8Z"  horiz-adv-x="403" vert-adv-y="1000"  />

      
      <glyph glyph-name="uni40" unicode="&#x40;" d="M375-90Q312-90 254.50-69.50Q197-49 152-8Q107 33 81 95.50Q55 158 55 242Q55 329 84.50 411.50Q114 494 172.50 560.50Q231 627 317.50 666.50Q404 706 519 706Q608 706 672.50 670Q737 634 772 568.50Q807 503 807 413Q807 330 780 260Q753 190 707.50 148.50Q662 107 604 107Q521 107 521 209L519 209Q492 160 451.50 133.50Q411 107 359 107Q310 107 277.50 139Q245 171 245 231Q245 310 279 372Q313 434 369 470Q425 506 491 506Q525 506 556 499.50Q587 493 611 483L573 341Q560 295 552.50 263Q545 231 545 210Q545 177 558 154.50Q571 132 605 132Q650 132 690 169.50Q730 207 755 270.50Q780 334 780 413Q780 494 749.50 554Q719 614 660 647.50Q601 681 517 681Q412 681 331.50 645.50Q251 610 195.50 548.50Q140 487 111.50 408Q83 329 83 243Q83 138 124 69.50Q165 1 232-32Q299-65 375-65Q423-65 473-57.50Q523-50 572-31L572-56Q527-72 478.50-81Q430-90 375-90M361 132Q425 132 471 180.50Q517 229 542 320L581 465Q562 472 539.50 476.50Q517 481 488 481Q431 481 382 450Q333 419 302.50 363Q272 307 272 232Q272 183 296.50 157.50Q321 132 361 132Z"  horiz-adv-x="834" vert-adv-y="1000"  />

      
      <glyph glyph-name="uni41" unicode="&#x41;" d="M-50 0L368 716L392 716L498 0L473 0L432 271L138 271L-20 0L-50 0M152 296L428 296L385 594Q379 633 374 682L372 682Q361 660 348.50 637.50Q336 615 324 594L152 296Z"  horiz-adv-x="547" vert-adv-y="1000"  />

      
      <glyph glyph-name="uni42" unicode="&#x42;" d="M50 0L201 714L382 714Q486 714 533 675.50Q580 637 580 571Q580 491 535 440.50Q490 390 410 376L409 374Q468 361 498 322Q528 283 528 223Q528 146 490 96.50Q452 47 387 23.50Q322 0 240 0L50 0M322 388Q425 388 489 432Q553 476 553 571Q553 689 376 689L223 689L159 388L322 388M252 25Q319 25 375.50 45Q432 65 466.50 108.50Q501 152 501 223Q501 299 450.50 331Q400 363 314 363L154 363L82 25L252 25Z"  horiz-adv-x="598" vert-adv-y="1000"  />

      
      <glyph glyph-name="uni43" unicode="&#x43;" d="M326-10Q250-10 195.50 24.50Q141 59 112.50 121.50Q84 184 84 268Q84 370 113.50 454Q143 538 196 598.50Q249 659 319.50 691.50Q390 724 471 724Q563 724 633 687L621 662Q586 683 548 691Q510 699 471 699Q395 699 329 668Q263 637 214 580.50Q165 524 137.50 445Q110 366 110 270Q110 152 168 83.50Q226 15 327 15Q378 15 421 23.50Q464 32 500 44L500 21Q466 8 422.50-1Q379-10 326-10Z"  horiz-adv-x="594" vert-adv-y="1000"  />

      
      <glyph glyph-name="uni44" unicode="&#x44;" d="M50 0L201 714L346 714Q483 714 560 642.50Q637 571 637 425Q637 343 610.50 267Q584 191 529.50 130.50Q475 70 392 35Q309 0 196 0L50 0M197 25Q299 25 376.50 57Q454 89 505.50 145Q557 201 583.50 273Q610 345 610 425Q610 561 538.50 625Q467 689 336 689L223 689L82 25L197 25Z"  horiz-adv-x="677" vert-adv-y="1000"  />

      
      <glyph glyph-name="uni45" unicode="&#x45;" d="M50 0L201 714L559 714L554 689L223 689L159 389L471 389L466 364L154 364L82 25L413 25L408 0L50 0Z"  horiz-adv-x="535" vert-adv-y="1000"  />

      
      <glyph glyph-name="uni46" unicode="&#x46;" d="M50 0L201 714L560 714L555 689L223 689L152 354L466 354L460 329L146 329L77 0L50 0Z"  horiz-adv-x="487" vert-adv-y="1000"  />

      
      <glyph glyph-name="uni47" unicode="&#x47;" d="M333-10Q213-10 148.50 65Q84 140 84 267Q84 372 114.50 456.50Q145 541 198 601Q251 661 319.50 692.50Q388 724 464 724Q520 724 570 713Q620 702 664 682L653 657Q610 677 562 688Q514 699 463 699Q392 699 328.50 668.50Q265 638 215.50 581.50Q166 525 138 445.50Q110 366 110 267Q110 182 139 126Q168 70 218.50 42.50Q269 15 334 15Q387 15 439.50 26Q492 37 531 53L589 325L388 325L394 350L621 350L554 36Q504 13 446 1.50Q388-10 333-10Z"  horiz-adv-x="690" vert-adv-y="1000"  />

      
      <glyph glyph-name="uni48" unicode="&#x48;" d="M50 0L201 714L228 714L159 388L580 388L649 714L676 714L525 0L498 0L575 363L154 363L77 0L50 0Z"  horiz-adv-x="681" vert-adv-y="1000"  />

      
      <glyph glyph-name="uni49" unicode="&#x49;" d="M8 0L12 20L78 23L220 690L155 694L159 714L317 714L313 694L246 690L104 23L170 20L166 0L8 0Z"  horiz-adv-x="279" vert-adv-y="1000"  />

      
      <glyph glyph-name="uni4a" unicode="&#x4a;" d="M-88-174Q-110-174-133-170Q-156-166-170-161L-169-136Q-150-142-128-145Q-106-148-87-148Q-23-148 7.50-110Q38-72 51-9L204 714L231 714L77-13Q60-95 20-134.50Q-20-174-88-174Z"  horiz-adv-x="231" vert-adv-y="1000"  />

      
      <glyph glyph-name="uni4b" unicode="&#x4b;" d="M50 0L201 714L228 714L145 324L202 376L592 714L629 714L283 414L484 0L454 0L262 396L138 291L77 0L50 0Z"  horiz-adv-x="543" vert-adv-y="1000"  />

      
      <glyph glyph-name="uni4c" unicode="&#x4c;" d="M50 0L201 714L228 714L82 25L411 25L406 0L50 0Z"  horiz-adv-x="491" vert-adv-y="1000"  />

      
      <glyph glyph-name="uni4d" unicode="&#x4d;" d="M50 0L201 714L239 714L357 47L360 47L759 714L801 714L650 0L624 0L751 602Q754 617 758.50 635Q763 653 769 678L767 678L360 0L340 0L220 679L218 679Q214 654 211 637Q208 620 203 597L77 0L50 0Z"  horiz-adv-x="806" vert-adv-y="1000"  />

      
      <glyph glyph-name="uni4e" unicode="&#x4e;" d="M50 0L201 714L220 714L503 54L505 54Q513 93 521 134.50Q529 176 536 211L643 714L669 714L518 0L498 0L216 659L214 659Q205 616 198 579Q191 542 183 502L77 0L50 0Z"  horiz-adv-x="674" vert-adv-y="1000"  />

      
      <glyph glyph-name="uni4f" unicode="&#x4f;" d="M334-10Q242-10 187 29Q132 68 108 133Q84 198 84 276Q84 358 105 438Q126 518 168.50 583Q211 648 276.50 686.50Q342 725 431 725Q542 725 609 657Q676 589 676 446Q676 399 666 339Q656 279 633 218Q610 157 571 105.50Q532 54 473.50 22Q415-10 334-10M335 15Q406 15 458.50 44Q511 73 547.50 121Q584 169 606.50 226Q629 283 639 340.50Q649 398 649 445Q649 563 595.50 631.50Q542 700 429 700Q358 700 305 673Q252 646 215 601Q178 556 155 500.50Q132 445 121.50 387Q111 329 111 277Q111 200 134 141Q157 82 206.50 48.50Q256 15 335 15Z"  horiz-adv-x="716" vert-adv-y="1000"  />

      
      <glyph glyph-name="uni50" unicode="&#x50;" d="M50 0L201 714L356 714Q454 714 506 669.50Q558 625 558 538Q558 470 528.50 417.50Q499 365 438 335Q377 305 282 305L141 305L77 0L50 0M286 330Q373 330 427 356.50Q481 383 506 429.50Q531 476 531 537Q531 617 484 653Q437 689 351 689L223 689L147 330L286 330Z"  horiz-adv-x="558" vert-adv-y="1000"  />

      
      <glyph glyph-name="uni51" unicode="&#x51;" d="M333-10L325-10Q240-8 186.50 29.50Q133 67 108.50 131.50Q84 196 84 276Q84 358 105 438Q126 518 168.50 583Q211 648 276.50 686.50Q342 725 431 725Q542 725 609 657Q676 589 676 446Q676 401 667 344Q658 287 637 228Q616 169 580.50 118Q545 67 492.50 32.50Q440-2 367-9L480-170L445-170L333-10M335 15Q406 15 458.50 44Q511 73 547.50 121Q584 169 606.50 226Q629 283 639 340.50Q649 398 649 445Q649 563 595.50 631.50Q542 700 429 700Q358 700 305 673Q252 646 215 601Q178 556 155 500.50Q132 445 121.50 387Q111 329 111 277Q111 200 134 141Q157 82 206.50 48.50Q256 15 335 15Z"  horiz-adv-x="716" vert-adv-y="1000"  />

      
      <glyph glyph-name="uni52" unicode="&#x52;" d="M50 0L201 714L348 714Q558 714 558 549Q558 453 506.50 397.50Q455 342 358 325L475 0L446 0L332 320L145 320L77 0L50 0M302 345Q365 345 417 366Q469 387 500 432Q531 477 531 548Q531 689 342 689L223 689L150 345L302 345Z"  horiz-adv-x="562" vert-adv-y="1000"  />

      
      <glyph glyph-name="uni53" unicode="&#x53;" d="M198-10Q134-10 92.50 0.50Q51 11 19 24L19 53Q54 36 98 25.50Q142 15 198 15Q231 15 267.50 24Q304 33 336 53Q368 73 387.50 105.50Q407 138 407 184Q407 230 387 261Q367 292 332.50 315Q298 338 252 360Q219 377 188 399.50Q157 422 137 454Q117 486 117 531Q117 584 137 621Q157 658 190.50 680.50Q224 703 264 713.50Q304 724 344 724Q398 724 435.50 714Q473 704 509 687L498 662Q458 682 424 690.50Q390 699 343 699Q314 699 279.50 691Q245 683 214 664Q183 645 163.50 613Q144 581 144 532Q144 490 162.50 462.50Q181 435 209.50 416Q238 397 269 381Q315 357 352.50 332Q390 307 412 272Q434 237 434 184Q434 130 412 93Q390 56 354.50 33.50Q319 11 278 0.50Q237-10 198-10Z"  horiz-adv-x="498" vert-adv-y="1000"  />

      
      <glyph glyph-name="uni54" unicode="&#x54;" d="M172 0L318 689L93 689L98 714L576 714L571 689L345 689L199 0L172 0Z"  horiz-adv-x="485" vert-adv-y="1000"  />

      
      <glyph glyph-name="uni55" unicode="&#x55;" d="M300-10Q204-10 146 39.50Q88 89 88 183Q88 200 90 217.50Q92 235 96 254L194 714L221 714L124 256Q116 216 116 185Q116 102 166 58.50Q216 15 301 15Q402 15 472 75Q542 135 568 257L666 714L693 714L595 252Q566 115 488.50 52.50Q411-10 300-10Z"  horiz-adv-x="692" vert-adv-y="1000"  />

      
      <glyph glyph-name="uni56" unicode="&#x56;" d="M196 0L106 714L131 714L202 146Q206 119 209 90Q212 61 213 37L215 37Q226 60 239.50 85Q253 110 272 144L581 714L610 714L219 0L196 0Z"  horiz-adv-x="535" vert-adv-y="1000"  />

      
      <glyph glyph-name="uni57" unicode="&#x57;" d="M160 0L125 714L149 714L176 171Q179 113 179 52L182 52Q194 80 205 105Q216 130 234 167L497 714L522 714L558 167Q560 139 560.50 107.50Q561 76 561 48L564 48Q575 75 586.50 103.50Q598 132 614 166L863 714L891 714L565 0L543 0L506 580Q505 607 504 628.50Q503 650 503 674L501 674Q492 650 485 633.50Q478 617 470 601L182 0L160 0Z"  horiz-adv-x="826" vert-adv-y="1000"  />

      
      <glyph glyph-name="uni58" unicode="&#x58;" d="M-59 0L251 372L116 714L143 714L269 390L533 714L564 714L281 369L430 0L403 0L262 350L-27 0L-59 0Z"  horiz-adv-x="489" vert-adv-y="1000"  />

      
      <glyph glyph-name="uni59" unicode="&#x59;" d="M174 0L231 271L96 714L123 714L249 301L547 714L578 714L259 275L201 0L174 0Z"  horiz-adv-x="485" vert-adv-y="1000"  />

      
      <glyph glyph-name="uni5a" unicode="&#x5a;" d="M-8 0L-5 18L529 689L155 689L160 714L571 714L567 696L34 25L436 25L431 0L-8 0Z"  horiz-adv-x="538" vert-adv-y="1000"  />

      
      <glyph glyph-name="uni5b" unicode="&#x5b;" d="M-9-158L177 714L369 714L363 687L198 687L24-131L191-131L184-158L-9-158Z"  horiz-adv-x="303" vert-adv-y="1000"  />

      
      <glyph glyph-name="uni5c" unicode="&#x5c;" d="M228 0L98 714L122 714L251 0L228 0Z"  horiz-adv-x="306" vert-adv-y="1000"  />

      
      <glyph glyph-name="uni5d" unicode="&#x5d;" d="M-72-158L-66-131L99-131L273 687L106 687L113 714L306 714L120-158L-72-158Z"  horiz-adv-x="303" vert-adv-y="1000"  />

      
      <glyph glyph-name="uni5e" unicode="&#x5e;" d="M50 278L362 719L386 719L504 278L479 278L369 686L82 278L50 278Z"  horiz-adv-x="550" vert-adv-y="1000"  />

      
      <glyph glyph-name="uni5f" unicode="&#x5f;" d="M-85-134L-79-109L292-109L286-134L-85-134Z"  horiz-adv-x="371" vert-adv-y="1000"  />

      
      <glyph glyph-name="uni60" unicode="&#x60;" d="M244 606Q229 624 209.50 652.50Q190 681 173 709.50Q156 738 147 756L147 766L175 766Q185 741 200.50 712.50Q216 684 232 659Q248 634 259 618L259 606L244 606Z"  horiz-adv-x="226" vert-adv-y="1000"  />

      
      <glyph glyph-name="uni61" unicode="&#x61;" d="M197-10Q125-10 88 41.50Q51 93 51 178Q51 239 68 302.50Q85 366 118.50 419.50Q152 473 202.50 505.50Q253 538 319 538Q366 538 395 517.50Q424 497 439.50 466.50Q455 436 460 407L462 407L489 528L511 528L399 0L377 0L405 139L403 139Q386 109 355.50 74Q325 39 284.50 14.50Q244-10 197-10M200 15Q246 15 293.50 48Q341 81 378.50 137.50Q416 194 430 264Q436 295 439 317Q442 339 442 358Q442 432 409 472.50Q376 513 318 513Q260 513 215 483.50Q170 454 139.50 405Q109 356 93.50 296.50Q78 237 78 178Q78 103 108.50 59Q139 15 200 15Z"  horiz-adv-x="547" vert-adv-y="1000"  />

      
      <glyph glyph-name="uni62" unicode="&#x62;" d="M239-10Q189-10 156 9Q123 28 105.50 58.50Q88 89 83 121L81 121L55 0L32 0L193 760L219 760L173 543Q166 512 156.50 469.50Q147 427 137 389L139 389Q158 423 189 457.50Q220 492 262.50 515Q305 538 357 538Q429 538 471 486.50Q513 435 513 350Q513 289 496.50 226Q480 163 446 109.50Q412 56 360.50 23Q309-10 239-10M240 15Q302 15 348 44.50Q394 74 425 123.50Q456 173 471 232Q486 291 486 350Q486 425 451 469Q416 513 352 513Q297 513 251 483Q205 453 171.50 403.50Q138 354 119.50 293Q101 232 101 170Q101 92 140 53.50Q179 15 240 15Z"  horiz-adv-x="568" vert-adv-y="1000"  />

      
      <glyph glyph-name="uni63" unicode="&#x63;" d="M247-10Q185-10 142 17Q99 44 77 90Q55 136 55 194Q55 263 73.50 325Q92 387 128 435Q164 483 216 510.50Q268 538 335 538Q369 538 401.50 532Q434 526 458 514L450 489Q425 502 393.50 507.50Q362 513 335 513Q257 513 200.50 470Q144 427 113 355.50Q82 284 82 196Q82 146 100.50 105Q119 64 156 39.50Q193 15 248 15Q284 15 314 23Q344 31 375 45L375 19Q351 7 319.50-1.50Q288-10 247-10Z"  horiz-adv-x="452" vert-adv-y="1000"  />

      
      <glyph glyph-name="uni64" unicode="&#x64;" d="M201-10Q124-10 87.50 41.50Q51 93 51 178Q51 239 67.50 302Q84 365 118 418.50Q152 472 203.50 505Q255 538 324 538Q375 538 407.50 518Q440 498 458 468Q476 438 480 407L482 407Q487 441 494 476.50Q501 512 508 543L554 760L580 760L419 0L397 0L425 141L423 141Q402 107 369.50 72Q337 37 294.50 13.50Q252-10 201-10M203 15Q251 15 297 42Q343 69 380.50 117Q418 165 440.50 227Q463 289 463 358Q463 436 424 474.50Q385 513 323 513Q262 513 216 483.50Q170 454 139 404.50Q108 355 93 296Q78 237 78 178Q78 101 109 58Q140 15 203 15Z"  horiz-adv-x="568" vert-adv-y="1000"  />

      
      <glyph glyph-name="uni65" unicode="&#x65;" d="M246-10Q199-10 157 10.50Q115 31 88.50 76Q62 121 62 194Q62 266 82.50 328.50Q103 391 140.50 438Q178 485 227 511.50Q276 538 333 538Q389 538 423.50 506Q458 474 458 424Q458 375 432 342.50Q406 310 360.50 291Q315 272 255 264Q195 256 127 256L93 256Q92 245 90.50 228Q89 211 89 194Q89 107 133 61Q177 15 251 15Q294 15 328 26.50Q362 38 386 48L386 22Q364 10 325.50 0Q287-10 246-10M145 281Q229 281 293.50 296Q358 311 394.50 342.50Q431 374 431 423Q431 462 405 487.50Q379 513 329 513Q281 513 233 485.50Q185 458 148.50 406.50Q112 355 97 281L145 281Z"  horiz-adv-x="491" vert-adv-y="1000"  />

      
      <glyph glyph-name="uni66" unicode="&#x66;" d="M-71-240Q-84-240-103-237Q-122-234-132-230L-132-204Q-118-209-101-212Q-84-215-71-215Q-36-215-14-189.50Q8-164 18-116L149 503L56 503L60 525L155 528L172 609Q188 683 226 724Q264 765 337 765Q360 765 379.50 761Q399 757 413 752L405 727Q375 740 336 740Q275 740 243 707.50Q211 675 197 605L181 528L301 528L296 503L176 503L43-120Q30-184 1-212Q-28-240-71-240Z"  horiz-adv-x="264" vert-adv-y="1000"  />

      
      <glyph glyph-name="uni67" unicode="&#x67;" d="M172-240Q129-240 91.50-230Q54-220 26-207L26-178Q55-193 94.50-204Q134-215 173-215Q269-215 319-163Q369-111 388-24L397 17Q403 45 411.50 80.50Q420 116 427 144L425 144Q404 108 370.50 72.50Q337 37 294.50 13.50Q252-10 202-10Q124-10 87.50 41.50Q51 93 51 178Q51 239 67.50 302Q84 365 118 418.50Q152 472 203.50 505Q255 538 325 538Q375 538 407.50 518.50Q440 499 457.50 469Q475 439 480 407L482 407L509 528L531 528L413-28Q400-92 371-139.50Q342-187 293.50-213.50Q245-240 172-240M205 15Q251 15 296.50 42Q342 69 379.50 116Q417 163 440 225.50Q463 288 463 358Q463 436 424.50 474.50Q386 513 324 513Q262 513 216 483.50Q170 454 139 404.50Q108 355 93 296Q78 237 78 178Q78 103 108 59Q138 15 205 15Z"  horiz-adv-x="568" vert-adv-y="1000"  />

      
      <glyph glyph-name="uni68" unicode="&#x68;" d="M32 0L193 760L219 760L176 557Q167 515 157 471.50Q147 428 137 389L139 389Q157 421 188 455.50Q219 490 262 514Q305 538 358 538Q423 538 458 505Q493 472 493 408Q493 379 485 342L413 0L387 0L460 345Q464 362 465.50 376.50Q467 391 467 404Q467 460 437 486.50Q407 513 354 513Q299 513 249.50 479Q200 445 164.50 390.50Q129 336 116 274L58 0L32 0Z"  horiz-adv-x="553" vert-adv-y="1000"  />

      
      <glyph glyph-name="uni69" unicode="&#x69;" d="M189 659Q166 659 166 681Q166 695 173.50 708Q181 721 196 721Q208 721 213 714Q218 707 218 699Q218 686 210.50 672.50Q203 659 189 659M32 0L144 528L170 528L58 0L32 0Z"  horiz-adv-x="207" vert-adv-y="1000"  />

      
      <glyph glyph-name="uni6a" unicode="&#x6a;" d="M189 659Q166 659 166 681Q166 695 173.50 708Q181 721 196 721Q208 721 213 714Q218 707 218 699Q218 686 210.50 672.50Q203 659 189 659M-86-240Q-99-240-115.50-237Q-132-234-142-230L-142-204Q-130-210-114-212.50Q-98-215-86-215Q-45-215-23.50-188.50Q-2-162 8-115L144 528L170 528L33-119Q20-180-8.50-210Q-37-240-86-240Z"  horiz-adv-x="207" vert-adv-y="1000"  />

      
      <glyph glyph-name="uni6b" unicode="&#x6b;" d="M32 0L193 760L219 760L139 384Q129 335 119.50 293Q110 251 98 204L99 204L444 528L477 528L232 298L384 0L355 0L213 281L94 172L58 0L32 0Z"  horiz-adv-x="439" vert-adv-y="1000"  />

      
      <glyph glyph-name="uni6c" unicode="&#x6c;" d="M32 0L193 760L219 760L58 0L32 0Z"  horiz-adv-x="207" vert-adv-y="1000"  />

      
      <glyph glyph-name="uni6d" unicode="&#x6d;" d="M32 0L144 528L166 528L137 389L139 389Q155 421 182 455.50Q209 490 248 514Q287 538 337 538Q405 538 432.50 497Q460 456 456 389L457 389Q473 422 501 456.50Q529 491 568.50 514.50Q608 538 658 538Q717 538 749.50 505Q782 472 782 408Q782 379 774 342L702 0L676 0L749 345Q753 362 754.50 376.50Q756 391 756 404Q756 460 728.50 486.50Q701 513 653 513Q615 513 580 493Q545 473 516.50 439Q488 405 467 362.50Q446 320 437 275L379 0L353 0L424 330Q429 351 430.50 372.50Q432 394 432 407Q432 457 405.50 485Q379 513 331 513Q294 513 259 492.50Q224 472 195 438Q166 404 145.50 361.50Q125 319 116 274L58 0L32 0Z"  horiz-adv-x="842" vert-adv-y="1000"  />

      
      <glyph glyph-name="uni6e" unicode="&#x6e;" d="M32 0L144 528L166 528L138 389L140 389Q157 421 187.50 455.50Q218 490 261.50 514Q305 538 358 538Q423 538 458 505Q493 472 493 408Q493 379 485 342L413 0L387 0L460 345Q464 362 465.50 376.50Q467 391 467 404Q467 460 437 486.50Q407 513 354 513Q299 513 249.50 479Q200 445 164.50 390.50Q129 336 116 274L58 0L32 0Z"  horiz-adv-x="553" vert-adv-y="1000"  />

      
      <glyph glyph-name="uni6f" unicode="&#x6f;" d="M237-10Q145-10 100 46.50Q55 103 55 192Q55 297 91.50 374.50Q128 452 190.50 495Q253 538 331 538Q390 538 429.50 512Q469 486 489.50 441Q510 396 510 338Q510 267 491.50 204Q473 141 437.50 93Q402 45 351.50 17.50Q301-10 237-10M240 15Q316 15 370.50 58.50Q425 102 454 175.50Q483 249 483 339Q483 415 444.50 464Q406 513 329 513Q259 513 203 473.50Q147 434 114.50 362Q82 290 82 192Q82 111 121.50 63Q161 15 240 15Z"  horiz-adv-x="565" vert-adv-y="1000"  />

      
      <glyph glyph-name="uni70" unicode="&#x70;" d="M-17-232L144 528L166 528L138 389L140 389Q159 424 190 458.50Q221 493 263 515.50Q305 538 357 538Q429 538 471 486.50Q513 435 513 350Q513 289 496.50 226Q480 163 446 109.50Q412 56 360.50 23Q309-10 239-10Q189-10 156 9Q123 28 105.50 58.50Q88 89 83 121L81 121Q76 87 69 52Q62 17 55-15L9-232L-17-232M240 15Q302 15 348 44.50Q394 74 425 123.50Q456 173 471 232Q486 291 486 350Q486 425 451 469Q416 513 352 513Q300 513 254.50 484Q209 455 174.50 406Q140 357 120.50 296Q101 235 101 170Q101 92 140 53.50Q179 15 240 15Z"  horiz-adv-x="568" vert-adv-y="1000"  />

      
      <glyph glyph-name="uni71" unicode="&#x71;" d="M390-15Q397 16 407 61.50Q417 107 427 145L425 145Q407 111 373.50 75Q340 39 296 14.50Q252-10 202-10Q125-10 88 41.50Q51 93 51 178Q51 239 67.50 302Q84 365 118 418.50Q152 472 203.50 505Q255 538 325 538Q375 538 407.50 518Q440 498 457.50 468Q475 438 480 407L482 407L509 528L531 528L370-232L344-232L390-15M205 15Q254 15 300 43.50Q346 72 383 121Q420 170 441.50 231Q463 292 463 358Q463 436 424.50 474.50Q386 513 324 513Q262 513 216 483.50Q170 454 139 404.50Q108 355 93 296Q78 237 78 178Q78 103 108 59Q138 15 205 15Z"  horiz-adv-x="568" vert-adv-y="1000"  />

      
      <glyph glyph-name="uni72" unicode="&#x72;" d="M32 0L144 528L166 528L138 389L140 389Q156 418 184 452.50Q212 487 251 511.50Q290 536 336 536Q369 536 395 528L389 504Q379 507 366 509Q353 511 336 511Q290 511 244 478Q198 445 163.50 389.50Q129 334 114 266L58 0L32 0Z"  horiz-adv-x="370" vert-adv-y="1000"  />

      
      <glyph glyph-name="uni73" unicode="&#x73;" d="M164-10Q112-10 73.50 2.50Q35 15 12 27L12 57Q42 40 81.50 27.50Q121 15 165 15Q247 15 282.50 49.50Q318 84 318 136Q318 170 301.50 192Q285 214 259 230Q233 246 204 261Q171 279 143 296.50Q115 314 97.50 338Q80 362 80 399Q80 448 103.50 478.50Q127 509 167 523.50Q207 538 254 538Q301 538 337 529Q373 520 399 508L390 483Q365 496 328.50 504.50Q292 513 253 513Q191 513 149 486.50Q107 460 107 401Q107 371 122.50 351Q138 331 163.50 316Q189 301 218 285Q250 268 279 249.50Q308 231 326.50 205Q345 179 345 137Q345 97 326 63.50Q307 30 267.50 10Q228-10 164-10Z"  horiz-adv-x="423" vert-adv-y="1000"  />

      
      <glyph glyph-name="uni74" unicode="&#x74;" d="M146-10Q97-10 74 14.50Q51 39 51 82Q51 95 52.50 109.50Q54 124 58 140L135 503L58 503L63 525L140 528L174 659L195 659L167 528L330 528L324 503L161 503L85 143Q81 127 79.50 112Q78 97 78 84Q78 51 94 33Q110 15 147 15Q171 15 189.50 18.50Q208 22 224 28L224 3Q208-2 190-6Q172-10 146-10Z"  horiz-adv-x="309" vert-adv-y="1000"  />

      
      <glyph glyph-name="uni75" unicode="&#x75;" d="M190-10Q125-10 90 23Q55 56 55 120Q55 149 63 186L135 528L161 528L88 183Q84 167 82.50 152Q81 137 81 124Q81 68 111 41.50Q141 15 194 15Q250 15 299 49Q348 83 383.50 137.50Q419 192 432 254L490 528L516 528L404 0L382 0L410 139L408 139Q392 108 361 73Q330 38 287 14Q244-10 190-10Z"  horiz-adv-x="553" vert-adv-y="1000"  />

      
      <glyph glyph-name="uni76" unicode="&#x76;" d="M132 0L50 528L76 528L135 138Q140 106 143 83.50Q146 61 148 36L150 36Q163 60 175 83.50Q187 107 205 138L430 528L459 528L153 0L132 0Z"  horiz-adv-x="410" vert-adv-y="1000"  />

      
      <glyph glyph-name="uni77" unicode="&#x77;" d="M87 0L54 528L80 528L102 156Q104 118 105 92Q106 66 106 42L108 42Q115 58 121.50 72.50Q128 87 138 106Q148 125 164 156L357 528L377 528L416 156Q420 118 422 92Q424 66 425 42L427 42Q435 65 446.50 89.50Q458 114 477 156L654 528L681 528L430 0L407 0L367 389Q364 415 362.50 435.50Q361 456 359 483L358 483Q345 456 334.50 434Q324 412 312 389L110 0L87 0Z"  horiz-adv-x="651" vert-adv-y="1000"  />

      
      <glyph glyph-name="uni78" unicode="&#x78;" d="M-33 0L206 273L86 528L116 528L225 291L437 528L469 528L239 271L369 0L340 0L220 253L-1 0L-33 0Z"  horiz-adv-x="455" vert-adv-y="1000"  />

      
      <glyph glyph-name="uni79" unicode="&#x79;" d="M-57-243Q-93-243-114-233L-114-207Q-102-212-88.50-215Q-75-218-55-218Q-19-218 10.50-190Q40-162 74-103L138 7L50 528L76 528L135 172Q143 126 148 93Q153 60 155 37L157 37Q168 59 185.50 92Q203 125 228 168L430 528L459 528L96-115Q62-176 26-209.50Q-10-243-57-243Z"  horiz-adv-x="410" vert-adv-y="1000"  />

      
      <glyph glyph-name="uni7a" unicode="&#x7a;" d="M-14 0L-11 17L391 503L108 503L114 528L436 528L433 513L28 25L341 25L336 0L-14 0Z"  horiz-adv-x="436" vert-adv-y="1000"  />

      
      <glyph glyph-name="uni7b" unicode="&#x7b;" d="M199-158Q130-158 99.50-135Q69-112 69-59Q69-38 75-11L112 158Q118 182 118 201Q118 235 96.50 250Q75 265 27 265L32 290Q93 290 122 316.50Q151 343 164 407L201 579Q216 650 260 681.50Q304 713 376 714L382 714L377 689Q314 688 277 661.50Q240 635 226 573L190 403Q180 353 156.50 319.50Q133 286 91 278L91 276Q144 259 144 201Q144 181 138 154L102-13Q96-38 96-57Q96-103 121.50-118Q147-133 207-133L207-158L199-158Z"  horiz-adv-x="327" vert-adv-y="1000"  />

      
      <glyph glyph-name="uni7c" unicode="&#x7c;" d="M282-241L282 760L307 760L307-241L282-241Z"  horiz-adv-x="535" vert-adv-y="1000"  />

      
      <glyph glyph-name="uni7d" unicode="&#x7d;" d="M-45-134Q18-133 55.50-106.50Q93-80 106-18L142 152Q153 202 176 235.50Q199 269 241 277L241 279Q188 297 188 354Q188 374 194 401L230 568Q236 594 236 612Q236 658 210.50 673Q185 688 125 688L125 713L133 713Q202 713 232.50 690Q263 667 263 614Q263 593 257 566L220 397Q214 373 214 354Q214 320 235.50 305Q257 290 305 290L300 265Q239 265 210.50 238.50Q182 212 168 148L131-24Q116-94 72-126.50Q28-159-44-159L-50-159L-45-134Z"  horiz-adv-x="327" vert-adv-y="1000"  />

      
      <glyph glyph-name="uni7e" unicode="&#x7e;" d="M302 342Q275 356 251.50 364.50Q228 373 193 373Q164 373 134.50 360.50Q105 348 76 318L76 349Q99 371 129.50 384Q160 397 193 397Q235 397 261 387.50Q287 378 315 364Q342 351 365.50 342Q389 333 420 333Q447 333 475.50 344.50Q504 356 534 387L534 358Q515 338 485.50 323.50Q456 309 420 309Q384 309 358 318Q332 327 302 342Z"  horiz-adv-x="570" vert-adv-y="1000"  />

      
      <glyph glyph-name="unia1" unicode="&#xa1;" d="M152 474Q140 474 135 481Q130 488 130 496Q130 510 137.50 523Q145 536 159 536Q182 536 182 514Q182 501 174.50 487.50Q167 474 152 474M-5-182L113 354L137 354L23-182L-5-182Z"  horiz-adv-x="210" vert-adv-y="1000"  />

      
      <glyph glyph-name="unia2" unicode="&#xa2;" d="M260 93Q187 104 147 158.50Q107 213 107 289Q107 357 125 418.50Q143 480 177 528Q211 576 259.50 605.50Q308 635 369 638L387 724L412 724L394 638Q424 637 454 631Q484 625 507 614L499 589Q474 602 442 607.50Q410 613 383 613Q309 613 253 570Q197 527 165.50 453.50Q134 380 134 290Q134 215 175.50 165Q217 115 293 115Q327 115 359 121.50Q391 128 423 144L423 120Q385 100 351.50 95.50Q318 91 284 91L263-10L238-10L260 93Z"  horiz-adv-x="550" vert-adv-y="1000"  />

      
      <glyph glyph-name="unia3" unicode="&#xa3;" d="M-2 23Q58 34 95 74Q132 114 148 187L179 335L78 335L83 360L185 360L218 518Q240 622 289.50 672.50Q339 723 424 723Q465 723 499.50 713Q534 703 557 691L545 667Q522 678 492 688Q462 698 424 698Q349 698 306 652.50Q263 607 243 512L211 360L400 360L395 335L205 335L173 183Q158 113 132.50 77.50Q107 42 69 25L451 25L446 0L-6 0L-2 23Z"  horiz-adv-x="550" vert-adv-y="1000"  />

      
      <glyph glyph-name="unia4" unicode="&#xa4;" d="M437 204Q409 179 373.50 166Q338 153 302 153Q266 153 231.50 166Q197 179 168 204L90 126L75 142L152 220Q127 249 114.50 283.50Q102 318 102 354Q102 390 114.50 425Q127 460 152 488L75 566L90 582L168 504Q197 530 231.50 542.50Q266 555 302 555Q338 555 373.50 542.50Q409 530 437 504L514 581L529 565L452 488Q478 460 490.50 425Q503 390 503 354Q503 318 490.50 283.50Q478 249 452 220L530 142L514 126L437 204M301 175Q351 175 391.50 199.50Q432 224 456.50 265Q481 306 481 355Q481 404 457 444.50Q433 485 392.50 509Q352 533 303 533Q254 533 213 508.50Q172 484 148 443.50Q124 403 124 354Q124 305 148 264Q172 223 212 199Q252 175 301 175Z"  horiz-adv-x="570" vert-adv-y="1000"  />

      
      <glyph glyph-name="unia5" unicode="&#xa5;" d="M202 0L236 162L70 162L75 187L242 187L265 298L99 298L104 323L261 323L120 714L147 714L283 334L580 714L611 714L305 323L462 323L457 298L291 298L268 187L433 187L428 162L263 162L229 0L202 0Z"  horiz-adv-x="550" vert-adv-y="1000"  />

      
      <glyph glyph-name="unia6" unicode="&#xa6;" d="M282 395L282 760L307 760L307 395L282 395M282-240L282 126L307 126L307-240L282-240Z"  horiz-adv-x="535" vert-adv-y="1000"  />

      
      <glyph glyph-name="unia7" unicode="&#xa7;" d="M176-1Q129-1 90 10Q51 21 28 32L28 61Q59 45 99 34Q139 23 176 23Q256 23 301.50 53Q347 83 347 139Q347 170 330.50 188Q314 206 287 219Q260 232 229 246Q200 259 171 276.50Q142 294 122.50 320.50Q103 347 103 386Q103 429 125 457Q147 485 179.50 501.50Q212 518 243 525Q213 538 187.50 562.50Q162 587 162 627Q162 676 189.50 705Q217 734 259 746.50Q301 759 342 759Q381 759 421 750Q461 741 487 730L477 706Q450 718 412 726.50Q374 735 342 735Q309 735 273.50 725.50Q238 716 213.50 692.50Q189 669 189 627Q189 590 220.50 569Q252 548 302 525Q331 513 361 497.50Q391 482 412 457.50Q433 433 433 391Q433 353 415 322Q397 291 370.50 268.50Q344 246 316 231Q342 215 358 194Q374 173 374 140Q374 69 319.50 34Q265-1 176-1M294 244Q338 267 372 302.50Q406 338 406 390Q406 422 390.50 441.50Q375 461 345 476.50Q315 492 270 511Q238 503 205.50 490Q173 477 151.50 452.50Q130 428 130 386Q130 351 149.50 328Q169 305 205.50 286.50Q242 268 294 244Z"  horiz-adv-x="498" vert-adv-y="1000"  />

      
      <glyph glyph-name="unia8" unicode="&#xa8;" d="M459 647Q440 647 440 668Q440 681 446.50 695Q453 709 469 709Q489 709 489 688Q489 675 482.50 661Q476 647 459 647M283 647Q264 647 264 668Q264 681 270.50 695Q277 709 293 709Q313 709 313 688Q313 675 306.50 661Q300 647 283 647Z"  horiz-adv-x="575" vert-adv-y="1000"  />

      
      <glyph glyph-name="unia9" unicode="&#xa9;" d="M416-8Q336-8 269 20.50Q202 49 153 99.50Q104 150 77 216Q50 282 50 357Q50 435 79 501.50Q108 568 158.50 617.50Q209 667 275 694.50Q341 722 416 722Q496 722 563 692Q630 662 679 610.50Q728 559 755 493.50Q782 428 782 357Q782 282 753.50 215.50Q725 149 674.50 99Q624 49 557.50 20.50Q491-8 416-8M416 17Q489 17 551 44.50Q613 72 659 119.50Q705 167 730.50 228Q756 289 756 357Q756 426 730.50 487Q705 548 659 595.50Q613 643 551 670Q489 697 416 697Q344 697 282.50 670.50Q221 644 174.50 597.50Q128 551 102 489.50Q76 428 76 357Q76 288 100.50 226.50Q125 165 170 118Q215 71 277.50 44Q340 17 416 17M435 143Q343 143 286.50 196Q230 249 230 356Q230 422 256.50 470.50Q283 519 330.50 545.50Q378 572 439 572Q483 572 511.50 565Q540 558 565 546L554 523Q531 534 504 540Q477 546 439 546Q359 546 308 495Q257 444 257 356Q257 262 308 215Q359 168 435 168Q470 168 495 172.50Q520 177 550 188L550 164Q525 154 497 148.50Q469 143 435 143Z"  horiz-adv-x="832" vert-adv-y="1000"  />

      
      <glyph glyph-name="uniaa" unicode="&#xaa;" d="M184 398Q143 398 116.50 425Q90 452 90 504Q90 566 112 615Q134 664 169.50 693Q205 722 247 722Q282 722 301 704Q320 686 328 660L330 660L346 716L367 716L301 402L280 402L293 474L292 474Q273 443 245 420.50Q217 398 184 398M184 423Q210 423 233 440Q256 457 274.50 484.50Q293 512 303.50 545Q314 578 314 610Q314 645 297.50 671Q281 697 245 697Q214 697 184.50 673Q155 649 136 605.50Q117 562 117 504Q117 468 135 445.50Q153 423 184 423Z"  horiz-adv-x="322" vert-adv-y="1000"  />

      
      <glyph glyph-name="uniab" unicode="&#xab;" d="M125 87L20 272L23 285L207 472L222 457L51 275L143 97L125 87M286 87L181 272L184 285L368 472L383 457L212 275L304 97L286 87Z"  horiz-adv-x="371" vert-adv-y="1000"  />

      
      <glyph glyph-name="uniac" unicode="&#xac;" d="M518 365L518 132L494 132L494 341L75 341L75 365L518 365Z"  horiz-adv-x="570" vert-adv-y="1000"  />

      
      <glyph glyph-name="uniad" unicode="&#xad;" d="M37 259L42 284L273 284L268 259L37 259Z"  horiz-adv-x="302" vert-adv-y="1000"  />

      
      <glyph glyph-name="uniae" unicode="&#xae;" d="M416-8Q336-8 269 20.50Q202 49 153 99.50Q104 150 77 216Q50 282 50 357Q50 435 79 501.50Q108 568 158.50 617.50Q209 667 275 694.50Q341 722 416 722Q496 722 563 692Q630 662 679 610.50Q728 559 755 493.50Q782 428 782 357Q782 282 753.50 215.50Q725 149 674.50 99Q624 49 557.50 20.50Q491-8 416-8M416 17Q489 17 551 44.50Q613 72 659 119.50Q705 167 730.50 228Q756 289 756 357Q756 426 730.50 487Q705 548 659 595.50Q613 643 551 670Q489 697 416 697Q344 697 282.50 670.50Q221 644 174.50 597.50Q128 551 102 489.50Q76 428 76 357Q76 288 100.50 226.50Q125 165 170 118Q215 71 277.50 44Q340 17 416 17M298 143L298 569L416 569Q478 569 517 540.50Q556 512 556 449Q556 400 529.50 370.50Q503 341 463 329L577 143L545 143L436 324L323 324L323 143L298 143M412 346Q462 346 497 370.50Q532 395 532 449Q532 500 499 522.50Q466 545 414 545L322 545L322 346L412 346Z"  horiz-adv-x="832" vert-adv-y="1000"  />

      
      <glyph glyph-name="uniaf" unicode="&#xaf;" d="M101 760L107 785L501 785L495 760L101 760Z"  horiz-adv-x="480" vert-adv-y="1000"  />

      
      <glyph glyph-name="unib0" unicode="&#xb0;" d="M214 441Q154 441 112.50 479.50Q71 518 71 583Q71 647 112 685.50Q153 724 214 724Q276 724 316.50 684.50Q357 645 357 583Q357 518 316.50 479.50Q276 441 214 441M213 466Q264 466 297 499Q330 532 330 583Q330 636 297 667.50Q264 699 213 699Q161 699 129.50 667.50Q98 636 98 583Q98 532 129.50 499Q161 466 213 466Z"  horiz-adv-x="428" vert-adv-y="1000"  />

      
      <glyph glyph-name="unib1" unicode="&#xb1;" d="M317 365L535 365L535 341L317 341L317 123L293 123L293 341L75 341L75 365L293 365L293 583L317 583L317 365M75 0L75 24L535 24L535 0L75 0Z"  horiz-adv-x="570" vert-adv-y="1000"  />

      
      <glyph glyph-name="unib2" unicode="&#xb2;" d="M50 416L54 437L197 558Q271 621 310.50 665Q350 709 350 760Q350 792 329.50 811Q309 830 273 830Q216 830 156 789L144 809Q205 855 274 855Q324 855 350.50 828.50Q377 802 377 761Q377 720 356.50 685Q336 650 299.50 615.50Q263 581 215 541L95 441L323 441L318 416L50 416Z"  horiz-adv-x="312" vert-adv-y="1000"  />

      
      <glyph glyph-name="unib3" unicode="&#xb3;" d="M172 412Q139 412 110 419Q81 426 59 437L59 465Q85 452 112.50 444.50Q140 437 172 437Q234 437 274 465.50Q314 494 314 552Q314 588 286.50 608Q259 628 207 628L160 628L165 653L212 653Q267 653 307.50 679Q348 705 348 756Q348 788 329 807Q310 826 272 826Q237 826 207 815.50Q177 805 147 788L137 810Q167 829 201 840Q235 851 273 851Q320 851 348 826Q376 801 376 759Q376 707 346.50 678.50Q317 650 279 641L279 639Q307 632 324.50 608.50Q342 585 342 552Q342 479 293 445.50Q244 412 172 412Z"  horiz-adv-x="312" vert-adv-y="1000"  />

      
      <glyph glyph-name="unib4" unicode="&#xb4;" d="M114 612Q137 632 163.50 660Q190 688 214.50 716.50Q239 745 253 766L283 766L283 759Q257 725 216 682Q175 639 135 606L114 606L114 612Z"  horiz-adv-x="218" vert-adv-y="1000"  />

      
      <glyph glyph-name="uni03BC" unicode="&#x03BC;" d="M-17-232L144 528L170 528L98 186Q92 159 90.50 143Q89 127 89 116Q89 74 118 44.50Q147 15 200 15Q250 15 299.50 43Q349 71 387.50 126.50Q426 182 443 264L499 528L525 528L413 0L391 0L419 139L417 139Q399 104 368.50 69.50Q338 35 295.50 12.50Q253-10 197-10Q140-10 111.50 16Q83 42 73 74L71 74Q61 12 40-87L9-232L-17-232Z"  horiz-adv-x="562" vert-adv-y="1000"  />

      
      <glyph glyph-name="unib6" unicode="&#xb6;" d="M361 355Q345 351 328.50 348.50Q312 346 290 346Q235 346 198 374Q161 402 143 450Q125 498 125 557Q125 653 169 706.50Q213 760 305 760L547 760L547-127L521-127L521 735L387 735L387-127L361-127L361 355Z"  horiz-adv-x="655" vert-adv-y="1000"  />

      
      <glyph glyph-name="unib7" unicode="&#xb7;" d="M117 283Q94 283 94 305Q94 319 101.50 332Q109 345 124 345Q136 345 141 338Q146 331 146 323Q146 310 138.50 296.50Q131 283 117 283Z"  horiz-adv-x="210" vert-adv-y="1000"  />

      
      <glyph glyph-name="unib8" unicode="&#xb8;" d="M-30-240Q-64-240-85-234L-85-210Q-62-216-32-216Q-12-216 10.50-208.50Q33-201 49-184Q65-167 65-139Q65-85-20-85L27 0L53 0L19-65Q52-68 72-87.50Q92-107 92-139Q92-171 74-194Q56-217 28.50-228.50Q1-240-30-240Z"  horiz-adv-x="193" vert-adv-y="1000"  />

      
      <glyph glyph-name="unib9" unicode="&#xb9;" d="M251 695Q257 724 265 755.50Q273 787 280 815Q262 805 245.50 796Q229 787 203 774L154 749L143 771L289 844L310 844L219 416L192 416L251 695Z"  horiz-adv-x="312" vert-adv-y="1000"  />

      
      <glyph glyph-name="uniba" unicode="&#xba;" d="M204 395Q151 395 122.50 430Q94 465 94 518Q94 578 116.50 625Q139 672 177 698.50Q215 725 263 725Q317 725 344.50 690.50Q372 656 372 603Q372 545 350.50 498Q329 451 291.50 423Q254 395 204 395M205 420Q246 420 277 444.50Q308 469 326 510.50Q344 552 344 601Q344 643 323 671.50Q302 700 261 700Q222 700 190.50 676.50Q159 653 140 612Q121 571 121 518Q121 474 143 447Q165 420 205 420Z"  horiz-adv-x="352" vert-adv-y="1000"  />

      
      <glyph glyph-name="unibb" unicode="&#xbb;" d="M168 87L153 102L324 284L232 462L250 472L355 287L352 274L168 87M7 87L-8 102L163 284L71 462L89 472L194 287L191 274L7 87Z"  horiz-adv-x="371" vert-adv-y="1000"  />

      
      <glyph glyph-name="unibc" unicode="&#xbc;" d="M76 0L606 714L640 714L109 0L76 0M221 566Q227 595 235 626.50Q243 658 250 686Q232 676 215.50 667Q199 658 173 645L124 620L113 642L259 715L280 715L189 287L162 287L221 566M508 1L533 118L338 118L345 146L601 432L627 432L565 143L632 143L626 118L560 118L535 1L508 1M377 143L538 143L564 263Q570 293 578 329Q586 365 592 389Q582 374 558.50 347.50Q535 321 512 295L377 143Z"  horiz-adv-x="671" vert-adv-y="1000"  />

      
      <glyph glyph-name="unibd" unicode="&#xbd;" d="M68 0L598 714L632 714L101 0L68 0M221 566Q227 595 235 626.50Q243 658 250 686Q232 676 215.50 667Q199 658 173 645L124 620L113 642L259 715L280 715L189 287L162 287L221 566M371 1L375 22L518 143Q592 206 631.50 250Q671 294 671 345Q671 377 650.50 396Q630 415 594 415Q537 415 477 374L465 394Q526 440 595 440Q645 440 671.50 413.50Q698 387 698 346Q698 305 677.50 270Q657 235 620.50 200.50Q584 166 536 126L416 26L644 26L639 1L371 1Z"  horiz-adv-x="713" vert-adv-y="1000"  />

      
      <glyph glyph-name="unibe" unicode="&#xbe;" d="M134 280Q101 280 72 287Q43 294 21 305L21 333Q47 320 74.50 312.50Q102 305 134 305Q196 305 236 333.50Q276 362 276 420Q276 456 248.50 476Q221 496 169 496L122 496L127 521L174 521Q229 521 269.50 547Q310 573 310 624Q310 656 291 675Q272 694 234 694Q199 694 169 683.50Q139 673 109 656L99 678Q129 697 163 708Q197 719 235 719Q282 719 310 694Q338 669 338 627Q338 575 308.50 546.50Q279 518 241 509L241 507Q269 500 286.50 476.50Q304 453 304 420Q304 347 255 313.50Q206 280 134 280M111 0L641 714L675 714L144 0L111 0M524 2L549 119L354 119L361 147L617 433L643 433L581 144L648 144L642 119L576 119L551 2L524 2M393 144L554 144L580 264Q586 294 594 330Q602 366 608 390Q598 375 574.50 348.50Q551 322 528 296L393 144Z"  horiz-adv-x="687" vert-adv-y="1000"  />

      
      <glyph glyph-name="unibf" unicode="&#xbf;" d="M295 358Q285 300 267 266Q249 232 221.50 207.50Q194 183 158 155Q124 129 93 104Q62 79 41.50 45.50Q21 12 21-37Q21-96 57.50-131.50Q94-167 153-167Q212-167 285-135L295-158Q251-178 217.50-185Q184-192 153-192Q80-192 37.50-148Q-5-104-5-38Q-5 14 15 50.50Q35 87 69 116Q103 145 146 175Q177 198 202 221Q227 244 244.50 275.50Q262 307 271 358L295 358M312 540Q335 540 335 518Q335 504 327.50 491Q320 478 305 478Q293 478 288 485Q283 492 283 500Q283 513 290.50 526.50Q298 540 312 540Z"  horiz-adv-x="403" vert-adv-y="1000"  />

      
      <glyph glyph-name="unic0" unicode="&#xc0;" d="M-50 0L368 716L392 716L498 0L473 0L432 271L138 271L-20 0L-50 0M152 296L428 296L385 594Q379 633 374 682L372 682Q361 660 348.50 637.50Q336 615 324 594L152 296M403 792Q388 810 368.50 838.50Q349 867 332 895.50Q315 924 306 942L306 952L334 952Q344 927 359.50 898.50Q375 870 391 845Q407 820 418 804L418 792L403 792Z"  horiz-adv-x="547" vert-adv-y="1000"  />

      
      <glyph glyph-name="unic1" unicode="&#xc1;" d="M-50 0L368 716L392 716L498 0L473 0L432 271L138 271L-20 0L-50 0M152 296L428 296L385 594Q379 633 374 682L372 682Q361 660 348.50 637.50Q336 615 324 594L152 296M363 798Q386 818 412.50 846Q439 874 463.50 902.50Q488 931 502 952L532 952L532 945Q506 911 465 868Q424 825 384 792L363 792L363 798Z"  horiz-adv-x="547" vert-adv-y="1000"  />

      
      <glyph glyph-name="unic2" unicode="&#xc2;" d="M-50 0L368 716L392 716L498 0L473 0L432 271L138 271L-20 0L-50 0M152 296L428 296L385 594Q379 633 374 682L372 682Q361 660 348.50 637.50Q336 615 324 594L152 296M268 798Q290 819 316.50 846Q343 873 368 900.50Q393 928 409 949L431 949Q438 929 451 901.50Q464 874 479 846.50Q494 819 508 798L506 792L488 792Q467 820 448 854.50Q429 889 415 917Q389 889 355.50 854.50Q322 820 290 792L267 792L268 798Z"  horiz-adv-x="547" vert-adv-y="1000"  />

      
      <glyph glyph-name="unic3" unicode="&#xc3;" d="M-50 0L368 716L392 716L498 0L473 0L432 271L138 271L-20 0L-50 0M152 296L428 296L385 594Q379 633 374 682L372 682Q361 660 348.50 637.50Q336 615 324 594L152 296M238 804Q251 853 273.50 877.50Q296 902 335 902Q359 902 377.50 891Q396 880 411.50 865Q427 850 442 839Q457 828 473 828Q495 828 513.50 842Q532 856 546 902L573 902Q560 855 536.50 829Q513 803 472 803Q450 803 433 814Q416 825 400.50 840Q385 855 369 866Q353 877 334 877Q314 877 296 863Q278 849 264 804L238 804Z"  horiz-adv-x="547" vert-adv-y="1000"  />

      
      <glyph glyph-name="unic4" unicode="&#xc4;" d="M-50 0L368 716L392 716L498 0L473 0L432 271L138 271L-20 0L-50 0M152 296L428 296L385 594Q379 633 374 682L372 682Q361 660 348.50 637.50Q336 615 324 594L152 296M482 833Q463 833 463 854Q463 867 469.50 881Q476 895 492 895Q512 895 512 874Q512 861 505.50 847Q499 833 482 833M306 833Q287 833 287 854Q287 867 293.50 881Q300 895 316 895Q336 895 336 874Q336 861 329.50 847Q323 833 306 833Z"  horiz-adv-x="547" vert-adv-y="1000"  />

      
      <glyph glyph-name="unic5" unicode="&#xc5;" d="M-50 0L368 716L392 716L498 0L473 0L432 271L138 271L-20 0L-50 0M152 296L428 296L385 594Q379 633 374 682L372 682Q361 660 348.50 637.50Q336 615 324 594L152 296M390 695Q350 695 319.50 722.50Q289 750 289 795Q289 838 319 866.50Q349 895 390 895Q431 895 460.50 865.50Q490 836 490 795Q490 751 460.50 723Q431 695 390 695M390 719Q424 719 445 741.50Q466 764 466 795Q466 827 443.50 849Q421 871 390 871Q357 871 335 849Q313 827 313 795Q313 764 334.50 741.50Q356 719 390 719Z"  horiz-adv-x="547" vert-adv-y="1000"  />

      
      <glyph glyph-name="unic6" unicode="&#xc6;" d="M-51 0L391 714L817 714L812 689L471 689L407 389L729 389L724 364L402 364L330 25L671 25L666 0L298 0L355 270L147 270L-19 0L-51 0M162 295L360 295L443 689L405 689L162 295Z"  horiz-adv-x="783" vert-adv-y="1000"  />

      
      <glyph glyph-name="unic7" unicode="&#xc7;" d="M326-10Q250-10 195.50 24.50Q141 59 112.50 121.50Q84 184 84 268Q84 370 113.50 454Q143 538 196 598.50Q249 659 319.50 691.50Q390 724 471 724Q563 724 633 687L621 662Q586 683 548 691Q510 699 471 699Q395 699 329 668Q263 637 214 580.50Q165 524 137.50 445Q110 366 110 270Q110 152 168 83.50Q226 15 327 15Q378 15 421 23.50Q464 32 500 44L500 21Q466 8 422.50-1Q379-10 326-10M231-240Q197-240 176-234L176-210Q199-216 229-216Q249-216 271.50-208.50Q294-201 310-184Q326-167 326-139Q326-85 241-85L288 0L314 0L280-65Q313-68 333-87.50Q353-107 353-139Q353-171 335-194Q317-217 289.50-228.50Q262-240 231-240Z"  horiz-adv-x="594" vert-adv-y="1000"  />

      
      <glyph glyph-name="unic8" unicode="&#xc8;" d="M50 0L201 714L559 714L554 689L223 689L159 389L471 389L466 364L154 364L82 25L413 25L408 0L50 0M408 792Q393 810 373.50 838.50Q354 867 337 895.50Q320 924 311 942L311 952L339 952Q349 927 364.50 898.50Q380 870 396 845Q412 820 423 804L423 792L408 792Z"  horiz-adv-x="535" vert-adv-y="1000"  />

      
      <glyph glyph-name="unic9" unicode="&#xc9;" d="M50 0L201 714L559 714L554 689L223 689L159 389L471 389L466 364L154 364L82 25L413 25L408 0L50 0M358 798Q381 818 407.50 846Q434 874 458.50 902.50Q483 931 497 952L527 952L527 945Q501 911 460 868Q419 825 379 792L358 792L358 798Z"  horiz-adv-x="535" vert-adv-y="1000"  />

      
      <glyph glyph-name="unica" unicode="&#xca;" d="M50 0L201 714L559 714L554 689L223 689L159 389L471 389L466 364L154 364L82 25L413 25L408 0L50 0M278 798Q300 819 326.50 846Q353 873 378 900.50Q403 928 419 949L441 949Q448 929 461 901.50Q474 874 489 846.50Q504 819 518 798L516 792L498 792Q477 820 458 854.50Q439 889 425 917Q399 889 365.50 854.50Q332 820 300 792L277 792L278 798Z"  horiz-adv-x="535" vert-adv-y="1000"  />

      
      <glyph glyph-name="unicb" unicode="&#xcb;" d="M50 0L201 714L559 714L554 689L223 689L159 389L471 389L466 364L154 364L82 25L413 25L408 0L50 0M497 833Q478 833 478 854Q478 867 484.50 881Q491 895 507 895Q527 895 527 874Q527 861 520.50 847Q514 833 497 833M321 833Q302 833 302 854Q302 867 308.50 881Q315 895 331 895Q351 895 351 874Q351 861 344.50 847Q338 833 321 833Z"  horiz-adv-x="535" vert-adv-y="1000"  />

      
      <glyph glyph-name="unicc" unicode="&#xcc;" d="M8 0L12 20L78 23L220 690L155 694L159 714L317 714L313 694L246 690L104 23L170 20L166 0L8 0M270 792Q255 810 235.50 838.50Q216 867 199 895.50Q182 924 173 942L173 952L201 952Q211 927 226.50 898.50Q242 870 258 845Q274 820 285 804L285 792L270 792Z"  horiz-adv-x="279" vert-adv-y="1000"  />

      
      <glyph glyph-name="unicd" unicode="&#xcd;" d="M8 0L12 20L78 23L220 690L155 694L159 714L317 714L313 694L246 690L104 23L170 20L166 0L8 0M219 798Q242 818 268.50 846Q295 874 319.50 902.50Q344 931 358 952L388 952L388 945Q362 911 321 868Q280 825 240 792L219 792L219 798Z"  horiz-adv-x="279" vert-adv-y="1000"  />

      
      <glyph glyph-name="unice" unicode="&#xce;" d="M8 0L12 20L78 23L220 690L155 694L159 714L317 714L313 694L246 690L104 23L170 20L166 0L8 0M124 798Q146 819 172.50 846Q199 873 224 900.50Q249 928 265 949L287 949Q294 929 307 901.50Q320 874 335 846.50Q350 819 364 798L362 792L344 792Q323 820 304 854.50Q285 889 271 917Q245 889 211.50 854.50Q178 820 146 792L123 792L124 798Z"  horiz-adv-x="279" vert-adv-y="1000"  />

      
      <glyph glyph-name="unicf" unicode="&#xcf;" d="M8 0L12 20L78 23L220 690L155 694L159 714L317 714L313 694L246 690L104 23L170 20L166 0L8 0M343 833Q324 833 324 854Q324 867 330.50 881Q337 895 353 895Q373 895 373 874Q373 861 366.50 847Q360 833 343 833M167 833Q148 833 148 854Q148 867 154.50 881Q161 895 177 895Q197 895 197 874Q197 861 190.50 847Q184 833 167 833Z"  horiz-adv-x="279" vert-adv-y="1000"  />

      
      <glyph glyph-name="unid0" unicode="&#xd0;" d="M50 0L123 343L44 343L49 368L128 368L201 714L346 714Q483 714 560 642.50Q637 571 637 425Q637 343 610.50 267Q584 191 529.50 130.50Q475 70 392 35Q309 0 196 0L50 0M197 25Q299 25 376.50 57Q454 89 505.50 145Q557 201 583.50 273Q610 345 610 425Q610 561 538.50 625Q467 689 336 689L223 689L155 368L350 368L344 343L150 343L82 25L197 25Z"  horiz-adv-x="677" vert-adv-y="1000"  />

      
      <glyph glyph-name="unid1" unicode="&#xd1;" d="M50 0L201 714L220 714L503 54L505 54Q513 93 521 134.50Q529 176 536 211L643 714L669 714L518 0L498 0L216 659L214 659Q205 616 198 579Q191 542 183 502L77 0L50 0M307 804Q320 853 342.50 877.50Q365 902 404 902Q428 902 446.50 891Q465 880 480.50 865Q496 850 511 839Q526 828 542 828Q564 828 582.50 842Q601 856 615 902L642 902Q629 855 605.50 829Q582 803 541 803Q519 803 502 814Q485 825 469.50 840Q454 855 438 866Q422 877 403 877Q383 877 365 863Q347 849 333 804L307 804Z"  horiz-adv-x="674" vert-adv-y="1000"  />

      
      <glyph glyph-name="unid2" unicode="&#xd2;" d="M334-10Q242-10 187 29Q132 68 108 133Q84 198 84 276Q84 358 105 438Q126 518 168.50 583Q211 648 276.50 686.50Q342 725 431 725Q542 725 609 657Q676 589 676 446Q676 399 666 339Q656 279 633 218Q610 157 571 105.50Q532 54 473.50 22Q415-10 334-10M335 15Q406 15 458.50 44Q511 73 547.50 121Q584 169 606.50 226Q629 283 639 340.50Q649 398 649 445Q649 563 595.50 631.50Q542 700 429 700Q358 700 305 673Q252 646 215 601Q178 556 155 500.50Q132 445 121.50 387Q111 329 111 277Q111 200 134 141Q157 82 206.50 48.50Q256 15 335 15M470 792Q455 810 435.50 838.50Q416 867 399 895.50Q382 924 373 942L373 952L401 952Q411 927 426.50 898.50Q442 870 458 845Q474 820 485 804L485 792L470 792Z"  horiz-adv-x="716" vert-adv-y="1000"  />

      
      <glyph glyph-name="unid3" unicode="&#xd3;" d="M334-10Q242-10 187 29Q132 68 108 133Q84 198 84 276Q84 358 105 438Q126 518 168.50 583Q211 648 276.50 686.50Q342 725 431 725Q542 725 609 657Q676 589 676 446Q676 399 666 339Q656 279 633 218Q610 157 571 105.50Q532 54 473.50 22Q415-10 334-10M335 15Q406 15 458.50 44Q511 73 547.50 121Q584 169 606.50 226Q629 283 639 340.50Q649 398 649 445Q649 563 595.50 631.50Q542 700 429 700Q358 700 305 673Q252 646 215 601Q178 556 155 500.50Q132 445 121.50 387Q111 329 111 277Q111 200 134 141Q157 82 206.50 48.50Q256 15 335 15M419 798Q442 818 468.50 846Q495 874 519.50 902.50Q544 931 558 952L588 952L588 945Q562 911 521 868Q480 825 440 792L419 792L419 798Z"  horiz-adv-x="716" vert-adv-y="1000"  />

      
      <glyph glyph-name="unid4" unicode="&#xd4;" d="M334-10Q242-10 187 29Q132 68 108 133Q84 198 84 276Q84 358 105 438Q126 518 168.50 583Q211 648 276.50 686.50Q342 725 431 725Q542 725 609 657Q676 589 676 446Q676 399 666 339Q656 279 633 218Q610 157 571 105.50Q532 54 473.50 22Q415-10 334-10M335 15Q406 15 458.50 44Q511 73 547.50 121Q584 169 606.50 226Q629 283 639 340.50Q649 398 649 445Q649 563 595.50 631.50Q542 700 429 700Q358 700 305 673Q252 646 215 601Q178 556 155 500.50Q132 445 121.50 387Q111 329 111 277Q111 200 134 141Q157 82 206.50 48.50Q256 15 335 15M326 798Q348 819 374.50 846Q401 873 426 900.50Q451 928 467 949L489 949Q496 929 509 901.50Q522 874 537 846.50Q552 819 566 798L564 792L546 792Q525 820 506 854.50Q487 889 473 917Q447 889 413.50 854.50Q380 820 348 792L325 792L326 798Z"  horiz-adv-x="716" vert-adv-y="1000"  />

      
      <glyph glyph-name="unid5" unicode="&#xd5;" d="M334-10Q242-10 187 29Q132 68 108 133Q84 198 84 276Q84 358 105 438Q126 518 168.50 583Q211 648 276.50 686.50Q342 725 431 725Q542 725 609 657Q676 589 676 446Q676 399 666 339Q656 279 633 218Q610 157 571 105.50Q532 54 473.50 22Q415-10 334-10M335 15Q406 15 458.50 44Q511 73 547.50 121Q584 169 606.50 226Q629 283 639 340.50Q649 398 649 445Q649 563 595.50 631.50Q542 700 429 700Q358 700 305 673Q252 646 215 601Q178 556 155 500.50Q132 445 121.50 387Q111 329 111 277Q111 200 134 141Q157 82 206.50 48.50Q256 15 335 15M300 804Q313 853 335.50 877.50Q358 902 397 902Q421 902 439.50 891Q458 880 473.50 865Q489 850 504 839Q519 828 535 828Q557 828 575.50 842Q594 856 608 902L635 902Q622 855 598.50 829Q575 803 534 803Q512 803 495 814Q478 825 462.50 840Q447 855 431 866Q415 877 396 877Q376 877 358 863Q340 849 326 804L300 804Z"  horiz-adv-x="716" vert-adv-y="1000"  />

      
      <glyph glyph-name="unid6" unicode="&#xd6;" d="M334-10Q242-10 187 29Q132 68 108 133Q84 198 84 276Q84 358 105 438Q126 518 168.50 583Q211 648 276.50 686.50Q342 725 431 725Q542 725 609 657Q676 589 676 446Q676 399 666 339Q656 279 633 218Q610 157 571 105.50Q532 54 473.50 22Q415-10 334-10M335 15Q406 15 458.50 44Q511 73 547.50 121Q584 169 606.50 226Q629 283 639 340.50Q649 398 649 445Q649 563 595.50 631.50Q542 700 429 700Q358 700 305 673Q252 646 215 601Q178 556 155 500.50Q132 445 121.50 387Q111 329 111 277Q111 200 134 141Q157 82 206.50 48.50Q256 15 335 15M545 833Q526 833 526 854Q526 867 532.50 881Q539 895 555 895Q575 895 575 874Q575 861 568.50 847Q562 833 545 833M369 833Q350 833 350 854Q350 867 356.50 881Q363 895 379 895Q399 895 399 874Q399 861 392.50 847Q386 833 369 833Z"  horiz-adv-x="716" vert-adv-y="1000"  />

      
      <glyph glyph-name="unid7" unicode="&#xd7;" d="M502 567L519 550L322 353L519 156L502 139L305 336L108 139L91 156L288 353L91 550L108 567L305 370L502 567Z"  horiz-adv-x="570" vert-adv-y="1000"  />

      
      <glyph glyph-name="unid8" unicode="&#xd8;" d="M44-26L26-8L124 99Q103 136 93.50 181Q84 226 84 276Q84 358 105 438Q126 518 168.50 583Q211 648 276.50 686.50Q342 725 431 725Q492 725 540.50 704.50Q589 684 620 643L709 740L728 723L635 621Q655 590 665.50 545.50Q676 501 676 446Q676 399 666 339Q656 279 633 218Q610 157 571 105.50Q532 54 473.50 22Q415-10 334-10Q264-10 215.50 13.50Q167 37 138 77L44-26M602 623Q575 660 532 680Q489 700 429 700Q358 700 305 673Q252 646 215 601Q178 556 155 500.50Q132 445 121.50 387Q111 329 111 277Q111 231 119 191.50Q127 152 143 120L602 623M335 15Q406 15 458.50 44Q511 73 547.50 121Q584 169 606.50 226Q629 283 639 340.50Q649 398 649 445Q649 540 616 600L156 97Q183 59 227.50 37Q272 15 335 15Z"  horiz-adv-x="716" vert-adv-y="1000"  />

      
      <glyph glyph-name="unid9" unicode="&#xd9;" d="M300-10Q204-10 146 39.50Q88 89 88 183Q88 200 90 217.50Q92 235 96 254L194 714L221 714L124 256Q116 216 116 185Q116 102 166 58.50Q216 15 301 15Q402 15 472 75Q542 135 568 257L666 714L693 714L595 252Q566 115 488.50 52.50Q411-10 300-10M473 792Q458 810 438.50 838.50Q419 867 402 895.50Q385 924 376 942L376 952L404 952Q414 927 429.50 898.50Q445 870 461 845Q477 820 488 804L488 792L473 792Z"  horiz-adv-x="692" vert-adv-y="1000"  />

      
      <glyph glyph-name="unida" unicode="&#xda;" d="M300-10Q204-10 146 39.50Q88 89 88 183Q88 200 90 217.50Q92 235 96 254L194 714L221 714L124 256Q116 216 116 185Q116 102 166 58.50Q216 15 301 15Q402 15 472 75Q542 135 568 257L666 714L693 714L595 252Q566 115 488.50 52.50Q411-10 300-10M414 798Q437 818 463.50 846Q490 874 514.50 902.50Q539 931 553 952L583 952L583 945Q557 911 516 868Q475 825 435 792L414 792L414 798Z"  horiz-adv-x="692" vert-adv-y="1000"  />

      
      <glyph glyph-name="unidb" unicode="&#xdb;" d="M300-10Q204-10 146 39.50Q88 89 88 183Q88 200 90 217.50Q92 235 96 254L194 714L221 714L124 256Q116 216 116 185Q116 102 166 58.50Q216 15 301 15Q402 15 472 75Q542 135 568 257L666 714L693 714L595 252Q566 115 488.50 52.50Q411-10 300-10M326 798Q348 819 374.50 846Q401 873 426 900.50Q451 928 467 949L489 949Q496 929 509 901.50Q522 874 537 846.50Q552 819 566 798L564 792L546 792Q525 820 506 854.50Q487 889 473 917Q447 889 413.50 854.50Q380 820 348 792L325 792L326 798Z"  horiz-adv-x="692" vert-adv-y="1000"  />

      
      <glyph glyph-name="unidc" unicode="&#xdc;" d="M300-10Q204-10 146 39.50Q88 89 88 183Q88 200 90 217.50Q92 235 96 254L194 714L221 714L124 256Q116 216 116 185Q116 102 166 58.50Q216 15 301 15Q402 15 472 75Q542 135 568 257L666 714L693 714L595 252Q566 115 488.50 52.50Q411-10 300-10M544 833Q525 833 525 854Q525 867 531.50 881Q538 895 554 895Q574 895 574 874Q574 861 567.50 847Q561 833 544 833M368 833Q349 833 349 854Q349 867 355.50 881Q362 895 378 895Q398 895 398 874Q398 861 391.50 847Q385 833 368 833Z"  horiz-adv-x="692" vert-adv-y="1000"  />

      
      <glyph glyph-name="unidd" unicode="&#xdd;" d="M174 0L231 271L96 714L123 714L249 301L547 714L578 714L259 275L201 0L174 0M315 798Q338 818 364.50 846Q391 874 415.50 902.50Q440 931 454 952L484 952L484 945Q458 911 417 868Q376 825 336 792L315 792L315 798Z"  horiz-adv-x="485" vert-adv-y="1000"  />

      
      <glyph glyph-name="unide" unicode="&#xde;" d="M50 0L201 714L228 714L200 582L328 582Q428 582 479 540Q530 498 530 420Q530 348 506 300Q482 252 440 224Q398 196 344 184.50Q290 173 231 173L113 173L77 0L50 0M235 198Q308 198 368.50 218Q429 238 466 286.50Q503 335 503 419Q503 487 457 522Q411 557 323 557L195 557L119 198L235 198Z"  horiz-adv-x="558" vert-adv-y="1000"  />

      
      <glyph glyph-name="unidf" unicode="&#xdf;" d="M-89-240Q-106-240-119.50-237Q-133-234-144-230L-144-204Q-132-210-117-212.50Q-102-215-88-215Q-50-215-26-188.50Q-2-162 8-116L151 563Q172 663 223 714Q274 765 363 765Q432 765 467.50 731Q503 697 503 648Q503 604 487 577Q471 550 447.50 533.50Q424 517 399 502Q368 484 344 461Q320 438 320 394Q320 365 341.50 343.50Q363 322 388 299Q414 275 436.50 243.50Q459 212 459 162Q459 87 414.50 38.50Q370-10 276-10Q232-10 201-1.50Q170 7 149 17L149 45Q206 15 276 15Q350 15 390.50 52.50Q431 90 431 162Q431 202 413 229Q395 256 372 278Q344 304 319 329.50Q294 355 294 394Q294 432 307.50 455.50Q321 479 342.50 494.50Q364 510 387 523Q409 536 429 551Q449 566 462 589Q475 612 475 647Q475 687 445.50 713.50Q416 740 362 740Q281 740 237.50 693Q194 646 177 563L33-120Q20-181-12.50-210.50Q-45-240-89-240Z"  horiz-adv-x="531" vert-adv-y="1000"  />

      
      <glyph glyph-name="unie0" unicode="&#xe0;" d="M197-10Q125-10 88 41.50Q51 93 51 178Q51 239 68 302.50Q85 366 118.50 419.50Q152 473 202.50 505.50Q253 538 319 538Q366 538 395 517.50Q424 497 439.50 466.50Q455 436 460 407L462 407L489 528L511 528L399 0L377 0L405 139L403 139Q386 109 355.50 74Q325 39 284.50 14.50Q244-10 197-10M200 15Q246 15 293.50 48Q341 81 378.50 137.50Q416 194 430 264Q436 295 439 317Q442 339 442 358Q442 432 409 472.50Q376 513 318 513Q260 513 215 483.50Q170 454 139.50 405Q109 356 93.50 296.50Q78 237 78 178Q78 103 108.50 59Q139 15 200 15M379 606Q364 624 344.50 652.50Q325 681 308 709.50Q291 738 282 756L282 766L310 766Q320 741 335.50 712.50Q351 684 367 659Q383 634 394 618L394 606L379 606Z"  horiz-adv-x="547" vert-adv-y="1000"  />

      
      <glyph glyph-name="unie1" unicode="&#xe1;" d="M197-10Q125-10 88 41.50Q51 93 51 178Q51 239 68 302.50Q85 366 118.50 419.50Q152 473 202.50 505.50Q253 538 319 538Q366 538 395 517.50Q424 497 439.50 466.50Q455 436 460 407L462 407L489 528L511 528L399 0L377 0L405 139L403 139Q386 109 355.50 74Q325 39 284.50 14.50Q244-10 197-10M200 15Q246 15 293.50 48Q341 81 378.50 137.50Q416 194 430 264Q436 295 439 317Q442 339 442 358Q442 432 409 472.50Q376 513 318 513Q260 513 215 483.50Q170 454 139.50 405Q109 356 93.50 296.50Q78 237 78 178Q78 103 108.50 59Q139 15 200 15M308 612Q331 632 357.50 660Q384 688 408.50 716.50Q433 745 447 766L477 766L477 759Q451 725 410 682Q369 639 329 606L308 606L308 612Z"  horiz-adv-x="547" vert-adv-y="1000"  />

      
      <glyph glyph-name="unie2" unicode="&#xe2;" d="M197-10Q125-10 88 41.50Q51 93 51 178Q51 239 68 302.50Q85 366 118.50 419.50Q152 473 202.50 505.50Q253 538 319 538Q366 538 395 517.50Q424 497 439.50 466.50Q455 436 460 407L462 407L489 528L511 528L399 0L377 0L405 139L403 139Q386 109 355.50 74Q325 39 284.50 14.50Q244-10 197-10M200 15Q246 15 293.50 48Q341 81 378.50 137.50Q416 194 430 264Q436 295 439 317Q442 339 442 358Q442 432 409 472.50Q376 513 318 513Q260 513 215 483.50Q170 454 139.50 405Q109 356 93.50 296.50Q78 237 78 178Q78 103 108.50 59Q139 15 200 15M227 612Q249 633 275.50 660Q302 687 327 714.50Q352 742 368 763L390 763Q397 743 410 715.50Q423 688 438 660.50Q453 633 467 612L465 606L447 606Q426 634 407 668.50Q388 703 374 731Q348 703 314.50 668.50Q281 634 249 606L226 606L227 612Z"  horiz-adv-x="547" vert-adv-y="1000"  />

      
      <glyph glyph-name="unie3" unicode="&#xe3;" d="M197-10Q125-10 88 41.50Q51 93 51 178Q51 239 68 302.50Q85 366 118.50 419.50Q152 473 202.50 505.50Q253 538 319 538Q366 538 395 517.50Q424 497 439.50 466.50Q455 436 460 407L462 407L489 528L511 528L399 0L377 0L405 139L403 139Q386 109 355.50 74Q325 39 284.50 14.50Q244-10 197-10M200 15Q246 15 293.50 48Q341 81 378.50 137.50Q416 194 430 264Q436 295 439 317Q442 339 442 358Q442 432 409 472.50Q376 513 318 513Q260 513 215 483.50Q170 454 139.50 405Q109 356 93.50 296.50Q78 237 78 178Q78 103 108.50 59Q139 15 200 15M180 618Q193 667 215.50 691.50Q238 716 277 716Q301 716 319.50 705Q338 694 353.50 679Q369 664 384 653Q399 642 415 642Q437 642 455.50 656Q474 670 488 716L515 716Q502 669 478.50 643Q455 617 414 617Q392 617 375 628Q358 639 342.50 654Q327 669 311 680Q295 691 276 691Q256 691 238 677Q220 663 206 618L180 618Z"  horiz-adv-x="547" vert-adv-y="1000"  />

      
      <glyph glyph-name="unie4" unicode="&#xe4;" d="M197-10Q125-10 88 41.50Q51 93 51 178Q51 239 68 302.50Q85 366 118.50 419.50Q152 473 202.50 505.50Q253 538 319 538Q366 538 395 517.50Q424 497 439.50 466.50Q455 436 460 407L462 407L489 528L511 528L399 0L377 0L405 139L403 139Q386 109 355.50 74Q325 39 284.50 14.50Q244-10 197-10M200 15Q246 15 293.50 48Q341 81 378.50 137.50Q416 194 430 264Q436 295 439 317Q442 339 442 358Q442 432 409 472.50Q376 513 318 513Q260 513 215 483.50Q170 454 139.50 405Q109 356 93.50 296.50Q78 237 78 178Q78 103 108.50 59Q139 15 200 15M445 647Q426 647 426 668Q426 681 432.50 695Q439 709 455 709Q475 709 475 688Q475 675 468.50 661Q462 647 445 647M269 647Q250 647 250 668Q250 681 256.50 695Q263 709 279 709Q299 709 299 688Q299 675 292.50 661Q286 647 269 647Z"  horiz-adv-x="547" vert-adv-y="1000"  />

      
      <glyph glyph-name="unie5" unicode="&#xe5;" d="M197-10Q125-10 88 41.50Q51 93 51 178Q51 239 68 302.50Q85 366 118.50 419.50Q152 473 202.50 505.50Q253 538 319 538Q366 538 395 517.50Q424 497 439.50 466.50Q455 436 460 407L462 407L489 528L511 528L399 0L377 0L405 139L403 139Q386 109 355.50 74Q325 39 284.50 14.50Q244-10 197-10M200 15Q246 15 293.50 48Q341 81 378.50 137.50Q416 194 430 264Q436 295 439 317Q442 339 442 358Q442 432 409 472.50Q376 513 318 513Q260 513 215 483.50Q170 454 139.50 405Q109 356 93.50 296.50Q78 237 78 178Q78 103 108.50 59Q139 15 200 15M353 611Q313 611 282.50 638.50Q252 666 252 711Q252 754 282 782.50Q312 811 353 811Q394 811 423.50 781.50Q453 752 453 711Q453 667 423.50 639Q394 611 353 611M353 635Q387 635 408 657.50Q429 680 429 711Q429 743 406.50 765Q384 787 353 787Q320 787 298 765Q276 743 276 711Q276 680 297.50 657.50Q319 635 353 635Z"  horiz-adv-x="547" vert-adv-y="1000"  />

      
      <glyph glyph-name="unie6" unicode="&#xe6;" d="M194-10Q127-10 89 41Q51 92 51 178Q51 239 68 302.50Q85 366 118 419.50Q151 473 200.50 505.50Q250 538 314 538Q360 538 386 516Q412 494 424 463.50Q436 433 438 407L440 407L468 528L491 528L464 404Q501 464 553 501Q605 538 678 538Q730 538 765 506Q800 474 800 425Q800 376 774 343Q748 310 702.50 291Q657 272 597 264Q537 256 469 256L435 256Q434 245 432.50 228Q431 211 431 194Q431 110 473 62.50Q515 15 595 15Q635 15 669.50 26Q704 37 728 48L728 23Q705 10 668 0Q631-10 594-10Q525-10 474.50 27Q424 64 411 146L380 0L358 0L386 133L384 133Q368 100 341 67Q314 34 277.50 12Q241-10 194-10M197 15Q246 15 289 48Q332 81 364 137.50Q396 194 410 264Q417 296 419.50 317.50Q422 339 422 358Q422 432 393.50 472.50Q365 513 313 513Q257 513 213 483.50Q169 454 139 405Q109 356 93.50 296.50Q78 237 78 178Q78 102 109 58.50Q140 15 197 15M487 281Q571 281 635.50 296Q700 311 736.50 342.50Q773 374 773 424Q773 459 748.50 486Q724 513 675 513Q623 513 574.50 485.50Q526 458 490 406.50Q454 355 439 281L487 281Z"  horiz-adv-x="842" vert-adv-y="1000"  />

      
      <glyph glyph-name="unie7" unicode="&#xe7;" d="M247-10Q185-10 142 17Q99 44 77 90Q55 136 55 194Q55 263 73.50 325Q92 387 128 435Q164 483 216 510.50Q268 538 335 538Q369 538 401.50 532Q434 526 458 514L450 489Q425 502 393.50 507.50Q362 513 335 513Q257 513 200.50 470Q144 427 113 355.50Q82 284 82 196Q82 146 100.50 105Q119 64 156 39.50Q193 15 248 15Q284 15 314 23Q344 31 375 45L375 19Q351 7 319.50-1.50Q288-10 247-10M153-240Q119-240 98-234L98-210Q121-216 151-216Q171-216 193.50-208.50Q216-201 232-184Q248-167 248-139Q248-85 163-85L210 0L236 0L202-65Q235-68 255-87.50Q275-107 275-139Q275-171 257-194Q239-217 211.50-228.50Q184-240 153-240Z"  horiz-adv-x="452" vert-adv-y="1000"  />

      
      <glyph glyph-name="unie8" unicode="&#xe8;" d="M246-10Q199-10 157 10.50Q115 31 88.50 76Q62 121 62 194Q62 266 82.50 328.50Q103 391 140.50 438Q178 485 227 511.50Q276 538 333 538Q389 538 423.50 506Q458 474 458 424Q458 375 432 342.50Q406 310 360.50 291Q315 272 255 264Q195 256 127 256L93 256Q92 245 90.50 228Q89 211 89 194Q89 107 133 61Q177 15 251 15Q294 15 328 26.50Q362 38 386 48L386 22Q364 10 325.50 0Q287-10 246-10M145 281Q229 281 293.50 296Q358 311 394.50 342.50Q431 374 431 423Q431 462 405 487.50Q379 513 329 513Q281 513 233 485.50Q185 458 148.50 406.50Q112 355 97 281L145 281M347 606Q332 624 312.50 652.50Q293 681 276 709.50Q259 738 250 756L250 766L278 766Q288 741 303.50 712.50Q319 684 335 659Q351 634 362 618L362 606L347 606Z"  horiz-adv-x="491" vert-adv-y="1000"  />

      
      <glyph glyph-name="unie9" unicode="&#xe9;" d="M246-10Q199-10 157 10.50Q115 31 88.50 76Q62 121 62 194Q62 266 82.50 328.50Q103 391 140.50 438Q178 485 227 511.50Q276 538 333 538Q389 538 423.50 506Q458 474 458 424Q458 375 432 342.50Q406 310 360.50 291Q315 272 255 264Q195 256 127 256L93 256Q92 245 90.50 228Q89 211 89 194Q89 107 133 61Q177 15 251 15Q294 15 328 26.50Q362 38 386 48L386 22Q364 10 325.50 0Q287-10 246-10M145 281Q229 281 293.50 296Q358 311 394.50 342.50Q431 374 431 423Q431 462 405 487.50Q379 513 329 513Q281 513 233 485.50Q185 458 148.50 406.50Q112 355 97 281L145 281M287 612Q310 632 336.50 660Q363 688 387.50 716.50Q412 745 426 766L456 766L456 759Q430 725 389 682Q348 639 308 606L287 606L287 612Z"  horiz-adv-x="491" vert-adv-y="1000"  />

      
      <glyph glyph-name="uniea" unicode="&#xea;" d="M246-10Q199-10 157 10.50Q115 31 88.50 76Q62 121 62 194Q62 266 82.50 328.50Q103 391 140.50 438Q178 485 227 511.50Q276 538 333 538Q389 538 423.50 506Q458 474 458 424Q458 375 432 342.50Q406 310 360.50 291Q315 272 255 264Q195 256 127 256L93 256Q92 245 90.50 228Q89 211 89 194Q89 107 133 61Q177 15 251 15Q294 15 328 26.50Q362 38 386 48L386 22Q364 10 325.50 0Q287-10 246-10M145 281Q229 281 293.50 296Q358 311 394.50 342.50Q431 374 431 423Q431 462 405 487.50Q379 513 329 513Q281 513 233 485.50Q185 458 148.50 406.50Q112 355 97 281L145 281M199 612Q221 633 247.50 660Q274 687 299 714.50Q324 742 340 763L362 763Q369 743 382 715.50Q395 688 410 660.50Q425 633 439 612L437 606L419 606Q398 634 379 668.50Q360 703 346 731Q320 703 286.50 668.50Q253 634 221 606L198 606L199 612Z"  horiz-adv-x="491" vert-adv-y="1000"  />

      
      <glyph glyph-name="unieb" unicode="&#xeb;" d="M246-10Q199-10 157 10.50Q115 31 88.50 76Q62 121 62 194Q62 266 82.50 328.50Q103 391 140.50 438Q178 485 227 511.50Q276 538 333 538Q389 538 423.50 506Q458 474 458 424Q458 375 432 342.50Q406 310 360.50 291Q315 272 255 264Q195 256 127 256L93 256Q92 245 90.50 228Q89 211 89 194Q89 107 133 61Q177 15 251 15Q294 15 328 26.50Q362 38 386 48L386 22Q364 10 325.50 0Q287-10 246-10M145 281Q229 281 293.50 296Q358 311 394.50 342.50Q431 374 431 423Q431 462 405 487.50Q379 513 329 513Q281 513 233 485.50Q185 458 148.50 406.50Q112 355 97 281L145 281M415 647Q396 647 396 668Q396 681 402.50 695Q409 709 425 709Q445 709 445 688Q445 675 438.50 661Q432 647 415 647M239 647Q220 647 220 668Q220 681 226.50 695Q233 709 249 709Q269 709 269 688Q269 675 262.50 661Q256 647 239 647Z"  horiz-adv-x="491" vert-adv-y="1000"  />

      
      <glyph glyph-name="uniec" unicode="&#xec;" d="M32 0L144 528L170 528L58 0L32 0M189 606Q174 624 154.50 652.50Q135 681 118 709.50Q101 738 92 756L92 766L120 766Q130 741 145.50 712.50Q161 684 177 659Q193 634 204 618L204 606L189 606Z"  horiz-adv-x="207" vert-adv-y="1000"  />

      
      <glyph glyph-name="unied" unicode="&#xed;" d="M32 0L144 528L170 528L58 0L32 0M128 612Q151 632 177.50 660Q204 688 228.50 716.50Q253 745 267 766L297 766L297 759Q271 725 230 682Q189 639 149 606L128 606L128 612Z"  horiz-adv-x="207" vert-adv-y="1000"  />

      
      <glyph glyph-name="uniee" unicode="&#xee;" d="M32 0L144 528L170 528L58 0L32 0M52 612Q74 633 100.50 660Q127 687 152 714.50Q177 742 193 763L215 763Q222 743 235 715.50Q248 688 263 660.50Q278 633 292 612L290 606L272 606Q251 634 232 668.50Q213 703 199 731Q173 703 139.50 668.50Q106 634 74 606L51 606L52 612Z"  horiz-adv-x="207" vert-adv-y="1000"  />

      
      <glyph glyph-name="unief" unicode="&#xef;" d="M32 0L144 528L170 528L58 0L32 0M265 647Q246 647 246 668Q246 681 252.50 695Q259 709 275 709Q295 709 295 688Q295 675 288.50 661Q282 647 265 647M89 647Q70 647 70 668Q70 681 76.50 695Q83 709 99 709Q119 709 119 688Q119 675 112.50 661Q106 647 89 647Z"  horiz-adv-x="207" vert-adv-y="1000"  />

      
      <glyph glyph-name="unif0" unicode="&#xf0;" d="M224-10Q170-10 131 15.50Q92 41 71 84.50Q50 128 50 182Q50 236 66 286.50Q82 337 113.50 377.50Q145 418 190.50 441.50Q236 465 296 465Q364 465 409 429.50Q454 394 467 344L469 344Q469 426 444.50 509Q420 592 376 652L242 577L231 598L361 670Q332 707 284 741L303 762Q326 744 346.50 723.50Q367 703 383 683L507 752L518 731L398 665Q436 610 465 528Q494 446 494 342Q494 273 477 209.50Q460 146 426 96.50Q392 47 341.50 18.50Q291-10 224-10M225 15Q282 15 334.50 46Q387 77 420.50 137.50Q454 198 454 288Q454 310 446 336Q438 362 419.50 386Q401 410 370.50 425Q340 440 295 440Q227 440 178 404.50Q129 369 103 310.50Q77 252 77 183Q77 107 119 61Q161 15 225 15Z"  horiz-adv-x="551" vert-adv-y="1000"  />

      
      <glyph glyph-name="unif1" unicode="&#xf1;" d="M32 0L144 528L166 528L138 389L140 389Q157 421 187.50 455.50Q218 490 261.50 514Q305 538 358 538Q423 538 458 505Q493 472 493 408Q493 379 485 342L413 0L387 0L460 345Q464 362 465.50 376.50Q467 391 467 404Q467 460 437 486.50Q407 513 354 513Q299 513 249.50 479Q200 445 164.50 390.50Q129 336 116 274L58 0L32 0M181 618Q194 667 216.50 691.50Q239 716 278 716Q302 716 320.50 705Q339 694 354.50 679Q370 664 385 653Q400 642 416 642Q438 642 456.50 656Q475 670 489 716L516 716Q503 669 479.50 643Q456 617 415 617Q393 617 376 628Q359 639 343.50 654Q328 669 312 680Q296 691 277 691Q257 691 239 677Q221 663 207 618L181 618Z"  horiz-adv-x="553" vert-adv-y="1000"  />

      
      <glyph glyph-name="unif2" unicode="&#xf2;" d="M237-10Q145-10 100 46.50Q55 103 55 192Q55 297 91.50 374.50Q128 452 190.50 495Q253 538 331 538Q390 538 429.50 512Q469 486 489.50 441Q510 396 510 338Q510 267 491.50 204Q473 141 437.50 93Q402 45 351.50 17.50Q301-10 237-10M240 15Q316 15 370.50 58.50Q425 102 454 175.50Q483 249 483 339Q483 415 444.50 464Q406 513 329 513Q259 513 203 473.50Q147 434 114.50 362Q82 290 82 192Q82 111 121.50 63Q161 15 240 15M362 606Q347 624 327.50 652.50Q308 681 291 709.50Q274 738 265 756L265 766L293 766Q303 741 318.50 712.50Q334 684 350 659Q366 634 377 618L377 606L362 606Z"  horiz-adv-x="565" vert-adv-y="1000"  />

      
      <glyph glyph-name="unif3" unicode="&#xf3;" d="M237-10Q145-10 100 46.50Q55 103 55 192Q55 297 91.50 374.50Q128 452 190.50 495Q253 538 331 538Q390 538 429.50 512Q469 486 489.50 441Q510 396 510 338Q510 267 491.50 204Q473 141 437.50 93Q402 45 351.50 17.50Q301-10 237-10M240 15Q316 15 370.50 58.50Q425 102 454 175.50Q483 249 483 339Q483 415 444.50 464Q406 513 329 513Q259 513 203 473.50Q147 434 114.50 362Q82 290 82 192Q82 111 121.50 63Q161 15 240 15M309 612Q332 632 358.50 660Q385 688 409.50 716.50Q434 745 448 766L478 766L478 759Q452 725 411 682Q370 639 330 606L309 606L309 612Z"  horiz-adv-x="565" vert-adv-y="1000"  />

      
      <glyph glyph-name="unif4" unicode="&#xf4;" d="M237-10Q145-10 100 46.50Q55 103 55 192Q55 297 91.50 374.50Q128 452 190.50 495Q253 538 331 538Q390 538 429.50 512Q469 486 489.50 441Q510 396 510 338Q510 267 491.50 204Q473 141 437.50 93Q402 45 351.50 17.50Q301-10 237-10M240 15Q316 15 370.50 58.50Q425 102 454 175.50Q483 249 483 339Q483 415 444.50 464Q406 513 329 513Q259 513 203 473.50Q147 434 114.50 362Q82 290 82 192Q82 111 121.50 63Q161 15 240 15M217 612Q239 633 265.50 660Q292 687 317 714.50Q342 742 358 763L380 763Q387 743 400 715.50Q413 688 428 660.50Q443 633 457 612L455 606L437 606Q416 634 397 668.50Q378 703 364 731Q338 703 304.50 668.50Q271 634 239 606L216 606L217 612Z"  horiz-adv-x="565" vert-adv-y="1000"  />

      
      <glyph glyph-name="unif5" unicode="&#xf5;" d="M237-10Q145-10 100 46.50Q55 103 55 192Q55 297 91.50 374.50Q128 452 190.50 495Q253 538 331 538Q390 538 429.50 512Q469 486 489.50 441Q510 396 510 338Q510 267 491.50 204Q473 141 437.50 93Q402 45 351.50 17.50Q301-10 237-10M240 15Q316 15 370.50 58.50Q425 102 454 175.50Q483 249 483 339Q483 415 444.50 464Q406 513 329 513Q259 513 203 473.50Q147 434 114.50 362Q82 290 82 192Q82 111 121.50 63Q161 15 240 15M188 618Q201 667 223.50 691.50Q246 716 285 716Q309 716 327.50 705Q346 694 361.50 679Q377 664 392 653Q407 642 423 642Q445 642 463.50 656Q482 670 496 716L523 716Q510 669 486.50 643Q463 617 422 617Q400 617 383 628Q366 639 350.50 654Q335 669 319 680Q303 691 284 691Q264 691 246 677Q228 663 214 618L188 618Z"  horiz-adv-x="565" vert-adv-y="1000"  />

      
      <glyph glyph-name="unif6" unicode="&#xf6;" d="M237-10Q145-10 100 46.50Q55 103 55 192Q55 297 91.50 374.50Q128 452 190.50 495Q253 538 331 538Q390 538 429.50 512Q469 486 489.50 441Q510 396 510 338Q510 267 491.50 204Q473 141 437.50 93Q402 45 351.50 17.50Q301-10 237-10M240 15Q316 15 370.50 58.50Q425 102 454 175.50Q483 249 483 339Q483 415 444.50 464Q406 513 329 513Q259 513 203 473.50Q147 434 114.50 362Q82 290 82 192Q82 111 121.50 63Q161 15 240 15M444 647Q425 647 425 668Q425 681 431.50 695Q438 709 454 709Q474 709 474 688Q474 675 467.50 661Q461 647 444 647M268 647Q249 647 249 668Q249 681 255.50 695Q262 709 278 709Q298 709 298 688Q298 675 291.50 661Q285 647 268 647Z"  horiz-adv-x="565" vert-adv-y="1000"  />

      
      <glyph glyph-name="unif7" unicode="&#xf7;" d="M304 500Q289 500 284 509Q279 518 279 531Q279 543 284 552.50Q289 562 304 562Q322 562 326.50 552.50Q331 543 331 531Q331 518 326.50 509Q322 500 304 500M75 341L75 365L535 365L535 341L75 341M304 144Q289 144 284 153Q279 162 279 175Q279 187 284 196.50Q289 206 304 206Q322 206 326.50 196.50Q331 187 331 175Q331 162 326.50 153Q322 144 304 144Z"  horiz-adv-x="570" vert-adv-y="1000"  />

      
      <glyph glyph-name="unif8" unicode="&#xf8;" d="M14-29L-4-11L81 76Q68 100 61.50 129Q55 158 55 192Q55 297 91.50 374.50Q128 452 190.50 495Q253 538 331 538Q378 538 413 521Q448 504 470 474L549 555L567 537L484 452Q510 403 510 338Q510 267 491.50 204Q473 141 437.50 93Q402 45 351.50 17.50Q301-10 237-10Q186-10 151 7.50Q116 25 95 54L14-29M452 456Q433 482 402 497.50Q371 513 329 513Q259 513 203 473.50Q147 434 114.50 362Q82 290 82 192Q82 164 87 139Q92 114 100 95L452 456M240 15Q316 15 370.50 58.50Q425 102 454 175.50Q483 249 483 339Q483 394 465 433L113 73Q154 15 240 15Z"  horiz-adv-x="565" vert-adv-y="1000"  />

      
      <glyph glyph-name="unif9" unicode="&#xf9;" d="M190-10Q125-10 90 23Q55 56 55 120Q55 149 63 186L135 528L161 528L88 183Q84 167 82.50 152Q81 137 81 124Q81 68 111 41.50Q141 15 194 15Q250 15 299 49Q348 83 383.50 137.50Q419 192 432 254L490 528L516 528L404 0L382 0L410 139L408 139Q392 108 361 73Q330 38 287 14Q244-10 190-10M368 606Q353 624 333.50 652.50Q314 681 297 709.50Q280 738 271 756L271 766L299 766Q309 741 324.50 712.50Q340 684 356 659Q372 634 383 618L383 606L368 606Z"  horiz-adv-x="553" vert-adv-y="1000"  />

      
      <glyph glyph-name="unifa" unicode="&#xfa;" d="M190-10Q125-10 90 23Q55 56 55 120Q55 149 63 186L135 528L161 528L88 183Q84 167 82.50 152Q81 137 81 124Q81 68 111 41.50Q141 15 194 15Q250 15 299 49Q348 83 383.50 137.50Q419 192 432 254L490 528L516 528L404 0L382 0L410 139L408 139Q392 108 361 73Q330 38 287 14Q244-10 190-10M303 612Q326 632 352.50 660Q379 688 403.50 716.50Q428 745 442 766L472 766L472 759Q446 725 405 682Q364 639 324 606L303 606L303 612Z"  horiz-adv-x="553" vert-adv-y="1000"  />

      
      <glyph glyph-name="unifb" unicode="&#xfb;" d="M190-10Q125-10 90 23Q55 56 55 120Q55 149 63 186L135 528L161 528L88 183Q84 167 82.50 152Q81 137 81 124Q81 68 111 41.50Q141 15 194 15Q250 15 299 49Q348 83 383.50 137.50Q419 192 432 254L490 528L516 528L404 0L382 0L410 139L408 139Q392 108 361 73Q330 38 287 14Q244-10 190-10M216 612Q238 633 264.50 660Q291 687 316 714.50Q341 742 357 763L379 763Q386 743 399 715.50Q412 688 427 660.50Q442 633 456 612L454 606L436 606Q415 634 396 668.50Q377 703 363 731Q337 703 303.50 668.50Q270 634 238 606L215 606L216 612Z"  horiz-adv-x="553" vert-adv-y="1000"  />

      
      <glyph glyph-name="unifc" unicode="&#xfc;" d="M190-10Q125-10 90 23Q55 56 55 120Q55 149 63 186L135 528L161 528L88 183Q84 167 82.50 152Q81 137 81 124Q81 68 111 41.50Q141 15 194 15Q250 15 299 49Q348 83 383.50 137.50Q419 192 432 254L490 528L516 528L404 0L382 0L410 139L408 139Q392 108 361 73Q330 38 287 14Q244-10 190-10M433 647Q414 647 414 668Q414 681 420.50 695Q427 709 443 709Q463 709 463 688Q463 675 456.50 661Q450 647 433 647M257 647Q238 647 238 668Q238 681 244.50 695Q251 709 267 709Q287 709 287 688Q287 675 280.50 661Q274 647 257 647Z"  horiz-adv-x="553" vert-adv-y="1000"  />

      
      <glyph glyph-name="unifd" unicode="&#xfd;" d="M-57-243Q-93-243-114-233L-114-207Q-102-212-88.50-215Q-75-218-55-218Q-19-218 10.50-190Q40-162 74-103L138 7L50 528L76 528L135 172Q143 126 148 93Q153 60 155 37L157 37Q168 59 185.50 92Q203 125 228 168L430 528L459 528L96-115Q62-176 26-209.50Q-10-243-57-243M222 612Q245 632 271.50 660Q298 688 322.50 716.50Q347 745 361 766L391 766L391 759Q365 725 324 682Q283 639 243 606L222 606L222 612Z"  horiz-adv-x="410" vert-adv-y="1000"  />

      
      <glyph glyph-name="unife" unicode="&#xfe;" d="M-17-232L193 760L219 760L173 543Q166 512 156.50 469.50Q147 427 137 389L140 389Q159 425 190.50 459.50Q222 494 264.50 516Q307 538 357 538Q429 538 471 486.50Q513 435 513 350Q513 289 496.50 226Q480 163 446 109.50Q412 56 360.50 23Q309-10 239-10Q189-10 156 9Q123 28 105.50 58.50Q88 89 83 121L81 121Q76 87 69 52Q62 17 55-15L9-232L-17-232M240 15Q302 15 348 44.50Q394 74 425 123.50Q456 173 471 232Q486 291 486 350Q486 425 451 469Q416 513 352 513Q301 513 251.50 481.50Q202 450 164.50 393.50Q127 337 111 262Q105 233 103 211.50Q101 190 101 170Q101 92 140 53.50Q179 15 240 15Z"  horiz-adv-x="568" vert-adv-y="1000"  />

      
      <glyph glyph-name="uniff" unicode="&#xff;" d="M-57-243Q-93-243-114-233L-114-207Q-102-212-88.50-215Q-75-218-55-218Q-19-218 10.50-190Q40-162 74-103L138 7L50 528L76 528L135 172Q143 126 148 93Q153 60 155 37L157 37Q168 59 185.50 92Q203 125 228 168L430 528L459 528L96-115Q62-176 26-209.50Q-10-243-57-243M360 647Q341 647 341 668Q341 681 347.50 695Q354 709 370 709Q390 709 390 688Q390 675 383.50 661Q377 647 360 647M184 647Q165 647 165 668Q165 681 171.50 695Q178 709 194 709Q214 709 214 688Q214 675 207.50 661Q201 647 184 647Z"  horiz-adv-x="410" vert-adv-y="1000"  />

      
      <glyph glyph-name="uni0100" unicode="&#x0100;" d="M-50 0L368 716L392 716L498 0L473 0L432 271L138 271L-20 0L-50 0M152 296L428 296L385 594Q379 633 374 682L372 682Q361 660 348.50 637.50Q336 615 324 594L152 296M267 800L272 825L514 825L509 800L267 800Z"  horiz-adv-x="547" vert-adv-y="1000"  />

      
      <glyph glyph-name="uni0101" unicode="&#x0101;" d="M197-10Q125-10 88 41.50Q51 93 51 178Q51 239 68 302.50Q85 366 118.50 419.50Q152 473 202.50 505.50Q253 538 319 538Q366 538 395 517.50Q424 497 439.50 466.50Q455 436 460 407L462 407L489 528L511 528L399 0L377 0L405 139L403 139Q386 109 355.50 74Q325 39 284.50 14.50Q244-10 197-10M200 15Q246 15 293.50 48Q341 81 378.50 137.50Q416 194 430 264Q436 295 439 317Q442 339 442 358Q442 432 409 472.50Q376 513 318 513Q260 513 215 483.50Q170 454 139.50 405Q109 356 93.50 296.50Q78 237 78 178Q78 103 108.50 59Q139 15 200 15M225 614L230 639L472 639L467 614L225 614Z"  horiz-adv-x="547" vert-adv-y="1000"  />

      
      <glyph glyph-name="uni0102" unicode="&#x0102;" d="M-50 0L368 716L392 716L498 0L473 0L432 271L138 271L-20 0L-50 0M152 296L428 296L385 594Q379 633 374 682L372 682Q361 660 348.50 637.50Q336 615 324 594L152 296M387 792Q341 792 313 816Q285 840 285 884Q285 896 287 904L313 904Q310 883 315 863Q320 843 337.50 830Q355 817 387 817Q432 817 457 840.50Q482 864 495 904L521 904Q505 849 472.50 820.50Q440 792 387 792Z"  horiz-adv-x="547" vert-adv-y="1000"  />

      
      <glyph glyph-name="uni0103" unicode="&#x0103;" d="M197-10Q125-10 88 41.50Q51 93 51 178Q51 239 68 302.50Q85 366 118.50 419.50Q152 473 202.50 505.50Q253 538 319 538Q366 538 395 517.50Q424 497 439.50 466.50Q455 436 460 407L462 407L489 528L511 528L399 0L377 0L405 139L403 139Q386 109 355.50 74Q325 39 284.50 14.50Q244-10 197-10M200 15Q246 15 293.50 48Q341 81 378.50 137.50Q416 194 430 264Q436 295 439 317Q442 339 442 358Q442 432 409 472.50Q376 513 318 513Q260 513 215 483.50Q170 454 139.50 405Q109 356 93.50 296.50Q78 237 78 178Q78 103 108.50 59Q139 15 200 15M346 606Q300 606 272 630Q244 654 244 698Q244 710 246 718L272 718Q269 697 274 677Q279 657 296.50 644Q314 631 346 631Q391 631 416 654.50Q441 678 454 718L480 718Q464 663 431.50 634.50Q399 606 346 606Z"  horiz-adv-x="547" vert-adv-y="1000"  />

      
      <glyph glyph-name="uni0104" unicode="&#x0104;" d="M-50 0L368 716L392 716L498 0L473 0L432 271L138 271L-20 0L-50 0M152 296L428 296L385 594Q379 633 374 682L372 682Q361 660 348.50 637.50Q336 615 324 594L152 296M424-217Q394-217 374.50-199Q355-181 355-149Q355-113 374.50-84.50Q394-56 423.50-32Q453-8 483 11L498 0Q475-16 447.50-38Q420-60 400.50-87Q381-114 381-147Q381-192 427-192Q441-192 452-190Q463-188 472-185L472-209Q463-212 451-214.50Q439-217 424-217Z"  horiz-adv-x="547" vert-adv-y="1000"  />

      
      <glyph glyph-name="uni0105" unicode="&#x0105;" d="M197-10Q125-10 88 41.50Q51 93 51 178Q51 239 68 302.50Q85 366 118.50 419.50Q152 473 202.50 505.50Q253 538 319 538Q366 538 395 517.50Q424 497 439.50 466.50Q455 436 460 407L462 407L489 528L511 528L399 0L377 0L405 139L403 139Q386 109 355.50 74Q325 39 284.50 14.50Q244-10 197-10M200 15Q246 15 293.50 48Q341 81 378.50 137.50Q416 194 430 264Q436 295 439 317Q442 339 442 358Q442 432 409 472.50Q376 513 318 513Q260 513 215 483.50Q170 454 139.50 405Q109 356 93.50 296.50Q78 237 78 178Q78 103 108.50 59Q139 15 200 15M325-217Q295-217 275.50-199Q256-181 256-149Q256-113 275.50-84.50Q295-56 324.50-32Q354-8 384 11L399 0Q376-16 348.50-38Q321-60 301.50-87Q282-114 282-147Q282-192 328-192Q342-192 353-190Q364-188 373-185L373-209Q364-212 352-214.50Q340-217 325-217Z"  horiz-adv-x="547" vert-adv-y="1000"  />

      
      <glyph glyph-name="uni0106" unicode="&#x0106;" d="M326-10Q250-10 195.50 24.50Q141 59 112.50 121.50Q84 184 84 268Q84 370 113.50 454Q143 538 196 598.50Q249 659 319.50 691.50Q390 724 471 724Q563 724 633 687L621 662Q586 683 548 691Q510 699 471 699Q395 699 329 668Q263 637 214 580.50Q165 524 137.50 445Q110 366 110 270Q110 152 168 83.50Q226 15 327 15Q378 15 421 23.50Q464 32 500 44L500 21Q466 8 422.50-1Q379-10 326-10M414 798Q437 818 463.50 846Q490 874 514.50 902.50Q539 931 553 952L583 952L583 945Q557 911 516 868Q475 825 435 792L414 792L414 798Z"  horiz-adv-x="594" vert-adv-y="1000"  />

      
      <glyph glyph-name="uni0107" unicode="&#x0107;" d="M247-10Q185-10 142 17Q99 44 77 90Q55 136 55 194Q55 263 73.50 325Q92 387 128 435Q164 483 216 510.50Q268 538 335 538Q369 538 401.50 532Q434 526 458 514L450 489Q425 502 393.50 507.50Q362 513 335 513Q257 513 200.50 470Q144 427 113 355.50Q82 284 82 196Q82 146 100.50 105Q119 64 156 39.50Q193 15 248 15Q284 15 314 23Q344 31 375 45L375 19Q351 7 319.50-1.50Q288-10 247-10M281 612Q304 632 330.50 660Q357 688 381.50 716.50Q406 745 420 766L450 766L450 759Q424 725 383 682Q342 639 302 606L281 606L281 612Z"  horiz-adv-x="452" vert-adv-y="1000"  />

      
      <glyph glyph-name="uni0108" unicode="&#x0108;" d="M326-10Q250-10 195.50 24.50Q141 59 112.50 121.50Q84 184 84 268Q84 370 113.50 454Q143 538 196 598.50Q249 659 319.50 691.50Q390 724 471 724Q563 724 633 687L621 662Q586 683 548 691Q510 699 471 699Q395 699 329 668Q263 637 214 580.50Q165 524 137.50 445Q110 366 110 270Q110 152 168 83.50Q226 15 327 15Q378 15 421 23.50Q464 32 500 44L500 21Q466 8 422.50-1Q379-10 326-10M351 798Q373 819 399.50 846Q426 873 451 900.50Q476 928 492 949L514 949Q521 929 534 901.50Q547 874 562 846.50Q577 819 591 798L589 792L571 792Q550 820 531 854.50Q512 889 498 917Q472 889 438.50 854.50Q405 820 373 792L350 792L351 798Z"  horiz-adv-x="594" vert-adv-y="1000"  />

      
      <glyph glyph-name="uni0109" unicode="&#x0109;" d="M247-10Q185-10 142 17Q99 44 77 90Q55 136 55 194Q55 263 73.50 325Q92 387 128 435Q164 483 216 510.50Q268 538 335 538Q369 538 401.50 532Q434 526 458 514L450 489Q425 502 393.50 507.50Q362 513 335 513Q257 513 200.50 470Q144 427 113 355.50Q82 284 82 196Q82 146 100.50 105Q119 64 156 39.50Q193 15 248 15Q284 15 314 23Q344 31 375 45L375 19Q351 7 319.50-1.50Q288-10 247-10M202 612Q224 633 250.50 660Q277 687 302 714.50Q327 742 343 763L365 763Q372 743 385 715.50Q398 688 413 660.50Q428 633 442 612L440 606L422 606Q401 634 382 668.50Q363 703 349 731Q323 703 289.50 668.50Q256 634 224 606L201 606L202 612Z"  horiz-adv-x="452" vert-adv-y="1000"  />

      
      <glyph glyph-name="uni010A" unicode="&#x010A;" d="M326-10Q250-10 195.50 24.50Q141 59 112.50 121.50Q84 184 84 268Q84 370 113.50 454Q143 538 196 598.50Q249 659 319.50 691.50Q390 724 471 724Q563 724 633 687L621 662Q586 683 548 691Q510 699 471 699Q395 699 329 668Q263 637 214 580.50Q165 524 137.50 445Q110 366 110 270Q110 152 168 83.50Q226 15 327 15Q378 15 421 23.50Q464 32 500 44L500 21Q466 8 422.50-1Q379-10 326-10M487 845Q464 845 464 867Q464 881 471.50 894Q479 907 494 907Q506 907 511 900Q516 893 516 885Q516 872 508.50 858.50Q501 845 487 845Z"  horiz-adv-x="594" vert-adv-y="1000"  />

      
      <glyph glyph-name="uni010B" unicode="&#x010B;" d="M247-10Q185-10 142 17Q99 44 77 90Q55 136 55 194Q55 263 73.50 325Q92 387 128 435Q164 483 216 510.50Q268 538 335 538Q369 538 401.50 532Q434 526 458 514L450 489Q425 502 393.50 507.50Q362 513 335 513Q257 513 200.50 470Q144 427 113 355.50Q82 284 82 196Q82 146 100.50 105Q119 64 156 39.50Q193 15 248 15Q284 15 314 23Q344 31 375 45L375 19Q351 7 319.50-1.50Q288-10 247-10M338 659Q315 659 315 681Q315 695 322.50 708Q330 721 345 721Q357 721 362 714Q367 707 367 699Q367 686 359.50 672.50Q352 659 338 659Z"  horiz-adv-x="452" vert-adv-y="1000"  />

      
      <glyph glyph-name="uni010C" unicode="&#x010C;" d="M326-10Q250-10 195.50 24.50Q141 59 112.50 121.50Q84 184 84 268Q84 370 113.50 454Q143 538 196 598.50Q249 659 319.50 691.50Q390 724 471 724Q563 724 633 687L621 662Q586 683 548 691Q510 699 471 699Q395 699 329 668Q263 637 214 580.50Q165 524 137.50 445Q110 366 110 270Q110 152 168 83.50Q226 15 327 15Q378 15 421 23.50Q464 32 500 44L500 21Q466 8 422.50-1Q379-10 326-10M453 792Q446 813 433 840.50Q420 868 405 895.50Q390 923 376 943L378 949L396 949Q417 921 436.50 887Q456 853 469 824Q495 853 529 887Q563 921 594 949L617 949L616 943Q595 923 568 895.50Q541 868 516 840.50Q491 813 475 792L453 792Z"  horiz-adv-x="594" vert-adv-y="1000"  />

      
      <glyph glyph-name="uni010D" unicode="&#x010D;" d="M247-10Q185-10 142 17Q99 44 77 90Q55 136 55 194Q55 263 73.50 325Q92 387 128 435Q164 483 216 510.50Q268 538 335 538Q369 538 401.50 532Q434 526 458 514L450 489Q425 502 393.50 507.50Q362 513 335 513Q257 513 200.50 470Q144 427 113 355.50Q82 284 82 196Q82 146 100.50 105Q119 64 156 39.50Q193 15 248 15Q284 15 314 23Q344 31 375 45L375 19Q351 7 319.50-1.50Q288-10 247-10M324 606Q317 627 304 654.50Q291 682 276 709.50Q261 737 247 757L249 763L267 763Q288 735 307.50 701Q327 667 340 638Q366 667 400 701Q434 735 465 763L488 763L487 757Q466 737 439 709.50Q412 682 387 654.50Q362 627 346 606L324 606Z"  horiz-adv-x="452" vert-adv-y="1000"  />

      
      <glyph glyph-name="uni010E" unicode="&#x010E;" d="M50 0L201 714L346 714Q483 714 560 642.50Q637 571 637 425Q637 343 610.50 267Q584 191 529.50 130.50Q475 70 392 35Q309 0 196 0L50 0M197 25Q299 25 376.50 57Q454 89 505.50 145Q557 201 583.50 273Q610 345 610 425Q610 561 538.50 625Q467 689 336 689L223 689L82 25L197 25M423 792Q416 813 403 840.50Q390 868 375 895.50Q360 923 346 943L348 949L366 949Q387 921 406.50 887Q426 853 439 824Q465 853 499 887Q533 921 564 949L587 949L586 943Q565 923 538 895.50Q511 868 486 840.50Q461 813 445 792L423 792Z"  horiz-adv-x="677" vert-adv-y="1000"  />

      
      <glyph glyph-name="uni010F" unicode="&#x010F;" d="M603 606Q616 622 633.50 650Q651 678 666.50 708.50Q682 739 690 760L718 760L718 754Q704 717 676.50 674.50Q649 632 620 600L603 600L603 606M196-10Q119-10 82.50 41.50Q46 93 46 178Q46 239 62.50 302Q79 365 113 418.50Q147 472 198.50 505Q250 538 319 538Q370 538 402.50 518Q435 498 453 468Q471 438 475 407L477 407Q482 441 489 476.50Q496 512 503 543L549 760L575 760L414 0L392 0L420 141L418 141Q397 107 364.50 72Q332 37 289.50 13.50Q247-10 196-10M198 15Q246 15 292 42Q338 69 375.50 117Q413 165 435.50 227Q458 289 458 358Q458 436 419 474.50Q380 513 318 513Q257 513 211 483.50Q165 454 134 404.50Q103 355 88 296Q73 237 73 178Q73 101 104 58Q135 15 198 15Z"  horiz-adv-x="572" vert-adv-y="1000"  />

      
      <glyph glyph-name="uni0110" unicode="&#x0110;" d="M50 0L123 343L44 343L49 368L128 368L201 714L346 714Q483 714 560 642.50Q637 571 637 425Q637 343 610.50 267Q584 191 529.50 130.50Q475 70 392 35Q309 0 196 0L50 0M197 25Q299 25 376.50 57Q454 89 505.50 145Q557 201 583.50 273Q610 345 610 425Q610 561 538.50 625Q467 689 336 689L223 689L155 368L350 368L344 343L150 343L82 25L197 25Z"  horiz-adv-x="677" vert-adv-y="1000"  />

      
      <glyph glyph-name="uni0111" unicode="&#x0111;" d="M206-10Q134-10 92.50 41.50Q51 93 51 178Q51 239 67.50 302Q84 365 118 418.50Q152 472 203.50 505Q255 538 324 538Q375 538 407.50 519Q440 500 458 470Q476 440 480 407L482 407Q487 441 494 476.50Q501 512 508 543L526 630L303 630L308 655L532 655L554 760L580 760L558 655L630 655L624 630L552 630L419 0L397 0L425 139L423 139Q404 104 373 69.50Q342 35 300 12.50Q258-10 206-10M209 15Q261 15 307 43.50Q353 72 387.50 121Q422 170 442 232.50Q462 295 462 362Q462 438 423.50 475.50Q385 513 323 513Q262 513 216 483.50Q170 454 139 404.50Q108 355 93 296Q78 237 78 178Q78 103 112.50 59Q147 15 209 15Z"  horiz-adv-x="568" vert-adv-y="1000"  />

      
      <glyph glyph-name="uni0112" unicode="&#x0112;" d="M50 0L201 714L559 714L554 689L223 689L159 389L471 389L466 364L154 364L82 25L413 25L408 0L50 0M277 800L282 825L524 825L519 800L277 800Z"  horiz-adv-x="535" vert-adv-y="1000"  />

      
      <glyph glyph-name="uni0113" unicode="&#x0113;" d="M246-10Q199-10 157 10.50Q115 31 88.50 76Q62 121 62 194Q62 266 82.50 328.50Q103 391 140.50 438Q178 485 227 511.50Q276 538 333 538Q389 538 423.50 506Q458 474 458 424Q458 375 432 342.50Q406 310 360.50 291Q315 272 255 264Q195 256 127 256L93 256Q92 245 90.50 228Q89 211 89 194Q89 107 133 61Q177 15 251 15Q294 15 328 26.50Q362 38 386 48L386 22Q364 10 325.50 0Q287-10 246-10M145 281Q229 281 293.50 296Q358 311 394.50 342.50Q431 374 431 423Q431 462 405 487.50Q379 513 329 513Q281 513 233 485.50Q185 458 148.50 406.50Q112 355 97 281L145 281M195 614L200 639L442 639L437 614L195 614Z"  horiz-adv-x="491" vert-adv-y="1000"  />

      
      </font>
</defs>
</svg>
