<?xml version="1.0" standalone="no"?>
  <!DOCTYPE svg PUBLIC "-//W3C//DTD SVG 1.1//EN" "http://www.w3.org/Graphics/SVG/1.1/DTD/svg11.dtd" >
  <svg>
  <metadata>
  Created by font-carrier
  </metadata>
  <defs>
  <font id="NotoSans-SemiBoldItalic" horiz-adv-x="2800" vert-adv-y="2800" >
    <font-face
      
      font-family="Noto Sans SemiBold"
      
      font-weight="400"
      
      font-stretch="normal"
      
      units-per-em="1000"
      
      ascent="1069"
      
      descent="-293"
      
    />
      <missing-glyph />

      

      
      <glyph glyph-name="uni21" unicode="&#x21;" d="M72 223L157 714L301 714L177 223L72 223M82-13Q47-13 31 5.50Q15 24 15 50Q15 84 36 112.50Q57 141 106 141Q135 141 152.50 124Q170 107 170 76Q170 40 147 13.50Q124-13 82-13Z"  horiz-adv-x="277" vert-adv-y="1000"  />

      
      <glyph glyph-name="uni22" unicode="&#x22;" d="M290 456L325 714L446 714L371 456L290 456M102 456L137 714L257 714L183 456L102 456Z"  horiz-adv-x="430" vert-adv-y="1000"  />

      
      <glyph glyph-name="uni23" unicode="&#x23;" d="M87 0L144 203L24 203L32 291L168 291L207 422L80 422L88 510L231 510L290 714L383 714L324 510L439 510L498 714L589 714L531 510L652 510L644 422L506 422L467 291L598 291L590 203L442 203L384 0L291 0L350 203L236 203L178 0L87 0M261 291L375 291L413 422L299 422L261 291Z"  horiz-adv-x="646" vert-adv-y="1000"  />

      
      <glyph glyph-name="uni24" unicode="&#x24;" d="M195 44Q148 46 105 56Q62 66 28 84L28 195Q66 174 115.50 159Q165 144 215 143L255 321Q191 345 149.50 383.50Q108 422 108 491Q108 549 136.50 590Q165 631 215 653.50Q265 676 329 681L347 759L414 759L397 681Q437 676 471 666.50Q505 657 539 639L494 542Q468 555 437 565.50Q406 576 375 578L339 408Q384 391 418 370Q452 349 471 318Q490 287 490 241Q490 158 432 105.50Q374 53 261 44L240-58L173-58L195 44M308 578Q274 574 251 555Q228 536 228 497Q228 453 278 433L308 578M282 145Q319 150 343 171.50Q367 193 367 229Q367 276 315 296L282 145Z"  horiz-adv-x="551" vert-adv-y="1000"  />

      
      <glyph glyph-name="uni25" unicode="&#x25;" d="M194 276Q132 276 98.50 315.50Q65 355 65 428Q65 469 74.50 520Q84 571 107 617.50Q130 664 168.50 694Q207 724 264 724Q327 724 361.50 686Q396 648 396 576Q396 544 389.50 504.50Q383 465 369 425Q355 385 331.50 351Q308 317 274 296.50Q240 276 194 276M113 0L644 714L745 714L215 0L113 0M203 364Q226 364 243.50 387Q261 410 272 444.50Q283 479 288.50 515Q294 551 294 577Q294 636 257 636Q235 636 218 614.50Q201 593 189.50 559.50Q178 526 172.50 489.50Q167 453 167 423Q167 364 203 364M596-9Q532-9 498 28.50Q464 66 464 136Q464 183 474.50 235.50Q485 288 508 334Q531 380 569 409.50Q607 439 664 439Q727 439 761 401.50Q795 364 795 293Q795 260 789 220Q783 180 769 139.50Q755 99 731.50 65.50Q708 32 674.50 11.50Q641-9 596-9M602 78Q626 78 643 101.50Q660 125 671 159.50Q682 194 687.50 230Q693 266 693 292Q693 351 657 351Q634 351 617 329.50Q600 308 589 274.50Q578 241 572.50 204.50Q567 168 567 138Q567 78 602 78Z"  horiz-adv-x="835" vert-adv-y="1000"  />

      
      <glyph glyph-name="uni26" unicode="&#x26;" d="M233-10Q140-10 86.50 37Q33 84 33 172Q33 249 77.50 300Q122 351 211 395Q192 426 181 460Q170 494 170 529Q170 621 226.50 673Q283 725 374 725Q460 725 502.50 682.50Q545 640 545 578Q545 503 493.50 455Q442 407 361 371L469 222Q499 255 518.50 290.50Q538 326 554 366L678 366Q650 298 614 241.50Q578 185 532 137L631 0L485 0L443 59Q401 29 351.50 9.50Q302-10 233-10M312 443Q341 457 367 474Q393 491 410 513Q427 535 427 564Q427 595 410.50 611Q394 627 367 627Q328 627 307 601Q286 575 286 536Q286 483 312 443M254 95Q294 95 326 108.50Q358 122 385 141L262 318Q220 295 190.50 265Q161 235 161 183Q161 146 186 120.50Q211 95 254 95Z"  horiz-adv-x="695" vert-adv-y="1000"  />

      
      <glyph glyph-name="uni27" unicode="&#x27;" d="M102 456L137 714L257 714L183 456L102 456Z"  horiz-adv-x="242" vert-adv-y="1000"  />

      
      <glyph glyph-name="uni28" unicode="&#x28;" d="M110-158Q38-30 38 135Q38 311 101 451Q164 591 284 714L394 714Q323 636 268 546.50Q213 457 181.50 353.50Q150 250 150 133Q150 52 165-21Q180-94 207-158L110-158Z"  horiz-adv-x="321" vert-adv-y="1000"  />

      
      <glyph glyph-name="uni29" unicode="&#x29;" d="M-74-158Q-3-80 52 9.50Q107 99 138 202.50Q169 306 169 423Q169 503 154.50 576.50Q140 650 113 714L210 714Q282 585 282 420Q282 245 218.50 105Q155-35 36-158L-74-158Z"  horiz-adv-x="321" vert-adv-y="1000"  />

      
      <glyph glyph-name="uni2a" unicode="&#x2a;" d="M358 289L311 465L204 318L118 391L258 518L91 566L128 668L299 581L316 766L427 744L370 567L565 579L558 471L383 493L465 321L358 289Z"  horiz-adv-x="547" vert-adv-y="1000"  />

      
      <glyph glyph-name="uni2b" unicode="&#x2b;" d="M346 399L539 399L539 306L346 306L346 111L252 111L252 306L59 306L59 399L252 399L252 596L346 596L346 399Z"  horiz-adv-x="572" vert-adv-y="1000"  />

      
      <glyph glyph-name="uni2c" unicode="&#x2c;" d="M-47-129Q-21-70 4.50-3Q30 64 49 116L172 116L176 105Q152 52 117-11Q82-74 46-129L-47-129Z"  horiz-adv-x="274" vert-adv-y="1000"  />

      
      <glyph glyph-name="uni2d" unicode="&#x2d;" d="M22 215L45 321L294 321L271 215L22 215Z"  horiz-adv-x="319" vert-adv-y="1000"  />

      
      <glyph glyph-name="uni2e" unicode="&#x2e;" d="M82-13Q46-13 30.50 5.50Q15 24 15 49Q15 84 36 112.50Q57 141 106 141Q135 141 152.50 124.50Q170 108 170 77Q170 39 147 13Q124-13 82-13Z"  horiz-adv-x="274" vert-adv-y="1000"  />

      
      <glyph glyph-name="uni2f" unicode="&#x2f;" d="M-45 0L351 714L475 714L79 0L-45 0Z"  horiz-adv-x="396" vert-adv-y="1000"  />

      
      <glyph glyph-name="uni30" unicode="&#x30;" d="M232-10Q135-10 88 52.50Q41 115 41 230Q41 301 53 372Q65 443 89 506.50Q113 570 150 619Q187 668 236.50 696.50Q286 725 350 725Q441 725 490 668Q539 611 539 494Q539 401 521.50 311.50Q504 222 467 149Q430 76 371.50 33Q313-10 232-10M243 94Q276 94 302.50 119.50Q329 145 349.50 187.50Q370 230 384 282.50Q398 335 405.50 391Q413 447 413 498Q413 621 340 621Q307 621 279.50 594.50Q252 568 231 524.50Q210 481 196 429Q182 377 174.50 324.50Q167 272 167 228Q167 163 184.50 128.50Q202 94 243 94Z"  horiz-adv-x="551" vert-adv-y="1000"  />

      
      <glyph glyph-name="uni31" unicode="&#x31;" d="M283 419Q290 452 301.50 496Q313 540 322 571Q311 560 293 546.50Q275 533 258 522L165 464L109 555L366 714L471 714L319 0L193 0L283 419Z"  horiz-adv-x="551" vert-adv-y="1000"  />

      
      <glyph glyph-name="uni32" unicode="&#x32;" d="M-14 0L5 93L236 299Q297 354 334 393Q371 432 387.50 464.50Q404 497 404 532Q404 572 381 594.50Q358 617 318 617Q279 617 244 599Q209 581 167 548L107 632Q154 671 209.50 697.50Q265 724 337 724Q403 724 446.50 700.50Q490 677 511.50 638.50Q533 600 533 554Q533 493 507.50 442.50Q482 392 434 343Q386 294 317 236L172 114L172 109L467 109L446 0L-14 0Z"  horiz-adv-x="551" vert-adv-y="1000"  />

      
      <glyph glyph-name="uni33" unicode="&#x33;" d="M201-10Q89-10 13 29L13 142Q51 120 100.50 106.50Q150 93 197 93Q272 93 316 125.50Q360 158 360 219Q360 265 329 292Q298 319 227 319L161 319L180 414L227 414Q273 414 314 427.50Q355 441 380.50 469Q406 497 406 541Q406 577 383.50 598.50Q361 620 318 620Q273 620 237 604Q201 588 171 568L116 653Q162 684 214.50 704Q267 724 341 724Q437 724 485.50 678.50Q534 633 534 563Q534 488 487.50 436Q441 384 356 369L356 365Q411 354 448.50 317Q486 280 486 213Q486 157 456.50 105.50Q427 54 364 22Q301-10 201-10Z"  horiz-adv-x="551" vert-adv-y="1000"  />

      
      <glyph glyph-name="uni34" unicode="&#x34;" d="M261 0L294 153L-5 153L15 254L401 714L534 714L437 256L530 256L508 153L415 153L382 0L261 0M135 256L316 256L347 395Q353 425 362 459Q371 493 379.50 522.50Q388 552 393 569L388 569Q377 549 358 523Q339 497 324 479L135 256Z"  horiz-adv-x="551" vert-adv-y="1000"  />

      
      <glyph glyph-name="uni35" unicode="&#x35;" d="M199-10Q146-10 100 1Q54 12 22 30L22 143Q58 122 101 108.50Q144 95 191 95Q254 95 292 116Q330 137 347 170Q364 203 364 240Q364 287 336 316.50Q308 346 245 346Q215 346 188 341Q161 336 138 330L92 364L191 714L545 714L522 604L278 604L228 437Q243 440 260.50 442.50Q278 445 300 445Q384 445 438.50 397Q493 349 493 255Q493 204 477 156.50Q461 109 426 71.50Q391 34 335 12Q279-10 199-10Z"  horiz-adv-x="551" vert-adv-y="1000"  />

      
      <glyph glyph-name="uni36" unicode="&#x36;" d="M252-10Q155-10 103 49Q51 108 51 221Q51 296 68.50 373.50Q86 451 121 519.50Q156 588 207 635Q253 679 313 702Q373 725 454 725Q483 725 510.50 721.50Q538 718 557 712L534 609Q517 614 493.50 617.50Q470 621 445 621Q347 621 283.50 561.50Q220 502 188 377L192 377Q218 412 257 435Q296 458 349 458Q422 458 465.50 412Q509 366 509 278Q509 233 495.50 183Q482 133 452 89Q422 45 372.50 17.50Q323-10 252-10M259 93Q301 93 329 118.50Q357 144 371 184Q385 224 385 268Q385 311 365 335Q345 359 304 359Q273 359 247 344Q221 329 203.50 306Q186 283 180 262Q176 249 174.50 234.50Q173 220 173 205Q173 159 194 126Q215 93 259 93Z"  horiz-adv-x="551" vert-adv-y="1000"  />

      
      <glyph glyph-name="uni37" unicode="&#x37;" d="M54 0L419 605L97 605L120 714L582 714L565 628L195 0L54 0Z"  horiz-adv-x="551" vert-adv-y="1000"  />

      
      <glyph glyph-name="uni38" unicode="&#x38;" d="M249-10Q177-10 129 14Q81 38 57.50 79Q34 120 34 170Q34 247 80 298Q126 349 211 381Q178 406 153 442Q128 478 128 530Q128 586 155.50 630Q183 674 234 699.50Q285 725 355 725Q422 725 464 702.50Q506 680 526.50 643.50Q547 607 547 564Q547 512 525 475Q503 438 467 413.50Q431 389 390 373Q434 345 466 303.50Q498 262 498 195Q498 142 471.50 95Q445 48 390 19Q335-10 249-10M317 427Q369 447 397 476Q425 505 425 549Q425 586 403 607.50Q381 629 345 629Q300 629 275 602.50Q250 576 250 535Q250 496 268.50 470Q287 444 317 427M259 87Q319 87 347 120Q375 153 375 193Q375 237 352 268Q329 299 289 323Q228 302 193 269Q158 236 158 182Q158 138 186 112.50Q214 87 259 87Z"  horiz-adv-x="551" vert-adv-y="1000"  />

      
      <glyph glyph-name="uni39" unicode="&#x39;" d="M161-10Q129-10 97.50-5Q66 0 44 6L44 115Q66 107 95.50 100.50Q125 94 158 94Q229 94 274.50 125.50Q320 157 347.50 211Q375 265 390 334L386 334Q362 299 325 277.50Q288 256 239 256Q155 256 112.50 308Q70 360 70 446Q70 491 84.50 539.50Q99 588 130 630Q161 672 211 698.50Q261 725 333 725Q423 725 476 669Q529 613 529 495Q529 424 513.50 347Q498 270 468 200.50Q438 131 394 84Q351 37 293.50 13.50Q236-10 161-10M277 355Q321 355 353 385Q385 415 397 453Q404 479 404 513Q404 561 383.50 591Q363 621 321 621Q279 621 251 597Q223 573 209 534.50Q195 496 195 455Q195 407 216 381Q237 355 277 355Z"  horiz-adv-x="551" vert-adv-y="1000"  />

      
      <glyph glyph-name="uni3a" unicode="&#x3a;" d="M167 399Q132 399 116 417.50Q100 436 100 462Q100 497 121 525.50Q142 554 192 554Q220 554 238 537.50Q256 521 256 490Q256 452 232.50 425.50Q209 399 167 399M82-13Q46-13 30.50 5.50Q15 24 15 49Q15 84 36 112.50Q57 141 106 141Q135 141 152.50 124.50Q170 108 170 77Q170 39 147 13Q124-13 82-13Z"  horiz-adv-x="274" vert-adv-y="1000"  />

      
      <glyph glyph-name="uni3b" unicode="&#x3b;" d="M167 399Q132 399 116 417.50Q100 436 100 462Q100 497 121 525.50Q142 554 192 554Q220 554 238 537.50Q256 521 256 490Q256 452 232.50 425.50Q209 399 167 399M-50-129Q-23-70 2.50-3Q28 64 47 116L170 116L174 105Q149 52 114-11Q79-74 44-129L-50-129Z"  horiz-adv-x="274" vert-adv-y="1000"  />

      
      <glyph glyph-name="uni3c" unicode="&#x3c;" d="M539 105L59 317L59 379L539 619L539 516L189 353L539 208L539 105Z"  horiz-adv-x="572" vert-adv-y="1000"  />

      
      <glyph glyph-name="uni3d" unicode="&#x3d;" d="M62 402L62 495L536 495L536 402L62 402M62 209L62 302L536 302L536 209L62 209Z"  horiz-adv-x="572" vert-adv-y="1000"  />

      
      <glyph glyph-name="uni3e" unicode="&#x3e;" d="M59 208L410 352L59 516L59 619L539 379L539 317L59 105L59 208Z"  horiz-adv-x="572" vert-adv-y="1000"  />

      
      <glyph glyph-name="uni3f" unicode="&#x3f;" d="M127 223Q139 291 165.50 334.50Q192 378 250 420Q299 454 326.50 481.50Q354 509 354 550Q354 583 335.50 602Q317 621 278 621Q241 621 205.50 607.50Q170 594 130 575L90 667Q133 691 185.50 707.50Q238 724 295 724Q380 724 428.50 682.50Q477 641 477 564Q477 516 459 480Q441 444 408 414Q375 384 332 354Q298 331 279 313Q260 295 250 274.50Q240 254 232 223L127 223M144-13Q108-13 92.50 5.50Q77 24 77 49Q77 84 98 112.50Q119 141 168 141Q197 141 214.50 124.50Q232 108 232 77Q232 39 209 13Q186-13 144-13Z"  horiz-adv-x="448" vert-adv-y="1000"  />

      
      <glyph glyph-name="uni40" unicode="&#x40;" d="M389-91Q280-91 203.50-48Q127-5 87.50 70.50Q48 146 48 245Q48 350 83.50 436Q119 522 183 584Q247 646 332 680Q417 714 516 714Q621 714 692 676Q763 638 800 570Q837 502 837 412Q837 350 821 294Q805 238 774.50 195Q744 152 701.50 127Q659 102 606 102Q560 102 533.50 123Q507 144 500 181L496 181Q474 146 443.50 124Q413 102 365 102Q309 102 273.50 138Q238 174 238 249Q238 322 270 384Q302 446 359.50 483.50Q417 521 492 521Q543 521 579 512.50Q615 504 643 493L593 298Q587 273 583 256Q579 239 579 223Q579 200 589.50 190.50Q600 181 615 181Q643 181 666.50 201Q690 221 707 254Q724 287 733 327.50Q742 368 742 408Q742 474 717.50 524.50Q693 575 640.50 603Q588 631 504 631Q399 631 318 583Q237 535 190.50 450Q144 365 144 253Q144 179 171 120Q198 61 255 26.50Q312-8 400-8Q459-8 511 3.50Q563 15 612 34L612-47Q563-67 506.50-79Q450-91 389-91M388 181Q430 181 457.50 220Q485 259 502 321L532 435Q522 438 510.50 440Q499 442 484 442Q437 442 404 413.50Q371 385 353.50 342Q336 299 336 255Q336 215 350.50 198Q365 181 388 181Z"  horiz-adv-x="853" vert-adv-y="1000"  />

      
      <glyph glyph-name="uni41" unicode="&#x41;" d="M-59 0L320 714L469 714L547 0L424 0L406 190L171 190L75 0L-59 0M226 299L398 299L384 470Q381 503 378.50 538.50Q376 574 377 607L374 607Q362 576 346.50 543Q331 510 313 474L226 299Z"  horiz-adv-x="603" vert-adv-y="1000"  />

      
      <glyph glyph-name="uni42" unicode="&#x42;" d="M32 0L183 714L382 714Q483 714 543 676.50Q603 639 603 553Q603 480 561 433.50Q519 387 445 372L445 368Q494 355 524.50 320Q555 285 555 229Q555 151 518.50 100Q482 49 419 24.50Q356 0 276 0L32 0M337 423Q395 423 433.50 448.50Q472 474 472 529Q472 567 447.50 587.50Q423 608 371 608L287 608L248 423L337 423M283 107Q349 107 387 138Q425 169 425 228Q425 270 400 295Q375 320 319 320L226 320L180 107L283 107Z"  horiz-adv-x="612" vert-adv-y="1000"  />

      
      <glyph glyph-name="uni43" unicode="&#x43;" d="M324-10Q198-10 131.50 65Q65 140 65 267Q65 331 79.50 396Q94 461 124 520Q154 579 199.50 625Q245 671 307 698Q369 725 448 725Q509 725 555 713Q601 701 644 678L595 574Q563 591 528 603.50Q493 616 448 616Q382 616 334.50 585Q287 554 256 503Q225 452 210 391.50Q195 331 195 273Q195 188 233.50 143.50Q272 99 348 99Q389 99 429.50 108.50Q470 118 511 134L511 25Q477 12 431 1Q385-10 324-10Z"  horiz-adv-x="603" vert-adv-y="1000"  />

      
      <glyph glyph-name="uni44" unicode="&#x44;" d="M32 0L183 714L367 714Q497 714 569.50 644.50Q642 575 642 438Q642 307 595 208.50Q548 110 457 55Q366 0 235 0L32 0M241 107Q331 107 391 151.50Q451 196 481 270.50Q511 345 511 434Q511 524 468.50 566Q426 608 354 608L287 608L180 107L241 107Z"  horiz-adv-x="673" vert-adv-y="1000"  />

      
      <glyph glyph-name="uni45" unicode="&#x45;" d="M32 0L183 714L568 714L545 607L286 607L248 425L489 425L467 318L225 318L180 108L439 108L417 0L32 0Z"  horiz-adv-x="531" vert-adv-y="1000"  />

      
      <glyph glyph-name="uni46" unicode="&#x46;" d="M32 0L183 714L566 714L544 607L286 607L242 397L483 397L459 290L219 290L158 0L32 0Z"  horiz-adv-x="511" vert-adv-y="1000"  />

      
      <glyph glyph-name="uni47" unicode="&#x47;" d="M331-10Q206-10 135.50 61Q65 132 65 265Q65 358 92 441.50Q119 525 171 588.50Q223 652 298 688.50Q373 725 470 725Q529 725 577.50 713.50Q626 702 673 679L625 573Q588 591 549.50 603Q511 615 465 615Q401 615 351 587Q301 559 266 511Q231 463 213 402Q195 341 195 274Q195 193 233 146Q271 99 354 99Q384 99 407.50 103Q431 107 453 113L490 284L356 284L379 392L637 392L559 28Q512 12 459 1Q406-10 331-10Z"  horiz-adv-x="685" vert-adv-y="1000"  />

      
      <glyph glyph-name="uni48" unicode="&#x48;" d="M32 0L183 714L309 714L249 426L510 426L571 714L697 714L546 0L420 0L487 317L225 317L158 0L32 0Z"  horiz-adv-x="692" vert-adv-y="1000"  />

      
      <glyph glyph-name="uni49" unicode="&#x49;" d="M-26 0L-11 72L78 105L185 609L110 642L125 714L417 714L402 642L311 609L204 105L280 72L266 0L-26 0Z"  horiz-adv-x="361" vert-adv-y="1000"  />

      
      <glyph glyph-name="uni4a" unicode="&#x4a;" d="M-71-202Q-99-202-120-198.50Q-141-195-157-190L-155-84Q-140-88-120.50-91Q-101-94-79-94Q-32-94-0.50-65Q31-36 44 28L190 714L316 714L167 11Q143-103 84-152.50Q25-202-71-202Z"  horiz-adv-x="309" vert-adv-y="1000"  />

      
      <glyph glyph-name="uni4b" unicode="&#x4b;" d="M32 0L183 714L309 714L234 368L305 457L534 714L685 714L387 383L539 0L400 0L283 310L214 266L158 0L32 0Z"  horiz-adv-x="594" vert-adv-y="1000"  />

      
      <glyph glyph-name="uni4c" unicode="&#x4c;" d="M32 0L183 714L309 714L180 108L439 108L417 0L32 0Z"  horiz-adv-x="503" vert-adv-y="1000"  />

      
      <glyph glyph-name="uni4d" unicode="&#x4d;" d="M31 0L182 714L353 714L398 162L402 162L689 714L870 714L720 0L600 0L679 370Q690 426 704.50 483.50Q719 541 730 581L726 581L424 0L311 0L264 581L260 581Q258 559 252.50 524Q247 489 239.50 448Q232 407 224 369L146 0L31 0Z"  horiz-adv-x="865" vert-adv-y="1000"  />

      
      <glyph glyph-name="uni4e" unicode="&#x4e;" d="M31 0L182 714L326 714L512 164L516 164Q519 186 524.50 219.50Q530 253 536.50 289Q543 325 550 355L626 714L742 714L591 0L451 0L259 560L255 560Q254 547 248.50 511.50Q243 476 236 433.50Q229 391 222 356L146 0L31 0Z"  horiz-adv-x="737" vert-adv-y="1000"  />

      
      <glyph glyph-name="uni4f" unicode="&#x4f;" d="M330-10Q200-10 132.50 64.50Q65 139 65 264Q65 351 88 433Q111 515 157.50 581Q204 647 274 686Q344 725 436 725Q563 725 629.50 651Q696 577 696 453Q696 363 673.50 280.50Q651 198 606 132Q561 66 492 28Q423-10 330-10M338 99Q404 99 455 144.50Q506 190 535.50 269.50Q565 349 565 451Q565 528 529 572.50Q493 617 426 617Q375 617 332.50 589Q290 561 259 512.50Q228 464 211.50 400.50Q195 337 195 265Q195 185 233 142Q271 99 338 99Z"  horiz-adv-x="727" vert-adv-y="1000"  />

      
      <glyph glyph-name="uni50" unicode="&#x50;" d="M32 0L183 714L367 714Q451 714 501 689Q551 664 574 619Q597 574 597 514Q597 431 558 375Q519 319 449 291Q379 263 285 263L213 263L158 0L32 0M298 369Q375 369 422 405Q469 441 469 511Q469 561 441.50 584.50Q414 608 359 608L287 608L236 369L298 369Z"  horiz-adv-x="594" vert-adv-y="1000"  />

      
      <glyph glyph-name="uni51" unicode="&#x51;" d="M344-10Q340-10 336.50-10Q333-10 330-10Q200-10 132.50 64.50Q65 139 65 264Q65 351 88 433Q111 515 157.50 581Q204 647 274 686Q344 725 436 725Q563 725 629.50 651Q696 577 696 453Q696 357 670 269Q644 181 592 114.50Q540 48 463 16L591-170L439-170L344-10M338 99Q404 99 455.50 144.50Q507 190 536 269.50Q565 349 565 451Q565 528 529 572.50Q493 617 426 617Q375 617 332.50 589Q290 561 259 512.50Q228 464 211.50 400.50Q195 337 195 265Q195 185 233 142Q271 99 338 99Z"  horiz-adv-x="727" vert-adv-y="1000"  />

      
      <glyph glyph-name="uni52" unicode="&#x52;" d="M32 0L183 714L351 714Q459 714 518.50 668Q578 622 578 524Q578 442 535 387Q492 332 413 308L537 0L399 0L298 282L218 282L158 0L32 0M293 387Q370 387 409.50 421Q449 455 449 516Q449 564 421.50 585.50Q394 607 338 607L287 607L240 387L293 387Z"  horiz-adv-x="595" vert-adv-y="1000"  />

      
      <glyph glyph-name="uni53" unicode="&#x53;" d="M191-10Q137-10 94.50 0.50Q52 11 20 29L20 146Q59 125 101 111Q143 97 192 97Q248 97 287.50 121Q327 145 327 196Q327 236 302 261.50Q277 287 229 318Q196 340 167.50 366.50Q139 393 121.50 428Q104 463 104 511Q104 575 134.50 623Q165 671 219.50 697.50Q274 724 345 724Q401 724 446 712.50Q491 701 533 678L487 579Q454 595 418 605.50Q382 616 345 616Q297 616 266 590.50Q235 565 235 520Q235 479 258.50 455.50Q282 432 328 404Q389 365 422.50 320.50Q456 276 456 209Q456 136 421 87Q386 38 326 14Q266-10 191-10Z"  horiz-adv-x="521" vert-adv-y="1000"  />

      
      <glyph glyph-name="uni54" unicode="&#x54;" d="M138 0L266 606L85 606L108 714L597 714L574 606L393 606L265 0L138 0Z"  horiz-adv-x="520" vert-adv-y="1000"  />

      
      <glyph glyph-name="uni55" unicode="&#x55;" d="M297-10Q186-10 129.50 43.50Q73 97 73 190Q73 206 75 227.50Q77 249 82 271L176 714L303 714L208 270Q199 229 199 198Q199 151 226 125Q253 99 308 99Q382 99 418.50 139.50Q455 180 473 260L569 714L695 714L597 249Q581 172 545 113.50Q509 55 448.50 22.50Q388-10 297-10Z"  horiz-adv-x="686" vert-adv-y="1000"  />

      
      <glyph glyph-name="uni56" unicode="&#x56;" d="M158 0L91 714L214 714L246 276Q249 241 250 200.50Q251 160 249 129L252 129Q264 163 280 200Q296 237 315 276L533 714L666 714L296 0L158 0Z"  horiz-adv-x="576" vert-adv-y="1000"  />

      
      <glyph glyph-name="uni57" unicode="&#x57;" d="M121 0L96 714L217 714L224 307Q225 268 223 222.50Q221 177 218 138L222 138Q235 177 253.50 224Q272 271 288 306L474 714L591 714L604 307Q606 274 605.50 225.50Q605 177 603 138L607 138Q620 178 637 224.50Q654 271 670 309L841 714L971 714L652 0L512 0L499 376Q497 429 496.50 464.50Q496 500 497 535L493 535Q482 499 468.50 465Q455 431 437 391L259 0L121 0Z"  horiz-adv-x="880" vert-adv-y="1000"  />

      
      <glyph glyph-name="uni58" unicode="&#x58;" d="M-55 0L230 375L110 714L241 714L324 453L514 714L656 714L388 365L521 0L384 0L294 282L86 0L-55 0Z"  horiz-adv-x="576" vert-adv-y="1000"  />

      
      <glyph glyph-name="uni59" unicode="&#x59;" d="M149 0L207 271L91 714L220 714L291 399L493 714L635 714L332 270L275 0L149 0Z"  horiz-adv-x="543" vert-adv-y="1000"  />

      
      <glyph glyph-name="uni5a" unicode="&#x5a;" d="M-22 0L-5 87L399 606L115 606L137 714L581 714L564 626L158 108L466 108L443 0L-22 0Z"  horiz-adv-x="534" vert-adv-y="1000"  />

      
      <glyph glyph-name="uni5b" unicode="&#x5b;" d="M-15-158L171 714L388 714L368 623L261 623L115-67L222-67L202-158L-15-158Z"  horiz-adv-x="316" vert-adv-y="1000"  />

      
      <glyph glyph-name="uni5c" unicode="&#x5c;" d="M214 0L108 714L217 714L325 0L214 0Z"  horiz-adv-x="396" vert-adv-y="1000"  />

      
      <glyph glyph-name="uni5d" unicode="&#x5d;" d="M-69-158L-50-67L57-67L203 623L96 623L116 714L333 714L147-158L-69-158Z"  horiz-adv-x="316" vert-adv-y="1000"  />

      
      <glyph glyph-name="uni5e" unicode="&#x5e;" d="M25 259L293 718L357 718L529 259L432 259L311 587L128 259L25 259Z"  horiz-adv-x="559" vert-adv-y="1000"  />

      
      <glyph glyph-name="uni5f" unicode="&#x5f;" d="M-91-158L-76-90L323-90L308-158L-91-158Z"  horiz-adv-x="398" vert-adv-y="1000"  />

      
      <glyph glyph-name="uni60" unicode="&#x60;" d="M260 606Q240 626 217.50 652.50Q195 679 175.50 706.50Q156 734 145 756L145 766L276 766Q285 731 301 692.50Q317 654 337 618L337 606L260 606Z"  horiz-adv-x="305" vert-adv-y="1000"  />

      
      <glyph glyph-name="uni61" unicode="&#x61;" d="M196-10Q155-10 121 10Q87 30 66.50 72.50Q46 115 46 182Q46 252 64 318Q82 384 116 437Q150 490 197.50 521Q245 552 302 552Q354 552 387 528Q420 504 437 467L442 467L471 542L567 542L452 0L357 0L366 82L362 82Q331 42 290.50 16Q250-10 196-10M243 92Q276 92 305.50 117Q335 142 357.50 182.50Q380 223 391 272Q396 294 398 316Q400 338 400 360Q400 399 379 424.50Q358 450 321 450Q290 450 263 427.50Q236 405 215.50 367Q195 329 183.50 282Q172 235 172 186Q172 139 191 115.50Q210 92 243 92Z"  horiz-adv-x="584" vert-adv-y="1000"  />

      
      <glyph glyph-name="uni62" unicode="&#x62;" d="M287-10Q234-10 201 14Q168 38 151 75L147 75L117 0L22 0L183 760L308 760L275 604Q269 579 261.50 550Q254 521 247 496.50Q240 472 235 459L239 459Q269 496 304 524Q339 552 392 552Q433 552 467.50 532Q502 512 522.50 469.50Q543 427 543 360Q543 291 525 225Q507 159 473.50 106Q440 53 393 21.50Q346-10 287-10M269 92Q301 92 328 114.50Q355 137 374.50 175.50Q394 214 405 261Q416 308 416 356Q416 450 344 450Q310 450 281 424.50Q252 399 231.50 358.50Q211 318 199.50 272.50Q188 227 188 186Q188 144 208.50 118Q229 92 269 92Z"  horiz-adv-x="589" vert-adv-y="1000"  />

      
      <glyph glyph-name="uni63" unicode="&#x63;" d="M247-10Q189-10 143.50 11Q98 32 72 76.50Q46 121 46 191Q46 264 65 329Q84 394 121 444.50Q158 495 211 523.50Q264 552 331 552Q375 552 412 543.50Q449 535 481 521L443 423Q419 434 393 442Q367 450 335 450Q285 450 248.50 414Q212 378 192 320.50Q172 263 172 198Q172 147 197.50 119.50Q223 92 269 92Q305 92 337 102.50Q369 113 401 129L401 26Q369 10 331.50 0Q294-10 247-10Z"  horiz-adv-x="472" vert-adv-y="1000"  />

      
      <glyph glyph-name="uni64" unicode="&#x64;" d="M196-10Q155-10 121 10Q87 30 66.50 72.50Q46 115 46 183Q46 252 63.50 318Q81 384 115 436.50Q149 489 196 520.50Q243 552 302 552Q353 552 382.50 527Q412 502 430 467L435 467Q437 483 440.50 517.50Q444 552 451 585L488 760L613 760L452 0L355 0L364 82L360 82Q329 42 289.50 16Q250-10 196-10M246 92Q280 92 308 117.50Q336 143 357 183.50Q378 224 389 269.50Q400 315 400 356Q400 398 380 424Q360 450 320 450Q288 450 261 427Q234 404 214 366Q194 328 183 281Q172 234 172 186Q172 92 246 92Z"  horiz-adv-x="588" vert-adv-y="1000"  />

      
      <glyph glyph-name="uni65" unicode="&#x65;" d="M253-10Q158-10 102 43Q46 96 46 198Q46 264 65 327.50Q84 391 121 441.50Q158 492 212.50 522Q267 552 337 552Q422 552 465 513.50Q508 475 508 412Q508 329 432 276Q356 223 195 223L173 223Q171 210 171 196Q171 145 198 116Q225 87 277 87Q318 87 353 97Q388 107 433 128L433 31Q392 11 350.50 0.50Q309-10 253-10M204 311Q291 311 339.50 337Q388 363 388 408Q388 459 329 459Q285 459 244.50 419Q204 379 188 311L204 311Z"  horiz-adv-x="535" vert-adv-y="1000"  />

      
      <glyph glyph-name="uni66" unicode="&#x66;" d="M-32-240Q-54-240-74.50-237Q-95-234-109-229L-109-127Q-94-132-81-135Q-68-138-53-138Q13-138 33-43L136 447L51 447L63 505L157 543L166 587Q189 687 235.50 726Q282 765 360 765Q391 765 418.50 759Q446 753 467 743L434 650Q420 655 404 659.50Q388 664 369 664Q307 664 289 580L281 542L391 542L371 447L261 447L154-61Q142-113 120.50-153.50Q99-194 62-217Q25-240-32-240Z"  horiz-adv-x="352" vert-adv-y="1000"  />

      
      <glyph glyph-name="uni67" unicode="&#x67;" d="M189-240Q132-240 91.50-230.50Q51-221 18-205L18-95Q51-114 94-125.50Q137-137 183-137Q238-137 273-111Q308-85 323-28L329-4Q334 16 341 41Q348 66 353 83L349 83Q320 45 282.50 17.50Q245-10 192-10Q131-10 88.50 37Q46 84 46 182Q46 251 64 317Q82 383 115.50 436Q149 489 196 520.50Q243 552 300 552Q354 552 385 528Q416 504 438 467L442 467L472 542L567 542L447-20Q421-143 354.50-191.50Q288-240 189-240M247 92Q279 92 307 116Q335 140 355.50 179Q376 218 388 264.50Q400 311 400 356Q400 398 380 424Q360 450 321 450Q289 450 261.50 427Q234 404 214 366Q194 328 183 281Q172 234 172 186Q172 139 192 115.50Q212 92 247 92Z"  horiz-adv-x="588" vert-adv-y="1000"  />

      
      <glyph glyph-name="uni68" unicode="&#x68;" d="M22 0L183 760L308 760L274 603Q267 571 255.50 530.50Q244 490 235 459L239 459Q269 497 308.50 524.50Q348 552 403 552Q470 552 506 512.50Q542 473 542 402Q542 384 539 362.50Q536 341 531 317L464 0L339 0L408 325Q416 364 416 386Q416 450 357 450Q306 450 261.50 391Q217 332 195 228L147 0L22 0Z"  horiz-adv-x="595" vert-adv-y="1000"  />

      
      <glyph glyph-name="uni69" unicode="&#x69;" d="M224 618Q197 618 178.50 631Q160 644 160 673Q160 709 180.50 730Q201 751 238 751Q265 751 283 738.50Q301 726 301 697Q301 661 280.50 639.50Q260 618 224 618M22 0L137 542L262 542L147 0L22 0Z"  horiz-adv-x="282" vert-adv-y="1000"  />

      
      <glyph glyph-name="uni6a" unicode="&#x6a;" d="M224 618Q197 618 179 631Q161 644 161 673Q161 709 181 730Q201 751 238 751Q265 751 283 738.50Q301 726 301 697Q301 661 280.50 639.50Q260 618 224 618M-52-240Q-97-240-128-229L-128-127Q-114-132-100-135Q-86-138-71-138Q-41-138-19-116.50Q3-95 12-49L138 542L262 542L133-66Q122-116 100.50-155.50Q79-195 42-217.50Q5-240-52-240Z"  horiz-adv-x="282" vert-adv-y="1000"  />

      
      <glyph glyph-name="uni6b" unicode="&#x6b;" d="M21 0L182 760L308 760L238 435Q228 389 217 352.50Q206 316 202 300L205 300L438 542L582 542L344 302L485 0L346 0L248 222L184 179L147 0L21 0Z"  horiz-adv-x="540" vert-adv-y="1000"  />

      
      <glyph glyph-name="uni6c" unicode="&#x6c;" d="M21 0L183 760L308 760L146 0L21 0Z"  horiz-adv-x="282" vert-adv-y="1000"  />

      
      <glyph glyph-name="uni6d" unicode="&#x6d;" d="M22 0L137 542L234 542L224 442L228 442Q258 486 300 519Q342 552 400 552Q456 552 486.50 521.50Q517 491 525 438L529 438Q560 485 604 518.50Q648 552 707 552Q773 552 807 513Q841 474 841 405Q841 384 838 362.50Q835 341 830 317L763 0L638 0L707 325Q711 344 713 359.50Q715 375 715 388Q715 450 660 450Q610 450 567 391.50Q524 333 504 233L455 0L330 0L399 325Q407 364 407 386Q407 450 353 450Q303 450 260 391Q217 332 195 228L147 0L22 0Z"  horiz-adv-x="894" vert-adv-y="1000"  />

      
      <glyph glyph-name="uni6e" unicode="&#x6e;" d="M20 0L136 543L235 543L225 443L228 443Q258 487 300.50 520Q343 553 403 553Q471 553 507 513.50Q543 474 543 405Q543 385 540 361.50Q537 338 532 316L465 0L338 0L406 326Q410 345 412.50 360Q415 375 415 388Q415 449 357 449Q306 449 262 390.50Q218 332 196 228L147 0L20 0Z"  horiz-adv-x="595" vert-adv-y="1000"  />

      
      <glyph glyph-name="uni6f" unicode="&#x6f;" d="M251-9Q159-9 102.50 47Q46 103 46 199Q46 268 63.50 331Q81 394 116 443.50Q151 493 204 522Q257 551 327 551Q422 551 477 494.50Q532 438 532 338Q532 272 514.50 210Q497 148 462.50 98.50Q428 49 375.50 20Q323-9 251-9M260 93Q304 93 336.50 126Q369 159 387 215.50Q405 272 405 342Q405 385 386.50 417Q368 449 321 449Q284 449 256 426.50Q228 404 209.50 367.50Q191 331 181 286.50Q171 242 171 198Q171 93 260 93Z"  horiz-adv-x="577" vert-adv-y="1000"  />

      
      <glyph glyph-name="uni70" unicode="&#x70;" d="M-29-240L137 542L234 542L224 453L228 453Q258 491 298 521.50Q338 552 392 552Q433 552 467.50 532Q502 512 522.50 469.50Q543 427 543 359Q543 290 525 224Q507 158 473.50 105.50Q440 53 393 21.50Q346-10 287-10Q235-10 206 15Q177 40 158 75L154 75Q149 10 136-49L96-240L-29-240M269 92Q301 92 328 114.50Q355 137 374.50 175.50Q394 214 405 261Q416 308 416 356Q416 450 344 450Q310 450 281 425Q252 400 231.50 359.50Q211 319 199.50 273Q188 227 188 186Q188 144 208.50 118Q229 92 269 92Z"  horiz-adv-x="589" vert-adv-y="1000"  />

      
      <glyph glyph-name="uni71" unicode="&#x71;" d="M317-51Q320-36 326.50-12Q333 12 340 37.50Q347 63 353 83L349 83Q320 45 282.50 17.50Q245-10 192-10Q153-10 119.50 10Q86 30 66 72.50Q46 115 46 182Q46 251 63.50 317Q81 383 115 436Q149 489 196.50 520.50Q244 552 303 552Q353 552 384.50 528.50Q416 505 437 467L442 467L472 542L567 542L401-240L276-240L317-51M247 92Q281 92 309 117.50Q337 143 357.50 184Q378 225 389 270.50Q400 316 400 356Q400 397 380 423.50Q360 450 320 450Q289 450 262 427Q235 404 215 366Q195 328 183.50 281Q172 234 172 186Q172 92 247 92Z"  horiz-adv-x="588" vert-adv-y="1000"  />

      
      <glyph glyph-name="uni72" unicode="&#x72;" d="M22 0L137 542L234 542L224 442L229 442Q261 490 301 521Q341 552 396 552Q409 552 423 550.50Q437 549 447 546L420 428Q410 431 397 433Q384 435 370 435Q308 435 262 381.50Q216 328 199 244L147 0L22 0Z"  horiz-adv-x="412" vert-adv-y="1000"  />

      
      <glyph glyph-name="uni73" unicode="&#x73;" d="M167-10Q116-10 78-2Q40 6 9 23L9 129Q41 110 80.50 97.50Q120 85 161 85Q205 85 233.50 103Q262 121 262 153Q262 177 245 194Q228 211 177 240Q124 270 96 302.50Q68 335 68 387Q68 465 121 508.50Q174 552 266 552Q361 552 438 510L397 418Q369 433 337 444.50Q305 456 268 456Q237 456 215.50 441Q194 426 194 400Q194 378 210.50 361.50Q227 345 273 321Q323 293 356 259.50Q389 226 389 171Q389 82 329 36Q269-10 167-10Z"  horiz-adv-x="458" vert-adv-y="1000"  />

      
      <glyph glyph-name="uni74" unicode="&#x74;" d="M194-10Q134-10 96 17Q58 44 58 113Q58 140 65 174L123 447L45 447L57 507L151 547L214 660L293 660L268 542L404 542L384 447L248 447L190 173Q187 164 185.50 153.50Q184 143 184 134Q184 91 231 91Q250 91 268 95Q286 99 307 107L307 13Q288 4 258-3Q228-10 194-10Z"  horiz-adv-x="381" vert-adv-y="1000"  />

      
      <glyph glyph-name="uni75" unicode="&#x75;" d="M191-10Q125-10 89.50 29Q54 68 54 138Q54 158 57.50 183Q61 208 66 235L131 542L256 542L187 216Q179 178 179 155Q179 92 238 92Q289 92 333.50 151Q378 210 400 314L449 542L573 542L458 0L361 0L371 100L366 100Q336 56 294 23Q252-10 191-10Z"  horiz-adv-x="595" vert-adv-y="1000"  />

      
      <glyph glyph-name="uni76" unicode="&#x76;" d="M114 0L49 542L172 542L197 252Q199 234 200.50 208.50Q202 183 202.50 158Q203 133 203 117L207 117Q215 136 225.50 161.50Q236 187 246.50 210.50Q257 234 265 250L415 542L549 542L256 0L114 0Z"  horiz-adv-x="495" vert-adv-y="1000"  />

      
      <glyph glyph-name="uni77" unicode="&#x77;" d="M83 0L59 542L177 542L182 284Q182 238 181 196.50Q180 155 177 116L181 116Q188 139 199 169Q210 199 221 225Q232 251 238 265L361 542L497 542L503 271Q504 236 503.50 195.50Q503 155 501 116L505 116Q513 139 524 170.50Q535 202 547 234Q559 266 570 292L681 542L810 542L555 0L414 0L407 268Q406 302 407 346.50Q408 391 410 432L404 432Q391 395 376 354.50Q361 314 345 278L221 0L83 0Z"  horiz-adv-x="763" vert-adv-y="1000"  />

      
      <glyph glyph-name="uni78" unicode="&#x78;" d="M-44 0L189 278L77 542L208 542L274 366L407 542L554 542L327 272L448 0L315 0L243 182L101 0L-44 0Z"  horiz-adv-x="513" vert-adv-y="1000"  />

      
      <glyph glyph-name="uni79" unicode="&#x79;" d="M-8-240Q-33-240-49.50-237.50Q-66-235-78-231L-78-131Q-65-134-50.50-136Q-36-138-19-138Q25-138 54.50-112Q84-86 108-41L130-3L49 542L172 542L202 285Q207 245 209 198Q211 151 211 121L214 121Q224 145 241 187Q258 229 277 268L415 542L550 542L215-83Q172-163 118-201.50Q64-240-8-240Z"  horiz-adv-x="499" vert-adv-y="1000"  />

      
      <glyph glyph-name="uni7a" unicode="&#x7a;" d="M-20 0L-5 77L296 446L88 446L109 542L460 542L441 454L146 96L375 96L356 0L-20 0Z"  horiz-adv-x="451" vert-adv-y="1000"  />

      
      <glyph glyph-name="uni7b" unicode="&#x7b;" d="M226-158Q143-158 105.50-127Q68-96 68-41Q68-25 70-9Q72 7 76 22L97 118Q99 131 101.50 143Q104 155 104 165Q104 233 2 233L22 331Q80 331 115 351.50Q150 372 160 421L192 566Q208 643 250 678.50Q292 714 383 714L415 714L394 618Q355 617 331.50 603.50Q308 590 298 546L265 397Q242 293 133 277L133 274Q173 262 192.50 234.50Q212 207 212 169Q212 156 210 141.50Q208 127 205 111L185 18Q181-3 181-15Q181-42 198.50-52Q216-62 247-62L247-158L226-158Z"  horiz-adv-x="353" vert-adv-y="1000"  />

      
      <glyph glyph-name="uni7c" unicode="&#x7c;" d="M236-232L236 758L330 758L330-232L236-232Z"  horiz-adv-x="551" vert-adv-y="1000"  />

      
      <glyph glyph-name="uni7d" unicode="&#x7d;" d="M-44-62Q-3-61 23-47.50Q49-34 58 10L91 159Q114 263 223 278L223 282Q183 294 163.50 321Q144 348 144 387Q144 400 146.50 414.50Q149 429 152 445L172 538Q177 559 177 571Q177 598 157 608Q137 618 100 618L118 714L130 714Q213 714 251 683Q289 652 289 597Q289 581 286.50 565Q284 549 281 534L260 437Q257 425 254.50 413Q252 401 252 391Q252 323 354 323L335 225Q276 225 241 204.50Q206 184 196 135L165-10Q148-89 105-123.50Q62-158-28-158L-44-158L-44-62Z"  horiz-adv-x="353" vert-adv-y="1000"  />

      
      <glyph glyph-name="uni7e" unicode="&#x7e;" d="M282 308Q246 324 221 329.50Q196 335 173 335Q145 335 114.50 318Q84 301 59 276L59 376Q109 429 183 429Q211 429 240.50 423Q270 417 316 397Q353 381 378 375.50Q403 370 425 370Q454 370 484.50 387Q515 404 539 429L539 330Q489 276 416 276Q387 276 358 282Q329 288 282 308Z"  horiz-adv-x="572" vert-adv-y="1000"  />

      
      <glyph glyph-name="unia1" unicode="&#xa1;" d="M170 392Q140 392 122 408.50Q104 425 104 456Q104 494 127.50 520Q151 546 194 546Q228 546 243.50 527.50Q259 509 259 483Q259 449 238.50 420.50Q218 392 170 392M-26-181L102 309L198 309L118-181L-26-181Z"  horiz-adv-x="277" vert-adv-y="1000"  />

      
      <glyph glyph-name="unia2" unicode="&#xa2;" d="M224 94Q164 110 127 156.50Q90 203 90 286Q90 376 119.50 453.50Q149 531 204 582.50Q259 634 337 645L353 724L434 724L417 645Q477 639 526 616L489 519Q465 529 439 537.50Q413 546 380 546Q330 546 293.50 510Q257 474 237 416Q217 358 217 294Q217 242 242.50 214.50Q268 187 314 187Q350 187 382 197.50Q414 208 446 225L446 121Q416 106 381 96.50Q346 87 302 85L282-10L201-10L224 94Z"  horiz-adv-x="551" vert-adv-y="1000"  />

      
      <glyph glyph-name="unia3" unicode="&#xa3;" d="M12 103Q56 113 88.50 144Q121 175 134 236L149 306L54 306L73 398L168 398L196 536Q216 631 274 677.50Q332 724 421 724Q474 724 518.50 711.50Q563 699 595 682L548 586Q521 600 489.50 610.50Q458 621 426 621Q387 621 359.50 600Q332 579 321 526L294 398L452 398L433 306L275 306L261 242Q250 189 223.50 157.50Q197 126 162 109L494 109L470 0L-8 0L12 103Z"  horiz-adv-x="551" vert-adv-y="1000"  />

      
      <glyph glyph-name="unia4" unicode="&#xa4;" d="M388 191Q367 178 341.50 170.50Q316 163 289 163Q233 163 189 191L128 131L66 193L128 254Q99 299 99 353Q99 380 107 405Q115 430 128 452L65 514L128 577L190 515Q211 528 237 536Q263 544 289 544Q316 544 341 536Q366 528 388 514L450 577L514 516L451 453Q464 432 472 406Q480 380 480 353Q480 325 472.50 300Q465 275 451 253L512 192L450 130L388 191M289 252Q332 252 362.50 281.50Q393 311 393 353Q393 396 362.50 426Q332 456 289 456Q247 456 217.50 426Q188 396 188 353Q188 311 217.50 281.50Q247 252 289 252Z"  horiz-adv-x="551" vert-adv-y="1000"  />

      
      <glyph glyph-name="unia5" unicode="&#xa5;" d="M155 0L179 116L49 116L66 195L196 195L210 266L81 266L98 345L199 345L103 714L226 714L292 400L494 714L625 714L374 345L477 345L460 266L329 266L315 195L445 195L429 116L299 116L274 0L155 0Z"  horiz-adv-x="551" vert-adv-y="1000"  />

      
      <glyph glyph-name="unia6" unicode="&#xa6;" d="M236 367L236 758L330 758L330 367L236 367M236-232L236 159L330 159L330-232L236-232Z"  horiz-adv-x="551" vert-adv-y="1000"  />

      
      <glyph glyph-name="unia7" unicode="&#xa7;" d="M174-8Q121-8 82 2Q43 12 16 27L16 123Q48 104 89.50 90Q131 76 176 76Q230 76 256.50 95Q283 114 283 146Q283 167 264 184.50Q245 202 198 224Q141 251 109 285.50Q77 320 77 372Q77 424 107 459Q137 494 182 519Q160 536 145 560.50Q130 585 130 615Q130 684 185.50 724.50Q241 765 332 765Q381 765 421 754Q461 743 497 725L462 643Q432 658 399 669Q366 680 326 680Q293 680 268 666Q243 652 243 621Q243 598 263.50 581.50Q284 565 330 545Q387 519 418.50 485Q450 451 450 401Q450 347 420 310.50Q390 274 349 251Q369 235 383 211.50Q397 188 397 157Q397 80 337 36Q277-8 174-8M282 291Q306 305 325 329Q344 353 344 385Q344 413 320.50 435Q297 457 249 477Q221 466 201 442Q181 418 181 387Q181 358 203 337Q225 316 282 291Z"  horiz-adv-x="486" vert-adv-y="1000"  />

      
      <glyph glyph-name="unia8" unicode="&#xa8;" d="M448 625Q425 625 409.50 636.50Q394 648 394 674Q394 706 411 725Q428 744 460 744Q483 744 498 732.50Q513 721 513 696Q513 663 496 644Q479 625 448 625M264 625Q240 625 224.50 636.50Q209 648 209 674Q209 706 226.50 725Q244 744 275 744Q299 744 314 732.50Q329 721 329 696Q329 663 312 644Q295 625 264 625Z"  horiz-adv-x="554" vert-adv-y="1000"  />

      
      <glyph glyph-name="unia9" unicode="&#xa9;" d="M416-10Q336-10 269 17Q202 44 152.50 93.50Q103 143 76 210Q49 277 49 357Q49 435 76.50 501.50Q104 568 153.50 618Q203 668 270 696Q337 724 416 724Q492 724 558.50 697Q625 670 675.50 620.50Q726 571 754.50 504Q783 437 783 357Q783 277 756 210Q729 143 679.50 93.50Q630 44 563 17Q496-10 416-10M416 50Q478 50 533 72.50Q588 95 629.50 136Q671 177 694.50 233.50Q718 290 718 357Q718 420 695.50 476Q673 532 632 574.50Q591 617 536 641Q481 665 416 665Q329 665 260 625.50Q191 586 151.50 516.50Q112 447 112 357Q112 269 151 199.50Q190 130 258.50 90Q327 50 416 50M431 130Q330 130 280 192Q230 254 230 357Q230 423 253.50 474Q277 525 323 554.50Q369 584 435 584Q500 584 558 554L529 489Q479 515 436 515Q377 515 344.50 473Q312 431 312 357Q312 281 340.50 239.50Q369 198 435 198Q458 198 486.50 204.50Q515 211 540 221L540 154Q516 143 491 136.50Q466 130 431 130Z"  horiz-adv-x="832" vert-adv-y="1000"  />

      
      <glyph glyph-name="uniaa" unicode="&#xaa;" d="M176 372Q137 372 107 401Q77 430 77 496Q77 532 87 571.50Q97 611 117 644.50Q137 678 168.50 699.50Q200 721 243 721Q275 721 294 707Q313 693 325 671L329 671L348 715L412 715L338 378L275 378L280 427L277 427Q258 403 234 387.50Q210 372 176 372M206 438Q230 438 248 455Q266 472 278 497.50Q290 523 295.50 550.50Q301 578 301 598Q301 623 289.50 638.50Q278 654 254 654Q225 654 204.50 630Q184 606 173 569.50Q162 533 162 496Q162 438 206 438Z"  horiz-adv-x="363" vert-adv-y="1000"  />

      
      <glyph glyph-name="uniab" unicode="&#xab;" d="M142 48L38 270L38 280L232 492L306 428L167 266L239 89L142 48M361 48L260 262L260 273L451 490L526 428L389 260L459 89L361 48Z"  horiz-adv-x="530" vert-adv-y="1000"  />

      
      <glyph glyph-name="uniac" unicode="&#xac;" d="M539 399L539 124L445 124L445 306L59 306L59 399L539 399Z"  horiz-adv-x="572" vert-adv-y="1000"  />

      
      <glyph glyph-name="uniad" unicode="&#xad;" d="M22 215L45 321L294 321L271 215L22 215Z"  horiz-adv-x="319" vert-adv-y="1000"  />

      
      <glyph glyph-name="uniae" unicode="&#xae;" d="M416-10Q336-10 269 17Q202 44 152.50 93.50Q103 143 76 210Q49 277 49 357Q49 435 76.50 501.50Q104 568 153.50 618Q203 668 270 696Q337 724 416 724Q492 724 558.50 697Q625 670 675.50 620.50Q726 571 754.50 504Q783 437 783 357Q783 277 756 210Q729 143 679.50 93.50Q630 44 563 17Q496-10 416-10M416 50Q478 50 533 72.50Q588 95 629.50 136Q671 177 694.50 233.50Q718 290 718 357Q718 420 695.50 476Q673 532 632 574.50Q591 617 536 641Q481 665 416 665Q329 665 260 625.50Q191 586 151.50 516.50Q112 447 112 357Q112 269 151 199.50Q190 130 258.50 90Q327 50 416 50M276 138L276 578L407 578Q489 578 527 544.50Q565 511 565 446Q565 399 541 371.50Q517 344 487 332L603 138L514 138L417 308L355 308L355 138L276 138M405 373Q444 373 464.50 393Q485 413 485 444Q485 479 466.50 495Q448 511 404 511L355 511L355 373L405 373Z"  horiz-adv-x="832" vert-adv-y="1000"  />

      
      <glyph glyph-name="uniaf" unicode="&#xaf;" d="M92 760L112 846L576 846L556 760L92 760Z"  horiz-adv-x="460" vert-adv-y="1000"  />

      
      <glyph glyph-name="unib0" unicode="&#xb0;" d="M214 398Q139 398 92 443.50Q45 489 45 561Q45 632 91.50 678Q138 724 214 724Q264 724 302 703Q340 682 361 645.50Q382 609 382 561Q382 489 335.50 443.50Q289 398 214 398M214 478Q252 478 274.50 500.50Q297 523 297 561Q297 599 274 622Q251 645 214 645Q176 645 153.50 622Q131 599 131 561Q131 523 153.50 500.50Q176 478 214 478Z"  horiz-adv-x="428" vert-adv-y="1000"  />

      
      <glyph glyph-name="unib1" unicode="&#xb1;" d="M346 419L539 419L539 326L346 326L346 131L252 131L252 326L59 326L59 419L252 419L252 615L346 615L346 419M59 0L59 93L539 93L539 0L59 0Z"  horiz-adv-x="572" vert-adv-y="1000"  />

      
      <glyph glyph-name="unib2" unicode="&#xb2;" d="M62 415L77 487L208 595Q261 639 287 667Q313 695 313 727Q313 749 300 761Q287 773 265 773Q222 773 172 733L130 799Q164 825 202 839Q240 853 288 853Q349 853 381.50 821.50Q414 790 414 747Q414 708 399.50 679.50Q385 651 356 623Q327 595 282 561L203 499L381 499L363 415L62 415Z"  horiz-adv-x="369" vert-adv-y="1000"  />

      
      <glyph glyph-name="unib3" unicode="&#xb3;" d="M200 408Q164 408 131.50 415.50Q99 423 75 435L75 518Q103 502 134 492.50Q165 483 197 483Q238 483 262.50 500Q287 517 287 549Q287 573 271 586.50Q255 600 220 600L165 600L180 670L224 670Q267 670 292.50 685.50Q318 701 318 732Q318 778 264 777Q240 777 217.50 768.50Q195 760 172 745L137 809Q167 829 203 841Q239 853 282 853Q352 853 382.50 822.50Q413 792 413 751Q413 702 384 675.50Q355 649 309 638L309 634Q347 625 365 602Q383 579 383 546Q383 501 358.50 470Q334 439 293 423.50Q252 408 200 408Z"  horiz-adv-x="369" vert-adv-y="1000"  />

      
      <glyph glyph-name="unib4" unicode="&#xb4;" d="M114 618Q139 646 170 688.50Q201 731 223 766L363 766L363 757Q349 739 319.50 710.50Q290 682 257 653Q224 624 198 606L114 606L114 618Z"  horiz-adv-x="300" vert-adv-y="1000"  />

      
      <glyph glyph-name="uni03BC" unicode="&#x03BC;" d="M-29-240L137 542L262 542L194 219Q186 180 186 156Q186 125 201.50 108.50Q217 92 246 92Q297 92 340.50 151Q384 210 406 312L455 542L579 542L464 0L368 0L378 91L373 91Q345 48 309 19Q273-10 225-10Q200-10 180.50 0Q161 10 151 28L146 28Q143 5 138-28.50Q133-62 128-85L96-240L-29-240Z"  horiz-adv-x="601" vert-adv-y="1000"  />

      
      <glyph glyph-name="unib6" unicode="&#xb6;" d="M357 273Q327 264 286 264Q224 264 178 287Q132 310 106.50 364Q81 418 81 509Q81 605 108.50 659.50Q136 714 185.50 737Q235 760 301 760L588 760L588-127L517-127L517 670L428 670L428-127L357-127L357 273Z"  horiz-adv-x="655" vert-adv-y="1000"  />

      
      <glyph glyph-name="unib7" unicode="&#xb7;" d="M137 276Q101 276 85.50 294.50Q70 313 70 338Q70 373 91 401.50Q112 430 161 430Q190 430 207.50 413.50Q225 397 225 366Q225 328 202 302Q179 276 137 276Z"  horiz-adv-x="274" vert-adv-y="1000"  />

      
      <glyph glyph-name="unib8" unicode="&#xb8;" d="M-32-240Q-51-240-68-237Q-85-234-95-231L-95-161Q-85-164-71-166.50Q-57-169-43-169Q19-169 19-124Q19-88-50-80L-2 0L75 0L52-43Q79-52 99-71Q119-90 119-127Q119-175 82.50-207.50Q46-240-32-240Z"  horiz-adv-x="205" vert-adv-y="1000"  />

      
      <glyph glyph-name="unib9" unicode="&#xb9;" d="M227 630Q233 659 241 687.50Q249 716 254 735Q245 727 233.50 718Q222 709 214 702L154 665L112 733L288 843L374 843L283 415L181 415L227 630Z"  horiz-adv-x="369" vert-adv-y="1000"  />

      
      <glyph glyph-name="uniba" unicode="&#xba;" d="M212 372Q152 372 118 407Q84 442 84 508Q84 564 104 612.50Q124 661 163.50 691Q203 721 262 721Q329 721 358.50 682.50Q388 644 388 586Q388 551 379 513.50Q370 476 350 444Q330 412 296 392Q262 372 212 372M220 441Q247 441 265.50 463.50Q284 486 293 520.50Q302 555 302 589Q302 651 255 651Q227 651 208 628.50Q189 606 179.50 572.50Q170 539 170 505Q170 441 220 441Z"  horiz-adv-x="357" vert-adv-y="1000"  />

      
      <glyph glyph-name="unibb" unicode="&#xbb;" d="M298 48L224 111L363 273L291 451L388 492L492 269L492 258L298 48M79 50L4 111L141 279L71 451L169 492L270 277L270 265L79 50Z"  horiz-adv-x="530" vert-adv-y="1000"  />

      
      <glyph glyph-name="unibc" unicode="&#xbc;" d="M100 0L630 714L732 714L202 0L100 0M203 500Q209 529 217 557.50Q225 586 230 605Q221 597 209.50 588Q198 579 190 572L130 535L88 603L264 713L350 713L259 285L157 285L203 500M570 1L588 84L407 84L421 157L654 432L760 432L701 157L760 157L745 84L685 84L668 1L570 1M510 157L603 157L623 242Q628 264 632.50 280.50Q637 297 644 321Q636 309 621.50 290.50Q607 272 598 261L510 157Z"  horiz-adv-x="796" vert-adv-y="1000"  />

      
      <glyph glyph-name="unibd" unicode="&#xbd;" d="M99 0L629 714L731 714L201 0L99 0M203 500Q209 529 217 557.50Q225 586 230 605Q221 597 209.50 588Q198 579 190 572L130 535L88 603L264 713L350 713L259 285L157 285L203 500M465-1L480 71L611 179Q664 223 690 251Q716 279 716 311Q716 333 703 345Q690 357 668 357Q625 357 575 317L533 383Q567 409 605 423Q643 437 691 437Q752 437 784.50 405.50Q817 374 817 331Q817 292 802.50 263.50Q788 235 759 207Q730 179 685 145L606 83L784 83L766-1L465-1Z"  horiz-adv-x="859" vert-adv-y="1000"  />

      
      <glyph glyph-name="unibe" unicode="&#xbe;" d="M175 279Q139 279 106.50 286.50Q74 294 50 306L50 389Q78 373 109 363.50Q140 354 172 354Q213 354 237.50 371Q262 388 262 420Q262 444 246 457.50Q230 471 195 471L140 471L155 541L199 541Q242 541 267.50 556.50Q293 572 293 603Q293 649 239 648Q215 648 192.50 639.50Q170 631 147 616L112 680Q142 700 178 712Q214 724 257 724Q327 724 357.50 693.50Q388 663 388 622Q388 573 359 546.50Q330 520 284 509L284 505Q322 496 340 473Q358 450 358 417Q358 372 333.50 341Q309 310 268 294.50Q227 279 175 279M142 0L672 714L774 714L244 0L142 0M611 0L629 83L448 83L462 156L695 431L801 431L742 156L801 156L786 83L726 83L709 0L611 0M551 156L644 156L664 241Q669 263 673.50 279.50Q678 296 685 320Q677 308 662.50 289.50Q648 271 639 260L551 156Z"  horiz-adv-x="837" vert-adv-y="1000"  />

      
      <glyph glyph-name="unibf" unicode="&#xbf;" d="M325 310Q313 242 286.50 198.50Q260 155 202 113Q153 79 125.50 51.50Q98 24 98-17Q98-50 116.50-69Q135-88 174-88Q211-88 246.50-74.50Q282-61 322-42L362-134Q319-158 266.50-174.50Q214-191 157-191Q72-191 23.50-149.50Q-25-108-25-31Q-25 17-7 53Q11 89 44 119Q77 149 120 179Q154 202 173 220Q192 238 202 258.50Q212 279 220 310L325 310M308 546Q344 546 359.50 527.50Q375 509 375 484Q375 449 354 420.50Q333 392 284 392Q255 392 237.50 408.50Q220 425 220 456Q220 494 243 520Q266 546 308 546Z"  horiz-adv-x="448" vert-adv-y="1000"  />

      
      <glyph glyph-name="unic0" unicode="&#xc0;" d="M-59 0L320 714L469 714L547 0L424 0L406 190L171 190L75 0L-59 0M226 299L398 299L384 470Q381 503 378.50 538.50Q376 574 377 607L374 607Q362 576 346.50 543Q331 510 313 474L226 299M406 778Q386 798 363.50 824.50Q341 851 321.50 878.50Q302 906 291 928L291 938L422 938Q431 903 447 864.50Q463 826 483 790L483 778L406 778Z"  horiz-adv-x="603" vert-adv-y="1000"  />

      
      <glyph glyph-name="unic1" unicode="&#xc1;" d="M-59 0L320 714L469 714L547 0L424 0L406 190L171 190L75 0L-59 0M226 299L398 299L384 470Q381 503 378.50 538.50Q376 574 377 607L374 607Q362 576 346.50 543Q331 510 313 474L226 299M339 790Q364 818 395 860.50Q426 903 448 938L588 938L588 929Q574 911 544.50 882.50Q515 854 482 825Q449 796 423 778L339 778L339 790Z"  horiz-adv-x="603" vert-adv-y="1000"  />

      
      <glyph glyph-name="unic2" unicode="&#xc2;" d="M-59 0L320 714L469 714L547 0L424 0L406 190L171 190L75 0L-59 0M226 299L398 299L384 470Q381 503 378.50 538.50Q376 574 377 607L374 607Q362 576 346.50 543Q331 510 313 474L226 299M220 790Q239 808 266 834Q293 860 319.50 888Q346 916 362 938L497 938Q512 901 537.50 860.50Q563 820 582 790L582 778L501 778Q484 793 462.50 816.50Q441 840 422 863Q393 838 364.50 817Q336 796 308 778L220 778L220 790Z"  horiz-adv-x="603" vert-adv-y="1000"  />

      
      <glyph glyph-name="unic3" unicode="&#xc3;" d="M-59 0L320 714L469 714L547 0L424 0L406 190L171 190L75 0L-59 0M226 299L398 299L384 470Q381 503 378.50 538.50Q376 574 377 607L374 607Q362 576 346.50 543Q331 510 313 474L226 299M224 777Q239 850 272 885Q305 920 353 920Q384 920 408 906.50Q432 893 451.50 880Q471 867 490 867Q509 867 521 880Q533 893 544 921L616 921Q599 847 566 812.50Q533 778 485 778Q455 778 432 791.50Q409 805 389 818Q369 831 347 831Q314 831 298 777L224 777Z"  horiz-adv-x="603" vert-adv-y="1000"  />

      
      <glyph glyph-name="unic4" unicode="&#xc4;" d="M-59 0L320 714L469 714L547 0L424 0L406 190L171 190L75 0L-59 0M226 299L398 299L384 470Q381 503 378.50 538.50Q376 574 377 607L374 607Q362 576 346.50 543Q331 510 313 474L226 299M507 797Q484 797 468.50 808.50Q453 820 453 846Q453 878 470 897Q487 916 519 916Q542 916 557 904.50Q572 893 572 868Q572 835 555 816Q538 797 507 797M323 797Q299 797 283.50 808.50Q268 820 268 846Q268 878 285.50 897Q303 916 334 916Q358 916 373 904.50Q388 893 388 868Q388 835 371 816Q354 797 323 797Z"  horiz-adv-x="603" vert-adv-y="1000"  />

      
      <glyph glyph-name="unic5" unicode="&#xc5;" d="M-59 0L320 714L469 714L547 0L424 0L406 190L171 190L75 0L-59 0M226 299L398 299L384 470Q381 503 378.50 538.50Q376 574 377 607L374 607Q362 576 346.50 543Q331 510 313 474L226 299M419 777Q367 777 335 807Q303 837 303 889Q303 942 335.50 971.50Q368 1001 419 1001Q469 1001 503 971.50Q537 942 537 890Q537 837 503 807Q469 777 419 777M419 839Q441 839 455 852.50Q469 866 469 889Q469 912 455 925.50Q441 939 419 939Q397 939 383 925.50Q369 912 369 889Q369 866 381.50 852.50Q394 839 419 839Z"  horiz-adv-x="603" vert-adv-y="1000"  />

      
      <glyph glyph-name="unic6" unicode="&#xc6;" d="M-59 0L393 714L904 714L882 607L623 607L585 425L826 425L804 318L562 318L517 108L776 108L753 0L368 0L408 190L198 190L79 0L-59 0M267 299L431 299L496 607L457 607L267 299Z"  horiz-adv-x="868" vert-adv-y="1000"  />

      
      <glyph glyph-name="unic7" unicode="&#xc7;" d="M324-10Q198-10 131.50 65Q65 140 65 267Q65 331 79.50 396Q94 461 124 520Q154 579 199.50 625Q245 671 307 698Q369 725 448 725Q509 725 555 713Q601 701 644 678L595 574Q563 591 528 603.50Q493 616 448 616Q382 616 334.50 585Q287 554 256 503Q225 452 210 391.50Q195 331 195 273Q195 188 233.50 143.50Q272 99 348 99Q389 99 429.50 108.50Q470 118 511 134L511 25Q477 12 431 1Q385-10 324-10M253-240Q234-240 217-237Q200-234 190-231L190-161Q200-164 214-166.50Q228-169 242-169Q304-169 304-124Q304-88 235-80L283 0L360 0L337-43Q364-52 384-71Q404-90 404-127Q404-175 367.50-207.50Q331-240 253-240Z"  horiz-adv-x="603" vert-adv-y="1000"  />

      
      <glyph glyph-name="unic8" unicode="&#xc8;" d="M32 0L183 714L568 714L545 607L286 607L248 425L489 425L467 318L225 318L180 108L439 108L417 0L32 0M379 778Q359 798 336.50 824.50Q314 851 294.50 878.50Q275 906 264 928L264 938L395 938Q404 903 420 864.50Q436 826 456 790L456 778L379 778Z"  horiz-adv-x="531" vert-adv-y="1000"  />

      
      <glyph glyph-name="unic9" unicode="&#xc9;" d="M32 0L183 714L568 714L545 607L286 607L248 425L489 425L467 318L225 318L180 108L439 108L417 0L32 0M312 790Q337 818 368 860.50Q399 903 421 938L561 938L561 929Q547 911 517.50 882.50Q488 854 455 825Q422 796 396 778L312 778L312 790Z"  horiz-adv-x="531" vert-adv-y="1000"  />

      
      <glyph glyph-name="unica" unicode="&#xca;" d="M32 0L183 714L568 714L545 607L286 607L248 425L489 425L467 318L225 318L180 108L439 108L417 0L32 0M193 790Q212 808 239 834Q266 860 292.50 888Q319 916 335 938L470 938Q485 901 510.50 860.50Q536 820 555 790L555 778L474 778Q457 793 435.50 816.50Q414 840 395 863Q366 838 337.50 817Q309 796 281 778L193 778L193 790Z"  horiz-adv-x="531" vert-adv-y="1000"  />

      
      <glyph glyph-name="unicb" unicode="&#xcb;" d="M32 0L183 714L568 714L545 607L286 607L248 425L489 425L467 318L225 318L180 108L439 108L417 0L32 0M480 797Q457 797 441.50 808.50Q426 820 426 846Q426 878 443 897Q460 916 492 916Q515 916 530 904.50Q545 893 545 868Q545 835 528 816Q511 797 480 797M296 797Q272 797 256.50 808.50Q241 820 241 846Q241 878 258.50 897Q276 916 307 916Q331 916 346 904.50Q361 893 361 868Q361 835 344 816Q327 797 296 797Z"  horiz-adv-x="531" vert-adv-y="1000"  />

      
      <glyph glyph-name="unicc" unicode="&#xcc;" d="M-26 0L-11 72L78 105L185 609L110 642L125 714L417 714L402 642L311 609L204 105L280 72L266 0L-26 0M281 778Q261 798 238.50 824.50Q216 851 196.50 878.50Q177 906 166 928L166 938L297 938Q306 903 322 864.50Q338 826 358 790L358 778L281 778Z"  horiz-adv-x="361" vert-adv-y="1000"  />

      
      <glyph glyph-name="unicd" unicode="&#xcd;" d="M-26 0L-11 72L78 105L185 609L110 642L125 714L417 714L402 642L311 609L204 105L280 72L266 0L-26 0M214 790Q239 818 270 860.50Q301 903 323 938L463 938L463 929Q449 911 419.50 882.50Q390 854 357 825Q324 796 298 778L214 778L214 790Z"  horiz-adv-x="361" vert-adv-y="1000"  />

      
      <glyph glyph-name="unice" unicode="&#xce;" d="M-26 0L-11 72L78 105L185 609L110 642L125 714L417 714L402 642L311 609L204 105L280 72L266 0L-26 0M95 790Q114 808 141 834Q168 860 194.50 888Q221 916 237 938L372 938Q387 901 412.50 860.50Q438 820 457 790L457 778L376 778Q359 793 337.50 816.50Q316 840 297 863Q268 838 239.50 817Q211 796 183 778L95 778L95 790Z"  horiz-adv-x="361" vert-adv-y="1000"  />

      
      <glyph glyph-name="unicf" unicode="&#xcf;" d="M-26 0L-11 72L78 105L185 609L110 642L125 714L417 714L402 642L311 609L204 105L280 72L266 0L-26 0M382 797Q359 797 343.50 808.50Q328 820 328 846Q328 878 345 897Q362 916 394 916Q417 916 432 904.50Q447 893 447 868Q447 835 430 816Q413 797 382 797M198 797Q174 797 158.50 808.50Q143 820 143 846Q143 878 160.50 897Q178 916 209 916Q233 916 248 904.50Q263 893 263 868Q263 835 246 816Q229 797 198 797Z"  horiz-adv-x="361" vert-adv-y="1000"  />

      
      <glyph glyph-name="unid0" unicode="&#xd0;" d="M32 0L94 300L24 300L47 406L117 406L183 714L367 714Q497 714 569.50 644.50Q642 575 642 438Q642 307 595 208.50Q548 110 457 55Q366 0 235 0L32 0M241 107Q331 107 391 151.50Q451 196 481 270.50Q511 345 511 434Q511 524 468.50 566Q426 608 354 608L287 608L244 406L376 406L352 300L221 300L180 107L241 107Z"  horiz-adv-x="673" vert-adv-y="1000"  />

      
      <glyph glyph-name="unid1" unicode="&#xd1;" d="M31 0L182 714L326 714L512 164L516 164Q519 186 524.50 219.50Q530 253 536.50 289Q543 325 550 355L626 714L742 714L591 0L451 0L259 560L255 560Q254 547 248.50 511.50Q243 476 236 433.50Q229 391 222 356L146 0L31 0M297 777Q312 850 345 885Q378 920 426 920Q457 920 481 906.50Q505 893 524.50 880Q544 867 563 867Q582 867 594 880Q606 893 617 921L689 921Q672 847 639 812.50Q606 778 558 778Q528 778 505 791.50Q482 805 462 818Q442 831 420 831Q387 831 371 777L297 777Z"  horiz-adv-x="737" vert-adv-y="1000"  />

      
      <glyph glyph-name="unid2" unicode="&#xd2;" d="M330-10Q200-10 132.50 64.50Q65 139 65 264Q65 351 88 433Q111 515 157.50 581Q204 647 274 686Q344 725 436 725Q563 725 629.50 651Q696 577 696 453Q696 363 673.50 280.50Q651 198 606 132Q561 66 492 28Q423-10 330-10M338 99Q404 99 455 144.50Q506 190 535.50 269.50Q565 349 565 451Q565 528 529 572.50Q493 617 426 617Q375 617 332.50 589Q290 561 259 512.50Q228 464 211.50 400.50Q195 337 195 265Q195 185 233 142Q271 99 338 99M468 778Q448 798 425.50 824.50Q403 851 383.50 878.50Q364 906 353 928L353 938L484 938Q493 903 509 864.50Q525 826 545 790L545 778L468 778Z"  horiz-adv-x="727" vert-adv-y="1000"  />

      
      <glyph glyph-name="unid3" unicode="&#xd3;" d="M330-10Q200-10 132.50 64.50Q65 139 65 264Q65 351 88 433Q111 515 157.50 581Q204 647 274 686Q344 725 436 725Q563 725 629.50 651Q696 577 696 453Q696 363 673.50 280.50Q651 198 606 132Q561 66 492 28Q423-10 330-10M338 99Q404 99 455 144.50Q506 190 535.50 269.50Q565 349 565 451Q565 528 529 572.50Q493 617 426 617Q375 617 332.50 589Q290 561 259 512.50Q228 464 211.50 400.50Q195 337 195 265Q195 185 233 142Q271 99 338 99M401 790Q426 818 457 860.50Q488 903 510 938L650 938L650 929Q636 911 606.50 882.50Q577 854 544 825Q511 796 485 778L401 778L401 790Z"  horiz-adv-x="727" vert-adv-y="1000"  />

      
      <glyph glyph-name="unid4" unicode="&#xd4;" d="M330-10Q200-10 132.50 64.50Q65 139 65 264Q65 351 88 433Q111 515 157.50 581Q204 647 274 686Q344 725 436 725Q563 725 629.50 651Q696 577 696 453Q696 363 673.50 280.50Q651 198 606 132Q561 66 492 28Q423-10 330-10M338 99Q404 99 455 144.50Q506 190 535.50 269.50Q565 349 565 451Q565 528 529 572.50Q493 617 426 617Q375 617 332.50 589Q290 561 259 512.50Q228 464 211.50 400.50Q195 337 195 265Q195 185 233 142Q271 99 338 99M282 790Q301 808 328 834Q355 860 381.50 888Q408 916 424 938L559 938Q574 901 599.50 860.50Q625 820 644 790L644 778L563 778Q546 793 524.50 816.50Q503 840 484 863Q455 838 426.50 817Q398 796 370 778L282 778L282 790Z"  horiz-adv-x="727" vert-adv-y="1000"  />

      
      <glyph glyph-name="unid5" unicode="&#xd5;" d="M330-10Q200-10 132.50 64.50Q65 139 65 264Q65 351 88 433Q111 515 157.50 581Q204 647 274 686Q344 725 436 725Q563 725 629.50 651Q696 577 696 453Q696 363 673.50 280.50Q651 198 606 132Q561 66 492 28Q423-10 330-10M338 99Q404 99 455 144.50Q506 190 535.50 269.50Q565 349 565 451Q565 528 529 572.50Q493 617 426 617Q375 617 332.50 589Q290 561 259 512.50Q228 464 211.50 400.50Q195 337 195 265Q195 185 233 142Q271 99 338 99M286 777Q301 850 334 885Q367 920 415 920Q446 920 470 906.50Q494 893 513.50 880Q533 867 552 867Q571 867 583 880Q595 893 606 921L678 921Q661 847 628 812.50Q595 778 547 778Q517 778 494 791.50Q471 805 451 818Q431 831 409 831Q376 831 360 777L286 777Z"  horiz-adv-x="727" vert-adv-y="1000"  />

      
      <glyph glyph-name="unid6" unicode="&#xd6;" d="M330-10Q200-10 132.50 64.50Q65 139 65 264Q65 351 88 433Q111 515 157.50 581Q204 647 274 686Q344 725 436 725Q563 725 629.50 651Q696 577 696 453Q696 363 673.50 280.50Q651 198 606 132Q561 66 492 28Q423-10 330-10M338 99Q404 99 455 144.50Q506 190 535.50 269.50Q565 349 565 451Q565 528 529 572.50Q493 617 426 617Q375 617 332.50 589Q290 561 259 512.50Q228 464 211.50 400.50Q195 337 195 265Q195 185 233 142Q271 99 338 99M569 797Q546 797 530.50 808.50Q515 820 515 846Q515 878 532 897Q549 916 581 916Q604 916 619 904.50Q634 893 634 868Q634 835 617 816Q600 797 569 797M385 797Q361 797 345.50 808.50Q330 820 330 846Q330 878 347.50 897Q365 916 396 916Q420 916 435 904.50Q450 893 450 868Q450 835 433 816Q416 797 385 797Z"  horiz-adv-x="727" vert-adv-y="1000"  />

      
      <glyph glyph-name="unid7" unicode="&#xd7;" d="M455 575L521 510L364 353L519 197L455 131L298 287L143 132L78 197L232 353L77 508L143 575L298 419L455 575Z"  horiz-adv-x="572" vert-adv-y="1000"  />

      
      <glyph glyph-name="unid8" unicode="&#xd8;" d="M120-42L52 11L114 88Q89 122 77 167Q65 212 65 264Q65 351 88 433Q111 515 157.50 581Q204 647 274 686Q344 725 436 725Q527 725 589 682L645 752L713 699L650 622Q673 589 684.50 546Q696 503 696 453Q696 363 673.50 280.50Q651 198 606 132Q561 66 492 28Q423-10 330-10Q239-10 177 29L120-42M516 590Q499 603 476.50 611Q454 619 426 619Q372 619 329 591Q286 563 255 514Q224 465 208 401Q192 337 192 265Q192 246 194.50 228Q197 210 201 195L516 590M339 97Q407 97 459 143Q511 189 540 269Q569 349 569 451Q569 483 562 511L250 121Q266 110 289 103.50Q312 97 339 97Z"  horiz-adv-x="727" vert-adv-y="1000"  />

      
      <glyph glyph-name="unid9" unicode="&#xd9;" d="M297-10Q186-10 129.50 43.50Q73 97 73 190Q73 206 75 227.50Q77 249 82 271L176 714L303 714L208 270Q199 229 199 198Q199 151 226 125Q253 99 308 99Q382 99 418.50 139.50Q455 180 473 260L569 714L695 714L597 249Q581 172 545 113.50Q509 55 448.50 22.50Q388-10 297-10M445 778Q425 798 402.50 824.50Q380 851 360.50 878.50Q341 906 330 928L330 938L461 938Q470 903 486 864.50Q502 826 522 790L522 778L445 778Z"  horiz-adv-x="686" vert-adv-y="1000"  />

      
      <glyph glyph-name="unida" unicode="&#xda;" d="M297-10Q186-10 129.50 43.50Q73 97 73 190Q73 206 75 227.50Q77 249 82 271L176 714L303 714L208 270Q199 229 199 198Q199 151 226 125Q253 99 308 99Q382 99 418.50 139.50Q455 180 473 260L569 714L695 714L597 249Q581 172 545 113.50Q509 55 448.50 22.50Q388-10 297-10M379 790Q404 818 435 860.50Q466 903 488 938L628 938L628 929Q614 911 584.50 882.50Q555 854 522 825Q489 796 463 778L379 778L379 790Z"  horiz-adv-x="686" vert-adv-y="1000"  />

      
      <glyph glyph-name="unidb" unicode="&#xdb;" d="M297-10Q186-10 129.50 43.50Q73 97 73 190Q73 206 75 227.50Q77 249 82 271L176 714L303 714L208 270Q199 229 199 198Q199 151 226 125Q253 99 308 99Q382 99 418.50 139.50Q455 180 473 260L569 714L695 714L597 249Q581 172 545 113.50Q509 55 448.50 22.50Q388-10 297-10M259 790Q278 808 305 834Q332 860 358.50 888Q385 916 401 938L536 938Q551 901 576.50 860.50Q602 820 621 790L621 778L540 778Q523 793 501.50 816.50Q480 840 461 863Q432 838 403.50 817Q375 796 347 778L259 778L259 790Z"  horiz-adv-x="686" vert-adv-y="1000"  />

      
      <glyph glyph-name="unidc" unicode="&#xdc;" d="M297-10Q186-10 129.50 43.50Q73 97 73 190Q73 206 75 227.50Q77 249 82 271L176 714L303 714L208 270Q199 229 199 198Q199 151 226 125Q253 99 308 99Q382 99 418.50 139.50Q455 180 473 260L569 714L695 714L597 249Q581 172 545 113.50Q509 55 448.50 22.50Q388-10 297-10M547 797Q524 797 508.50 808.50Q493 820 493 846Q493 878 510 897Q527 916 559 916Q582 916 597 904.50Q612 893 612 868Q612 835 595 816Q578 797 547 797M363 797Q339 797 323.50 808.50Q308 820 308 846Q308 878 325.50 897Q343 916 374 916Q398 916 413 904.50Q428 893 428 868Q428 835 411 816Q394 797 363 797Z"  horiz-adv-x="686" vert-adv-y="1000"  />

      
      <glyph glyph-name="unidd" unicode="&#xdd;" d="M149 0L207 271L91 714L220 714L291 399L493 714L635 714L332 270L275 0L149 0M304 790Q329 818 360 860.50Q391 903 413 938L553 938L553 929Q539 911 509.50 882.50Q480 854 447 825Q414 796 388 778L304 778L304 790Z"  horiz-adv-x="543" vert-adv-y="1000"  />

      
      <glyph glyph-name="unide" unicode="&#xde;" d="M32 0L183 714L309 714L284 597L337 597Q420 597 470.50 572Q521 547 544 502.50Q567 458 567 398Q567 314 528 258.50Q489 203 418.50 175.50Q348 148 254 148L189 148L158 0L32 0M267 253Q345 253 392 288.50Q439 324 439 394Q439 445 411.50 468Q384 491 329 491L262 491L212 253L267 253Z"  horiz-adv-x="591" vert-adv-y="1000"  />

      
      <glyph glyph-name="unidf" unicode="&#xdf;" d="M-55-240Q-73-240-93-237Q-113-234-126-229L-126-127Q-98-137-71-137Q-40-137-19-116Q2-95 12-46L141 561Q163 665 224.50 715Q286 765 400 765Q494 765 548.50 724.50Q603 684 603 615Q603 556 574.50 519.50Q546 483 498 453Q470 435 450 418.50Q430 402 430 381Q430 365 446 350Q462 335 484 317Q524 286 548 253.50Q572 221 572 172Q572 87 513.50 38.50Q455-10 356-10Q311-10 276-1.50Q241 7 216 22L216 125Q241 109 273.50 97Q306 85 340 85Q394 85 419.50 106.50Q445 128 445 159Q445 185 430.50 203Q416 221 379 250Q340 281 320 309Q300 337 300 372Q300 422 328.50 451.50Q357 481 399 507Q431 526 452.50 547.50Q474 569 474 599Q474 630 452.50 648Q431 666 389 666Q330 666 302.50 633.50Q275 601 265 551L137-58Q120-140 77-190Q34-240-55-240Z"  horiz-adv-x="631" vert-adv-y="1000"  />

      
      <glyph glyph-name="unie0" unicode="&#xe0;" d="M196-10Q155-10 121 10Q87 30 66.50 72.50Q46 115 46 182Q46 252 64 318Q82 384 116 437Q150 490 197.50 521Q245 552 302 552Q354 552 387 528Q420 504 437 467L442 467L471 542L567 542L452 0L357 0L366 82L362 82Q331 42 290.50 16Q250-10 196-10M243 92Q276 92 305.50 117Q335 142 357.50 182.50Q380 223 391 272Q396 294 398 316Q400 338 400 360Q400 399 379 424.50Q358 450 321 450Q290 450 263 427.50Q236 405 215.50 367Q195 329 183.50 282Q172 235 172 186Q172 139 191 115.50Q210 92 243 92M360 606Q340 626 317.50 652.50Q295 679 275.50 706.50Q256 734 245 756L245 766L376 766Q385 731 401 692.50Q417 654 437 618L437 606L360 606Z"  horiz-adv-x="584" vert-adv-y="1000"  />

      
      <glyph glyph-name="unie1" unicode="&#xe1;" d="M196-10Q155-10 121 10Q87 30 66.50 72.50Q46 115 46 182Q46 252 64 318Q82 384 116 437Q150 490 197.50 521Q245 552 302 552Q354 552 387 528Q420 504 437 467L442 467L471 542L567 542L452 0L357 0L366 82L362 82Q331 42 290.50 16Q250-10 196-10M243 92Q276 92 305.50 117Q335 142 357.50 182.50Q380 223 391 272Q396 294 398 316Q400 338 400 360Q400 399 379 424.50Q358 450 321 450Q290 450 263 427.50Q236 405 215.50 367Q195 329 183.50 282Q172 235 172 186Q172 139 191 115.50Q210 92 243 92M293 618Q318 646 349 688.50Q380 731 402 766L542 766L542 757Q528 739 498.50 710.50Q469 682 436 653Q403 624 377 606L293 606L293 618Z"  horiz-adv-x="584" vert-adv-y="1000"  />

      
      <glyph glyph-name="unie2" unicode="&#xe2;" d="M196-10Q155-10 121 10Q87 30 66.50 72.50Q46 115 46 182Q46 252 64 318Q82 384 116 437Q150 490 197.50 521Q245 552 302 552Q354 552 387 528Q420 504 437 467L442 467L471 542L567 542L452 0L357 0L366 82L362 82Q331 42 290.50 16Q250-10 196-10M243 92Q276 92 305.50 117Q335 142 357.50 182.50Q380 223 391 272Q396 294 398 316Q400 338 400 360Q400 399 379 424.50Q358 450 321 450Q290 450 263 427.50Q236 405 215.50 367Q195 329 183.50 282Q172 235 172 186Q172 139 191 115.50Q210 92 243 92M174 618Q193 636 220 662Q247 688 273.50 716Q300 744 316 766L451 766Q466 729 491.50 688.50Q517 648 536 618L536 606L455 606Q438 621 416.50 644.50Q395 668 376 691Q347 666 318.50 645Q290 624 262 606L174 606L174 618Z"  horiz-adv-x="584" vert-adv-y="1000"  />

      
      <glyph glyph-name="unie3" unicode="&#xe3;" d="M196-10Q155-10 121 10Q87 30 66.50 72.50Q46 115 46 182Q46 252 64 318Q82 384 116 437Q150 490 197.50 521Q245 552 302 552Q354 552 387 528Q420 504 437 467L442 467L471 542L567 542L452 0L357 0L366 82L362 82Q331 42 290.50 16Q250-10 196-10M243 92Q276 92 305.50 117Q335 142 357.50 182.50Q380 223 391 272Q396 294 398 316Q400 338 400 360Q400 399 379 424.50Q358 450 321 450Q290 450 263 427.50Q236 405 215.50 367Q195 329 183.50 282Q172 235 172 186Q172 139 191 115.50Q210 92 243 92M178 605Q193 678 226 713Q259 748 307 748Q338 748 362 734.50Q386 721 405.50 708Q425 695 444 695Q463 695 475 708Q487 721 498 749L570 749Q553 675 520 640.50Q487 606 439 606Q409 606 386 619.50Q363 633 343 646Q323 659 301 659Q268 659 252 605L178 605Z"  horiz-adv-x="584" vert-adv-y="1000"  />

      
      <glyph glyph-name="unie4" unicode="&#xe4;" d="M196-10Q155-10 121 10Q87 30 66.50 72.50Q46 115 46 182Q46 252 64 318Q82 384 116 437Q150 490 197.50 521Q245 552 302 552Q354 552 387 528Q420 504 437 467L442 467L471 542L567 542L452 0L357 0L366 82L362 82Q331 42 290.50 16Q250-10 196-10M243 92Q276 92 305.50 117Q335 142 357.50 182.50Q380 223 391 272Q396 294 398 316Q400 338 400 360Q400 399 379 424.50Q358 450 321 450Q290 450 263 427.50Q236 405 215.50 367Q195 329 183.50 282Q172 235 172 186Q172 139 191 115.50Q210 92 243 92M461 625Q438 625 422.50 636.50Q407 648 407 674Q407 706 424 725Q441 744 473 744Q496 744 511 732.50Q526 721 526 696Q526 663 509 644Q492 625 461 625M277 625Q253 625 237.50 636.50Q222 648 222 674Q222 706 239.50 725Q257 744 288 744Q312 744 327 732.50Q342 721 342 696Q342 663 325 644Q308 625 277 625Z"  horiz-adv-x="584" vert-adv-y="1000"  />

      
      <glyph glyph-name="unie5" unicode="&#xe5;" d="M196-10Q155-10 121 10Q87 30 66.50 72.50Q46 115 46 182Q46 252 64 318Q82 384 116 437Q150 490 197.50 521Q245 552 302 552Q354 552 387 528Q420 504 437 467L442 467L471 542L567 542L452 0L357 0L366 82L362 82Q331 42 290.50 16Q250-10 196-10M243 92Q276 92 305.50 117Q335 142 357.50 182.50Q380 223 391 272Q396 294 398 316Q400 338 400 360Q400 399 379 424.50Q358 450 321 450Q290 450 263 427.50Q236 405 215.50 367Q195 329 183.50 282Q172 235 172 186Q172 139 191 115.50Q210 92 243 92M372 605Q320 605 288 635Q256 665 256 717Q256 770 288.50 799.50Q321 829 372 829Q422 829 456 799.50Q490 770 490 718Q490 665 456 635Q422 605 372 605M372 667Q394 667 408 680.50Q422 694 422 717Q422 740 408 753.50Q394 767 372 767Q350 767 336 753.50Q322 740 322 717Q322 694 334.50 680.50Q347 667 372 667Z"  horiz-adv-x="584" vert-adv-y="1000"  />

      
      <glyph glyph-name="unie6" unicode="&#xe6;" d="M188-10Q124-10 85 39Q46 88 46 182Q46 255 64.50 321.50Q83 388 116.50 440Q150 492 196.50 522Q243 552 297 552Q347 552 376.50 529Q406 506 426 467L431 467L461 542L539 542L528 489Q552 518 591 535Q630 552 676 552Q745 552 787 514.50Q829 477 829 412Q829 329 753 276Q677 223 515 223L492 223Q491 210 491 197Q491 149 516.50 118Q542 87 603 87Q639 87 678 99Q717 111 753 128L753 30Q714 12 671.50 1Q629-10 582-10Q477-10 435 54L424 0L345 0L354 82L349 82Q316 40 278.50 15Q241-10 188-10M524 311Q611 311 659.50 336.50Q708 362 708 407Q708 434 692.50 446.50Q677 459 652 459Q606 459 565 419Q524 379 507 311L524 311M235 92Q267 92 294.50 114.50Q322 137 343.50 175.50Q365 214 377 262Q383 286 386 310Q389 334 389 356Q389 398 371 424Q353 450 317 450Q286 450 259.50 427.50Q233 405 213.50 367.50Q194 330 183 283Q172 236 172 186Q172 137 190 114.50Q208 92 235 92Z"  horiz-adv-x="852" vert-adv-y="1000"  />

      
      <glyph glyph-name="unie7" unicode="&#xe7;" d="M247-10Q189-10 143.50 11Q98 32 72 76.50Q46 121 46 191Q46 264 65 329Q84 394 121 444.50Q158 495 211 523.50Q264 552 331 552Q375 552 412 543.50Q449 535 481 521L443 423Q419 434 393 442Q367 450 335 450Q285 450 248.50 414Q212 378 192 320.50Q172 263 172 198Q172 147 197.50 119.50Q223 92 269 92Q305 92 337 102.50Q369 113 401 129L401 26Q369 10 331.50 0Q294-10 247-10M158-240Q139-240 122-237Q105-234 95-231L95-161Q105-164 119-166.50Q133-169 147-169Q209-169 209-124Q209-88 140-80L188 0L265 0L242-43Q269-52 289-71Q309-90 309-127Q309-175 272.50-207.50Q236-240 158-240Z"  horiz-adv-x="472" vert-adv-y="1000"  />

      
      <glyph glyph-name="unie8" unicode="&#xe8;" d="M253-10Q158-10 102 43Q46 96 46 198Q46 264 65 327.50Q84 391 121 441.50Q158 492 212.50 522Q267 552 337 552Q422 552 465 513.50Q508 475 508 412Q508 329 432 276Q356 223 195 223L173 223Q171 210 171 196Q171 145 198 116Q225 87 277 87Q318 87 353 97Q388 107 433 128L433 31Q392 11 350.50 0.50Q309-10 253-10M204 311Q291 311 339.50 337Q388 363 388 408Q388 459 329 459Q285 459 244.50 419Q204 379 188 311L204 311M342 606Q322 626 299.50 652.50Q277 679 257.50 706.50Q238 734 227 756L227 766L358 766Q367 731 383 692.50Q399 654 419 618L419 606L342 606Z"  horiz-adv-x="535" vert-adv-y="1000"  />

      
      <glyph glyph-name="unie9" unicode="&#xe9;" d="M253-10Q158-10 102 43Q46 96 46 198Q46 264 65 327.50Q84 391 121 441.50Q158 492 212.50 522Q267 552 337 552Q422 552 465 513.50Q508 475 508 412Q508 329 432 276Q356 223 195 223L173 223Q171 210 171 196Q171 145 198 116Q225 87 277 87Q318 87 353 97Q388 107 433 128L433 31Q392 11 350.50 0.50Q309-10 253-10M204 311Q291 311 339.50 337Q388 363 388 408Q388 459 329 459Q285 459 244.50 419Q204 379 188 311L204 311M276 618Q301 646 332 688.50Q363 731 385 766L525 766L525 757Q511 739 481.50 710.50Q452 682 419 653Q386 624 360 606L276 606L276 618Z"  horiz-adv-x="535" vert-adv-y="1000"  />

      
      <glyph glyph-name="uniea" unicode="&#xea;" d="M253-10Q158-10 102 43Q46 96 46 198Q46 264 65 327.50Q84 391 121 441.50Q158 492 212.50 522Q267 552 337 552Q422 552 465 513.50Q508 475 508 412Q508 329 432 276Q356 223 195 223L173 223Q171 210 171 196Q171 145 198 116Q225 87 277 87Q318 87 353 97Q388 107 433 128L433 31Q392 11 350.50 0.50Q309-10 253-10M204 311Q291 311 339.50 337Q388 363 388 408Q388 459 329 459Q285 459 244.50 419Q204 379 188 311L204 311M156 618Q175 636 202 662Q229 688 255.50 716Q282 744 298 766L433 766Q448 729 473.50 688.50Q499 648 518 618L518 606L437 606Q420 621 398.50 644.50Q377 668 358 691Q329 666 300.50 645Q272 624 244 606L156 606L156 618Z"  horiz-adv-x="535" vert-adv-y="1000"  />

      
      <glyph glyph-name="unieb" unicode="&#xeb;" d="M253-10Q158-10 102 43Q46 96 46 198Q46 264 65 327.50Q84 391 121 441.50Q158 492 212.50 522Q267 552 337 552Q422 552 465 513.50Q508 475 508 412Q508 329 432 276Q356 223 195 223L173 223Q171 210 171 196Q171 145 198 116Q225 87 277 87Q318 87 353 97Q388 107 433 128L433 31Q392 11 350.50 0.50Q309-10 253-10M204 311Q291 311 339.50 337Q388 363 388 408Q388 459 329 459Q285 459 244.50 419Q204 379 188 311L204 311M443 625Q420 625 404.50 636.50Q389 648 389 674Q389 706 406 725Q423 744 455 744Q478 744 493 732.50Q508 721 508 696Q508 663 491 644Q474 625 443 625M259 625Q235 625 219.50 636.50Q204 648 204 674Q204 706 221.50 725Q239 744 270 744Q294 744 309 732.50Q324 721 324 696Q324 663 307 644Q290 625 259 625Z"  horiz-adv-x="535" vert-adv-y="1000"  />

      
      <glyph glyph-name="uniec" unicode="&#xec;" d="M22 0L137 542L262 542L147 0L22 0M209 606Q189 626 166.50 652.50Q144 679 124.50 706.50Q105 734 94 756L94 766L225 766Q234 731 250 692.50Q266 654 286 618L286 606L209 606Z"  horiz-adv-x="282" vert-adv-y="1000"  />

      
      <glyph glyph-name="unied" unicode="&#xed;" d="M22 0L137 542L262 542L147 0L22 0M143 618Q168 646 199 688.50Q230 731 252 766L392 766L392 757Q378 739 348.50 710.50Q319 682 286 653Q253 624 227 606L143 606L143 618Z"  horiz-adv-x="282" vert-adv-y="1000"  />

      
      <glyph glyph-name="uniee" unicode="&#xee;" d="M22 0L137 542L262 542L147 0L22 0M23 618Q42 636 69 662Q96 688 122.50 716Q149 744 165 766L300 766Q315 729 340.50 688.50Q366 648 385 618L385 606L304 606Q287 621 265.50 644.50Q244 668 225 691Q196 666 167.50 645Q139 624 111 606L23 606L23 618Z"  horiz-adv-x="282" vert-adv-y="1000"  />

      
      <glyph glyph-name="unief" unicode="&#xef;" d="M22 0L137 542L262 542L147 0L22 0M310 625Q287 625 271.50 636.50Q256 648 256 674Q256 706 273 725Q290 744 322 744Q345 744 360 732.50Q375 721 375 696Q375 663 358 644Q341 625 310 625M126 625Q102 625 86.50 636.50Q71 648 71 674Q71 706 88.50 725Q106 744 137 744Q161 744 176 732.50Q191 721 191 696Q191 663 174 644Q157 625 126 625Z"  horiz-adv-x="282" vert-adv-y="1000"  />

      
      <glyph glyph-name="unif0" unicode="&#xf0;" d="M245-10Q152-10 95 39.50Q38 89 38 192Q38 269 68 335Q98 401 154.50 441Q211 481 289 481Q342 481 374 460.50Q406 440 422 413L426 413Q424 459 411 503.50Q398 548 365 585L245 518L207 583L311 641Q299 653 282.50 664Q266 675 247 686L301 765Q330 750 357.50 732Q385 714 407 695L526 761L562 695L460 638Q497 589 515.50 529Q534 469 534 392Q534 314 518 242Q502 170 468 113Q434 56 378.50 23Q323-10 245-10M251 86Q287 86 313 105Q339 124 357 155Q375 186 383.50 221Q392 256 392 289Q392 327 371.50 356Q351 385 304 385Q256 385 225 355Q194 325 179 278.50Q164 232 164 184Q164 140 185.50 113Q207 86 251 86Z"  horiz-adv-x="574" vert-adv-y="1000"  />

      
      <glyph glyph-name="unif1" unicode="&#xf1;" d="M20 0L136 543L235 543L225 443L228 443Q258 487 300.50 520Q343 553 403 553Q471 553 507 513.50Q543 474 543 405Q543 385 540 361.50Q537 338 532 316L465 0L338 0L406 326Q410 345 412.50 360Q415 375 415 388Q415 449 357 449Q306 449 262 390.50Q218 332 196 228L147 0L20 0M186 605Q201 678 234 713Q267 748 315 748Q346 748 370 734.50Q394 721 413.50 708Q433 695 452 695Q471 695 483 708Q495 721 506 749L578 749Q561 675 528 640.50Q495 606 447 606Q417 606 394 619.50Q371 633 351 646Q331 659 309 659Q276 659 260 605L186 605Z"  horiz-adv-x="595" vert-adv-y="1000"  />

      
      <glyph glyph-name="unif2" unicode="&#xf2;" d="M251-9Q159-9 102.50 47Q46 103 46 199Q46 268 63.50 331Q81 394 116 443.50Q151 493 204 522Q257 551 327 551Q422 551 477 494.50Q532 438 532 338Q532 272 514.50 210Q497 148 462.50 98.50Q428 49 375.50 20Q323-9 251-9M260 93Q304 93 336.50 126Q369 159 387 215.50Q405 272 405 342Q405 385 386.50 417Q368 449 321 449Q284 449 256 426.50Q228 404 209.50 367.50Q191 331 181 286.50Q171 242 171 198Q171 93 260 93M345 606Q325 626 302.50 652.50Q280 679 260.50 706.50Q241 734 230 756L230 766L361 766Q370 731 386 692.50Q402 654 422 618L422 606L345 606Z"  horiz-adv-x="577" vert-adv-y="1000"  />

      
      <glyph glyph-name="unif3" unicode="&#xf3;" d="M251-9Q159-9 102.50 47Q46 103 46 199Q46 268 63.50 331Q81 394 116 443.50Q151 493 204 522Q257 551 327 551Q422 551 477 494.50Q532 438 532 338Q532 272 514.50 210Q497 148 462.50 98.50Q428 49 375.50 20Q323-9 251-9M260 93Q304 93 336.50 126Q369 159 387 215.50Q405 272 405 342Q405 385 386.50 417Q368 449 321 449Q284 449 256 426.50Q228 404 209.50 367.50Q191 331 181 286.50Q171 242 171 198Q171 93 260 93M279 618Q304 646 335 688.50Q366 731 388 766L528 766L528 757Q514 739 484.50 710.50Q455 682 422 653Q389 624 363 606L279 606L279 618Z"  horiz-adv-x="577" vert-adv-y="1000"  />

      
      <glyph glyph-name="unif4" unicode="&#xf4;" d="M251-9Q159-9 102.50 47Q46 103 46 199Q46 268 63.50 331Q81 394 116 443.50Q151 493 204 522Q257 551 327 551Q422 551 477 494.50Q532 438 532 338Q532 272 514.50 210Q497 148 462.50 98.50Q428 49 375.50 20Q323-9 251-9M260 93Q304 93 336.50 126Q369 159 387 215.50Q405 272 405 342Q405 385 386.50 417Q368 449 321 449Q284 449 256 426.50Q228 404 209.50 367.50Q191 331 181 286.50Q171 242 171 198Q171 93 260 93M159 618Q178 636 205 662Q232 688 258.50 716Q285 744 301 766L436 766Q451 729 476.50 688.50Q502 648 521 618L521 606L440 606Q423 621 401.50 644.50Q380 668 361 691Q332 666 303.50 645Q275 624 247 606L159 606L159 618Z"  horiz-adv-x="577" vert-adv-y="1000"  />

      
      <glyph glyph-name="unif5" unicode="&#xf5;" d="M251-9Q159-9 102.50 47Q46 103 46 199Q46 268 63.50 331Q81 394 116 443.50Q151 493 204 522Q257 551 327 551Q422 551 477 494.50Q532 438 532 338Q532 272 514.50 210Q497 148 462.50 98.50Q428 49 375.50 20Q323-9 251-9M260 93Q304 93 336.50 126Q369 159 387 215.50Q405 272 405 342Q405 385 386.50 417Q368 449 321 449Q284 449 256 426.50Q228 404 209.50 367.50Q191 331 181 286.50Q171 242 171 198Q171 93 260 93M164 605Q179 678 212 713Q245 748 293 748Q324 748 348 734.50Q372 721 391.50 708Q411 695 430 695Q449 695 461 708Q473 721 484 749L556 749Q539 675 506 640.50Q473 606 425 606Q395 606 372 619.50Q349 633 329 646Q309 659 287 659Q254 659 238 605L164 605Z"  horiz-adv-x="577" vert-adv-y="1000"  />

      
      <glyph glyph-name="unif6" unicode="&#xf6;" d="M251-9Q159-9 102.50 47Q46 103 46 199Q46 268 63.50 331Q81 394 116 443.50Q151 493 204 522Q257 551 327 551Q422 551 477 494.50Q532 438 532 338Q532 272 514.50 210Q497 148 462.50 98.50Q428 49 375.50 20Q323-9 251-9M260 93Q304 93 336.50 126Q369 159 387 215.50Q405 272 405 342Q405 385 386.50 417Q368 449 321 449Q284 449 256 426.50Q228 404 209.50 367.50Q191 331 181 286.50Q171 242 171 198Q171 93 260 93M446 625Q423 625 407.50 636.50Q392 648 392 674Q392 706 409 725Q426 744 458 744Q481 744 496 732.50Q511 721 511 696Q511 663 494 644Q477 625 446 625M262 625Q238 625 222.50 636.50Q207 648 207 674Q207 706 224.50 725Q242 744 273 744Q297 744 312 732.50Q327 721 327 696Q327 663 310 644Q293 625 262 625Z"  horiz-adv-x="577" vert-adv-y="1000"  />

      
      <glyph glyph-name="unif7" unicode="&#xf7;" d="M299 454Q273 454 254 470.50Q235 487 235 523Q235 561 254 576.50Q273 592 299 592Q324 592 343 576.50Q362 561 362 523Q362 487 343 470.50Q324 454 299 454M59 306L59 399L539 399L539 306L59 306M299 113Q273 113 254 129.50Q235 146 235 182Q235 220 254 235.50Q273 251 299 251Q324 251 343 235.50Q362 220 362 182Q362 146 343 129.50Q324 113 299 113Z"  horiz-adv-x="572" vert-adv-y="1000"  />

      
      <glyph glyph-name="unif8" unicode="&#xf8;" d="M87-45L24 3L81 73Q46 124 46 199Q46 268 63.50 331Q81 394 116 443.50Q151 493 204 522Q257 551 327 551Q395 551 442 522L482 572L546 523L500 468Q515 443 523 410.50Q531 378 531 342Q531 275 514 212.50Q497 150 462.50 100Q428 50 375.50 20.50Q323-9 251-9Q219-9 190.50-1.50Q162 6 138 19L87-45M374 437Q366 443 352.50 447.50Q339 452 321 452Q283 452 254.50 431.50Q226 411 207.50 377.50Q189 344 179.50 303Q170 262 168 221Q167 200 171 183L374 437M260 89Q307 89 339.50 123Q372 157 389.50 210.50Q407 264 409 321Q410 340 407 354L206 104Q226 89 260 89Z"  horiz-adv-x="577" vert-adv-y="1000"  />

      
      <glyph glyph-name="unif9" unicode="&#xf9;" d="M191-10Q125-10 89.50 29Q54 68 54 138Q54 158 57.50 183Q61 208 66 235L131 542L256 542L187 216Q179 178 179 155Q179 92 238 92Q289 92 333.50 151Q378 210 400 314L449 542L573 542L458 0L361 0L371 100L366 100Q336 56 294 23Q252-10 191-10M365 606Q345 626 322.50 652.50Q300 679 280.50 706.50Q261 734 250 756L250 766L381 766Q390 731 406 692.50Q422 654 442 618L442 606L365 606Z"  horiz-adv-x="595" vert-adv-y="1000"  />

      
      <glyph glyph-name="unifa" unicode="&#xfa;" d="M191-10Q125-10 89.50 29Q54 68 54 138Q54 158 57.50 183Q61 208 66 235L131 542L256 542L187 216Q179 178 179 155Q179 92 238 92Q289 92 333.50 151Q378 210 400 314L449 542L573 542L458 0L361 0L371 100L366 100Q336 56 294 23Q252-10 191-10M299 618Q324 646 355 688.50Q386 731 408 766L548 766L548 757Q534 739 504.50 710.50Q475 682 442 653Q409 624 383 606L299 606L299 618Z"  horiz-adv-x="595" vert-adv-y="1000"  />

      
      <glyph glyph-name="unifb" unicode="&#xfb;" d="M191-10Q125-10 89.50 29Q54 68 54 138Q54 158 57.50 183Q61 208 66 235L131 542L256 542L187 216Q179 178 179 155Q179 92 238 92Q289 92 333.50 151Q378 210 400 314L449 542L573 542L458 0L361 0L371 100L366 100Q336 56 294 23Q252-10 191-10M179 618Q198 636 225 662Q252 688 278.50 716Q305 744 321 766L456 766Q471 729 496.50 688.50Q522 648 541 618L541 606L460 606Q443 621 421.50 644.50Q400 668 381 691Q352 666 323.50 645Q295 624 267 606L179 606L179 618Z"  horiz-adv-x="595" vert-adv-y="1000"  />

      
      <glyph glyph-name="unifc" unicode="&#xfc;" d="M191-10Q125-10 89.50 29Q54 68 54 138Q54 158 57.50 183Q61 208 66 235L131 542L256 542L187 216Q179 178 179 155Q179 92 238 92Q289 92 333.50 151Q378 210 400 314L449 542L573 542L458 0L361 0L371 100L366 100Q336 56 294 23Q252-10 191-10M466 625Q443 625 427.50 636.50Q412 648 412 674Q412 706 429 725Q446 744 478 744Q501 744 516 732.50Q531 721 531 696Q531 663 514 644Q497 625 466 625M282 625Q258 625 242.50 636.50Q227 648 227 674Q227 706 244.50 725Q262 744 293 744Q317 744 332 732.50Q347 721 347 696Q347 663 330 644Q313 625 282 625Z"  horiz-adv-x="595" vert-adv-y="1000"  />

      
      <glyph glyph-name="unifd" unicode="&#xfd;" d="M-8-240Q-33-240-49.50-237.50Q-66-235-78-231L-78-131Q-65-134-50.50-136Q-36-138-19-138Q25-138 54.50-112Q84-86 108-41L130-3L49 542L172 542L202 285Q207 245 209 198Q211 151 211 121L214 121Q224 145 241 187Q258 229 277 268L415 542L550 542L215-83Q172-163 118-201.50Q64-240-8-240M232 618Q257 646 288 688.50Q319 731 341 766L481 766L481 757Q467 739 437.50 710.50Q408 682 375 653Q342 624 316 606L232 606L232 618Z"  horiz-adv-x="499" vert-adv-y="1000"  />

      
      <glyph glyph-name="unife" unicode="&#xfe;" d="M-29-240L183 760L308 760L273 599Q265 563 254.50 525Q244 487 235 459L239 459Q272 501 310 526.50Q348 552 392 552Q459 552 501 504Q543 456 543 359Q543 294 527 229Q511 164 479.50 110Q448 56 401 23Q354-10 292-10Q241-10 208.50 15Q176 40 158 75L153 75Q149 11 136-49L96-240L-29-240M269 92Q302 92 329 114.50Q356 137 375.50 175.50Q395 214 405.50 261Q416 308 416 356Q416 450 341 450Q309 450 280 425.50Q251 401 229 359.50Q207 318 197 269Q193 249 190.50 227.50Q188 206 188 186Q188 144 207.50 118Q227 92 269 92Z"  horiz-adv-x="589" vert-adv-y="1000"  />

      
      <glyph glyph-name="uniff" unicode="&#xff;" d="M-8-240Q-33-240-49.50-237.50Q-66-235-78-231L-78-131Q-65-134-50.50-136Q-36-138-19-138Q25-138 54.50-112Q84-86 108-41L130-3L49 542L172 542L202 285Q207 245 209 198Q211 151 211 121L214 121Q224 145 241 187Q258 229 277 268L415 542L550 542L215-83Q172-163 118-201.50Q64-240-8-240M400 625Q377 625 361.50 636.50Q346 648 346 674Q346 706 363 725Q380 744 412 744Q435 744 450 732.50Q465 721 465 696Q465 663 448 644Q431 625 400 625M216 625Q192 625 176.50 636.50Q161 648 161 674Q161 706 178.50 725Q196 744 227 744Q251 744 266 732.50Q281 721 281 696Q281 663 264 644Q247 625 216 625Z"  horiz-adv-x="499" vert-adv-y="1000"  />

      
      <glyph glyph-name="uni0100" unicode="&#x0100;" d="M-59 0L320 714L469 714L547 0L424 0L406 190L171 190L75 0L-59 0M226 299L398 299L384 470Q381 503 378.50 538.50Q376 574 377 607L374 607Q362 576 346.50 543Q331 510 313 474L226 299M260 778L280 869L569 869L550 778L260 778Z"  horiz-adv-x="603" vert-adv-y="1000"  />

      
      <glyph glyph-name="uni0101" unicode="&#x0101;" d="M196-10Q155-10 121 10Q87 30 66.50 72.50Q46 115 46 182Q46 252 64 318Q82 384 116 437Q150 490 197.50 521Q245 552 302 552Q354 552 387 528Q420 504 437 467L442 467L471 542L567 542L452 0L357 0L366 82L362 82Q331 42 290.50 16Q250-10 196-10M243 92Q276 92 305.50 117Q335 142 357.50 182.50Q380 223 391 272Q396 294 398 316Q400 338 400 360Q400 399 379 424.50Q358 450 321 450Q290 450 263 427.50Q236 405 215.50 367Q195 329 183.50 282Q172 235 172 186Q172 139 191 115.50Q210 92 243 92M214 606L234 697L523 697L504 606L214 606Z"  horiz-adv-x="584" vert-adv-y="1000"  />

      
      <glyph glyph-name="uni0102" unicode="&#x0102;" d="M-59 0L320 714L469 714L547 0L424 0L406 190L171 190L75 0L-59 0M226 299L398 299L384 470Q381 503 378.50 538.50Q376 574 377 607L374 607Q362 576 346.50 543Q331 510 313 474L226 299M406 778Q331 778 295.50 815Q260 852 260 903Q260 919 263 931L335 931Q335 901 353 885.50Q371 870 412 870Q493 870 509 931L587 931Q558 778 406 778Z"  horiz-adv-x="603" vert-adv-y="1000"  />

      
      <glyph glyph-name="uni0103" unicode="&#x0103;" d="M196-10Q155-10 121 10Q87 30 66.50 72.50Q46 115 46 182Q46 252 64 318Q82 384 116 437Q150 490 197.50 521Q245 552 302 552Q354 552 387 528Q420 504 437 467L442 467L471 542L567 542L452 0L357 0L366 82L362 82Q331 42 290.50 16Q250-10 196-10M243 92Q276 92 305.50 117Q335 142 357.50 182.50Q380 223 391 272Q396 294 398 316Q400 338 400 360Q400 399 379 424.50Q358 450 321 450Q290 450 263 427.50Q236 405 215.50 367Q195 329 183.50 282Q172 235 172 186Q172 139 191 115.50Q210 92 243 92M360 606Q285 606 249.50 643Q214 680 214 731Q214 747 217 759L289 759Q289 729 307 713.50Q325 698 366 698Q447 698 463 759L541 759Q512 606 360 606Z"  horiz-adv-x="584" vert-adv-y="1000"  />

      
      <glyph glyph-name="uni0104" unicode="&#x0104;" d="M-59 0L320 714L469 714L547 0L424 0L406 190L171 190L75 0L-59 0M226 299L398 299L384 470Q381 503 378.50 538.50Q376 574 377 607L374 607Q362 576 346.50 543Q331 510 313 474L226 299M419-231Q373-231 345.50-207.50Q318-184 318-142Q318-94 347.50-61.50Q377-29 423 0L506 0Q484-18 462.50-37Q441-56 427-77.50Q413-99 413-124Q413-154 444-154Q456-154 467.50-152Q479-150 490-147L490-221Q474-226 456.50-228.50Q439-231 419-231Z"  horiz-adv-x="603" vert-adv-y="1000"  />

      
      <glyph glyph-name="uni0105" unicode="&#x0105;" d="M196-10Q155-10 121 10Q87 30 66.50 72.50Q46 115 46 182Q46 252 64 318Q82 384 116 437Q150 490 197.50 521Q245 552 302 552Q354 552 387 528Q420 504 437 467L442 467L471 542L567 542L452 0L357 0L366 82L362 82Q331 42 290.50 16Q250-10 196-10M243 92Q276 92 305.50 117Q335 142 357.50 182.50Q380 223 391 272Q396 294 398 316Q400 338 400 360Q400 399 379 424.50Q358 450 321 450Q290 450 263 427.50Q236 405 215.50 367Q195 329 183.50 282Q172 235 172 186Q172 139 191 115.50Q210 92 243 92M353-231Q307-231 279.50-207.50Q252-184 252-142Q252-94 281.50-61.50Q311-29 357 0L440 0Q418-18 396.50-37Q375-56 361-77.50Q347-99 347-124Q347-154 378-154Q390-154 401.50-152Q413-150 424-147L424-221Q408-226 390.50-228.50Q373-231 353-231Z"  horiz-adv-x="584" vert-adv-y="1000"  />

      
      <glyph glyph-name="uni0106" unicode="&#x0106;" d="M324-10Q198-10 131.50 65Q65 140 65 267Q65 331 79.50 396Q94 461 124 520Q154 579 199.50 625Q245 671 307 698Q369 725 448 725Q509 725 555 713Q601 701 644 678L595 574Q563 591 528 603.50Q493 616 448 616Q382 616 334.50 585Q287 554 256 503Q225 452 210 391.50Q195 331 195 273Q195 188 233.50 143.50Q272 99 348 99Q389 99 429.50 108.50Q470 118 511 134L511 25Q477 12 431 1Q385-10 324-10M383 790Q408 818 439 860.50Q470 903 492 938L632 938L632 929Q618 911 588.50 882.50Q559 854 526 825Q493 796 467 778L383 778L383 790Z"  horiz-adv-x="603" vert-adv-y="1000"  />

      
      <glyph glyph-name="uni0107" unicode="&#x0107;" d="M247-10Q189-10 143.50 11Q98 32 72 76.50Q46 121 46 191Q46 264 65 329Q84 394 121 444.50Q158 495 211 523.50Q264 552 331 552Q375 552 412 543.50Q449 535 481 521L443 423Q419 434 393 442Q367 450 335 450Q285 450 248.50 414Q212 378 192 320.50Q172 263 172 198Q172 147 197.50 119.50Q223 92 269 92Q305 92 337 102.50Q369 113 401 129L401 26Q369 10 331.50 0Q294-10 247-10M263 618Q288 646 319 688.50Q350 731 372 766L512 766L512 757Q498 739 468.50 710.50Q439 682 406 653Q373 624 347 606L263 606L263 618Z"  horiz-adv-x="472" vert-adv-y="1000"  />

      
      <glyph glyph-name="uni0108" unicode="&#x0108;" d="M324-10Q198-10 131.50 65Q65 140 65 267Q65 331 79.50 396Q94 461 124 520Q154 579 199.50 625Q245 671 307 698Q369 725 448 725Q509 725 555 713Q601 701 644 678L595 574Q563 591 528 603.50Q493 616 448 616Q382 616 334.50 585Q287 554 256 503Q225 452 210 391.50Q195 331 195 273Q195 188 233.50 143.50Q272 99 348 99Q389 99 429.50 108.50Q470 118 511 134L511 25Q477 12 431 1Q385-10 324-10M263 790Q282 808 309 834Q336 860 362.50 888Q389 916 405 938L540 938Q555 901 580.50 860.50Q606 820 625 790L625 778L544 778Q527 793 505.50 816.50Q484 840 465 863Q436 838 407.50 817Q379 796 351 778L263 778L263 790Z"  horiz-adv-x="603" vert-adv-y="1000"  />

      
      <glyph glyph-name="uni0109" unicode="&#x0109;" d="M247-10Q189-10 143.50 11Q98 32 72 76.50Q46 121 46 191Q46 264 65 329Q84 394 121 444.50Q158 495 211 523.50Q264 552 331 552Q375 552 412 543.50Q449 535 481 521L443 423Q419 434 393 442Q367 450 335 450Q285 450 248.50 414Q212 378 192 320.50Q172 263 172 198Q172 147 197.50 119.50Q223 92 269 92Q305 92 337 102.50Q369 113 401 129L401 26Q369 10 331.50 0Q294-10 247-10M144 618Q163 636 190 662Q217 688 243.50 716Q270 744 286 766L421 766Q436 729 461.50 688.50Q487 648 506 618L506 606L425 606Q408 621 386.50 644.50Q365 668 346 691Q317 666 288.50 645Q260 624 232 606L144 606L144 618Z"  horiz-adv-x="472" vert-adv-y="1000"  />

      
      <glyph glyph-name="uni010A" unicode="&#x010A;" d="M324-10Q198-10 131.50 65Q65 140 65 267Q65 331 79.50 396Q94 461 124 520Q154 579 199.50 625Q245 671 307 698Q369 725 448 725Q509 725 555 713Q601 701 644 678L595 574Q563 591 528 603.50Q493 616 448 616Q382 616 334.50 585Q287 554 256 503Q225 452 210 391.50Q195 331 195 273Q195 188 233.50 143.50Q272 99 348 99Q389 99 429.50 108.50Q470 118 511 134L511 25Q477 12 431 1Q385-10 324-10M458 790Q431 790 412.50 803Q394 816 394 845Q394 881 414.50 902Q435 923 472 923Q499 923 517 910.50Q535 898 535 869Q535 833 514.50 811.50Q494 790 458 790Z"  horiz-adv-x="603" vert-adv-y="1000"  />

      
      <glyph glyph-name="uni010B" unicode="&#x010B;" d="M247-10Q189-10 143.50 11Q98 32 72 76.50Q46 121 46 191Q46 264 65 329Q84 394 121 444.50Q158 495 211 523.50Q264 552 331 552Q375 552 412 543.50Q449 535 481 521L443 423Q419 434 393 442Q367 450 335 450Q285 450 248.50 414Q212 378 192 320.50Q172 263 172 198Q172 147 197.50 119.50Q223 92 269 92Q305 92 337 102.50Q369 113 401 129L401 26Q369 10 331.50 0Q294-10 247-10M339 618Q312 618 293.50 631Q275 644 275 673Q275 709 295.50 730Q316 751 353 751Q380 751 398 738.50Q416 726 416 697Q416 661 395.50 639.50Q375 618 339 618Z"  horiz-adv-x="472" vert-adv-y="1000"  />

      
      <glyph glyph-name="uni010C" unicode="&#x010C;" d="M324-10Q198-10 131.50 65Q65 140 65 267Q65 331 79.50 396Q94 461 124 520Q154 579 199.50 625Q245 671 307 698Q369 725 448 725Q509 725 555 713Q601 701 644 678L595 574Q563 591 528 603.50Q493 616 448 616Q382 616 334.50 585Q287 554 256 503Q225 452 210 391.50Q195 331 195 273Q195 188 233.50 143.50Q272 99 348 99Q389 99 429.50 108.50Q470 118 511 134L511 25Q477 12 431 1Q385-10 324-10M383 778Q368 814 343 855Q318 896 298 926L298 938L379 938Q397 923 418.50 899.50Q440 876 458 853Q488 878 516.50 899Q545 920 573 938L661 938L661 926Q642 908 614.50 882Q587 856 560.50 828Q534 800 518 778L383 778Z"  horiz-adv-x="603" vert-adv-y="1000"  />

      
      <glyph glyph-name="uni010D" unicode="&#x010D;" d="M247-10Q189-10 143.50 11Q98 32 72 76.50Q46 121 46 191Q46 264 65 329Q84 394 121 444.50Q158 495 211 523.50Q264 552 331 552Q375 552 412 543.50Q449 535 481 521L443 423Q419 434 393 442Q367 450 335 450Q285 450 248.50 414Q212 378 192 320.50Q172 263 172 198Q172 147 197.50 119.50Q223 92 269 92Q305 92 337 102.50Q369 113 401 129L401 26Q369 10 331.50 0Q294-10 247-10M264 606Q249 642 224 683Q199 724 179 754L179 766L260 766Q278 751 299.50 727.50Q321 704 339 681Q369 706 397.50 727Q426 748 454 766L542 766L542 754Q523 736 495.50 710Q468 684 441.50 656Q415 628 399 606L264 606Z"  horiz-adv-x="472" vert-adv-y="1000"  />

      
      <glyph glyph-name="uni010E" unicode="&#x010E;" d="M32 0L183 714L367 714Q497 714 569.50 644.50Q642 575 642 438Q642 307 595 208.50Q548 110 457 55Q366 0 235 0L32 0M241 107Q331 107 391 151.50Q451 196 481 270.50Q511 345 511 434Q511 524 468.50 566Q426 608 354 608L287 608L180 107L241 107M373 778Q358 814 333 855Q308 896 288 926L288 938L369 938Q387 923 408.50 899.50Q430 876 448 853Q478 878 506.50 899Q535 920 563 938L651 938L651 926Q632 908 604.50 882Q577 856 550.50 828Q524 800 508 778L373 778Z"  horiz-adv-x="673" vert-adv-y="1000"  />

      
      <glyph glyph-name="uni010F" unicode="&#x010F;" d="M621 613Q631 631 643.50 657.50Q656 684 667.50 711.50Q679 739 686 760L803 760L803 750Q789 720 758 677.50Q727 635 694 600L621 600L621 613M196-10Q155-10 121 10Q87 30 66.50 72.50Q46 115 46 183Q46 252 63.50 318Q81 384 115 436.50Q149 489 196 520.50Q243 552 302 552Q353 552 382.50 527Q412 502 430 467L435 467Q437 483 440.50 517.50Q444 552 451 585L488 760L613 760L452 0L355 0L364 82L360 82Q329 42 289.50 16Q250-10 196-10M246 92Q280 92 308 117.50Q336 143 357 183.50Q378 224 389 269.50Q400 315 400 356Q400 398 380 424Q360 450 320 450Q288 450 261 427Q234 404 214 366Q194 328 183 281Q172 234 172 186Q172 92 246 92Z"  horiz-adv-x="652" vert-adv-y="1000"  />

      
      <glyph glyph-name="uni0110" unicode="&#x0110;" d="M32 0L94 300L24 300L47 406L117 406L183 714L367 714Q497 714 569.50 644.50Q642 575 642 438Q642 307 595 208.50Q548 110 457 55Q366 0 235 0L32 0M241 107Q331 107 391 151.50Q451 196 481 270.50Q511 345 511 434Q511 524 468.50 566Q426 608 354 608L287 608L244 406L376 406L352 300L221 300L180 107L241 107Z"  horiz-adv-x="673" vert-adv-y="1000"  />

      
      <glyph glyph-name="uni0111" unicode="&#x0111;" d="M199-10Q132-10 89 38Q46 86 46 183Q46 245 62 307Q78 369 110 420Q142 471 189 502.50Q236 534 297 534Q349 534 380 510.50Q411 487 428 454L432 454Q433 469 436 494Q439 519 443 542L452 592L296 592L313 677L471 677L488 760L613 760L595 677L669 677L651 592L576 592L452 0L356 0L364 82L360 82Q330 45 291.50 17.50Q253-10 199-10M247 92Q279 92 306.50 114.50Q334 137 355 174.50Q376 212 388 256Q400 300 400 342Q400 383 380.50 407.50Q361 432 320 432Q287 432 259.50 410.50Q232 389 212.50 353.50Q193 318 182.50 274.50Q172 231 172 186Q172 92 247 92Z"  horiz-adv-x="588" vert-adv-y="1000"  />

      
      <glyph glyph-name="uni0112" unicode="&#x0112;" d="M32 0L183 714L568 714L545 607L286 607L248 425L489 425L467 318L225 318L180 108L439 108L417 0L32 0M233 778L253 869L542 869L523 778L233 778Z"  horiz-adv-x="531" vert-adv-y="1000"  />

      
      <glyph glyph-name="uni0113" unicode="&#x0113;" d="M253-10Q158-10 102 43Q46 96 46 198Q46 264 65 327.50Q84 391 121 441.50Q158 492 212.50 522Q267 552 337 552Q422 552 465 513.50Q508 475 508 412Q508 329 432 276Q356 223 195 223L173 223Q171 210 171 196Q171 145 198 116Q225 87 277 87Q318 87 353 97Q388 107 433 128L433 31Q392 11 350.50 0.50Q309-10 253-10M204 311Q291 311 339.50 337Q388 363 388 408Q388 459 329 459Q285 459 244.50 419Q204 379 188 311L204 311M196 606L216 697L505 697L486 606L196 606Z"  horiz-adv-x="535" vert-adv-y="1000"  />

      
      <glyph glyph-name="uni0114" unicode="&#x0114;" d="M32 0L183 714L568 714L545 607L286 607L248 425L489 425L467 318L225 318L180 108L439 108L417 0L32 0M379 778Q304 778 268.50 815Q233 852 233 903Q233 919 236 931L308 931Q308 901 326 885.50Q344 870 385 870Q466 870 482 931L560 931Q531 778 379 778Z"  horiz-adv-x="531" vert-adv-y="1000"  />

      
      <glyph glyph-name="uni0115" unicode="&#x0115;" d="M253-10Q158-10 102 43Q46 96 46 198Q46 264 65 327.50Q84 391 121 441.50Q158 492 212.50 522Q267 552 337 552Q422 552 465 513.50Q508 475 508 412Q508 329 432 276Q356 223 195 223L173 223Q171 210 171 196Q171 145 198 116Q225 87 277 87Q318 87 353 97Q388 107 433 128L433 31Q392 11 350.50 0.50Q309-10 253-10M204 311Q291 311 339.50 337Q388 363 388 408Q388 459 329 459Q285 459 244.50 419Q204 379 188 311L204 311M343 606Q268 606 232.50 643Q197 680 197 731Q197 747 200 759L272 759Q272 729 290 713.50Q308 698 349 698Q430 698 446 759L524 759Q495 606 343 606Z"  horiz-adv-x="535" vert-adv-y="1000"  />

      
      <glyph glyph-name="uni0116" unicode="&#x0116;" d="M32 0L183 714L568 714L545 607L286 607L248 425L489 425L467 318L225 318L180 108L439 108L417 0L32 0M388 790Q361 790 342.50 803Q324 816 324 845Q324 881 344.50 902Q365 923 402 923Q429 923 447 910.50Q465 898 465 869Q465 833 444.50 811.50Q424 790 388 790Z"  horiz-adv-x="531" vert-adv-y="1000"  />

      
      <glyph glyph-name="uni0117" unicode="&#x0117;" d="M253-10Q158-10 102 43Q46 96 46 198Q46 264 65 327.50Q84 391 121 441.50Q158 492 212.50 522Q267 552 337 552Q422 552 465 513.50Q508 475 508 412Q508 329 432 276Q356 223 195 223L173 223Q171 210 171 196Q171 145 198 116Q225 87 277 87Q318 87 353 97Q388 107 433 128L433 31Q392 11 350.50 0.50Q309-10 253-10M204 311Q291 311 339.50 337Q388 363 388 408Q388 459 329 459Q285 459 244.50 419Q204 379 188 311L204 311M351 618Q324 618 305.50 631Q287 644 287 673Q287 709 307.50 730Q328 751 365 751Q392 751 410 738.50Q428 726 428 697Q428 661 407.50 639.50Q387 618 351 618Z"  horiz-adv-x="535" vert-adv-y="1000"  />

      
      <glyph glyph-name="uni0118" unicode="&#x0118;" d="M32 0L183 714L568 714L545 607L286 607L248 425L489 425L467 318L225 318L180 108L439 108L417 0L32 0M297-231Q251-231 223.50-207.50Q196-184 196-142Q196-94 225.50-61.50Q255-29 301 0L384 0Q362-18 340.50-37Q319-56 305-77.50Q291-99 291-124Q291-154 322-154Q334-154 345.50-152Q357-150 368-147L368-221Q352-226 334.50-228.50Q317-231 297-231Z"  horiz-adv-x="531" vert-adv-y="1000"  />

      
      <glyph glyph-name="uni0119" unicode="&#x0119;" d="M253-10Q158-10 102 43Q46 96 46 198Q46 264 65 327.50Q84 391 121 441.50Q158 492 212.50 522Q267 552 337 552Q422 552 465 513.50Q508 475 508 412Q508 329 432 276Q356 223 195 223L173 223Q171 210 171 196Q171 145 198 116Q225 87 277 87Q318 87 353 97Q388 107 433 128L433 31Q415 22 399 16Q354-20 323-54Q292-88 292-124Q292-154 322-154Q335-154 346-152Q357-150 369-147L369-221Q353-226 335.50-228.50Q318-231 298-231Q252-231 224.50-207.50Q197-184 197-142Q197-98 222.50-67Q248-36 288-9Q271-10 253-10M204 311Q291 311 339.50 337Q388 363 388 408Q388 459 329 459Q285 459 244.50 419Q204 379 188 311L204 311Z"  horiz-adv-x="535" vert-adv-y="1000"  />

      
      <glyph glyph-name="uni011A" unicode="&#x011A;" d="M32 0L183 714L568 714L545 607L286 607L248 425L489 425L467 318L225 318L180 108L439 108L417 0L32 0M313 778Q298 814 273 855Q248 896 228 926L228 938L309 938Q327 923 348.50 899.50Q370 876 388 853Q418 878 446.50 899Q475 920 503 938L591 938L591 926Q572 908 544.50 882Q517 856 490.50 828Q464 800 448 778L313 778Z"  horiz-adv-x="531" vert-adv-y="1000"  />

      
      <glyph glyph-name="uni011B" unicode="&#x011B;" d="M253-10Q158-10 102 43Q46 96 46 198Q46 264 65 327.50Q84 391 121 441.50Q158 492 212.50 522Q267 552 337 552Q422 552 465 513.50Q508 475 508 412Q508 329 432 276Q356 223 195 223L173 223Q171 210 171 196Q171 145 198 116Q225 87 277 87Q318 87 353 97Q388 107 433 128L433 31Q392 11 350.50 0.50Q309-10 253-10M204 311Q291 311 339.50 337Q388 363 388 408Q388 459 329 459Q285 459 244.50 419Q204 379 188 311L204 311M277 606Q262 642 237 683Q212 724 192 754L192 766L273 766Q291 751 312.50 727.50Q334 704 352 681Q382 706 410.50 727Q439 748 467 766L555 766L555 754Q536 736 508.50 710Q481 684 454.50 656Q428 628 412 606L277 606Z"  horiz-adv-x="535" vert-adv-y="1000"  />

      
      </font>
</defs>
</svg>
