<?xml version="1.0" standalone="no"?>
  <!DOCTYPE svg PUBLIC "-//W3C//DTD SVG 1.1//EN" "http://www.w3.org/Graphics/SVG/1.1/DTD/svg11.dtd" >
  <svg>
  <metadata>
  Created by font-carrier
  </metadata>
  <defs>
  <font id="NotoSans-SemiBold" horiz-adv-x="2840" vert-adv-y="2840" >
    <font-face
      
      font-family="Noto Sans SemiBold"
      
      font-weight="400"
      
      font-stretch="normal"
      
      units-per-em="1000"
      
      ascent="1069"
      
      descent="-293"
      
    />
      <missing-glyph />

      

      
      <glyph glyph-name="uni21" unicode="&#x21;" d="M188 223L92 223L67 714L213 714L188 223M63 64Q63 106 85 123.50Q107 141 140 141Q170 141 193 123.50Q216 106 216 64Q216 23 193 5Q170-13 140-13Q107-13 85 5Q63 23 63 64Z"  horiz-adv-x="280" vert-adv-y="1000"  />

      
      <glyph glyph-name="uni22" unicode="&#x22;" d="M186 714L166 456L85 456L65 714L186 714M383 714L363 456L282 456L262 714L383 714Z"  horiz-adv-x="448" vert-adv-y="1000"  />

      
      <glyph glyph-name="uni23" unicode="&#x23;" d="M485 421L459 290L589 290L589 202L442 202L403 0L310 0L349 202L236 202L198 0L106 0L143 202L23 202L23 290L160 290L186 421L59 421L59 509L202 509L241 713L334 713L296 509L410 509L449 713L540 713L502 509L622 509L622 421L485 421M252 290L366 290L392 421L278 421L252 290Z"  horiz-adv-x="646" vert-adv-y="1000"  />

      
      <glyph glyph-name="uni24" unicode="&#x24;" d="M253 43Q191 45 140 55Q89 65 51 82L51 194Q89 176 145 161Q201 146 253 144L253 314Q180 340 135.50 366.50Q91 393 70.50 427.50Q50 462 50 510Q50 585 106 628.50Q162 672 253 679L253 759L319 759L319 681Q374 679 421 668Q468 657 511 639L472 540Q435 555 395.50 564.50Q356 574 319 577L319 411Q377 392 424 369Q471 346 499 311.50Q527 277 527 222Q527 150 474.50 103Q422 56 319 46L319-58L253-58L253 43M253 575Q174 566 174 513Q174 485 192 468Q210 451 253 436L253 575M319 148Q403 159 403 215Q403 242 383.50 258.50Q364 275 319 290L319 148Z"  horiz-adv-x="572" vert-adv-y="1000"  />

      
      <glyph glyph-name="uni25" unicode="&#x25;" d="M197 724Q278 724 319.50 665.50Q361 607 361 501Q361 395 321.50 335.50Q282 276 197 276Q119 276 78.50 335.50Q38 395 38 501Q38 607 76 665.50Q114 724 197 724M686 714L290 0L188 0L584 714L686 714M198 637Q142 637 142 500Q142 363 198 363Q256 363 256 500Q256 637 198 637M674 439Q753 439 795 380Q837 321 837 216Q837 110 797.50 50.50Q758-9 674-9Q595-9 554.50 50.50Q514 110 514 216Q514 321 552.50 380Q591 439 674 439M674 351Q618 351 618 215Q618 77 674 77Q733 77 733 215Q733 351 674 351Z"  horiz-adv-x="875" vert-adv-y="1000"  />

      
      <glyph glyph-name="uni26" unicode="&#x26;" d="M308 724Q392 724 445 683.50Q498 643 498 570Q498 503 457 457Q416 411 355 376L514 222Q536 254 551.50 293Q567 332 578 373L708 373Q693 314 665.50 253.50Q638 193 596 143L742 0L583 0L515 66Q470 31 415.50 10.50Q361-10 291-10Q176-10 110.50 44Q45 98 45 190Q45 266 82 312Q119 358 185 395Q148 437 128 476Q108 515 108 563Q108 638 163 681Q218 724 308 724M306 626Q275 626 251 609.50Q227 593 227 557Q227 528 241.50 502Q256 476 283 447Q332 474 355.50 500Q379 526 379 560Q379 592 357 609Q335 626 306 626M259 319Q221 294 199 267Q177 240 177 200Q177 153 211 125Q245 97 298 97Q343 97 377.50 110Q412 123 438 143L259 319Z"  horiz-adv-x="743" vert-adv-y="1000"  />

      
      <glyph glyph-name="uni27" unicode="&#x27;" d="M186 714L166 456L85 456L65 714L186 714Z"  horiz-adv-x="251" vert-adv-y="1000"  />

      
      <glyph glyph-name="uni28" unicode="&#x28;" d="M40 274Q40 396 75.50 509.50Q111 623 187 714L294 714Q225 620 190 507Q155 394 155 275Q155 159 190 47Q225-65 293-158L187-158Q111-70 75.50 41.50Q40 153 40 274Z"  horiz-adv-x="324" vert-adv-y="1000"  />

      
      <glyph glyph-name="uni29" unicode="&#x29;" d="M284 274Q284 153 248.50 41.50Q213-70 137-158L31-158Q99-65 134.50 47Q170 159 170 275Q170 394 134.50 507Q99 620 30 714L137 714Q213 623 248.50 509.50Q284 396 284 274Z"  horiz-adv-x="324" vert-adv-y="1000"  />

      
      <glyph glyph-name="uni2a" unicode="&#x2a;" d="M331 760L311 575L496 628L512 516L339 503L452 353L350 299L271 460L200 299L95 353L206 503L35 517L52 628L234 575L214 760L331 760Z"  horiz-adv-x="547" vert-adv-y="1000"  />

      
      <glyph glyph-name="uni2b" unicode="&#x2b;" d="M332 399L525 399L525 306L332 306L332 111L238 111L238 306L46 306L46 399L238 399L238 596L332 596L332 399Z"  horiz-adv-x="572" vert-adv-y="1000"  />

      
      <glyph glyph-name="uni2c" unicode="&#x2c;" d="M212 105Q198 52 174-11.50Q150-75 126-129L35-129Q49-71 63-3.50Q77 64 84 116L205 116L212 105Z"  horiz-adv-x="279" vert-adv-y="1000"  />

      
      <glyph glyph-name="uni2d" unicode="&#x2d;" d="M34 215L34 321L288 321L288 215L34 215Z"  horiz-adv-x="322" vert-adv-y="1000"  />

      
      <glyph glyph-name="uni2e" unicode="&#x2e;" d="M63 64Q63 106 85 123.50Q107 141 139 141Q170 141 193 123.50Q216 106 216 64Q216 23 193 5Q170-13 139-13Q107-13 85 5Q63 23 63 64Z"  horiz-adv-x="279" vert-adv-y="1000"  />

      
      <glyph glyph-name="uni2f" unicode="&#x2f;" d="M391 714L125 0L8 0L274 714L391 714Z"  horiz-adv-x="398" vert-adv-y="1000"  />

      
      <glyph glyph-name="uni30" unicode="&#x30;" d="M530 357Q530 242 506 160Q482 78 428 34Q374-10 285-10Q159-10 100 87.50Q41 185 41 357Q41 473 65 555Q89 637 142.50 681Q196 725 285 725Q410 725 470 628Q530 531 530 357M168 357Q168 226 193.50 160Q219 94 285 94Q350 94 376.50 159.50Q403 225 403 357Q403 489 376.50 555Q350 621 285 621Q219 621 193.50 555Q168 489 168 357Z"  horiz-adv-x="572" vert-adv-y="1000"  />

      
      <glyph glyph-name="uni31" unicode="&#x31;" d="M391 0L265 0L265 445Q265 477 266 513Q267 549 269 580Q259 570 244 556.50Q229 543 213 529L133 465L70 543L286 714L391 714L391 0Z"  horiz-adv-x="572" vert-adv-y="1000"  />

      
      <glyph glyph-name="uni32" unicode="&#x32;" d="M532 0L43 0L43 93L225 277Q279 332 313.50 371Q348 410 364.50 444.50Q381 479 381 519Q381 568 353 592.50Q325 617 279 617Q234 617 195 598.50Q156 580 114 546L45 629Q89 667 145 695.50Q201 724 286 724Q355 724 405 699.50Q455 675 481.50 632Q508 589 508 532Q508 474 485 425.50Q462 377 418.50 328.50Q375 280 315 224L202 115L202 109L532 109L532 0Z"  horiz-adv-x="572" vert-adv-y="1000"  />

      
      <glyph glyph-name="uni33" unicode="&#x33;" d="M504 551Q504 478 461.50 434.50Q419 391 352 376L352 373Q438 362 482 319.50Q526 277 526 206Q526 144 496 95Q466 46 403.50 18Q341-10 243-10Q185-10 135-0.50Q85 9 41 29L41 140Q86 117 137 105Q188 93 233 93Q320 93 356 124.50Q392 156 392 212Q392 265 350 291Q308 317 210 317L150 317L150 418L211 418Q306 418 342 448.50Q378 479 378 529Q378 572 350 596Q322 620 266 620Q212 620 173 602.50Q134 585 103 565L43 652Q83 682 139.50 703Q196 724 272 724Q383 724 443.50 677.50Q504 631 504 551Z"  horiz-adv-x="572" vert-adv-y="1000"  />

      
      <glyph glyph-name="uni34" unicode="&#x34;" d="M554 153L461 153L461 0L337 0L337 153L19 153L19 247L340 716L461 716L461 256L554 256L554 153M337 416Q337 443 338 474Q339 505 340.50 531.50Q342 558 343 572L339 572Q321 530 296 494L134 256L337 256L337 416Z"  horiz-adv-x="572" vert-adv-y="1000"  />

      
      <glyph glyph-name="uni35" unicode="&#x35;" d="M291 449Q359 449 411 424.50Q463 400 492.50 352Q522 304 522 235Q522 121 450.50 55.50Q379-10 244-10Q188-10 139 0Q90 10 54 29L54 141Q91 121 143 108Q195 95 241 95Q312 95 352.50 126Q393 157 393 223Q393 282 355 313.50Q317 345 237 345Q209 345 176.50 340Q144 335 123 330L69 360L96 714L472 714L472 604L207 604L192 439Q209 442 232 445.50Q255 449 291 449Z"  horiz-adv-x="572" vert-adv-y="1000"  />

      
      <glyph glyph-name="uni36" unicode="&#x36;" d="M43 304Q43 365 51.50 425.50Q60 486 82 539.50Q104 593 143 634.50Q182 676 242.50 699.50Q303 723 389 723Q410 723 437 721Q464 719 482 715L482 611Q442 622 396 622Q306 622 256 589.50Q206 557 186 501Q166 445 162 374L168 374Q189 409 228 433.50Q267 458 329 458Q422 458 478 399.50Q534 341 534 235Q534 120 470 55Q406-10 297-10Q226-10 168 24Q110 58 76.50 127.50Q43 197 43 304M295 93Q346 93 378 127.50Q410 162 410 234Q410 292 382 325.50Q354 359 298 359Q259 359 230 342.50Q201 326 185.50 300.50Q170 275 170 248Q170 211 184 175.50Q198 140 225.50 116.50Q253 93 295 93Z"  horiz-adv-x="572" vert-adv-y="1000"  />

      
      <glyph glyph-name="uni37" unicode="&#x37;" d="M120 0L398 605L33 605L33 714L533 714L533 629L255 0L120 0Z"  horiz-adv-x="572" vert-adv-y="1000"  />

      
      <glyph glyph-name="uni38" unicode="&#x38;" d="M286 723Q348 723 398.50 704Q449 685 478.50 647Q508 609 508 552Q508 487 470 446Q432 405 377 377Q418 357 453 330.50Q488 304 509.50 268.50Q531 233 531 185Q531 125 500 81.50Q469 38 414.50 14Q360-10 287-10Q168-10 104 41Q40 92 40 181Q40 230 59.50 266.50Q79 303 111 329Q143 355 181 373Q132 403 97.50 445.50Q63 488 63 553Q63 609 93.50 647Q124 685 174.50 704Q225 723 286 723M285 628Q241 628 212.50 606Q184 584 184 544Q184 500 214.50 474.50Q245 449 287 429Q328 447 357.50 473Q387 499 387 544Q387 584 358.50 606Q330 628 285 628M160 187Q160 143 191 114.50Q222 86 285 86Q347 86 379 114Q411 142 411 187Q411 232 374.50 261.50Q338 291 290 314L276 321Q222 297 191 265Q160 233 160 187Z"  horiz-adv-x="572" vert-adv-y="1000"  />

      
      <glyph glyph-name="uni39" unicode="&#x39;" d="M530 409Q530 348 521 287.50Q512 227 490 173.50Q468 120 429 78.50Q390 37 329.50 13.50Q269-10 183-10Q163-10 135-8Q107-6 90-2L90 102Q108 97 131 94Q154 91 176 91Q267 91 316.50 123.50Q366 156 386.50 212Q407 268 410 338L404 338Q382 303 345 279Q308 255 241 255Q150 255 94.50 313Q39 371 39 477Q39 592 103 657.50Q167 723 276 723Q347 723 404.50 689Q462 655 496 585.50Q530 516 530 409M278 619Q227 619 195 585Q163 551 163 479Q163 421 190.50 387Q218 353 275 353Q314 353 342.50 369.50Q371 386 387 411.50Q403 437 403 465Q403 501 389 537Q375 573 347 596Q319 619 278 619Z"  horiz-adv-x="572" vert-adv-y="1000"  />

      
      <glyph glyph-name="uni3a" unicode="&#x3a;" d="M63 476Q63 519 85 536.50Q107 554 139 554Q170 554 193 536.50Q216 519 216 476Q216 435 193 417Q170 399 139 399Q107 399 85 417Q63 435 63 476M63 64Q63 106 85 123.50Q107 141 139 141Q170 141 193 123.50Q216 106 216 64Q216 23 193 5Q170-13 139-13Q107-13 85 5Q63 23 63 64Z"  horiz-adv-x="279" vert-adv-y="1000"  />

      
      <glyph glyph-name="uni3b" unicode="&#x3b;" d="M62 476Q62 519 84 536.50Q106 554 138 554Q170 554 192.50 536.50Q215 519 215 476Q215 435 192.50 417Q170 399 138 399Q106 399 84 417Q62 435 62 476M209 105Q195 52 171-11.50Q147-75 123-129L31-129Q45-71 59-3.50Q73 64 81 116L202 116L209 105Z"  horiz-adv-x="279" vert-adv-y="1000"  />

      
      <glyph glyph-name="uni3c" unicode="&#x3c;" d="M525 105L46 317L46 379L525 619L525 516L175 353L525 208L525 105Z"  horiz-adv-x="572" vert-adv-y="1000"  />

      
      <glyph glyph-name="uni3d" unicode="&#x3d;" d="M48 402L48 495L523 495L523 402L48 402M48 209L48 302L523 302L523 209L48 209Z"  horiz-adv-x="572" vert-adv-y="1000"  />

      
      <glyph glyph-name="uni3e" unicode="&#x3e;" d="M46 208L396 352L46 516L46 619L525 379L525 317L46 105L46 208Z"  horiz-adv-x="572" vert-adv-y="1000"  />

      
      <glyph glyph-name="uni3f" unicode="&#x3f;" d="M137 256Q137 308 156.50 343Q176 378 226 417Q260 442 279.50 461Q299 480 308 498.50Q317 517 317 542Q317 580 290.50 600Q264 620 215 620Q171 620 131 607Q91 594 51 574L6 668Q52 692 105.50 708Q159 724 225 724Q325 724 380.50 675Q436 626 436 548Q436 505 422.50 474.50Q409 444 383 418Q357 392 319 363Q288 339 271.50 322Q255 305 249.50 288Q244 271 244 248L244 223L137 223L137 256M118 64Q118 106 140.50 123.50Q163 141 195 141Q226 141 248.50 123.50Q271 106 271 64Q271 23 248.50 5Q226-13 195-13Q163-13 140.50 5Q118 23 118 64Z"  horiz-adv-x="461" vert-adv-y="1000"  />

      
      <glyph glyph-name="uni40" unicode="&#x40;" d="M845 358Q845 311 834 266.50Q823 222 801 186Q779 150 745.50 128.50Q712 107 667 107Q627 107 599.50 127.50Q572 148 562 179L556 179Q536 149 502 128Q468 107 419 107Q334 107 288.50 159.50Q243 212 243 297Q243 364 270.50 415.50Q298 467 349 496Q400 525 470 525Q516 525 563.50 517Q611 509 637 499L627 295Q627 282 626.50 272.50Q626 263 626 260Q626 215 640.50 200Q655 185 673 185Q698 185 716 208.50Q734 232 743 271.50Q752 311 752 359Q752 446 716.50 507Q681 568 619.50 600Q558 632 481 632Q372 632 298 587Q224 542 185.50 464Q147 386 147 286Q147 146 221.50 71.50Q296-3 437-3Q496-3 556 10Q616 23 665 41L665-43Q619-62 562-74Q505-86 439-86Q317-86 231-42Q145 2 99 84.50Q53 167 53 283Q53 375 82.50 453.50Q112 532 168 590.50Q224 649 303 681.50Q382 714 480 714Q586 714 668.50 671Q751 628 798 548Q845 468 845 358M343 295Q343 237 366.50 211Q390 185 431 185Q483 185 505 223.50Q527 262 531 324L537 439Q525 442 508.50 444Q492 446 474 446Q426 446 397 424Q368 402 355.50 367.50Q343 333 343 295Z"  horiz-adv-x="898" vert-adv-y="1000"  />

      
      <glyph glyph-name="uni41" unicode="&#x41;" d="M534 0L469 189L200 189L136 0L0 0L262 717L408 717L670 0L534 0M374 483Q370 497 362 521Q354 545 346.50 570.50Q339 596 335 613Q330 593 322.50 567Q315 541 308 518Q301 495 298 483L235 299L436 299L374 483Z"  horiz-adv-x="671" vert-adv-y="1000"  />

      
      <glyph glyph-name="uni42" unicode="&#x42;" d="M308 714Q447 714 518.50 674Q590 634 590 535Q590 473 559 431Q528 389 470 379L470 374Q509 367 541 348.50Q573 330 591.50 295.50Q610 261 610 205Q610 108 541.50 54Q473 0 354 0L93 0L93 714L308 714M325 423Q401 423 429.50 447Q458 471 458 518Q458 566 423.50 587Q389 608 315 608L221 608L221 423L325 423M221 320L221 107L337 107Q415 107 445.50 137Q476 167 476 217Q476 263 444.50 291.50Q413 320 331 320L221 320Z"  horiz-adv-x="664" vert-adv-y="1000"  />

      
      <glyph glyph-name="uni43" unicode="&#x43;" d="M397 616Q299 616 245.50 546Q192 476 192 356Q192 235 242 166.50Q292 98 396 98Q441 98 484 107.50Q527 117 574 133L574 24Q530 6 485.50-2Q441-10 383-10Q273-10 201 35.50Q129 81 94 163.50Q59 246 59 357Q59 465 98 547.50Q137 630 212.50 677Q288 724 397 724Q451 724 503.50 711.50Q556 699 602 677L558 572Q520 589 479.50 602.50Q439 616 397 616Z"  horiz-adv-x="635" vert-adv-y="1000"  />

      
      <glyph glyph-name="uni44" unicode="&#x44;" d="M677 364Q677 183 576 91.50Q475 0 294 0L93 0L93 714L315 714Q425 714 506.50 674Q588 634 632.50 556.50Q677 479 677 364M543 360Q543 488 484.50 548Q426 608 315 608L221 608L221 107L298 107Q543 107 543 360Z"  horiz-adv-x="736" vert-adv-y="1000"  />

      
      <glyph glyph-name="uni45" unicode="&#x45;" d="M499 0L93 0L93 714L499 714L499 607L221 607L221 425L481 425L481 318L221 318L221 108L499 108L499 0Z"  horiz-adv-x="558" vert-adv-y="1000"  />

      
      <glyph glyph-name="uni46" unicode="&#x46;" d="M219 0L93 0L93 714L498 714L498 607L219 607L219 397L479 397L479 290L219 290L219 0Z"  horiz-adv-x="538" vert-adv-y="1000"  />

      
      <glyph glyph-name="uni47" unicode="&#x47;" d="M378 392L648 392L648 29Q591 11 531 0.50Q471-10 395-10Q233-10 146 86Q59 182 59 358Q59 469 102.50 551.50Q146 634 229 679Q312 724 431 724Q489 724 543.50 712Q598 700 643 681L599 576Q564 592 520 604Q476 616 428 616Q355 616 302 584Q249 552 220.50 493.50Q192 435 192 356Q192 280 214 222Q236 164 284 131Q332 98 409 98Q447 98 473 102Q499 106 522 111L522 283L378 283L378 392Z"  horiz-adv-x="726" vert-adv-y="1000"  />

      
      <glyph glyph-name="uni48" unicode="&#x48;" d="M663 0L535 0L535 317L221 317L221 0L93 0L93 714L221 714L221 426L535 426L535 714L663 714L663 0Z"  horiz-adv-x="756" vert-adv-y="1000"  />

      
      <glyph glyph-name="uni49" unicode="&#x49;" d="M335 0L35 0L35 73L121 105L121 608L35 641L35 714L335 714L335 641L249 608L249 105L335 73L335 0Z"  horiz-adv-x="370" vert-adv-y="1000"  />

      
      <glyph glyph-name="uni4a" unicode="&#x4a;" d="M8-202Q-19-202-40-199Q-61-196-76-191L-76-84Q-60-88-42-91Q-24-94-4-94Q22-94 43.50-84Q65-74 78-47Q91-20 91 30L91 714L219 714L219 33Q219-92 160.50-147Q102-202 8-202Z"  horiz-adv-x="309" vert-adv-y="1000"  />

      
      <glyph glyph-name="uni4b" unicode="&#x4b;" d="M647 0L500 0L288 316L221 263L221 0L93 0L93 714L221 714L221 378Q241 403 262 429Q283 455 304 481L497 714L642 714L380 400L647 0Z"  horiz-adv-x="647" vert-adv-y="1000"  />

      
      <glyph glyph-name="uni4c" unicode="&#x4c;" d="M93 0L93 714L221 714L221 108L519 108L519 0L93 0Z"  horiz-adv-x="550" vert-adv-y="1000"  />

      
      <glyph glyph-name="uni4d" unicode="&#x4d;" d="M400 0L204 585L200 585Q201 565 203 528.50Q205 492 206.50 449.50Q208 407 208 370L208 0L93 0L93 714L271 714L459 153L463 153L659 714L837 714L837 0L715 0L715 376Q715 410 716.50 450.50Q718 491 719.50 527Q721 563 722 584L718 584L514 0L400 0Z"  horiz-adv-x="929" vert-adv-y="1000"  />

      
      <glyph glyph-name="uni4e" unicode="&#x4e;" d="M700 0L541 0L203 560L199 560Q202 515 204.50 463.50Q207 412 208 360L208 0L93 0L93 714L251 714L588 158L591 158Q589 198 587 250Q585 302 584 351L584 714L700 714L700 0Z"  horiz-adv-x="793" vert-adv-y="1000"  />

      
      <glyph glyph-name="uni4f" unicode="&#x4f;" d="M731 358Q731 247 694.50 164.50Q658 82 583 36Q508-10 395-10Q281-10 206.50 36Q132 82 95.50 165Q59 248 59 359Q59 469 95.50 551.50Q132 634 206.50 679.50Q281 725 396 725Q509 725 583.50 679.50Q658 634 694.50 551.50Q731 469 731 358M194 358Q194 237 242 168Q290 99 395 99Q501 99 548.50 168Q596 237 596 358Q596 479 549 548Q502 617 396 617Q291 617 242.50 548Q194 479 194 358Z"  horiz-adv-x="790" vert-adv-y="1000"  />

      
      <glyph glyph-name="uni50" unicode="&#x50;" d="M306 714Q445 714 508.50 656Q572 598 572 496Q572 435 546 381.50Q520 328 458.50 295.50Q397 263 292 263L221 263L221 0L93 0L93 714L306 714M298 608L221 608L221 369L279 369Q357 369 399.50 397.50Q442 426 442 491Q442 550 407 579Q372 608 298 608Z"  horiz-adv-x="619" vert-adv-y="1000"  />

      
      <glyph glyph-name="uni51" unicode="&#x51;" d="M731 358Q731 234 684.50 144.50Q638 55 543 17L715-170L545-170L412-10Q408-10 403.50-10Q399-10 395-10Q281-10 206.50 36Q132 82 95.50 165Q59 248 59 359Q59 469 95.50 551.50Q132 634 206.50 679.50Q281 725 396 725Q509 725 583.50 679.50Q658 634 694.50 551.50Q731 469 731 358M194 358Q194 237 242 168Q290 99 395 99Q501 99 548.50 168Q596 237 596 358Q596 479 549 548Q502 617 396 617Q291 617 242.50 548Q194 479 194 358Z"  horiz-adv-x="790" vert-adv-y="1000"  />

      
      <glyph glyph-name="uni52" unicode="&#x52;" d="M296 714Q437 714 504.50 662Q572 610 572 504Q572 452 552.50 415Q533 378 502 353.50Q471 329 435 314L640 0L496 0L325 282L221 282L221 0L93 0L93 714L296 714M288 607L221 607L221 387L292 387Q371 387 406.50 415.50Q442 444 442 500Q442 558 404.50 582.50Q367 607 288 607Z"  horiz-adv-x="646" vert-adv-y="1000"  />

      
      <glyph glyph-name="uni53" unicode="&#x53;" d="M508 195Q508 100 439 45Q370-10 248-10Q130-10 48 30L48 150Q93 130 147 113.50Q201 97 257 97Q321 97 351 122Q381 147 381 188Q381 233 343 259Q305 285 232 316Q188 335 148 361Q108 387 82 427Q56 467 56 529Q56 621 120.50 672.50Q185 724 293 724Q350 724 399.50 712Q449 700 499 678L458 575Q413 594 372.50 605Q332 616 289 616Q237 616 210 592.50Q183 569 183 532Q183 502 198 482Q213 462 244.50 445Q276 428 326 406Q383 381 424 354Q465 327 486.50 289Q508 251 508 195Z"  horiz-adv-x="550" vert-adv-y="1000"  />

      
      <glyph glyph-name="uni54" unicode="&#x54;" d="M349 0L221 0L221 606L16 606L16 714L554 714L554 606L349 606L349 0Z"  horiz-adv-x="570" vert-adv-y="1000"  />

      
      <glyph glyph-name="uni55" unicode="&#x55;" d="M659 252Q659 178 627.50 118.50Q596 59 532 24.50Q468-10 370-10Q231-10 159 62.50Q87 135 87 254L87 714L215 714L215 267Q215 179 255 139Q295 99 374 99Q457 99 494.50 142.50Q532 186 532 268L532 714L659 714L659 252Z"  horiz-adv-x="747" vert-adv-y="1000"  />

      
      <glyph glyph-name="uni56" unicode="&#x56;" d="M631 714L384 0L247 0L0 714L131 714L275 277Q281 259 289 230.50Q297 202 304.50 172Q312 142 316 120Q319 142 326 172Q333 202 341 230.50Q349 259 356 277L500 714L631 714Z"  horiz-adv-x="631" vert-adv-y="1000"  />

      
      <glyph glyph-name="uni57" unicode="&#x57;" d="M948 714L763 0L622 0L509 410Q503 430 496 461.50Q489 493 483 523Q477 553 475 567Q473 553 467.50 523.50Q462 494 454.50 462Q447 430 441 408L331 0L189 0L5 714L133 714L231 307Q238 281 244.50 248Q251 215 257 182.50Q263 150 266 126Q269 151 275 184Q281 217 288 248.50Q295 280 301 302L413 714L537 714L651 301Q658 279 665 246.50Q672 214 678 182Q684 150 687 126Q690 151 695.50 183Q701 215 708 248Q715 281 722 307L820 714L948 714Z"  horiz-adv-x="953" vert-adv-y="1000"  />

      
      <glyph glyph-name="uni58" unicode="&#x58;" d="M635 0L489 0L314 285L138 0L2 0L239 370L17 714L158 714L320 448L481 714L618 714L395 365L635 0Z"  horiz-adv-x="636" vert-adv-y="1000"  />

      
      <glyph glyph-name="uni59" unicode="&#x59;" d="M301 399L464 714L602 714L365 278L365 0L237 0L237 273L0 714L139 714L301 399Z"  horiz-adv-x="602" vert-adv-y="1000"  />

      
      <glyph glyph-name="uni5a" unicode="&#x5a;" d="M547 0L29 0L29 87L384 606L39 606L39 714L537 714L537 627L183 108L547 108L547 0Z"  horiz-adv-x="576" vert-adv-y="1000"  />

      
      <glyph glyph-name="uni5b" unicode="&#x5b;" d="M305-158L74-158L74 714L305 714L305 623L185 623L185-67L305-67L305-158Z"  horiz-adv-x="330" vert-adv-y="1000"  />

      
      <glyph glyph-name="uni5c" unicode="&#x5c;" d="M124 714L390 0L274 0L8 714L124 714Z"  horiz-adv-x="398" vert-adv-y="1000"  />

      
      <glyph glyph-name="uni5d" unicode="&#x5d;" d="M25-67L145-67L145 623L25 623L25 714L256 714L256-158L25-158L25-67Z"  horiz-adv-x="330" vert-adv-y="1000"  />

      
      <glyph glyph-name="uni5e" unicode="&#x5e;" d="M29 259L242 718L304 718L543 259L441 259L275 590L130 259L29 259Z"  horiz-adv-x="572" vert-adv-y="1000"  />

      
      <glyph glyph-name="uni5f" unicode="&#x5f;" d="M425-156L-2-156L-2-90L425-90L425-156Z"  horiz-adv-x="423" vert-adv-y="1000"  />

      
      <glyph glyph-name="uni60" unicode="&#x60;" d="M184 766Q197 744 216 716.50Q235 689 255.50 663Q276 637 291 619L291 606L208 606Q183 624 150 652Q117 680 86.50 709Q56 738 40 756L40 766L184 766Z"  horiz-adv-x="331" vert-adv-y="1000"  />

      
      <glyph glyph-name="uni61" unicode="&#x61;" d="M297 552Q402 552 456.50 506Q511 460 511 364L511 0L422 0L397 75L393 75Q358 31 319 10.50Q280-10 213-10Q140-10 92 31Q44 72 44 158Q44 242 105.50 284Q167 326 292 331L386 334L386 361Q386 412 361 434.50Q336 457 291 457Q250 457 212.50 445Q175 433 138 417L98 505Q138 526 189.50 539Q241 552 297 552M320 254Q237 251 205 225.50Q173 200 173 157Q173 118 195.50 101.50Q218 85 255 85Q310 85 348 116.50Q386 148 386 210L386 256L320 254Z"  horiz-adv-x="588" vert-adv-y="1000"  />

      
      <glyph glyph-name="uni62" unicode="&#x62;" d="M207 580Q207 548 205 518Q203 488 201 471L207 471Q229 505 267 528.50Q305 552 366 552Q460 552 518.50 481Q577 410 577 272Q577 132 518 61Q459-10 363-10Q302-10 265.50 12Q229 34 207 63L198 63L175 0L81 0L81 760L207 760L207 580M330 450Q262 450 235 409Q208 368 207 283L207 272Q207 185 233.50 139Q260 93 332 93Q388 93 418 139.50Q448 186 448 273Q448 362 417.50 406Q387 450 330 450Z"  horiz-adv-x="626" vert-adv-y="1000"  />

      
      <glyph glyph-name="uni63" unicode="&#x63;" d="M300-10Q183-10 116 57Q49 124 49 268Q49 368 82.50 430.50Q116 493 175 522.50Q234 552 310 552Q361 552 401 542Q441 532 469 518L432 419Q401 431 370 439.50Q339 448 310 448Q178 448 178 269Q178 182 211.50 138Q245 94 308 94Q353 94 388 105Q423 116 455 135L455 26Q424 8 388.50-1Q353-10 300-10Z"  horiz-adv-x="501" vert-adv-y="1000"  />

      
      <glyph glyph-name="uni64" unicode="&#x64;" d="M260-10Q165-10 107 61Q49 132 49 270Q49 410 108 481Q167 552 263 552Q323 552 361.50 529Q400 506 423 473L429 473Q426 487 423 516Q420 545 420 570L420 760L546 760L546 0L448 0L425 71L420 71Q397 37 359 13.50Q321-10 260-10M298 92Q368 92 396.50 132Q425 172 426 253L426 269Q426 356 398.50 402.50Q371 449 296 449Q238 449 207.50 401.50Q177 354 177 268Q177 182 208 137Q239 92 298 92Z"  horiz-adv-x="626" vert-adv-y="1000"  />

      
      <glyph glyph-name="uni65" unicode="&#x65;" d="M299 552Q408 552 471.50 487Q535 422 535 306L535 242L177 242Q179 168 218 127.50Q257 87 326 87Q378 87 420 97.50Q462 108 506 128L506 27Q466 8 423-1Q380-10 320-10Q241-10 179.50 20.50Q118 51 83.50 113Q49 175 49 267Q49 406 118 479Q187 552 299 552M299 459Q248 459 216.50 426.50Q185 394 180 330L413 330Q412 386 384.50 422.50Q357 459 299 459Z"  horiz-adv-x="581" vert-adv-y="1000"  />

      
      <glyph glyph-name="uni66" unicode="&#x66;" d="M362 447L231 447L231 0L105 0L105 447L18 447L18 507L105 543L105 580Q105 684 154.50 724.50Q204 765 290 765Q329 765 361.50 758.50Q394 752 415 744L383 650Q366 655 345.50 659.50Q325 664 301 664Q265 664 248 641.50Q231 619 231 577L231 542L362 542L362 447Z"  horiz-adv-x="371" vert-adv-y="1000"  />

      
      <glyph glyph-name="uni67" unicode="&#x67;" d="M263 552Q366 552 424 472L429 472L441 542L546 542L546-4Q546-120 480.50-180Q415-240 285-240Q227-240 178-232.50Q129-225 85-207L85-103Q178-145 293-145Q355-145 387.50-110.50Q420-76 420-10L420 4Q420 19 421 39Q422 59 424 71L420 71Q392 29 351.50 9.50Q311-10 260-10Q161-10 105 64Q49 138 49 270Q49 402 105.50 477Q162 552 263 552M296 449Q178 449 178 268Q178 90 298 90Q364 90 395.50 126.50Q427 163 427 250L427 269Q427 365 395.50 407Q364 449 296 449Z"  horiz-adv-x="626" vert-adv-y="1000"  />

      
      <glyph glyph-name="uni68" unicode="&#x68;" d="M207 579Q207 547 204.50 516.50Q202 486 200 471L208 471Q234 512 276 532Q318 552 369 552Q461 552 513 505Q565 458 565 353L565 0L439 0L439 328Q439 450 339 450Q263 450 235 402Q207 354 207 265L207 0L81 0L81 760L207 760L207 579Z"  horiz-adv-x="642" vert-adv-y="1000"  />

      
      <glyph glyph-name="uni69" unicode="&#x69;" d="M144 751Q173 751 193.50 736.50Q214 722 214 685Q214 648 193.50 633Q173 618 144 618Q115 618 94.50 633Q74 648 74 685Q74 722 94.50 736.50Q115 751 144 751M207 542L207 0L81 0L81 542L207 542Z"  horiz-adv-x="287" vert-adv-y="1000"  />

      
      <glyph glyph-name="uni6a" unicode="&#x6a;" d="M74 685Q74 722 94.50 736.50Q115 751 144 751Q173 751 193.50 736.50Q214 722 214 685Q214 648 193.50 633Q173 618 144 618Q115 618 94.50 633Q74 648 74 685M29-240Q4-240-20-236.50Q-44-233-61-228L-61-128Q-44-133-28-135.50Q-12-138 8-138Q39-138 60-121Q81-104 81-54L81 542L207 542L207-67Q207-142 166-191Q125-240 29-240Z"  horiz-adv-x="287" vert-adv-y="1000"  />

      
      <glyph glyph-name="uni6b" unicode="&#x6b;" d="M206 399Q206 373 204 344Q202 315 200 289L203 289Q215 307 233 330Q251 353 267 371L427 542L570 542L353 308L584 0L437 0L269 232L206 180L206 0L81 0L81 760L206 760L206 399Z"  horiz-adv-x="588" vert-adv-y="1000"  />

      
      <glyph glyph-name="uni6c" unicode="&#x6c;" d="M207 0L81 0L81 760L207 760L207 0Z"  horiz-adv-x="287" vert-adv-y="1000"  />

      
      <glyph glyph-name="uni6d" unicode="&#x6d;" d="M702 552Q794 552 840.50 505Q887 458 887 353L887 0L761 0L761 329Q761 450 669 450Q603 450 575 407Q547 364 547 282L547 0L421 0L421 329Q421 450 328 450Q259 450 233 402Q207 354 207 265L207 0L81 0L81 542L178 542L196 471L203 471Q227 513 270.50 532.50Q314 552 361 552Q422 552 463.50 531.50Q505 511 527 468L537 468Q562 512 607 532Q652 552 702 552Z"  horiz-adv-x="964" vert-adv-y="1000"  />

      
      <glyph glyph-name="uni6e" unicode="&#x6e;" d="M371 552Q462 552 513.50 505Q565 458 565 353L565 0L439 0L439 328Q439 450 339 450Q263 450 235 402Q207 354 207 265L207 0L81 0L81 542L178 542L196 471L203 471Q229 513 274.50 532.50Q320 552 371 552Z"  horiz-adv-x="642" vert-adv-y="1000"  />

      
      <glyph glyph-name="uni6f" unicode="&#x6f;" d="M565 272Q565 137 495 63.50Q425-10 305-10Q231-10 173 23Q115 56 82 119Q49 182 49 272Q49 407 118.50 479.50Q188 552 308 552Q383 552 441 519.50Q499 487 532 424.50Q565 362 565 272M178 272Q178 186 208.50 139Q239 92 307 92Q375 92 405.50 139Q436 186 436 272Q436 358 405.50 404Q375 450 306 450Q239 450 208.50 404Q178 358 178 272Z"  horiz-adv-x="614" vert-adv-y="1000"  />

      
      <glyph glyph-name="uni70" unicode="&#x70;" d="M366 552Q461 552 519 481.50Q577 411 577 272Q577 133 517.50 61.50Q458-10 363-10Q303-10 266 12Q229 34 207 63L199 63Q202 44 204.50 21.50Q207-1 207-20L207-240L81-240L81 542L183 542L201 470L207 470Q229 504 267 528Q305 552 366 552M330 450Q263 450 235.50 410Q208 370 207 289L207 273Q207 186 233.50 139.50Q260 93 332 93Q391 93 419.50 141.50Q448 190 448 274Q448 358 419.50 404Q391 450 330 450Z"  horiz-adv-x="626" vert-adv-y="1000"  />

      
      <glyph glyph-name="uni71" unicode="&#x71;" d="M420-11Q420 8 421 30Q422 52 425 71L419 71Q397 37 359 13.50Q321-10 259-10Q165-10 107 61Q49 132 49 270Q49 409 108 480.50Q167 552 262 552Q323 552 361.50 528.50Q400 505 424 471L428 471L441 542L546 542L546-240L420-240L420-11M299 90Q368 90 396.50 130Q425 170 426 251L426 269Q426 357 398 403Q370 449 297 449Q236 449 207 401.50Q178 354 178 268Q178 181 207.50 135.50Q237 90 299 90Z"  horiz-adv-x="626" vert-adv-y="1000"  />

      
      <glyph glyph-name="uni72" unicode="&#x72;" d="M365 552Q378 552 393.50 551Q409 550 420 547L409 430Q399 432 385 433.50Q371 435 360 435Q320 435 285 418.50Q250 402 228.50 367.50Q207 333 207 281L207 0L81 0L81 542L178 542L196 448L202 448Q226 491 268 521.50Q310 552 365 552Z"  horiz-adv-x="439" vert-adv-y="1000"  />

      
      <glyph glyph-name="uni73" unicode="&#x73;" d="M450 157Q450 75 391.50 32.50Q333-10 224-10Q167-10 126.50-2Q86 6 48 23L48 130Q88 111 136.50 98Q185 85 228 85Q280 85 303 101Q326 117 326 144Q326 160 317 172.50Q308 185 281.50 200Q255 215 203 237Q151 257 116.50 278.50Q82 300 64.50 329Q47 358 47 404Q47 477 104.50 514.50Q162 552 258 552Q308 552 352.50 542Q397 532 442 512L402 419Q364 435 328 446Q292 457 254 457Q171 457 171 410Q171 393 181.50 381Q192 369 218.50 355.50Q245 342 294 323Q342 304 377 283.50Q412 263 431 233Q450 203 450 157Z"  horiz-adv-x="490" vert-adv-y="1000"  />

      
      <glyph glyph-name="uni74" unicode="&#x74;" d="M291 91Q314 91 336.50 95.50Q359 100 378 106L378 12Q358 3 326-3.50Q294-10 259-10Q213-10 175 5.50Q137 21 115 59Q93 97 93 165L93 447L20 447L20 502L100 546L140 661L219 661L219 542L373 542L373 447L219 447L219 166Q219 128 239 109.50Q259 91 291 91Z"  horiz-adv-x="406" vert-adv-y="1000"  />

      
      <glyph glyph-name="uni75" unicode="&#x75;" d="M562 542L562 0L463 0L446 70L440 70Q413 28 367.50 9Q322-10 271-10Q180-10 128.50 37Q77 84 77 188L77 542L203 542L203 213Q203 92 303 92Q379 92 407.50 139.50Q436 187 436 277L436 542L562 542Z"  horiz-adv-x="642" vert-adv-y="1000"  />

      
      <glyph glyph-name="uni76" unicode="&#x76;" d="M206 0L0 542L133 542L241 229Q251 200 259.50 165Q268 130 270 106L274 106Q277 131 286 165.50Q295 200 305 229L413 542L546 542L340 0L206 0Z"  horiz-adv-x="546" vert-adv-y="1000"  />

      
      <glyph glyph-name="uni77" unicode="&#x77;" d="M465 233Q460 252 453 280.50Q446 309 438.50 340Q431 371 425 397Q419 423 416 437L412 437Q409 423 403 397Q397 371 390 339.50Q383 308 375.50 279.50Q368 251 363 232L300 0L162 0L10 543L137 543L204 284Q211 257 217.50 224.50Q224 192 228.50 161.50Q233 131 236 112L240 112Q242 130 247.50 161Q253 192 259 221.50Q265 251 269 266L347 543L485 543L560 266Q564 248 570.50 219Q577 190 582 160.50Q587 131 588 113L592 113Q594 129 599 159Q604 189 611 223Q618 257 626 284L694 543L819 543L665 0L525 0L465 233Z"  horiz-adv-x="830" vert-adv-y="1000"  />

      
      <glyph glyph-name="uni78" unicode="&#x78;" d="M198 277L19 542L162 542L280 358L398 542L541 542L360 277L550 0L407 0L280 197L153 0L10 0L198 277Z"  horiz-adv-x="560" vert-adv-y="1000"  />

      
      <glyph glyph-name="uni79" unicode="&#x79;" d="M0 542L137 542L245 236Q256 207 263 179Q270 151 273 122L277 122Q281 147 289 177Q297 207 307 236L411 542L547 542L316-72Q285-153 231.50-196.50Q178-240 100-240Q75-240 57-237.50Q39-235 25-232L25-132Q36-134 51.50-136Q67-138 84-138Q131-138 158.50-110.50Q186-83 201-42L217 2L0 542Z"  horiz-adv-x="547" vert-adv-y="1000"  />

      
      <glyph glyph-name="uni7a" unicode="&#x7a;" d="M448 0L32 0L32 77L298 446L47 446L47 542L440 542L440 457L179 97L448 97L448 0Z"  horiz-adv-x="481" vert-adv-y="1000"  />

      
      <glyph glyph-name="uni7b" unicode="&#x7b;" d="M352-158Q237-158 190.50-123Q144-88 144-13L144 138Q144 187 112 207.50Q80 228 20 228L20 328Q80 328 112 348.50Q144 369 144 417L144 570Q144 645 191.50 679.50Q239 714 352 714L352 618Q308 617 282.50 600.50Q257 584 257 540L257 395Q257 299 145 281L145 275Q257 258 257 162L257 16Q257-29 282-45.50Q307-62 352-62L352-158Z"  horiz-adv-x="389" vert-adv-y="1000"  />

      
      <glyph glyph-name="uni7c" unicode="&#x7c;" d="M228 758L323 758L323-232L228-232L228 758Z"  horiz-adv-x="551" vert-adv-y="1000"  />

      
      <glyph glyph-name="uni7d" unicode="&#x7d;" d="M37-62Q81-61 106.50-44.50Q132-28 132 16L132 162Q132 257 244 275L244 281Q132 299 132 394L132 540Q132 585 106.50 601.50Q81 618 37 618L37 714Q152 714 198.50 679Q245 644 245 569L245 418Q245 369 277 348.50Q309 328 369 328L369 228Q309 227 277 207Q245 187 245 138L245-14Q245-89 197.50-123.50Q150-158 37-158L37-62Z"  horiz-adv-x="389" vert-adv-y="1000"  />

      
      <glyph glyph-name="uni7e" unicode="&#x7e;" d="M268 308Q232 324 207 329.50Q182 335 160 335Q131 335 100.50 318Q70 301 46 276L46 376Q95 429 169 429Q198 429 227 423Q256 417 303 397Q339 381 364.50 375.50Q390 370 411 370Q440 370 470.50 387Q501 404 525 429L525 330Q476 276 402 276Q373 276 344 282Q315 288 268 308Z"  horiz-adv-x="572" vert-adv-y="1000"  />

      
      <glyph glyph-name="unia1" unicode="&#xa1;" d="M216 469Q216 426 193.50 409Q171 392 139 392Q108 392 85.50 409Q63 426 63 469Q63 510 85.50 528Q108 546 139 546Q171 546 193.50 528Q216 510 216 469M90 309L186 309L211-181L65-181L90 309Z"  horiz-adv-x="280" vert-adv-y="1000"  />

      
      <glyph glyph-name="unia2" unicode="&#xa2;" d="M359 646Q402 644 437.50 634.50Q473 625 499 613L462 513Q430 526 399 534.50Q368 543 339 543Q207 543 207 363Q207 273 240.50 230.50Q274 188 337 188Q383 188 416 197.50Q449 207 485 223L485 116Q456 102 425.50 94Q395 86 358 84L358-10L279-10L279 88Q185 101 131.50 166Q78 231 78 362Q78 455 103 513.50Q128 572 173 602.50Q218 633 279 642L279 724L359 724L359 646Z"  horiz-adv-x="572" vert-adv-y="1000"  />

      
      <glyph glyph-name="unia3" unicode="&#xa3;" d="M339 724Q393 724 440 712Q487 700 524 683L484 587Q452 601 417 611Q382 621 347 621Q306 621 280 598Q254 575 254 521L254 410L445 410L445 319L254 319L254 236Q254 180 231 152Q208 124 182 109L546 109L546 0L37 0L37 103Q79 118 104 146.50Q129 175 129 235L129 319L39 319L39 410L129 410L129 525Q129 594 156.50 637.50Q184 681 231.50 702.50Q279 724 339 724Z"  horiz-adv-x="572" vert-adv-y="1000"  />

      
      <glyph glyph-name="unia4" unicode="&#xa4;" d="M91 353Q91 381 99 406.50Q107 432 121 454L57 519L120 581L183 518Q205 532 231.50 540Q258 548 285 548Q339 548 387 518L451 581L514 520L451 455Q464 434 472 407.50Q480 381 480 353Q480 297 451 250L512 187L451 126L387 188Q365 175 339 167Q313 159 285 159Q227 159 183 188L120 127L58 188L121 251Q107 274 99 299.50Q91 325 91 353M179 353Q179 309 210 278Q241 247 285 247Q330 247 361.50 278Q393 309 393 353Q393 398 361.50 429Q330 460 285 460Q241 460 210 429Q179 398 179 353Z"  horiz-adv-x="572" vert-adv-y="1000"  />

      
      <glyph glyph-name="unia5" unicode="&#xa5;" d="M285 399L433 714L563 714L371 345L477 345L477 267L345 267L345 194L477 194L477 116L345 116L345 0L225 0L225 116L93 116L93 194L225 194L225 267L93 267L93 345L197 345L7 714L138 714L285 399Z"  horiz-adv-x="572" vert-adv-y="1000"  />

      
      <glyph glyph-name="unia6" unicode="&#xa6;" d="M228 758L323 758L323 367L228 367L228 758M228 159L323 159L323-232L228-232L228 159Z"  horiz-adv-x="551" vert-adv-y="1000"  />

      
      <glyph glyph-name="unia7" unicode="&#xa7;" d="M62 393Q62 438 83 468.50Q104 499 132 515Q100 535 81.50 563Q63 591 63 629Q63 691 116 728Q169 765 261 765Q313 765 354.50 754.50Q396 744 436 727L400 643Q367 658 332.50 669.50Q298 681 257 681Q209 681 188.50 668.50Q168 656 168 631Q168 605 194 587Q220 569 283 545Q355 517 398 479Q441 441 441 382Q441 332 421.50 301.50Q402 271 374 253Q406 234 423 208Q440 182 440 145Q440 74 382.50 33Q325-8 224-8Q170-8 129 1.50Q88 11 55 29L55 120Q91 102 138 88Q185 74 226 74Q288 74 311 92.50Q334 111 334 137Q334 154 326 167Q318 180 294 193.50Q270 207 222 226Q171 246 135.50 267.50Q100 289 81 318.50Q62 348 62 393M158 403Q158 371 187 346.50Q216 322 283 296L295 291Q313 302 328 321Q343 340 343 369Q343 402 316.50 426.50Q290 451 213 477Q192 470 175 450.50Q158 431 158 403Z"  horiz-adv-x="496" vert-adv-y="1000"  />

      
      <glyph glyph-name="unia8" unicode="&#xa8;" d="M141 684Q141 716 158.50 730Q176 744 201 744Q225 744 243.50 730Q262 716 262 684Q262 654 243.50 639.50Q225 625 201 625Q176 625 158.50 639.50Q141 654 141 684M335 684Q335 716 352.50 730Q370 744 395 744Q419 744 437.50 730Q456 716 456 684Q456 654 437.50 639.50Q419 625 395 625Q370 625 352.50 639.50Q335 654 335 684Z"  horiz-adv-x="597" vert-adv-y="1000"  />

      
      <glyph glyph-name="unia9" unicode="&#xa9;" d="M416-10Q336-10 269 17Q202 44 152.50 93.50Q103 143 76 210Q49 277 49 357Q49 435 76.50 501.50Q104 568 153.50 618Q203 668 270 696Q337 724 416 724Q492 724 558.50 697Q625 670 675.50 620.50Q726 571 754.50 504Q783 437 783 357Q783 277 756 210Q729 143 679.50 93.50Q630 44 563 17Q496-10 416-10M416 50Q478 50 533 72.50Q588 95 629.50 136Q671 177 694.50 233.50Q718 290 718 357Q718 420 695.50 476Q673 532 632 574.50Q591 617 536 641Q481 665 416 665Q329 665 260 625.50Q191 586 151.50 516.50Q112 447 112 357Q112 269 151 199.50Q190 130 258.50 90Q327 50 416 50M431 130Q330 130 280 192Q230 254 230 357Q230 423 253.50 474Q277 525 323 554.50Q369 584 435 584Q500 584 558 554L529 489Q479 515 436 515Q377 515 344.50 473Q312 431 312 357Q312 281 340.50 239.50Q369 198 435 198Q458 198 486.50 204.50Q515 211 540 221L540 154Q516 143 491 136.50Q466 130 431 130Z"  horiz-adv-x="832" vert-adv-y="1000"  />

      
      <glyph glyph-name="uniaa" unicode="&#xaa;" d="M191 722Q260 722 294 689.50Q328 657 328 597L328 379L269 379L255 429Q235 403 205 388Q175 373 139 373Q88 373 57 399Q26 425 26 478Q26 534 69 559Q112 584 192 587L244 589L244 602Q244 629 226 642Q208 655 178 655Q154 655 127.50 647Q101 639 74 627L46 686Q75 701 111.50 711.50Q148 722 191 722M196 533Q145 531 129 515.50Q113 500 113 479Q113 458 125.50 448Q138 438 157 438Q199 438 221.50 459.50Q244 481 244 516L244 536L196 533Z"  horiz-adv-x="373" vert-adv-y="1000"  />

      
      <glyph glyph-name="uniab" unicode="&#xab;" d="M40 276L216 490L307 441L169 270L307 100L216 50L40 263L40 276M269 276L445 490L535 441L398 270L535 100L445 50L269 263L269 276Z"  horiz-adv-x="575" vert-adv-y="1000"  />

      
      <glyph glyph-name="uniac" unicode="&#xac;" d="M525 399L525 124L432 124L432 306L46 306L46 399L525 399Z"  horiz-adv-x="572" vert-adv-y="1000"  />

      
      <glyph glyph-name="uniad" unicode="&#xad;" d="M34 215L34 321L288 321L288 215L34 215Z"  horiz-adv-x="322" vert-adv-y="1000"  />

      
      <glyph glyph-name="uniae" unicode="&#xae;" d="M416-10Q336-10 269 17Q202 44 152.50 93.50Q103 143 76 210Q49 277 49 357Q49 435 76.50 501.50Q104 568 153.50 618Q203 668 270 696Q337 724 416 724Q492 724 558.50 697Q625 670 675.50 620.50Q726 571 754.50 504Q783 437 783 357Q783 277 756 210Q729 143 679.50 93.50Q630 44 563 17Q496-10 416-10M416 50Q478 50 533 72.50Q588 95 629.50 136Q671 177 694.50 233.50Q718 290 718 357Q718 420 695.50 476Q673 532 632 574.50Q591 617 536 641Q481 665 416 665Q329 665 260 625.50Q191 586 151.50 516.50Q112 447 112 357Q112 269 151 199.50Q190 130 258.50 90Q327 50 416 50M276 138L276 578L407 578Q489 578 527 544.50Q565 511 565 446Q565 399 541 371.50Q517 344 487 332L603 138L514 138L417 308L355 308L355 138L276 138M405 373Q444 373 464.50 393Q485 413 485 444Q485 479 466.50 495Q448 511 404 511L355 511L355 373L405 373Z"  horiz-adv-x="832" vert-adv-y="1000"  />

      
      <glyph glyph-name="uniaf" unicode="&#xaf;" d="M503 760L-3 760L-3 846L503 846L503 760Z"  horiz-adv-x="500" vert-adv-y="1000"  />

      
      <glyph glyph-name="unib0" unicode="&#xb0;" d="M214 398Q139 398 92 443.50Q45 489 45 561Q45 632 91.50 678Q138 724 214 724Q264 724 302 703Q340 682 361 645.50Q382 609 382 561Q382 489 335.50 443.50Q289 398 214 398M214 478Q252 478 274.50 500.50Q297 523 297 561Q297 599 274 622Q251 645 214 645Q176 645 153.50 622Q131 599 131 561Q131 523 153.50 500.50Q176 478 214 478Z"  horiz-adv-x="428" vert-adv-y="1000"  />

      
      <glyph glyph-name="unib1" unicode="&#xb1;" d="M332 419L525 419L525 326L332 326L332 131L238 131L238 326L46 326L46 419L238 419L238 615L332 615L332 419M46 0L46 93L525 93L525 0L46 0Z"  horiz-adv-x="572" vert-adv-y="1000"  />

      
      <glyph glyph-name="unib2" unicode="&#xb2;" d="M329 416L26 416L26 487L137 596Q171 629 189.50 650.50Q208 672 215 689Q222 706 222 725Q222 748 208 760.50Q194 773 170 773Q147 773 124 762.50Q101 752 76 730L25 794Q56 820 93.50 837Q131 854 181 854Q245 854 283.50 822.50Q322 791 322 733Q322 686 295 648.50Q268 611 211 558L148 500L329 500L329 416Z"  horiz-adv-x="368" vert-adv-y="1000"  />

      
      <glyph glyph-name="unib3" unicode="&#xb3;" d="M177 853Q242 853 280.50 822Q319 791 319 741Q319 668 239 642L239 637Q285 628 308.50 600.50Q332 573 332 537Q332 478 289.50 443Q247 408 157 408Q84 408 24 440L24 521Q57 503 90 492Q123 481 156 481Q238 481 238 542Q238 568 216.50 584.50Q195 601 146 601L90 601L90 670L140 670Q190 670 208 687.50Q226 705 226 729Q226 753 211 766Q196 779 169 779Q143 779 120 769.50Q97 760 70 741L26 802Q56 824 92 838.50Q128 853 177 853Z"  horiz-adv-x="368" vert-adv-y="1000"  />

      
      <glyph glyph-name="unib4" unicode="&#xb4;" d="M291 756Q275 738 244.50 709Q214 680 181 652Q148 624 124 606L40 606L40 619Q55 637 75 663Q95 689 114.50 716.50Q134 744 147 766L291 766L291 756Z"  horiz-adv-x="331" vert-adv-y="1000"  />

      
      <glyph glyph-name="unib5" unicode="&#xb5;" d="M565 542L565 0L468 0L450 73L444 73Q421 32 388 11Q355-10 307-10Q274-10 248 2Q222 14 205 34L202 34Q204 18 205.50-17Q207-52 207-84L207-240L81-240L81 542L207 542L207 213Q207 92 307 92Q383 92 411 139.50Q439 187 439 277L439 542L565 542Z"  horiz-adv-x="646" vert-adv-y="1000"  />

      
      <glyph glyph-name="unib6" unicode="&#xb6;" d="M562-127L491-127L491 678L402 678L402-127L331-127L331 273Q301 264 260 264Q198 264 152 287Q106 310 80.50 364Q55 418 55 509Q55 605 82.50 659.50Q110 714 160 737Q210 760 275 760L562 760L562-127Z"  horiz-adv-x="655" vert-adv-y="1000"  />

      
      <glyph glyph-name="unib7" unicode="&#xb7;" d="M63 352Q63 394 85 411.50Q107 429 139 429Q170 429 193 411.50Q216 394 216 352Q216 311 193 293Q170 275 139 275Q107 275 85 293Q63 311 63 352Z"  horiz-adv-x="279" vert-adv-y="1000"  />

      
      <glyph glyph-name="unib8" unicode="&#xb8;" d="M207-128Q207-182 172.50-211Q138-240 57-240Q38-240 22-238Q6-236-6-232L-6-160Q6-163 24.50-165.50Q43-168 58-168Q80-168 93.50-160.50Q107-153 107-133Q107-91 23-79L62 0L143 0L125-39Q157-48 182-69.50Q207-91 207-128Z"  horiz-adv-x="213" vert-adv-y="1000"  />

      
      <glyph glyph-name="unib9" unicode="&#xb9;" d="M268 844L268 416L169 416L169 656Q169 678 170.50 707.50Q172 737 173 752Q166 744 154 733Q142 722 132 714L88 681L42 738L183 844L268 844Z"  horiz-adv-x="368" vert-adv-y="1000"  />

      
      <glyph glyph-name="uniba" unicode="&#xba;" d="M354 548Q354 465 310 419Q266 373 191 373Q120 373 75 418.50Q30 464 30 548Q30 632 73.50 677Q117 722 193 722Q263 722 308.50 677Q354 632 354 548M115 548Q115 496 133 469.50Q151 443 192 443Q232 443 250 469.50Q268 496 268 548Q268 601 250 626.50Q232 652 192 652Q151 652 133 626.50Q115 601 115 548Z"  horiz-adv-x="383" vert-adv-y="1000"  />

      
      <glyph glyph-name="unibb" unicode="&#xbb;" d="M535 263L358 50L268 100L406 270L268 441L358 490L535 276L535 263M306 263L130 50L40 100L177 270L40 441L130 490L306 276L306 263Z"  horiz-adv-x="575" vert-adv-y="1000"  />

      
      <glyph glyph-name="unibc" unicode="&#xbc;" d="M145 0L556 714L657 714L246 0L145 0M154 526Q154 548 155 577.50Q156 607 158 622Q150 614 138.50 603Q127 592 117 584L73 551L27 608L167 714L253 714L253 286L154 286L154 526M627 0L627 82L437 82L437 149L629 431L728 431L728 156L789 156L789 82L728 82L728 0L627 0M520 156L627 156L627 241Q627 261 628 286Q629 311 630 335Q625 322 611.50 297.50Q598 273 589 258L520 156Z"  horiz-adv-x="798" vert-adv-y="1000"  />

      
      <glyph glyph-name="unibd" unicode="&#xbd;" d="M133 0L544 714L646 714L235 0L133 0M149 526Q149 548 150.50 577.50Q152 607 153 622Q146 614 134 603Q122 592 112 584L68 551L22 608L163 714L248 714L248 286L149 286L149 526M493 0L493 71L604 180Q638 213 656.50 234.50Q675 256 682 273Q689 290 689 309Q689 332 675 344.50Q661 357 637 357Q614 357 591 346.50Q568 336 543 314L492 378Q523 404 560.50 421Q598 438 648 438Q712 438 750.50 406.50Q789 375 789 317Q789 270 762 232.50Q735 195 678 142L615 84L796 84L796 0L493 0Z"  horiz-adv-x="835" vert-adv-y="1000"  />

      
      <glyph glyph-name="unibe" unicode="&#xbe;" d="M165 278Q93 278 33 310L33 391Q66 373 99 362Q132 351 165 351Q246 351 246 412Q246 438 224.50 454.50Q203 471 154 471L99 471L99 540L148 540Q199 540 217 557.50Q235 575 235 599Q235 623 219.50 636Q204 649 178 649Q152 649 129 639.50Q106 630 79 611L34 672Q65 694 101 708.50Q137 723 185 723Q250 723 288.50 692Q327 661 327 611Q327 538 248 512L248 507Q293 498 317 470.50Q341 443 341 407Q341 348 298 313Q255 278 165 278M183 0L594 714L695 714L284 0L183 0M650 0L650 82L460 82L460 149L652 431L751 431L751 156L812 156L812 82L751 82L751 0L650 0M543 156L650 156L650 241Q650 261 651 286Q652 311 653 335Q648 322 634.50 297.50Q621 273 612 258L543 156Z"  horiz-adv-x="821" vert-adv-y="1000"  />

      
      <glyph glyph-name="unibf" unicode="&#xbf;" d="M325 276Q325 224 305.50 189Q286 154 236 115Q202 90 182.50 71Q163 52 154 33.50Q145 15 145-10Q145-48 171.50-68Q198-88 247-88Q291-88 331-75Q371-62 411-42L456-136Q410-160 356.50-176Q303-192 237-192Q137-192 81.50-143Q26-94 26-16Q26 27 39.50 57.50Q53 88 79 114Q105 140 143 169Q174 193 190.50 210Q207 227 212.50 244Q218 261 218 284L218 309L325 309L325 276M344 468Q344 426 321.50 408.50Q299 391 267 391Q236 391 213.50 408.50Q191 426 191 468Q191 509 213.50 527Q236 545 267 545Q299 545 321.50 527Q344 509 344 468Z"  horiz-adv-x="461" vert-adv-y="1000"  />

      
      <glyph glyph-name="unic0" unicode="&#xc0;" d="M534 0L469 189L200 189L136 0L0 0L262 717L408 717L670 0L534 0M374 483Q370 497 362 521Q354 545 346.50 570.50Q339 596 335 613Q330 593 322.50 567Q315 541 308 518Q301 495 298 483L235 299L436 299L374 483M310 938Q323 916 342 888.50Q361 861 381.50 835Q402 809 417 791L417 778L334 778Q309 796 276 824Q243 852 212.50 881Q182 910 166 928L166 938L310 938Z"  horiz-adv-x="671" vert-adv-y="1000"  />

      
      <glyph glyph-name="unic1" unicode="&#xc1;" d="M534 0L469 189L200 189L136 0L0 0L262 717L408 717L670 0L534 0M374 483Q370 497 362 521Q354 545 346.50 570.50Q339 596 335 613Q330 593 322.50 567Q315 541 308 518Q301 495 298 483L235 299L436 299L374 483M507 928Q491 910 460.50 881Q430 852 397 824Q364 796 340 778L256 778L256 791Q271 809 291 835Q311 861 330.50 888.50Q350 916 363 938L507 938L507 928Z"  horiz-adv-x="671" vert-adv-y="1000"  />

      
      <glyph glyph-name="unic2" unicode="&#xc2;" d="M534 0L469 189L200 189L136 0L0 0L262 717L408 717L670 0L534 0M374 483Q370 497 362 521Q354 545 346.50 570.50Q339 596 335 613Q330 593 322.50 567Q315 541 308 518Q301 495 298 483L235 299L436 299L374 483M407 938Q420 916 442.50 888.50Q465 861 489 835Q513 809 532 790L532 778L447 778Q420 794 390 816.50Q360 839 334 866Q308 839 279.50 817Q251 795 224 778L140 778L140 790Q159 809 182.50 835Q206 861 228.50 888.50Q251 916 264 938L407 938Z"  horiz-adv-x="671" vert-adv-y="1000"  />

      
      <glyph glyph-name="unic3" unicode="&#xc3;" d="M534 0L469 189L200 189L136 0L0 0L262 717L408 717L670 0L534 0M374 483Q370 497 362 521Q354 545 346.50 570.50Q339 596 335 613Q330 593 322.50 567Q315 541 308 518Q301 495 298 483L235 299L436 299L374 483M139 777Q145 848 179 884Q213 920 263 920Q291 920 317 906.50Q343 893 367.50 879.50Q392 866 414 866Q452 866 465 921L530 921Q524 851 489.50 814.50Q455 778 406 778Q379 778 353 791.50Q327 805 302.50 818.50Q278 832 255 832Q216 832 204 777L139 777Z"  horiz-adv-x="671" vert-adv-y="1000"  />

      
      <glyph glyph-name="unic4" unicode="&#xc4;" d="M534 0L469 189L200 189L136 0L0 0L262 717L408 717L670 0L534 0M374 483Q370 497 362 521Q354 545 346.50 570.50Q339 596 335 613Q330 593 322.50 567Q315 541 308 518Q301 495 298 483L235 299L436 299L374 483M177 856Q177 888 194.50 902Q212 916 237 916Q261 916 279.50 902Q298 888 298 856Q298 826 279.50 811.50Q261 797 237 797Q212 797 194.50 811.50Q177 826 177 856M371 856Q371 888 388.50 902Q406 916 431 916Q455 916 473.50 902Q492 888 492 856Q492 826 473.50 811.50Q455 797 431 797Q406 797 388.50 811.50Q371 826 371 856Z"  horiz-adv-x="671" vert-adv-y="1000"  />

      
      <glyph glyph-name="unic5" unicode="&#xc5;" d="M534 0L469 189L200 189L136 0L0 0L262 717L408 717L670 0L534 0M374 483Q370 497 362 521Q354 545 346.50 570.50Q339 596 335 613Q330 593 322.50 567Q315 541 308 518Q301 495 298 483L235 299L436 299L374 483M333 655Q281 655 249 685Q217 715 217 768Q217 820 249 849.50Q281 879 333 879Q384 879 418.50 849.50Q453 820 453 769Q453 715 418.50 685Q384 655 333 655M333 717Q355 717 369.50 730.50Q384 744 384 768Q384 791 369.50 804.50Q355 818 333 818Q312 818 297.50 804.50Q283 791 283 768Q283 744 296 730.50Q309 717 333 717Z"  horiz-adv-x="671" vert-adv-y="1000"  />

      
      <glyph glyph-name="unic6" unicode="&#xc6;" d="M866 0L460 0L460 189L216 189L131 0L0 0L327 714L866 714L866 607L588 607L588 425L847 425L847 318L588 318L588 108L866 108L866 0M264 299L460 299L460 603L400 603L264 299Z"  horiz-adv-x="925" vert-adv-y="1000"  />

      
      <glyph glyph-name="unic7" unicode="&#xc7;" d="M397 616Q299 616 245.50 546Q192 476 192 356Q192 235 242 166.50Q292 98 396 98Q441 98 484 107.50Q527 117 574 133L574 24Q530 6 485.50-2Q441-10 383-10Q273-10 201 35.50Q129 81 94 163.50Q59 246 59 357Q59 465 98 547.50Q137 630 212.50 677Q288 724 397 724Q451 724 503.50 711.50Q556 699 602 677L558 572Q520 589 479.50 602.50Q439 616 397 616M481-128Q481-182 446.50-211Q412-240 331-240Q312-240 296-238Q280-236 268-232L268-160Q280-163 298.50-165.50Q317-168 332-168Q354-168 367.50-160.50Q381-153 381-133Q381-91 297-79L336 0L417 0L399-39Q431-48 456-69.50Q481-91 481-128Z"  horiz-adv-x="635" vert-adv-y="1000"  />

      
      <glyph glyph-name="unic8" unicode="&#xc8;" d="M499 0L93 0L93 714L499 714L499 607L221 607L221 425L481 425L481 318L221 318L221 108L499 108L499 0M278 938Q291 916 310 888.50Q329 861 349.50 835Q370 809 385 791L385 778L302 778Q277 796 244 824Q211 852 180.50 881Q150 910 134 928L134 938L278 938Z"  horiz-adv-x="558" vert-adv-y="1000"  />

      
      <glyph glyph-name="unic9" unicode="&#xc9;" d="M499 0L93 0L93 714L499 714L499 607L221 607L221 425L481 425L481 318L221 318L221 108L499 108L499 0M475 928Q459 910 428.50 881Q398 852 365 824Q332 796 308 778L224 778L224 791Q239 809 259 835Q279 861 298.50 888.50Q318 916 331 938L475 938L475 928Z"  horiz-adv-x="558" vert-adv-y="1000"  />

      
      <glyph glyph-name="unica" unicode="&#xca;" d="M499 0L93 0L93 714L499 714L499 607L221 607L221 425L481 425L481 318L221 318L221 108L499 108L499 0M375 938Q388 916 410.50 888.50Q433 861 457 835Q481 809 500 790L500 778L415 778Q388 794 358 816.50Q328 839 302 866Q276 839 247.50 817Q219 795 192 778L108 778L108 790Q127 809 150.50 835Q174 861 196.50 888.50Q219 916 232 938L375 938Z"  horiz-adv-x="558" vert-adv-y="1000"  />

      
      <glyph glyph-name="unicb" unicode="&#xcb;" d="M499 0L93 0L93 714L499 714L499 607L221 607L221 425L481 425L481 318L221 318L221 108L499 108L499 0M145 856Q145 888 162.50 902Q180 916 205 916Q229 916 247.50 902Q266 888 266 856Q266 826 247.50 811.50Q229 797 205 797Q180 797 162.50 811.50Q145 826 145 856M339 856Q339 888 356.50 902Q374 916 399 916Q423 916 441.50 902Q460 888 460 856Q460 826 441.50 811.50Q423 797 399 797Q374 797 356.50 811.50Q339 826 339 856Z"  horiz-adv-x="558" vert-adv-y="1000"  />

      
      <glyph glyph-name="unicc" unicode="&#xcc;" d="M335 0L35 0L35 73L121 105L121 608L35 641L35 714L335 714L335 641L249 608L249 105L335 73L335 0M161 938Q174 916 193 888.50Q212 861 232.50 835Q253 809 268 791L268 778L185 778Q160 796 127 824Q94 852 63.50 881Q33 910 17 928L17 938L161 938Z"  horiz-adv-x="370" vert-adv-y="1000"  />

      
      <glyph glyph-name="unicd" unicode="&#xcd;" d="M335 0L35 0L35 73L121 105L121 608L35 641L35 714L335 714L335 641L249 608L249 105L335 73L335 0M358 928Q342 910 311.50 881Q281 852 248 824Q215 796 191 778L107 778L107 791Q122 809 142 835Q162 861 181.50 888.50Q201 916 214 938L358 938L358 928Z"  horiz-adv-x="370" vert-adv-y="1000"  />

      
      <glyph glyph-name="unice" unicode="&#xce;" d="M335 0L35 0L35 73L121 105L121 608L35 641L35 714L335 714L335 641L249 608L249 105L335 73L335 0M258 938Q271 916 293.50 888.50Q316 861 340 835Q364 809 383 790L383 778L298 778Q271 794 241 816.50Q211 839 185 866Q159 839 130.50 817Q102 795 75 778L-9 778L-9 790Q10 809 33.50 835Q57 861 79.50 888.50Q102 916 115 938L258 938Z"  horiz-adv-x="370" vert-adv-y="1000"  />

      
      <glyph glyph-name="unicf" unicode="&#xcf;" d="M335 0L35 0L35 73L121 105L121 608L35 641L35 714L335 714L335 641L249 608L249 105L335 73L335 0M28 856Q28 888 45.50 902Q63 916 88 916Q112 916 130.50 902Q149 888 149 856Q149 826 130.50 811.50Q112 797 88 797Q63 797 45.50 811.50Q28 826 28 856M222 856Q222 888 239.50 902Q257 916 282 916Q306 916 324.50 902Q343 888 343 856Q343 826 324.50 811.50Q306 797 282 797Q257 797 239.50 811.50Q222 826 222 856Z"  horiz-adv-x="370" vert-adv-y="1000"  />

      
      <glyph glyph-name="unid0" unicode="&#xd0;" d="M315 714Q425 714 506.50 674Q588 634 632.50 556.50Q677 479 677 364Q677 183 576 91.50Q475 0 293 0L95 0L95 300L26 300L26 406L95 406L95 714L315 714M315 608L223 608L223 406L363 406L363 300L223 300L223 107L297 107Q543 107 543 360Q543 488 483.50 548Q424 608 315 608Z"  horiz-adv-x="736" vert-adv-y="1000"  />

      
      <glyph glyph-name="unid1" unicode="&#xd1;" d="M700 0L541 0L203 560L199 560Q202 515 204.50 463.50Q207 412 208 360L208 0L93 0L93 714L251 714L588 158L591 158Q589 198 587 250Q585 302 584 351L584 714L700 714L700 0M201 777Q207 848 241 884Q275 920 325 920Q353 920 379 906.50Q405 893 429.50 879.50Q454 866 476 866Q514 866 527 921L592 921Q586 851 551.50 814.50Q517 778 468 778Q441 778 415 791.50Q389 805 364.50 818.50Q340 832 317 832Q278 832 266 777L201 777Z"  horiz-adv-x="793" vert-adv-y="1000"  />

      
      <glyph glyph-name="unid2" unicode="&#xd2;" d="M731 358Q731 247 694.50 164.50Q658 82 583 36Q508-10 395-10Q281-10 206.50 36Q132 82 95.50 165Q59 248 59 359Q59 469 95.50 551.50Q132 634 206.50 679.50Q281 725 396 725Q509 725 583.50 679.50Q658 634 694.50 551.50Q731 469 731 358M194 358Q194 237 242 168Q290 99 395 99Q501 99 548.50 168Q596 237 596 358Q596 479 549 548Q502 617 396 617Q291 617 242.50 548Q194 479 194 358M371 938Q384 916 403 888.50Q422 861 442.50 835Q463 809 478 791L478 778L395 778Q370 796 337 824Q304 852 273.50 881Q243 910 227 928L227 938L371 938Z"  horiz-adv-x="790" vert-adv-y="1000"  />

      
      <glyph glyph-name="unid3" unicode="&#xd3;" d="M731 358Q731 247 694.50 164.50Q658 82 583 36Q508-10 395-10Q281-10 206.50 36Q132 82 95.50 165Q59 248 59 359Q59 469 95.50 551.50Q132 634 206.50 679.50Q281 725 396 725Q509 725 583.50 679.50Q658 634 694.50 551.50Q731 469 731 358M194 358Q194 237 242 168Q290 99 395 99Q501 99 548.50 168Q596 237 596 358Q596 479 549 548Q502 617 396 617Q291 617 242.50 548Q194 479 194 358M568 928Q552 910 521.50 881Q491 852 458 824Q425 796 401 778L317 778L317 791Q332 809 352 835Q372 861 391.50 888.50Q411 916 424 938L568 938L568 928Z"  horiz-adv-x="790" vert-adv-y="1000"  />

      
      <glyph glyph-name="unid4" unicode="&#xd4;" d="M731 358Q731 247 694.50 164.50Q658 82 583 36Q508-10 395-10Q281-10 206.50 36Q132 82 95.50 165Q59 248 59 359Q59 469 95.50 551.50Q132 634 206.50 679.50Q281 725 396 725Q509 725 583.50 679.50Q658 634 694.50 551.50Q731 469 731 358M194 358Q194 237 242 168Q290 99 395 99Q501 99 548.50 168Q596 237 596 358Q596 479 549 548Q502 617 396 617Q291 617 242.50 548Q194 479 194 358M468 938Q481 916 503.50 888.50Q526 861 550 835Q574 809 593 790L593 778L508 778Q481 794 451 816.50Q421 839 395 866Q369 839 340.50 817Q312 795 285 778L201 778L201 790Q220 809 243.50 835Q267 861 289.50 888.50Q312 916 325 938L468 938Z"  horiz-adv-x="790" vert-adv-y="1000"  />

      
      <glyph glyph-name="unid5" unicode="&#xd5;" d="M731 358Q731 247 694.50 164.50Q658 82 583 36Q508-10 395-10Q281-10 206.50 36Q132 82 95.50 165Q59 248 59 359Q59 469 95.50 551.50Q132 634 206.50 679.50Q281 725 396 725Q509 725 583.50 679.50Q658 634 694.50 551.50Q731 469 731 358M194 358Q194 237 242 168Q290 99 395 99Q501 99 548.50 168Q596 237 596 358Q596 479 549 548Q502 617 396 617Q291 617 242.50 548Q194 479 194 358M200 777Q206 848 240 884Q274 920 324 920Q352 920 378 906.50Q404 893 428.50 879.50Q453 866 475 866Q513 866 526 921L591 921Q585 851 550.50 814.50Q516 778 467 778Q440 778 414 791.50Q388 805 363.50 818.50Q339 832 316 832Q277 832 265 777L200 777Z"  horiz-adv-x="790" vert-adv-y="1000"  />

      
      <glyph glyph-name="unid6" unicode="&#xd6;" d="M731 358Q731 247 694.50 164.50Q658 82 583 36Q508-10 395-10Q281-10 206.50 36Q132 82 95.50 165Q59 248 59 359Q59 469 95.50 551.50Q132 634 206.50 679.50Q281 725 396 725Q509 725 583.50 679.50Q658 634 694.50 551.50Q731 469 731 358M194 358Q194 237 242 168Q290 99 395 99Q501 99 548.50 168Q596 237 596 358Q596 479 549 548Q502 617 396 617Q291 617 242.50 548Q194 479 194 358M238 856Q238 888 255.50 902Q273 916 298 916Q322 916 340.50 902Q359 888 359 856Q359 826 340.50 811.50Q322 797 298 797Q273 797 255.50 811.50Q238 826 238 856M432 856Q432 888 449.50 902Q467 916 492 916Q516 916 534.50 902Q553 888 553 856Q553 826 534.50 811.50Q516 797 492 797Q467 797 449.50 811.50Q432 826 432 856Z"  horiz-adv-x="790" vert-adv-y="1000"  />

      
      <glyph glyph-name="unid7" unicode="&#xd7;" d="M442 575L507 510L350 353L506 197L441 131L284 287L129 132L64 197L218 353L63 508L129 575L284 419L442 575Z"  horiz-adv-x="572" vert-adv-y="1000"  />

      
      <glyph glyph-name="unid8" unicode="&#xd8;" d="M731 358Q731 247 694.50 164.50Q658 82 583 36Q508-10 395-10Q294-10 223 28L178-39L106 9L153 78Q105 127 82 198.50Q59 270 59 359Q59 469 95.50 551.50Q132 634 206.50 679.50Q281 725 396 725Q447 725 490 715Q533 705 568 687L611 750L683 703L637 636Q684 588 707.50 517Q731 446 731 358M194 358Q194 307 202.50 264.50Q211 222 229 190L503 590Q459 617 396 617Q291 617 242.50 548Q194 479 194 358M596 358Q596 462 562 524L289 125Q310 112 336.50 105.50Q363 99 395 99Q501 99 548.50 168Q596 237 596 358Z"  horiz-adv-x="790" vert-adv-y="1000"  />

      
      <glyph glyph-name="unid9" unicode="&#xd9;" d="M659 252Q659 178 627.50 118.50Q596 59 532 24.50Q468-10 370-10Q231-10 159 62.50Q87 135 87 254L87 714L215 714L215 267Q215 179 255 139Q295 99 374 99Q457 99 494.50 142.50Q532 186 532 268L532 714L659 714L659 252M349 938Q362 916 381 888.50Q400 861 420.50 835Q441 809 456 791L456 778L373 778Q348 796 315 824Q282 852 251.50 881Q221 910 205 928L205 938L349 938Z"  horiz-adv-x="747" vert-adv-y="1000"  />

      
      <glyph glyph-name="unida" unicode="&#xda;" d="M659 252Q659 178 627.50 118.50Q596 59 532 24.50Q468-10 370-10Q231-10 159 62.50Q87 135 87 254L87 714L215 714L215 267Q215 179 255 139Q295 99 374 99Q457 99 494.50 142.50Q532 186 532 268L532 714L659 714L659 252M546 928Q530 910 499.50 881Q469 852 436 824Q403 796 379 778L295 778L295 791Q310 809 330 835Q350 861 369.50 888.50Q389 916 402 938L546 938L546 928Z"  horiz-adv-x="747" vert-adv-y="1000"  />

      
      <glyph glyph-name="unidb" unicode="&#xdb;" d="M659 252Q659 178 627.50 118.50Q596 59 532 24.50Q468-10 370-10Q231-10 159 62.50Q87 135 87 254L87 714L215 714L215 267Q215 179 255 139Q295 99 374 99Q457 99 494.50 142.50Q532 186 532 268L532 714L659 714L659 252M446 938Q459 916 481.50 888.50Q504 861 528 835Q552 809 571 790L571 778L486 778Q459 794 429 816.50Q399 839 373 866Q347 839 318.50 817Q290 795 263 778L179 778L179 790Q198 809 221.50 835Q245 861 267.50 888.50Q290 916 303 938L446 938Z"  horiz-adv-x="747" vert-adv-y="1000"  />

      
      <glyph glyph-name="unidc" unicode="&#xdc;" d="M659 252Q659 178 627.50 118.50Q596 59 532 24.50Q468-10 370-10Q231-10 159 62.50Q87 135 87 254L87 714L215 714L215 267Q215 179 255 139Q295 99 374 99Q457 99 494.50 142.50Q532 186 532 268L532 714L659 714L659 252M216 856Q216 888 233.50 902Q251 916 276 916Q300 916 318.50 902Q337 888 337 856Q337 826 318.50 811.50Q300 797 276 797Q251 797 233.50 811.50Q216 826 216 856M410 856Q410 888 427.50 902Q445 916 470 916Q494 916 512.50 902Q531 888 531 856Q531 826 512.50 811.50Q494 797 470 797Q445 797 427.50 811.50Q410 826 410 856Z"  horiz-adv-x="747" vert-adv-y="1000"  />

      
      <glyph glyph-name="unidd" unicode="&#xdd;" d="M301 399L464 714L602 714L365 278L365 0L237 0L237 273L0 714L139 714L301 399M473 928Q457 910 426.50 881Q396 852 363 824Q330 796 306 778L222 778L222 791Q237 809 257 835Q277 861 296.50 888.50Q316 916 329 938L473 938L473 928Z"  horiz-adv-x="602" vert-adv-y="1000"  />

      
      <glyph glyph-name="unide" unicode="&#xde;" d="M572 378Q572 318 546.50 265Q521 212 461 180Q401 148 298 148L221 148L221 0L93 0L93 714L221 714L221 597L311 597Q448 597 510 538Q572 479 572 378M278 252Q362 252 402 281Q442 310 442 376Q442 435 406 463.50Q370 492 292 492L221 492L221 252L278 252Z"  horiz-adv-x="619" vert-adv-y="1000"  />

      
      <glyph glyph-name="unidf" unicode="&#xdf;" d="M577 610Q577 574 563 547.50Q549 521 528 501.50Q507 482 486 466.50Q465 451 451 437.50Q437 424 437 409Q437 396 445.50 385.50Q454 375 475 360.50Q496 346 534 322Q584 289 613 252.50Q642 216 642 157Q642 73 587 31.50Q532-10 432-10Q340-10 285 22L285 125Q309 110 348.50 96.50Q388 83 424 83Q514 83 514 153Q514 173 506.50 188Q499 203 479 219Q459 235 422 258Q360 295 336.50 324.50Q313 354 313 393Q313 424 326.50 446Q340 468 360.50 484.50Q381 501 401 516Q421 531 435 549Q449 567 449 592Q449 627 415.50 646Q382 665 332 665Q279 665 243 642Q207 619 207 563L207 0L81 0L81 567Q81 636 114 680Q147 724 203.50 744.50Q260 765 332 765Q403 765 458 747.50Q513 730 545 695.50Q577 661 577 610Z"  horiz-adv-x="681" vert-adv-y="1000"  />

      
      <glyph glyph-name="unie0" unicode="&#xe0;" d="M297 552Q402 552 456.50 506Q511 460 511 364L511 0L422 0L397 75L393 75Q358 31 319 10.50Q280-10 213-10Q140-10 92 31Q44 72 44 158Q44 242 105.50 284Q167 326 292 331L386 334L386 361Q386 412 361 434.50Q336 457 291 457Q250 457 212.50 445Q175 433 138 417L98 505Q138 526 189.50 539Q241 552 297 552M320 254Q237 251 205 225.50Q173 200 173 157Q173 118 195.50 101.50Q218 85 255 85Q310 85 348 116.50Q386 148 386 210L386 256L320 254M270 766Q283 744 302 716.50Q321 689 341.50 663Q362 637 377 619L377 606L294 606Q269 624 236 652Q203 680 172.50 709Q142 738 126 756L126 766L270 766Z"  horiz-adv-x="588" vert-adv-y="1000"  />

      
      <glyph glyph-name="unie1" unicode="&#xe1;" d="M297 552Q402 552 456.50 506Q511 460 511 364L511 0L422 0L397 75L393 75Q358 31 319 10.50Q280-10 213-10Q140-10 92 31Q44 72 44 158Q44 242 105.50 284Q167 326 292 331L386 334L386 361Q386 412 361 434.50Q336 457 291 457Q250 457 212.50 445Q175 433 138 417L98 505Q138 526 189.50 539Q241 552 297 552M320 254Q237 251 205 225.50Q173 200 173 157Q173 118 195.50 101.50Q218 85 255 85Q310 85 348 116.50Q386 148 386 210L386 256L320 254M466 756Q450 738 419.50 709Q389 680 356 652Q323 624 299 606L215 606L215 619Q230 637 250 663Q270 689 289.50 716.50Q309 744 322 766L466 766L466 756Z"  horiz-adv-x="588" vert-adv-y="1000"  />

      
      <glyph glyph-name="unie2" unicode="&#xe2;" d="M297 552Q402 552 456.50 506Q511 460 511 364L511 0L422 0L397 75L393 75Q358 31 319 10.50Q280-10 213-10Q140-10 92 31Q44 72 44 158Q44 242 105.50 284Q167 326 292 331L386 334L386 361Q386 412 361 434.50Q336 457 291 457Q250 457 212.50 445Q175 433 138 417L98 505Q138 526 189.50 539Q241 552 297 552M320 254Q237 251 205 225.50Q173 200 173 157Q173 118 195.50 101.50Q218 85 255 85Q310 85 348 116.50Q386 148 386 210L386 256L320 254M367 766Q380 744 402.50 716.50Q425 689 449 663Q473 637 492 618L492 606L407 606Q380 622 350 644.50Q320 667 294 694Q268 667 239.50 645Q211 623 184 606L100 606L100 618Q119 637 142.50 663Q166 689 188.50 716.50Q211 744 224 766L367 766Z"  horiz-adv-x="588" vert-adv-y="1000"  />

      
      <glyph glyph-name="unie3" unicode="&#xe3;" d="M297 552Q402 552 456.50 506Q511 460 511 364L511 0L422 0L397 75L393 75Q358 31 319 10.50Q280-10 213-10Q140-10 92 31Q44 72 44 158Q44 242 105.50 284Q167 326 292 331L386 334L386 361Q386 412 361 434.50Q336 457 291 457Q250 457 212.50 445Q175 433 138 417L98 505Q138 526 189.50 539Q241 552 297 552M320 254Q237 251 205 225.50Q173 200 173 157Q173 118 195.50 101.50Q218 85 255 85Q310 85 348 116.50Q386 148 386 210L386 256L320 254M98 605Q104 676 138 712Q172 748 222 748Q250 748 276 734.50Q302 721 326.50 707.50Q351 694 373 694Q411 694 424 749L489 749Q483 679 448.50 642.50Q414 606 365 606Q338 606 312 619.50Q286 633 261.50 646.50Q237 660 214 660Q175 660 163 605L98 605Z"  horiz-adv-x="588" vert-adv-y="1000"  />

      
      <glyph glyph-name="unie4" unicode="&#xe4;" d="M297 552Q402 552 456.50 506Q511 460 511 364L511 0L422 0L397 75L393 75Q358 31 319 10.50Q280-10 213-10Q140-10 92 31Q44 72 44 158Q44 242 105.50 284Q167 326 292 331L386 334L386 361Q386 412 361 434.50Q336 457 291 457Q250 457 212.50 445Q175 433 138 417L98 505Q138 526 189.50 539Q241 552 297 552M320 254Q237 251 205 225.50Q173 200 173 157Q173 118 195.50 101.50Q218 85 255 85Q310 85 348 116.50Q386 148 386 210L386 256L320 254M136 684Q136 716 153.50 730Q171 744 196 744Q220 744 238.50 730Q257 716 257 684Q257 654 238.50 639.50Q220 625 196 625Q171 625 153.50 639.50Q136 654 136 684M330 684Q330 716 347.50 730Q365 744 390 744Q414 744 432.50 730Q451 716 451 684Q451 654 432.50 639.50Q414 625 390 625Q365 625 347.50 639.50Q330 654 330 684Z"  horiz-adv-x="588" vert-adv-y="1000"  />

      
      <glyph glyph-name="unie5" unicode="&#xe5;" d="M297 552Q402 552 456.50 506Q511 460 511 364L511 0L422 0L397 75L393 75Q358 31 319 10.50Q280-10 213-10Q140-10 92 31Q44 72 44 158Q44 242 105.50 284Q167 326 292 331L386 334L386 361Q386 412 361 434.50Q336 457 291 457Q250 457 212.50 445Q175 433 138 417L98 505Q138 526 189.50 539Q241 552 297 552M320 254Q237 251 205 225.50Q173 200 173 157Q173 118 195.50 101.50Q218 85 255 85Q310 85 348 116.50Q386 148 386 210L386 256L320 254M295 605Q243 605 211 635Q179 665 179 718Q179 770 211 799.50Q243 829 295 829Q346 829 380.50 799.50Q415 770 415 719Q415 665 380.50 635Q346 605 295 605M295 667Q317 667 331.50 680.50Q346 694 346 718Q346 741 331.50 754.50Q317 768 295 768Q274 768 259.50 754.50Q245 741 245 718Q245 694 258 680.50Q271 667 295 667Z"  horiz-adv-x="588" vert-adv-y="1000"  />

      
      <glyph glyph-name="unie6" unicode="&#xe6;" d="M627 552Q728 552 789.50 487Q851 422 851 307L851 242L502 242Q504 167 541 127Q578 87 645 87Q694 87 737 97.50Q780 108 823 128L823 27Q782 8 740-1Q698-10 639-10Q571-10 517.50 16.50Q464 43 430 96Q403 61 374.50 37.50Q346 14 308.50 2Q271-10 216-10Q168-10 129 8Q90 26 67 63Q44 100 44 158Q44 242 103.50 284Q163 326 283 331L374 334L374 372Q374 418 349 437.50Q324 457 282 457Q242 457 205 446Q168 435 132 418L92 505Q132 526 184 539Q236 552 290 552Q406 552 456 480Q486 515 528 533.50Q570 552 627 552M624 459Q572 459 540.50 427Q509 395 504 330L729 330Q728 387 702 423Q676 459 624 459M311 254Q233 251 203 225.50Q173 200 173 157Q173 118 194.50 101.50Q216 85 251 85Q303 85 338.50 116.50Q374 148 374 210L374 256L311 254Z"  horiz-adv-x="897" vert-adv-y="1000"  />

      
      <glyph glyph-name="unie7" unicode="&#xe7;" d="M300-10Q183-10 116 57Q49 124 49 268Q49 368 82.50 430.50Q116 493 175 522.50Q234 552 310 552Q361 552 401 542Q441 532 469 518L432 419Q401 431 370 439.50Q339 448 310 448Q178 448 178 269Q178 182 211.50 138Q245 94 308 94Q353 94 388 105Q423 116 455 135L455 26Q424 8 388.50-1Q353-10 300-10M398-128Q398-182 363.50-211Q329-240 248-240Q229-240 213-238Q197-236 185-232L185-160Q197-163 215.50-165.50Q234-168 249-168Q271-168 284.50-160.50Q298-153 298-133Q298-91 214-79L253 0L334 0L316-39Q348-48 373-69.50Q398-91 398-128Z"  horiz-adv-x="501" vert-adv-y="1000"  />

      
      <glyph glyph-name="unie8" unicode="&#xe8;" d="M299 552Q408 552 471.50 487Q535 422 535 306L535 242L177 242Q179 168 218 127.50Q257 87 326 87Q378 87 420 97.50Q462 108 506 128L506 27Q466 8 423-1Q380-10 320-10Q241-10 179.50 20.50Q118 51 83.50 113Q49 175 49 267Q49 406 118 479Q187 552 299 552M299 459Q248 459 216.50 426.50Q185 394 180 330L413 330Q412 386 384.50 422.50Q357 459 299 459M267 766Q280 744 299 716.50Q318 689 338.50 663Q359 637 374 619L374 606L291 606Q266 624 233 652Q200 680 169.50 709Q139 738 123 756L123 766L267 766Z"  horiz-adv-x="581" vert-adv-y="1000"  />

      
      <glyph glyph-name="unie9" unicode="&#xe9;" d="M299 552Q408 552 471.50 487Q535 422 535 306L535 242L177 242Q179 168 218 127.50Q257 87 326 87Q378 87 420 97.50Q462 108 506 128L506 27Q466 8 423-1Q380-10 320-10Q241-10 179.50 20.50Q118 51 83.50 113Q49 175 49 267Q49 406 118 479Q187 552 299 552M299 459Q248 459 216.50 426.50Q185 394 180 330L413 330Q412 386 384.50 422.50Q357 459 299 459M464 756Q448 738 417.50 709Q387 680 354 652Q321 624 297 606L213 606L213 619Q228 637 248 663Q268 689 287.50 716.50Q307 744 320 766L464 766L464 756Z"  horiz-adv-x="581" vert-adv-y="1000"  />

      
      <glyph glyph-name="uniea" unicode="&#xea;" d="M299 552Q408 552 471.50 487Q535 422 535 306L535 242L177 242Q179 168 218 127.50Q257 87 326 87Q378 87 420 97.50Q462 108 506 128L506 27Q466 8 423-1Q380-10 320-10Q241-10 179.50 20.50Q118 51 83.50 113Q49 175 49 267Q49 406 118 479Q187 552 299 552M299 459Q248 459 216.50 426.50Q185 394 180 330L413 330Q412 386 384.50 422.50Q357 459 299 459M364 766Q377 744 399.50 716.50Q422 689 446 663Q470 637 489 618L489 606L404 606Q377 622 347 644.50Q317 667 291 694Q265 667 236.50 645Q208 623 181 606L97 606L97 618Q116 637 139.50 663Q163 689 185.50 716.50Q208 744 221 766L364 766Z"  horiz-adv-x="581" vert-adv-y="1000"  />

      
      <glyph glyph-name="unieb" unicode="&#xeb;" d="M299 552Q408 552 471.50 487Q535 422 535 306L535 242L177 242Q179 168 218 127.50Q257 87 326 87Q378 87 420 97.50Q462 108 506 128L506 27Q466 8 423-1Q380-10 320-10Q241-10 179.50 20.50Q118 51 83.50 113Q49 175 49 267Q49 406 118 479Q187 552 299 552M299 459Q248 459 216.50 426.50Q185 394 180 330L413 330Q412 386 384.50 422.50Q357 459 299 459M134 684Q134 716 151.50 730Q169 744 194 744Q218 744 236.50 730Q255 716 255 684Q255 654 236.50 639.50Q218 625 194 625Q169 625 151.50 639.50Q134 654 134 684M328 684Q328 716 345.50 730Q363 744 388 744Q412 744 430.50 730Q449 716 449 684Q449 654 430.50 639.50Q412 625 388 625Q363 625 345.50 639.50Q328 654 328 684Z"  horiz-adv-x="581" vert-adv-y="1000"  />

      
      <glyph glyph-name="uniec" unicode="&#xec;" d="M207 0L81 0L81 542L207 542L207 0M120 766Q133 744 152 716.50Q171 689 191.50 663Q212 637 227 619L227 606L144 606Q119 624 86 652Q53 680 22.50 709Q-8 738-24 756L-24 766L120 766Z"  horiz-adv-x="287" vert-adv-y="1000"  />

      
      <glyph glyph-name="unied" unicode="&#xed;" d="M207 0L81 0L81 542L207 542L207 0M316 756Q300 738 269.50 709Q239 680 206 652Q173 624 149 606L65 606L65 619Q80 637 100 663Q120 689 139.50 716.50Q159 744 172 766L316 766L316 756Z"  horiz-adv-x="287" vert-adv-y="1000"  />

      
      <glyph glyph-name="uniee" unicode="&#xee;" d="M207 0L81 0L81 542L207 542L207 0M217 766Q230 744 252.50 716.50Q275 689 299 663Q323 637 342 618L342 606L257 606Q230 622 200 644.50Q170 667 144 694Q118 667 89.50 645Q61 623 34 606L-50 606L-50 618Q-31 637-7.50 663Q16 689 38.50 716.50Q61 744 74 766L217 766Z"  horiz-adv-x="287" vert-adv-y="1000"  />

      
      <glyph glyph-name="unief" unicode="&#xef;" d="M207 0L81 0L81 542L207 542L207 0M-14 684Q-14 716 3.50 730Q21 744 46 744Q70 744 88.50 730Q107 716 107 684Q107 654 88.50 639.50Q70 625 46 625Q21 625 3.50 639.50Q-14 654-14 684M180 684Q180 716 197.50 730Q215 744 240 744Q264 744 282.50 730Q301 716 301 684Q301 654 282.50 639.50Q264 625 240 625Q215 625 197.50 639.50Q180 654 180 684Z"  horiz-adv-x="287" vert-adv-y="1000"  />

      
      <glyph glyph-name="unif0" unicode="&#xf0;" d="M221 765Q255 750 287 732Q319 714 347 695L459 762L504 695L415 642Q486 577 525.50 487.50Q565 398 565 278Q565 138 495 64Q425-10 305-10Q231-10 173 19.50Q115 49 82 104Q49 159 49 237Q49 314 78.50 368.50Q108 423 161 452Q214 481 284 481Q387 481 426 429L430 431Q414 478 387 516Q360 554 325 587L206 516L161 584L257 641Q238 653 218 665Q198 677 177 689L221 765M307 386Q238 386 207.50 347.50Q177 309 177 235Q177 169 208 127.50Q239 86 307 86Q376 86 406.50 129Q437 172 437 257Q437 309 405.50 347.50Q374 386 307 386Z"  horiz-adv-x="614" vert-adv-y="1000"  />

      
      <glyph glyph-name="unif1" unicode="&#xf1;" d="M371 552Q462 552 513.50 505Q565 458 565 353L565 0L439 0L439 328Q439 450 339 450Q263 450 235 402Q207 354 207 265L207 0L81 0L81 542L178 542L196 471L203 471Q229 513 274.50 532.50Q320 552 371 552M126 605Q132 676 166 712Q200 748 250 748Q278 748 304 734.50Q330 721 354.50 707.50Q379 694 401 694Q439 694 452 749L517 749Q511 679 476.50 642.50Q442 606 393 606Q366 606 340 619.50Q314 633 289.50 646.50Q265 660 242 660Q203 660 191 605L126 605Z"  horiz-adv-x="642" vert-adv-y="1000"  />

      
      <glyph glyph-name="unif2" unicode="&#xf2;" d="M565 272Q565 137 495 63.50Q425-10 305-10Q231-10 173 23Q115 56 82 119Q49 182 49 272Q49 407 118.50 479.50Q188 552 308 552Q383 552 441 519.50Q499 487 532 424.50Q565 362 565 272M178 272Q178 186 208.50 139Q239 92 307 92Q375 92 405.50 139Q436 186 436 272Q436 358 405.50 404Q375 450 306 450Q239 450 208.50 404Q178 358 178 272M283 766Q296 744 315 716.50Q334 689 354.50 663Q375 637 390 619L390 606L307 606Q282 624 249 652Q216 680 185.50 709Q155 738 139 756L139 766L283 766Z"  horiz-adv-x="614" vert-adv-y="1000"  />

      
      <glyph glyph-name="unif3" unicode="&#xf3;" d="M565 272Q565 137 495 63.50Q425-10 305-10Q231-10 173 23Q115 56 82 119Q49 182 49 272Q49 407 118.50 479.50Q188 552 308 552Q383 552 441 519.50Q499 487 532 424.50Q565 362 565 272M178 272Q178 186 208.50 139Q239 92 307 92Q375 92 405.50 139Q436 186 436 272Q436 358 405.50 404Q375 450 306 450Q239 450 208.50 404Q178 358 178 272M480 756Q464 738 433.50 709Q403 680 370 652Q337 624 313 606L229 606L229 619Q244 637 264 663Q284 689 303.50 716.50Q323 744 336 766L480 766L480 756Z"  horiz-adv-x="614" vert-adv-y="1000"  />

      
      <glyph glyph-name="unif4" unicode="&#xf4;" d="M565 272Q565 137 495 63.50Q425-10 305-10Q231-10 173 23Q115 56 82 119Q49 182 49 272Q49 407 118.50 479.50Q188 552 308 552Q383 552 441 519.50Q499 487 532 424.50Q565 362 565 272M178 272Q178 186 208.50 139Q239 92 307 92Q375 92 405.50 139Q436 186 436 272Q436 358 405.50 404Q375 450 306 450Q239 450 208.50 404Q178 358 178 272M380 766Q393 744 415.50 716.50Q438 689 462 663Q486 637 505 618L505 606L420 606Q393 622 363 644.50Q333 667 307 694Q281 667 252.50 645Q224 623 197 606L113 606L113 618Q132 637 155.50 663Q179 689 201.50 716.50Q224 744 237 766L380 766Z"  horiz-adv-x="614" vert-adv-y="1000"  />

      
      <glyph glyph-name="unif5" unicode="&#xf5;" d="M565 272Q565 137 495 63.50Q425-10 305-10Q231-10 173 23Q115 56 82 119Q49 182 49 272Q49 407 118.50 479.50Q188 552 308 552Q383 552 441 519.50Q499 487 532 424.50Q565 362 565 272M178 272Q178 186 208.50 139Q239 92 307 92Q375 92 405.50 139Q436 186 436 272Q436 358 405.50 404Q375 450 306 450Q239 450 208.50 404Q178 358 178 272M112 605Q118 676 152 712Q186 748 236 748Q264 748 290 734.50Q316 721 340.50 707.50Q365 694 387 694Q425 694 438 749L503 749Q497 679 462.50 642.50Q428 606 379 606Q352 606 326 619.50Q300 633 275.50 646.50Q251 660 228 660Q189 660 177 605L112 605Z"  horiz-adv-x="614" vert-adv-y="1000"  />

      
      <glyph glyph-name="unif6" unicode="&#xf6;" d="M565 272Q565 137 495 63.50Q425-10 305-10Q231-10 173 23Q115 56 82 119Q49 182 49 272Q49 407 118.50 479.50Q188 552 308 552Q383 552 441 519.50Q499 487 532 424.50Q565 362 565 272M178 272Q178 186 208.50 139Q239 92 307 92Q375 92 405.50 139Q436 186 436 272Q436 358 405.50 404Q375 450 306 450Q239 450 208.50 404Q178 358 178 272M150 684Q150 716 167.50 730Q185 744 210 744Q234 744 252.50 730Q271 716 271 684Q271 654 252.50 639.50Q234 625 210 625Q185 625 167.50 639.50Q150 654 150 684M344 684Q344 716 361.50 730Q379 744 404 744Q428 744 446.50 730Q465 716 465 684Q465 654 446.50 639.50Q428 625 404 625Q379 625 361.50 639.50Q344 654 344 684Z"  horiz-adv-x="614" vert-adv-y="1000"  />

      
      <glyph glyph-name="unif7" unicode="&#xf7;" d="M285 454Q259 454 240.50 470.50Q222 487 222 523Q222 561 240.50 576.50Q259 592 285 592Q310 592 329 576.50Q348 561 348 523Q348 487 329 470.50Q310 454 285 454M46 306L46 399L525 399L525 306L46 306M285 113Q259 113 240.50 129.50Q222 146 222 182Q222 220 240.50 235.50Q259 251 285 251Q310 251 329 235.50Q348 220 348 182Q348 146 329 129.50Q310 113 285 113Z"  horiz-adv-x="572" vert-adv-y="1000"  />

      
      <glyph glyph-name="unif8" unicode="&#xf8;" d="M565 272Q565 137 495 63.50Q425-10 305-10Q240-10 186 16L150-35L81 11L119 65Q85 101 67 153Q49 205 49 272Q49 407 118.50 479.50Q188 552 308 552Q376 552 433 523L465 569L533 522L499 472Q530 437 547.50 386.50Q565 336 565 272M178 272Q178 211 192 173L372 433Q345 450 306 450Q239 450 208.50 404Q178 358 178 272M436 272Q436 324 424 361L247 105Q271 92 307 92Q375 92 405.50 139Q436 186 436 272Z"  horiz-adv-x="614" vert-adv-y="1000"  />

      
      <glyph glyph-name="unif9" unicode="&#xf9;" d="M562 542L562 0L463 0L446 70L440 70Q413 28 367.50 9Q322-10 271-10Q180-10 128.50 37Q77 84 77 188L77 542L203 542L203 213Q203 92 303 92Q379 92 407.50 139.50Q436 187 436 277L436 542L562 542M297 766Q310 744 329 716.50Q348 689 368.50 663Q389 637 404 619L404 606L321 606Q296 624 263 652Q230 680 199.50 709Q169 738 153 756L153 766L297 766Z"  horiz-adv-x="642" vert-adv-y="1000"  />

      
      <glyph glyph-name="unifa" unicode="&#xfa;" d="M562 542L562 0L463 0L446 70L440 70Q413 28 367.50 9Q322-10 271-10Q180-10 128.50 37Q77 84 77 188L77 542L203 542L203 213Q203 92 303 92Q379 92 407.50 139.50Q436 187 436 277L436 542L562 542M494 756Q478 738 447.50 709Q417 680 384 652Q351 624 327 606L243 606L243 619Q258 637 278 663Q298 689 317.50 716.50Q337 744 350 766L494 766L494 756Z"  horiz-adv-x="642" vert-adv-y="1000"  />

      
      <glyph glyph-name="unifb" unicode="&#xfb;" d="M562 542L562 0L463 0L446 70L440 70Q413 28 367.50 9Q322-10 271-10Q180-10 128.50 37Q77 84 77 188L77 542L203 542L203 213Q203 92 303 92Q379 92 407.50 139.50Q436 187 436 277L436 542L562 542M394 766Q407 744 429.50 716.50Q452 689 476 663Q500 637 519 618L519 606L434 606Q407 622 377 644.50Q347 667 321 694Q295 667 266.50 645Q238 623 211 606L127 606L127 618Q146 637 169.50 663Q193 689 215.50 716.50Q238 744 251 766L394 766Z"  horiz-adv-x="642" vert-adv-y="1000"  />

      
      <glyph glyph-name="unifc" unicode="&#xfc;" d="M562 542L562 0L463 0L446 70L440 70Q413 28 367.50 9Q322-10 271-10Q180-10 128.50 37Q77 84 77 188L77 542L203 542L203 213Q203 92 303 92Q379 92 407.50 139.50Q436 187 436 277L436 542L562 542M164 684Q164 716 181.50 730Q199 744 224 744Q248 744 266.50 730Q285 716 285 684Q285 654 266.50 639.50Q248 625 224 625Q199 625 181.50 639.50Q164 654 164 684M358 684Q358 716 375.50 730Q393 744 418 744Q442 744 460.50 730Q479 716 479 684Q479 654 460.50 639.50Q442 625 418 625Q393 625 375.50 639.50Q358 654 358 684Z"  horiz-adv-x="642" vert-adv-y="1000"  />

      
      <glyph glyph-name="unifd" unicode="&#xfd;" d="M0 542L137 542L245 236Q256 207 263 179Q270 151 273 122L277 122Q281 147 289 177Q297 207 307 236L411 542L547 542L316-72Q285-153 231.50-196.50Q178-240 100-240Q75-240 57-237.50Q39-235 25-232L25-132Q36-134 51.50-136Q67-138 84-138Q131-138 158.50-110.50Q186-83 201-42L217 2L0 542M446 756Q430 738 399.50 709Q369 680 336 652Q303 624 279 606L195 606L195 619Q210 637 230 663Q250 689 269.50 716.50Q289 744 302 766L446 766L446 756Z"  horiz-adv-x="547" vert-adv-y="1000"  />

      
      <glyph glyph-name="unife" unicode="&#xfe;" d="M577 272Q577 133 519 61.50Q461-10 366-10Q306-10 267.50 11Q229 32 207 61L200 61Q202 48 204.50 23Q207-2 207-18L207-240L81-240L81 760L207 760L207 557Q207 536 205 510.50Q203 485 201 471L207 471Q229 505 267 528.50Q305 552 366 552Q460 552 518.50 481Q577 410 577 272M448 274Q448 362 419.50 406Q391 450 331 450Q263 450 235.50 410Q208 370 207 290L207 273Q207 186 233.50 139.50Q260 93 332 93Q392 93 420 139.50Q448 186 448 274Z"  horiz-adv-x="626" vert-adv-y="1000"  />

      
      <glyph glyph-name="uniff" unicode="&#xff;" d="M0 542L137 542L245 236Q256 207 263 179Q270 151 273 122L277 122Q281 147 289 177Q297 207 307 236L411 542L547 542L316-72Q285-153 231.50-196.50Q178-240 100-240Q75-240 57-237.50Q39-235 25-232L25-132Q36-134 51.50-136Q67-138 84-138Q131-138 158.50-110.50Q186-83 201-42L217 2L0 542M116 684Q116 716 133.50 730Q151 744 176 744Q200 744 218.50 730Q237 716 237 684Q237 654 218.50 639.50Q200 625 176 625Q151 625 133.50 639.50Q116 654 116 684M310 684Q310 716 327.50 730Q345 744 370 744Q394 744 412.50 730Q431 716 431 684Q431 654 412.50 639.50Q394 625 370 625Q345 625 327.50 639.50Q310 654 310 684Z"  horiz-adv-x="547" vert-adv-y="1000"  />

      
      <glyph glyph-name="uni0100" unicode="&#x0100;" d="M534 0L469 189L200 189L136 0L0 0L262 717L408 717L670 0L534 0M374 483Q370 497 362 521Q354 545 346.50 570.50Q339 596 335 613Q330 593 322.50 567Q315 541 308 518Q301 495 298 483L235 299L436 299L374 483M494 869L494 778L176 778L176 869L494 869Z"  horiz-adv-x="671" vert-adv-y="1000"  />

      
      <glyph glyph-name="uni0101" unicode="&#x0101;" d="M297 552Q402 552 456.50 506Q511 460 511 364L511 0L422 0L397 75L393 75Q358 31 319 10.50Q280-10 213-10Q140-10 92 31Q44 72 44 158Q44 242 105.50 284Q167 326 292 331L386 334L386 361Q386 412 361 434.50Q336 457 291 457Q250 457 212.50 445Q175 433 138 417L98 505Q138 526 189.50 539Q241 552 297 552M320 254Q237 251 205 225.50Q173 200 173 157Q173 118 195.50 101.50Q218 85 255 85Q310 85 348 116.50Q386 148 386 210L386 256L320 254M453 697L453 606L135 606L135 697L453 697Z"  horiz-adv-x="588" vert-adv-y="1000"  />

      
      <glyph glyph-name="uni0102" unicode="&#x0102;" d="M534 0L469 189L200 189L136 0L0 0L262 717L408 717L670 0L534 0M374 483Q370 497 362 521Q354 545 346.50 570.50Q339 596 335 613Q330 593 322.50 567Q315 541 308 518Q301 495 298 483L235 299L436 299L374 483M516 931Q511 863 463 820.50Q415 778 336 778Q254 778 209 819.50Q164 861 160 931L232 931Q236 890 265 880Q294 870 337 870Q362 870 385 874.50Q408 879 424 892Q440 905 443 931L516 931Z"  horiz-adv-x="671" vert-adv-y="1000"  />

      
      <glyph glyph-name="uni0103" unicode="&#x0103;" d="M297 552Q402 552 456.50 506Q511 460 511 364L511 0L422 0L397 75L393 75Q358 31 319 10.50Q280-10 213-10Q140-10 92 31Q44 72 44 158Q44 242 105.50 284Q167 326 292 331L386 334L386 361Q386 412 361 434.50Q336 457 291 457Q250 457 212.50 445Q175 433 138 417L98 505Q138 526 189.50 539Q241 552 297 552M320 254Q237 251 205 225.50Q173 200 173 157Q173 118 195.50 101.50Q218 85 255 85Q310 85 348 116.50Q386 148 386 210L386 256L320 254M475 759Q470 691 422 648.50Q374 606 295 606Q213 606 168 647.50Q123 689 119 759L191 759Q195 718 224 708Q253 698 296 698Q321 698 344 702.50Q367 707 383 720Q399 733 402 759L475 759Z"  horiz-adv-x="588" vert-adv-y="1000"  />

      
      <glyph glyph-name="uni0104" unicode="&#x0104;" d="M534 0L469 189L200 189L136 0L0 0L262 717L408 717L670 0L534 0M374 483Q370 497 362 521Q354 545 346.50 570.50Q339 596 335 613Q330 593 322.50 567Q315 541 308 518Q301 495 298 483L235 299L436 299L374 483M563-113Q563-134 574.50-144.50Q586-155 605-155Q621-155 634.50-152Q648-149 658-147L658-222Q642-226 625.50-229Q609-232 587-232Q532-232 502-203.50Q472-175 472-127Q472-84 503.50-46Q535-8 575 16L634 0Q600-32 581.50-58.50Q563-85 563-113Z"  horiz-adv-x="671" vert-adv-y="1000"  />

      
      <glyph glyph-name="uni0105" unicode="&#x0105;" d="M297 552Q402 552 456.50 506Q511 460 511 364L511 0L422 0L397 75L393 75Q358 31 319 10.50Q280-10 213-10Q140-10 92 31Q44 72 44 158Q44 242 105.50 284Q167 326 292 331L386 334L386 361Q386 412 361 434.50Q336 457 291 457Q250 457 212.50 445Q175 433 138 417L98 505Q138 526 189.50 539Q241 552 297 552M320 254Q237 251 205 225.50Q173 200 173 157Q173 118 195.50 101.50Q218 85 255 85Q310 85 348 116.50Q386 148 386 210L386 256L320 254M432-113Q432-134 443.50-144.50Q455-155 474-155Q490-155 503.50-152Q517-149 527-147L527-222Q511-226 494.50-229Q478-232 456-232Q401-232 371-203.50Q341-175 341-127Q341-84 372.50-46Q404-8 444 16L503 0Q469-32 450.50-58.50Q432-85 432-113Z"  horiz-adv-x="588" vert-adv-y="1000"  />

      
      <glyph glyph-name="uni0106" unicode="&#x0106;" d="M397 616Q299 616 245.50 546Q192 476 192 356Q192 235 242 166.50Q292 98 396 98Q441 98 484 107.50Q527 117 574 133L574 24Q530 6 485.50-2Q441-10 383-10Q273-10 201 35.50Q129 81 94 163.50Q59 246 59 357Q59 465 98 547.50Q137 630 212.50 677Q288 724 397 724Q451 724 503.50 711.50Q556 699 602 677L558 572Q520 589 479.50 602.50Q439 616 397 616M550 928Q534 910 503.50 881Q473 852 440 824Q407 796 383 778L299 778L299 791Q314 809 334 835Q354 861 373.50 888.50Q393 916 406 938L550 938L550 928Z"  horiz-adv-x="635" vert-adv-y="1000"  />

      
      <glyph glyph-name="uni0107" unicode="&#x0107;" d="M300-10Q183-10 116 57Q49 124 49 268Q49 368 82.50 430.50Q116 493 175 522.50Q234 552 310 552Q361 552 401 542Q441 532 469 518L432 419Q401 431 370 439.50Q339 448 310 448Q178 448 178 269Q178 182 211.50 138Q245 94 308 94Q353 94 388 105Q423 116 455 135L455 26Q424 8 388.50-1Q353-10 300-10M458 756Q442 738 411.50 709Q381 680 348 652Q315 624 291 606L207 606L207 619Q222 637 242 663Q262 689 281.50 716.50Q301 744 314 766L458 766L458 756Z"  horiz-adv-x="501" vert-adv-y="1000"  />

      
      <glyph glyph-name="uni0108" unicode="&#x0108;" d="M397 616Q299 616 245.50 546Q192 476 192 356Q192 235 242 166.50Q292 98 396 98Q441 98 484 107.50Q527 117 574 133L574 24Q530 6 485.50-2Q441-10 383-10Q273-10 201 35.50Q129 81 94 163.50Q59 246 59 357Q59 465 98 547.50Q137 630 212.50 677Q288 724 397 724Q451 724 503.50 711.50Q556 699 602 677L558 572Q520 589 479.50 602.50Q439 616 397 616M451 938Q464 916 486.50 888.50Q509 861 533 835Q557 809 576 790L576 778L491 778Q464 794 434 816.50Q404 839 378 866Q352 839 323.50 817Q295 795 268 778L184 778L184 790Q203 809 226.50 835Q250 861 272.50 888.50Q295 916 308 938L451 938Z"  horiz-adv-x="635" vert-adv-y="1000"  />

      
      <glyph glyph-name="uni0109" unicode="&#x0109;" d="M300-10Q183-10 116 57Q49 124 49 268Q49 368 82.50 430.50Q116 493 175 522.50Q234 552 310 552Q361 552 401 542Q441 532 469 518L432 419Q401 431 370 439.50Q339 448 310 448Q178 448 178 269Q178 182 211.50 138Q245 94 308 94Q353 94 388 105Q423 116 455 135L455 26Q424 8 388.50-1Q353-10 300-10M358 766Q371 744 393.50 716.50Q416 689 440 663Q464 637 483 618L483 606L398 606Q371 622 341 644.50Q311 667 285 694Q259 667 230.50 645Q202 623 175 606L91 606L91 618Q110 637 133.50 663Q157 689 179.50 716.50Q202 744 215 766L358 766Z"  horiz-adv-x="501" vert-adv-y="1000"  />

      
      <glyph glyph-name="uni010A" unicode="&#x010A;" d="M397 616Q299 616 245.50 546Q192 476 192 356Q192 235 242 166.50Q292 98 396 98Q441 98 484 107.50Q527 117 574 133L574 24Q530 6 485.50-2Q441-10 383-10Q273-10 201 35.50Q129 81 94 163.50Q59 246 59 357Q59 465 98 547.50Q137 630 212.50 677Q288 724 397 724Q451 724 503.50 711.50Q556 699 602 677L558 572Q520 589 479.50 602.50Q439 616 397 616M380 923Q408 923 429 908.50Q450 894 450 857Q450 820 429 805Q408 790 380 790Q351 790 330.50 805Q310 820 310 857Q310 894 330.50 908.50Q351 923 380 923Z"  horiz-adv-x="635" vert-adv-y="1000"  />

      
      <glyph glyph-name="uni010B" unicode="&#x010B;" d="M300-10Q183-10 116 57Q49 124 49 268Q49 368 82.50 430.50Q116 493 175 522.50Q234 552 310 552Q361 552 401 542Q441 532 469 518L432 419Q401 431 370 439.50Q339 448 310 448Q178 448 178 269Q178 182 211.50 138Q245 94 308 94Q353 94 388 105Q423 116 455 135L455 26Q424 8 388.50-1Q353-10 300-10M288 751Q316 751 337 736.50Q358 722 358 685Q358 648 337 633Q316 618 288 618Q259 618 238.50 633Q218 648 218 685Q218 722 238.50 736.50Q259 751 288 751Z"  horiz-adv-x="501" vert-adv-y="1000"  />

      
      <glyph glyph-name="uni010C" unicode="&#x010C;" d="M397 616Q299 616 245.50 546Q192 476 192 356Q192 235 242 166.50Q292 98 396 98Q441 98 484 107.50Q527 117 574 133L574 24Q530 6 485.50-2Q441-10 383-10Q273-10 201 35.50Q129 81 94 163.50Q59 246 59 357Q59 465 98 547.50Q137 630 212.50 677Q288 724 397 724Q451 724 503.50 711.50Q556 699 602 677L558 572Q520 589 479.50 602.50Q439 616 397 616M308 778Q295 801 272.50 828Q250 855 226 880.50Q202 906 184 925L184 938L268 938Q295 921 324 899Q353 877 378 850Q404 877 434 899.50Q464 922 491 938L576 938L576 925Q557 907 533 881Q509 855 486.50 828Q464 801 451 778L308 778Z"  horiz-adv-x="635" vert-adv-y="1000"  />

      
      <glyph glyph-name="uni010D" unicode="&#x010D;" d="M300-10Q183-10 116 57Q49 124 49 268Q49 368 82.50 430.50Q116 493 175 522.50Q234 552 310 552Q361 552 401 542Q441 532 469 518L432 419Q401 431 370 439.50Q339 448 310 448Q178 448 178 269Q178 182 211.50 138Q245 94 308 94Q353 94 388 105Q423 116 455 135L455 26Q424 8 388.50-1Q353-10 300-10M215 606Q202 629 179.50 656Q157 683 133 708.50Q109 734 91 753L91 766L175 766Q202 749 231 727Q260 705 285 678Q311 705 341 727.50Q371 750 398 766L483 766L483 753Q464 735 440 709Q416 683 393.50 656Q371 629 358 606L215 606Z"  horiz-adv-x="501" vert-adv-y="1000"  />

      
      <glyph glyph-name="uni010E" unicode="&#x010E;" d="M677 364Q677 183 576 91.50Q475 0 294 0L93 0L93 714L315 714Q425 714 506.50 674Q588 634 632.50 556.50Q677 479 677 364M543 360Q543 488 484.50 548Q426 608 315 608L221 608L221 107L298 107Q543 107 543 360M296 778Q283 801 260.50 828Q238 855 214 880.50Q190 906 172 925L172 938L256 938Q283 921 312 899Q341 877 366 850Q392 877 422 899.50Q452 922 479 938L564 938L564 925Q545 907 521 881Q497 855 474.50 828Q452 801 439 778L296 778Z"  horiz-adv-x="736" vert-adv-y="1000"  />

      
      <glyph glyph-name="uni010F" unicode="&#x010F;" d="M731 750Q719 720 698.50 678.50Q678 637 653 600L581 600L581 613Q590 642 599 685Q608 728 612 760L731 760L731 750M260-10Q165-10 107 61Q49 132 49 270Q49 410 108 481Q167 552 263 552Q323 552 361.50 529Q400 506 423 473L429 473Q426 487 423 516Q420 545 420 570L420 760L546 760L546 0L448 0L425 71L420 71Q397 37 359 13.50Q321-10 260-10M298 92Q368 92 396.50 132Q425 172 426 253L426 269Q426 356 398.50 402.50Q371 449 296 449Q238 449 207.50 401.50Q177 354 177 268Q177 182 208 137Q239 92 298 92Z"  horiz-adv-x="626" vert-adv-y="1000"  />

      
      <glyph glyph-name="uni0110" unicode="&#x0110;" d="M315 714Q425 714 506.50 674Q588 634 632.50 556.50Q677 479 677 364Q677 183 576 91.50Q475 0 293 0L95 0L95 300L26 300L26 406L95 406L95 714L315 714M315 608L223 608L223 406L363 406L363 300L223 300L223 107L297 107Q543 107 543 360Q543 488 483.50 548Q424 608 315 608Z"  horiz-adv-x="736" vert-adv-y="1000"  />

      
      <glyph glyph-name="uni0111" unicode="&#x0111;" d="M260-10Q165-10 107 58.50Q49 127 49 260Q49 396 108 464Q167 532 263 532Q323 532 361.50 509Q400 486 423 453L429 453Q426 471 423 501.50Q420 532 420 553L420 592L243 592L243 677L420 677L420 760L546 760L546 677L622 677L622 592L546 592L546 0L447 0L424 71L419 71Q397 37 358.50 13.50Q320-10 260-10M298 92Q368 92 396.50 130Q425 168 426 244L426 259Q426 342 398.50 386Q371 430 296 430Q238 430 208 385Q178 340 178 258Q178 177 208.50 134.50Q239 92 298 92Z"  horiz-adv-x="637" vert-adv-y="1000"  />

      
      <glyph glyph-name="uni0112" unicode="&#x0112;" d="M499 0L93 0L93 714L499 714L499 607L221 607L221 425L481 425L481 318L221 318L221 108L499 108L499 0M462 869L462 778L144 778L144 869L462 869Z"  horiz-adv-x="558" vert-adv-y="1000"  />

      
      <glyph glyph-name="uni0113" unicode="&#x0113;" d="M299 552Q408 552 471.50 487Q535 422 535 306L535 242L177 242Q179 168 218 127.50Q257 87 326 87Q378 87 420 97.50Q462 108 506 128L506 27Q466 8 423-1Q380-10 320-10Q241-10 179.50 20.50Q118 51 83.50 113Q49 175 49 267Q49 406 118 479Q187 552 299 552M299 459Q248 459 216.50 426.50Q185 394 180 330L413 330Q412 386 384.50 422.50Q357 459 299 459M451 697L451 606L133 606L133 697L451 697Z"  horiz-adv-x="581" vert-adv-y="1000"  />

      
      <glyph glyph-name="uni0114" unicode="&#x0114;" d="M499 0L93 0L93 714L499 714L499 607L221 607L221 425L481 425L481 318L221 318L221 108L499 108L499 0M484 931Q479 863 431 820.50Q383 778 304 778Q222 778 177 819.50Q132 861 128 931L200 931Q204 890 233 880Q262 870 305 870Q330 870 353 874.50Q376 879 392 892Q408 905 411 931L484 931Z"  horiz-adv-x="558" vert-adv-y="1000"  />

      
      <glyph glyph-name="uni0115" unicode="&#x0115;" d="M299 552Q408 552 471.50 487Q535 422 535 306L535 242L177 242Q179 168 218 127.50Q257 87 326 87Q378 87 420 97.50Q462 108 506 128L506 27Q466 8 423-1Q380-10 320-10Q241-10 179.50 20.50Q118 51 83.50 113Q49 175 49 267Q49 406 118 479Q187 552 299 552M299 459Q248 459 216.50 426.50Q185 394 180 330L413 330Q412 386 384.50 422.50Q357 459 299 459M473 759Q468 691 420 648.50Q372 606 293 606Q211 606 166 647.50Q121 689 117 759L189 759Q193 718 222 708Q251 698 294 698Q319 698 342 702.50Q365 707 381 720Q397 733 400 759L473 759Z"  horiz-adv-x="581" vert-adv-y="1000"  />

      
      <glyph glyph-name="uni0116" unicode="&#x0116;" d="M499 0L93 0L93 714L499 714L499 607L221 607L221 425L481 425L481 318L221 318L221 108L499 108L499 0M305 923Q333 923 354 908.50Q375 894 375 857Q375 820 354 805Q333 790 305 790Q276 790 255.50 805Q235 820 235 857Q235 894 255.50 908.50Q276 923 305 923Z"  horiz-adv-x="558" vert-adv-y="1000"  />

      
      <glyph glyph-name="uni0117" unicode="&#x0117;" d="M299 552Q408 552 471.50 487Q535 422 535 306L535 242L177 242Q179 168 218 127.50Q257 87 326 87Q378 87 420 97.50Q462 108 506 128L506 27Q466 8 423-1Q380-10 320-10Q241-10 179.50 20.50Q118 51 83.50 113Q49 175 49 267Q49 406 118 479Q187 552 299 552M299 459Q248 459 216.50 426.50Q185 394 180 330L413 330Q412 386 384.50 422.50Q357 459 299 459M294 751Q322 751 343 736.50Q364 722 364 685Q364 648 343 633Q322 618 294 618Q265 618 244.50 633Q224 648 224 685Q224 722 244.50 736.50Q265 751 294 751Z"  horiz-adv-x="581" vert-adv-y="1000"  />

      
      <glyph glyph-name="uni0118" unicode="&#x0118;" d="M499 0L93 0L93 714L499 714L499 607L221 607L221 425L481 425L481 318L221 318L221 108L499 108L499 0M403-113Q403-134 414.50-144.50Q426-155 445-155Q461-155 474.50-152Q488-149 498-147L498-222Q482-226 465.50-229Q449-232 427-232Q372-232 342-203.50Q312-175 312-127Q312-84 343.50-46Q375-8 415 16L474 0Q440-32 421.50-58.50Q403-85 403-113Z"  horiz-adv-x="558" vert-adv-y="1000"  />

      
      <glyph glyph-name="uni0119" unicode="&#x0119;" d="M404-113Q404-134 415.50-144.50Q427-155 445-155Q461-155 475-152Q489-149 498-147L498-222Q483-226 466.50-229Q450-232 427-232Q372-232 342.50-203.50Q313-175 313-127Q313-93 333-62Q353-31 383-7Q355-10 320-10Q241-10 179.50 20.50Q118 51 83.50 113Q49 175 49 267Q49 406 118 479Q187 552 299 552Q408 552 471.50 487Q535 422 535 306L535 242L177 242Q179 168 218 127.50Q257 87 326 87Q378 87 420 97.50Q462 108 506 128L506 27Q446-24 425-54.50Q404-85 404-113M299 459Q248 459 216.50 426.50Q185 394 180 330L413 330Q412 386 384.50 422.50Q357 459 299 459Z"  horiz-adv-x="581" vert-adv-y="1000"  />

      
      <glyph glyph-name="uni011A" unicode="&#x011A;" d="M499 0L93 0L93 714L499 714L499 607L221 607L221 425L481 425L481 318L221 318L221 108L499 108L499 0M232 778Q219 801 196.50 828Q174 855 150 880.50Q126 906 108 925L108 938L192 938Q219 921 248 899Q277 877 302 850Q328 877 358 899.50Q388 922 415 938L500 938L500 925Q481 907 457 881Q433 855 410.50 828Q388 801 375 778L232 778Z"  horiz-adv-x="558" vert-adv-y="1000"  />

      
      <glyph glyph-name="uni011B" unicode="&#x011B;" d="M299 552Q408 552 471.50 487Q535 422 535 306L535 242L177 242Q179 168 218 127.50Q257 87 326 87Q378 87 420 97.50Q462 108 506 128L506 27Q466 8 423-1Q380-10 320-10Q241-10 179.50 20.50Q118 51 83.50 113Q49 175 49 267Q49 406 118 479Q187 552 299 552M299 459Q248 459 216.50 426.50Q185 394 180 330L413 330Q412 386 384.50 422.50Q357 459 299 459M221 606Q208 629 185.50 656Q163 683 139 708.50Q115 734 97 753L97 766L181 766Q208 749 237 727Q266 705 291 678Q317 705 347 727.50Q377 750 404 766L489 766L489 753Q470 735 446 709Q422 683 399.50 656Q377 629 364 606L221 606Z"  horiz-adv-x="581" vert-adv-y="1000"  />

      
      <glyph glyph-name="uni011C" unicode="&#x011C;" d="M378 392L648 392L648 29Q591 11 531 0.50Q471-10 395-10Q233-10 146 86Q59 182 59 358Q59 469 102.50 551.50Q146 634 229 679Q312 724 431 724Q489 724 543.50 712Q598 700 643 681L599 576Q564 592 520 604Q476 616 428 616Q355 616 302 584Q249 552 220.50 493.50Q192 435 192 356Q192 280 214 222Q236 164 284 131Q332 98 409 98Q447 98 473 102Q499 106 522 111L522 283L378 283L378 392M474 938Q487 916 509.50 888.50Q532 861 556 835Q580 809 599 790L599 778L514 778Q487 794 457 816.50Q427 839 401 866Q375 839 346.50 817Q318 795 291 778L207 778L207 790Q226 809 249.50 835Q273 861 295.50 888.50Q318 916 331 938L474 938Z"  horiz-adv-x="726" vert-adv-y="1000"  />

      
      <glyph glyph-name="uni011D" unicode="&#x011D;" d="M263 552Q366 552 424 472L429 472L441 542L546 542L546-4Q546-120 480.50-180Q415-240 285-240Q227-240 178-232.50Q129-225 85-207L85-103Q178-145 293-145Q355-145 387.50-110.50Q420-76 420-10L420 4Q420 19 421 39Q422 59 424 71L420 71Q392 29 351.50 9.50Q311-10 260-10Q161-10 105 64Q49 138 49 270Q49 402 105.50 477Q162 552 263 552M296 449Q178 449 178 268Q178 90 298 90Q364 90 395.50 126.50Q427 163 427 250L427 269Q427 365 395.50 407Q364 449 296 449M380 766Q393 744 415.50 716.50Q438 689 462 663Q486 637 505 618L505 606L420 606Q393 622 363 644.50Q333 667 307 694Q281 667 252.50 645Q224 623 197 606L113 606L113 618Q132 637 155.50 663Q179 689 201.50 716.50Q224 744 237 766L380 766Z"  horiz-adv-x="626" vert-adv-y="1000"  />

      
      <glyph glyph-name="uni011E" unicode="&#x011E;" d="M378 392L648 392L648 29Q591 11 531 0.50Q471-10 395-10Q233-10 146 86Q59 182 59 358Q59 469 102.50 551.50Q146 634 229 679Q312 724 431 724Q489 724 543.50 712Q598 700 643 681L599 576Q564 592 520 604Q476 616 428 616Q355 616 302 584Q249 552 220.50 493.50Q192 435 192 356Q192 280 214 222Q236 164 284 131Q332 98 409 98Q447 98 473 102Q499 106 522 111L522 283L378 283L378 392M583 931Q578 863 530 820.50Q482 778 403 778Q321 778 276 819.50Q231 861 227 931L299 931Q303 890 332 880Q361 870 404 870Q429 870 452 874.50Q475 879 491 892Q507 905 510 931L583 931Z"  horiz-adv-x="726" vert-adv-y="1000"  />

      
      <glyph glyph-name="uni011F" unicode="&#x011F;" d="M263 552Q366 552 424 472L429 472L441 542L546 542L546-4Q546-120 480.50-180Q415-240 285-240Q227-240 178-232.50Q129-225 85-207L85-103Q178-145 293-145Q355-145 387.50-110.50Q420-76 420-10L420 4Q420 19 421 39Q422 59 424 71L420 71Q392 29 351.50 9.50Q311-10 260-10Q161-10 105 64Q49 138 49 270Q49 402 105.50 477Q162 552 263 552M296 449Q178 449 178 268Q178 90 298 90Q364 90 395.50 126.50Q427 163 427 250L427 269Q427 365 395.50 407Q364 449 296 449M489 759Q484 691 436 648.50Q388 606 309 606Q227 606 182 647.50Q137 689 133 759L205 759Q209 718 238 708Q267 698 310 698Q335 698 358 702.50Q381 707 397 720Q413 733 416 759L489 759Z"  horiz-adv-x="626" vert-adv-y="1000"  />

      
      <glyph glyph-name="uni0120" unicode="&#x0120;" d="M378 392L648 392L648 29Q591 11 531 0.50Q471-10 395-10Q233-10 146 86Q59 182 59 358Q59 469 102.50 551.50Q146 634 229 679Q312 724 431 724Q489 724 543.50 712Q598 700 643 681L599 576Q564 592 520 604Q476 616 428 616Q355 616 302 584Q249 552 220.50 493.50Q192 435 192 356Q192 280 214 222Q236 164 284 131Q332 98 409 98Q447 98 473 102Q499 106 522 111L522 283L378 283L378 392M404 923Q432 923 453 908.50Q474 894 474 857Q474 820 453 805Q432 790 404 790Q375 790 354.50 805Q334 820 334 857Q334 894 354.50 908.50Q375 923 404 923Z"  horiz-adv-x="726" vert-adv-y="1000"  />

      
      <glyph glyph-name="uni0121" unicode="&#x0121;" d="M263 552Q366 552 424 472L429 472L441 542L546 542L546-4Q546-120 480.50-180Q415-240 285-240Q227-240 178-232.50Q129-225 85-207L85-103Q178-145 293-145Q355-145 387.50-110.50Q420-76 420-10L420 4Q420 19 421 39Q422 59 424 71L420 71Q392 29 351.50 9.50Q311-10 260-10Q161-10 105 64Q49 138 49 270Q49 402 105.50 477Q162 552 263 552M296 449Q178 449 178 268Q178 90 298 90Q364 90 395.50 126.50Q427 163 427 250L427 269Q427 365 395.50 407Q364 449 296 449M310 751Q338 751 359 736.50Q380 722 380 685Q380 648 359 633Q338 618 310 618Q281 618 260.50 633Q240 648 240 685Q240 722 260.50 736.50Q281 751 310 751Z"  horiz-adv-x="626" vert-adv-y="1000"  />

      
      </font>
</defs>
</svg>
