<?xml version="1.0" standalone="no"?>
  <!DOCTYPE svg PUBLIC "-//W3C//DTD SVG 1.1//EN" "http://www.w3.org/Graphics/SVG/1.1/DTD/svg11.dtd" >
  <svg>
  <metadata>
  Created by font-carrier
  </metadata>
  <defs>
  <font id="NotoSans-MediumItalic" horiz-adv-x="2800" vert-adv-y="2800" >
    <font-face
      
      font-family="Noto Sans Medium"
      
      font-weight="400"
      
      font-stretch="normal"
      
      units-per-em="1000"
      
      ascent="1069"
      
      descent="-293"
      
    />
      <missing-glyph />

      

      
      <glyph glyph-name="uni21" unicode="&#x21;" d="M75 212L163 714L287 714L162 212L75 212M77-14Q47-14 32.50 2.50Q18 19 18 45Q18 78 37 104Q56 130 100 130Q126 130 142 115Q158 100 158 71Q158 39 137.50 12.50Q117-14 77-14Z"  horiz-adv-x="268" vert-adv-y="1000"  />

      
      <glyph glyph-name="uni22" unicode="&#x22;" d="M285 456L320 714L428 714L353 456L285 456M106 456L141 714L248 714L174 456L106 456Z"  horiz-adv-x="410" vert-adv-y="1000"  />

      
      <glyph glyph-name="uni23" unicode="&#x23;" d="M92 0L150 206L27 206L34 282L172 282L216 430L85 430L92 506L236 506L296 714L378 714L318 506L448 506L509 714L587 714L528 506L653 506L646 430L506 430L463 282L597 282L590 206L441 206L382 0L300 0L361 206L231 206L172 0L92 0M253 282L383 282L425 430L296 430L253 282Z"  horiz-adv-x="646" vert-adv-y="1000"  />

      
      <glyph glyph-name="uni24" unicode="&#x24;" d="M192 47Q148 50 106 59.50Q64 69 31 85L31 180Q70 159 117.50 146Q165 133 209 132L253 330Q190 353 152 389.50Q114 426 114 491Q114 549 141.50 588.50Q169 628 216.50 650Q264 672 325 677L343 759L409 759L392 676Q431 672 465.50 663Q500 654 531 637L493 554Q468 567 437 577Q406 587 373 590L333 399Q401 374 438.50 339Q476 304 476 241Q476 155 416.50 106Q357 57 258 47L235-58L169-58L192 47M307 590Q266 585 239.50 562.50Q213 540 213 495Q213 472 227.50 453.50Q242 435 272 423L307 590M276 134Q317 140 345.50 164.50Q374 189 374 231Q374 281 313 305L276 134Z"  horiz-adv-x="551" vert-adv-y="1000"  />

      
      <glyph glyph-name="uni25" unicode="&#x25;" d="M195 276Q136 276 104.50 314.50Q73 353 73 424Q73 455 78.50 494.50Q84 534 97 574Q110 614 132.50 648Q155 682 188 703Q221 724 267 724Q327 724 359 687.50Q391 651 391 582Q391 553 385 513.50Q379 474 365.50 432.50Q352 391 329.50 355.50Q307 320 273.50 298Q240 276 195 276M113 0L643 714L732 714L203 0L113 0M202 352Q225 352 242 369.50Q259 387 271 415Q283 443 290.50 474Q298 505 301.50 533Q305 561 305 579Q305 615 293.50 631.50Q282 648 261 648Q233 648 213.50 623.50Q194 599 182 562.50Q170 526 164.50 488Q159 450 159 423Q159 352 202 352M578-10Q519-10 487 27.50Q455 65 455 135Q455 169 461 209Q467 249 480 289.50Q493 330 515.50 363.50Q538 397 571 417.50Q604 438 650 438Q710 438 742 402Q774 366 774 298Q774 268 768 228Q762 188 748.50 146.50Q735 105 712 69.50Q689 34 656 12Q623-10 578-10M585 67Q607 67 624.50 84.50Q642 102 654 129.50Q666 157 673.50 188.50Q681 220 684 248Q687 276 687 294Q687 330 676 346Q665 362 643 362Q615 362 596 338Q577 314 565 277Q553 240 547.50 202Q542 164 542 137Q542 67 585 67Z"  horiz-adv-x="816" vert-adv-y="1000"  />

      
      <glyph glyph-name="uni26" unicode="&#x26;" d="M224-10Q137-10 84.50 36Q32 82 32 170Q32 248 79.50 300Q127 352 217 395Q198 427 185 463Q172 499 172 538Q172 621 225 673Q278 725 369 725Q448 725 491 684.50Q534 644 534 580Q534 530 509 493.50Q484 457 441 428.50Q398 400 344 375L466 207Q497 238 518.50 275Q540 312 556 351L661 351Q607 224 518 135L617 0L494 0L445 69Q400 34 348.50 12Q297-10 224-10M303 438Q333 453 363 471Q393 489 413 513Q433 537 433 570Q433 603 415 622Q397 641 364 641Q319 641 295 613.50Q271 586 271 541Q271 484 303 438M243 78Q290 78 326 96Q362 114 395 138L260 331Q228 313 200.50 293Q173 273 156 245.50Q139 218 139 178Q139 134 167.50 106Q196 78 243 78Z"  horiz-adv-x="683" vert-adv-y="1000"  />

      
      <glyph glyph-name="uni27" unicode="&#x27;" d="M106 456L141 714L248 714L174 456L106 456Z"  horiz-adv-x="230" vert-adv-y="1000"  />

      
      <glyph glyph-name="uni28" unicode="&#x28;" d="M111-158Q76-96 57.50-22Q39 52 39 134Q39 311 102.50 451.50Q166 592 285 714L380 714Q309 636 254 546Q199 456 167.50 353Q136 250 136 133Q136 50 151-22.50Q166-95 193-158L111-158Z"  horiz-adv-x="304" vert-adv-y="1000"  />

      
      <glyph glyph-name="uni29" unicode="&#x29;" d="M-76-158Q-5-80 50 10Q105 100 136 203Q167 306 167 423Q167 506 152.50 578.50Q138 651 111 714L193 714Q228 652 246.50 577.50Q265 503 265 421Q265 244 201.50 104Q138-36 19-158L-76-158Z"  horiz-adv-x="304" vert-adv-y="1000"  />

      
      <glyph glyph-name="uni2a" unicode="&#x2a;" d="M366 295L314 481L199 324L127 391L271 523L97 574L130 663L305 575L324 764L422 745L364 563L564 574L558 480L376 502L460 324L366 295Z"  horiz-adv-x="549" vert-adv-y="1000"  />

      
      <glyph glyph-name="uni2b" unicode="&#x2b;" d="M343 393L539 393L539 312L343 312L343 111L261 111L261 312L65 312L65 393L261 393L261 595L343 595L343 393Z"  horiz-adv-x="572" vert-adv-y="1000"  />

      
      <glyph glyph-name="uni2c" unicode="&#x2c;" d="M-45-129Q-19-70 7.50-3Q34 64 53 116L161 116L165 105Q141 52 105.50-11Q70-74 35-129L-45-129Z"  horiz-adv-x="265" vert-adv-y="1000"  />

      
      <glyph glyph-name="uni2d" unicode="&#x2d;" d="M24 221L45 314L286 314L266 221L24 221Z"  horiz-adv-x="316" vert-adv-y="1000"  />

      
      <glyph glyph-name="uni2e" unicode="&#x2e;" d="M77-14Q47-14 32.50 2Q18 18 18 43Q18 77 37.50 103.50Q57 130 101 130Q126 130 142 115.50Q158 101 158 72Q158 38 137 12Q116-14 77-14Z"  horiz-adv-x="265" vert-adv-y="1000"  />

      
      <glyph glyph-name="uni2f" unicode="&#x2f;" d="M-45 0L351 714L457 714L61 0L-45 0Z"  horiz-adv-x="375" vert-adv-y="1000"  />

      
      <glyph glyph-name="uni30" unicode="&#x30;" d="M234-10Q142-10 96 52.50Q50 115 50 232Q50 296 60.50 365Q71 434 94 498Q117 562 153 613.50Q189 665 238.50 695Q288 725 352 725Q536 725 536 495Q536 422 525 349.50Q514 277 491.50 212Q469 147 433 97Q397 47 347.50 18.50Q298-10 234-10M245 79Q281 79 310.50 104.50Q340 130 362 173.50Q384 217 399 271.50Q414 326 421.50 384.50Q429 443 429 498Q429 636 345 636Q309 636 279.50 610Q250 584 227 540.50Q204 497 188 444Q172 391 164 335.50Q156 280 156 231Q156 157 177 118Q198 79 245 79Z"  horiz-adv-x="551" vert-adv-y="1000"  />

      
      <glyph glyph-name="uni31" unicode="&#x31;" d="M291 431Q299 471 310.50 517.50Q322 564 331 594Q318 580 301 567.50Q284 555 265 543L175 486L127 564L366 714L457 714L304 0L198 0L291 431Z"  horiz-adv-x="551" vert-adv-y="1000"  />

      
      <glyph glyph-name="uni32" unicode="&#x32;" d="M-5 0L13 84L241 289Q305 346 344.50 387Q384 428 402.50 463.50Q421 499 421 540Q421 582 395.50 608Q370 634 324 634Q283 634 247 616Q211 598 172 568L122 640Q166 676 218 700Q270 724 339 724Q433 724 481.50 676Q530 628 530 558Q530 498 506.50 449Q483 400 434 349Q385 298 309 233L152 98L152 94L464 94L445 0L-5 0Z"  horiz-adv-x="551" vert-adv-y="1000"  />

      
      <glyph glyph-name="uni33" unicode="&#x33;" d="M206-10Q149-10 102.50 0.50Q56 11 18 29L18 127Q54 106 104.50 92Q155 78 205 78Q282 78 325.50 113.50Q369 149 369 212Q369 266 334.50 296Q300 326 230 326L165 326L182 409L239 409Q286 409 328 424.50Q370 440 395.50 471Q421 502 421 549Q421 589 395.50 612.50Q370 636 326 636Q281 636 243.50 620Q206 604 172 580L125 654Q168 684 219.50 704Q271 724 341 724Q434 724 481.50 679.50Q529 635 529 565Q529 489 481 436.50Q433 384 347 368L347 364Q403 354 440 315.50Q477 277 477 211Q477 155 449 104.50Q421 54 361 22Q301-10 206-10Z"  horiz-adv-x="551" vert-adv-y="1000"  />

      
      <glyph glyph-name="uni34" unicode="&#x34;" d="M275 0L309 158L1 158L18 248L413 714L529 714L431 247L533 247L514 158L411 158L377 0L275 0M122 247L328 247L362 404Q369 437 379 474.50Q389 512 398 545Q407 578 413 598L409 598Q397 578 377 550.50Q357 523 343 506L122 247Z"  horiz-adv-x="551" vert-adv-y="1000"  />

      
      <glyph glyph-name="uni35" unicode="&#x35;" d="M200-10Q97-10 30 29L30 128Q66 106 108 92Q150 78 196 78Q263 78 303.50 101Q344 124 362 160.50Q380 197 380 238Q380 293 348 325Q316 357 254 357Q224 357 197.50 352Q171 347 143 340L101 372L200 714L540 714L520 620L272 620L217 432Q233 435 252.50 438Q272 441 296 441Q383 441 436.50 391.50Q490 342 490 252Q490 204 475 157.50Q460 111 426 73Q392 35 336.50 12.50Q281-10 200-10Z"  horiz-adv-x="551" vert-adv-y="1000"  />

      
      <glyph glyph-name="uni36" unicode="&#x36;" d="M251-10Q162-10 109.50 46Q57 102 57 215Q57 287 74 365Q91 443 125.50 513.50Q160 584 212 633Q256 677 315.50 700.50Q375 724 454 724Q482 724 507.50 721Q533 718 551 713L531 624Q514 629 492 632.50Q470 636 444 636Q348 636 280 573Q212 510 178 371L182 371Q209 408 250 430.50Q291 453 343 453Q417 453 460.50 406.50Q504 360 504 273Q504 226 490 176Q476 126 445.50 84Q415 42 367 16Q319-10 251-10M260 78Q305 78 336 105Q367 132 383.50 174.50Q400 217 400 264Q400 314 377 341.50Q354 369 306 369Q272 369 244 353.50Q216 338 197 315Q178 292 171 271Q165 256 163 238.50Q161 221 161 204Q161 154 184 116Q207 78 260 78Z"  horiz-adv-x="551" vert-adv-y="1000"  />

      
      <glyph glyph-name="uni37" unicode="&#x37;" d="M68 0L437 622L102 622L122 714L571 714L556 637L185 0L68 0Z"  horiz-adv-x="551" vert-adv-y="1000"  />

      
      <glyph glyph-name="uni38" unicode="&#x38;" d="M247-10Q177-10 131 14.50Q85 39 62.50 79.50Q40 120 40 170Q40 247 88 298.50Q136 350 223 383Q187 409 163 444.50Q139 480 139 533Q139 591 167 634Q195 677 244.50 701Q294 725 358 725Q424 725 465.50 702.50Q507 680 526 643.50Q545 607 545 566Q545 513 522 476.50Q499 440 462 415Q425 390 382 373Q430 343 461.50 301.50Q493 260 493 194Q493 141 467 94.50Q441 48 386.50 19Q332-10 247-10M316 419Q376 442 408 473.50Q440 505 440 554Q440 594 415.50 617Q391 640 350 640Q301 640 271.50 611.50Q242 583 242 536Q242 494 262.50 466.50Q283 439 316 419M257 74Q302 74 331 91Q360 108 374 135.50Q388 163 388 192Q388 238 363.50 271.50Q339 305 292 332Q228 310 187.50 275.50Q147 241 147 178Q147 129 177.50 101.50Q208 74 257 74Z"  horiz-adv-x="551" vert-adv-y="1000"  />

      
      <glyph glyph-name="uni39" unicode="&#x39;" d="M163-10Q132-10 100.50-5.50Q69-1 46 7L46 101Q70 92 99.50 85.50Q129 79 163 79Q265 79 321 147.50Q377 216 404 339L399 339Q375 304 336.50 282.50Q298 261 250 261Q166 261 122.50 311.50Q79 362 79 450Q79 500 95 548.50Q111 597 142.50 637Q174 677 222 700.50Q270 724 335 724Q423 724 474 668.50Q525 613 525 500Q525 429 509.50 351Q494 273 464 202.50Q434 132 391 84Q347 36 289.50 13Q232-10 163-10M277 345Q323 345 358 372Q393 399 409 442Q421 472 421 515Q421 568 397 602Q373 636 326 636Q280 636 248.50 611Q217 586 200.50 545Q184 504 184 457Q184 403 207.50 374Q231 345 277 345Z"  horiz-adv-x="551" vert-adv-y="1000"  />

      
      <glyph glyph-name="uni3a" unicode="&#x3a;" d="M159 408Q129 408 114.50 423.50Q100 439 100 464Q100 498 119.50 525Q139 552 183 552Q208 552 223.50 537Q239 522 239 493Q239 459 218.50 433.50Q198 408 159 408M77-14Q47-14 32.50 2Q18 18 18 43Q18 77 37.50 103.50Q57 130 101 130Q126 130 142 115.50Q158 101 158 72Q158 38 137 12Q116-14 77-14Z"  horiz-adv-x="265" vert-adv-y="1000"  />

      
      <glyph glyph-name="uni3b" unicode="&#x3b;" d="M159 408Q129 408 114.50 423.50Q100 439 100 464Q100 498 119.50 525Q139 552 183 552Q208 552 223.50 537Q239 522 239 493Q239 459 218.50 433.50Q198 408 159 408M-49-129Q-23-70 3.50-3Q30 64 49 116L157 116L161 105Q137 52 101.50-11Q66-74 30-129L-49-129Z"  horiz-adv-x="265" vert-adv-y="1000"  />

      
      <glyph glyph-name="uni3c" unicode="&#x3c;" d="M540 111L65 320L65 376L540 613L540 524L176 352L540 200L540 111Z"  horiz-adv-x="572" vert-adv-y="1000"  />

      
      <glyph glyph-name="uni3d" unicode="&#x3d;" d="M69 410L69 491L535 491L535 410L69 410M69 213L69 295L535 295L535 213L69 213Z"  horiz-adv-x="572" vert-adv-y="1000"  />

      
      <glyph glyph-name="uni3e" unicode="&#x3e;" d="M65 200L429 352L65 524L65 613L540 376L540 320L65 111L65 200Z"  horiz-adv-x="572" vert-adv-y="1000"  />

      
      <glyph glyph-name="uni3f" unicode="&#x3f;" d="M127 212Q134 256 148 288.50Q162 321 185.50 349Q209 377 247 405Q279 428 304.50 449.50Q330 471 345 495.50Q360 520 360 553Q360 592 338.50 613.50Q317 635 274 635Q237 635 201 622Q165 609 128 592L93 671Q134 693 185 708.50Q236 724 288 724Q369 724 417 683.50Q465 643 465 566Q465 496 426.50 448Q388 400 321 351Q285 325 264.50 306Q244 287 233 265.50Q222 244 214 212L127 212M136-14Q106-14 91.50 2Q77 18 77 43Q77 77 97 103.50Q117 130 161 130Q186 130 201.50 115.50Q217 101 217 72Q217 38 196.50 12Q176-14 136-14Z"  horiz-adv-x="439" vert-adv-y="1000"  />

      
      <glyph glyph-name="uni40" unicode="&#x40;" d="M387-91Q282-91 206.50-49.50Q131-8 91 67.50Q51 143 51 245Q51 343 84.50 428Q118 513 180.50 577Q243 641 328.50 677Q414 713 518 713Q623 713 692 673.50Q761 634 795 566Q829 498 829 414Q829 327 801 257Q773 187 723 145.50Q673 104 608 104Q556 104 532 128Q508 152 502 188L498 188Q476 152 443.50 128Q411 104 362 104Q307 104 272.50 140Q238 176 238 247Q238 324 271.50 386Q305 448 362.50 483.50Q420 519 491 519Q541 519 574.50 510.50Q608 502 636 491L587 304Q580 277 576 258.50Q572 240 572 223Q572 196 584 185.50Q596 175 614 175Q644 175 668 195.50Q692 216 709.50 250Q727 284 736.50 325Q746 366 746 408Q746 474 722 526.50Q698 579 645 609.50Q592 640 506 640Q423 640 355 610.50Q287 581 238 529Q189 477 162.50 406Q136 335 136 251Q136 172 164.50 111.50Q193 51 251.50 17.50Q310-16 398-16Q454-16 507-4Q560 8 607 26L607-47Q556-67 500-79Q444-91 387-91M383 175Q428 175 457.50 215.50Q487 256 505 321L537 440Q527 444 513.50 447Q500 450 482 450Q436 450 400.50 422Q365 394 345 349.50Q325 305 325 254Q325 212 340.50 193.50Q356 175 383 175Z"  horiz-adv-x="850" vert-adv-y="1000"  />

      
      <glyph glyph-name="uni41" unicode="&#x41;" d="M-58 0L326 714L446 714L529 0L424 0L402 207L164 207L57 0L-58 0M212 301L393 301L378 461Q375 496 372 537Q369 578 368 612L366 612Q351 577 333 539Q315 501 294 460L212 301Z"  horiz-adv-x="581" vert-adv-y="1000"  />

      
      <glyph glyph-name="uni42" unicode="&#x42;" d="M37 0L188 714L379 714Q479 714 537 675.50Q595 637 595 551Q595 479 552 432.50Q509 386 436 372L436 367Q485 354 517 318.50Q549 283 549 225Q549 150 513 100Q477 50 414.50 25Q352 0 273 0L37 0M335 416Q398 416 441 444.50Q484 473 484 534Q484 577 457 600Q430 623 368 623L275 623L231 416L335 416M277 90Q353 90 395.50 125Q438 160 438 225Q438 270 409.50 299.50Q381 329 316 329L213 329L162 90L277 90Z"  horiz-adv-x="606" vert-adv-y="1000"  />

      
      <glyph glyph-name="uni43" unicode="&#x43;" d="M325-10Q202-10 135 64Q68 138 68 265Q68 329 83 394.50Q98 460 128.50 519Q159 578 204.50 624.50Q250 671 312.50 697.50Q375 724 453 724Q509 724 553.50 713.50Q598 703 638 681L595 593Q566 609 532 620Q498 631 453 631Q383 631 331.50 599Q280 567 246.50 513.50Q213 460 196.50 396Q180 332 180 269Q180 181 222.50 132Q265 83 345 83Q386 83 426 92Q466 101 505 115L505 22Q469 9 426-0.50Q383-10 325-10Z"  horiz-adv-x="594" vert-adv-y="1000"  />

      
      <glyph glyph-name="uni44" unicode="&#x44;" d="M37 0L188 714L364 714Q493 714 566 644Q639 574 639 433Q639 306 591 208.50Q543 111 450.50 55.50Q358 0 226 0L37 0M231 91Q328 91 394 137Q460 183 494 260Q528 337 528 432Q528 532 480 577.50Q432 623 352 623L275 623L162 91L231 91Z"  horiz-adv-x="670" vert-adv-y="1000"  />

      
      <glyph glyph-name="uni45" unicode="&#x45;" d="M37 0L188 714L560 714L541 622L275 622L232 418L480 418L462 327L213 327L162 93L429 93L409 0L37 0Z"  horiz-adv-x="522" vert-adv-y="1000"  />

      
      <glyph glyph-name="uni46" unicode="&#x46;" d="M37 0L188 714L560 714L541 622L275 622L226 388L474 388L454 296L206 296L143 0L37 0Z"  horiz-adv-x="493" vert-adv-y="1000"  />

      
      <glyph glyph-name="uni47" unicode="&#x47;" d="M337-10Q211-10 139.50 61Q68 132 68 262Q68 358 95.50 441.50Q123 525 174.50 588.50Q226 652 299 688Q372 724 463 724Q526 724 574.50 713Q623 702 668 681L628 589Q591 607 550 619Q509 631 460 631Q397 631 345.50 603Q294 575 257 525.50Q220 476 200 410.50Q180 345 180 269Q180 187 221.50 135Q263 83 353 83Q387 83 415 88Q443 93 464 99L506 291L369 291L389 383L632 383L555 28Q509 12 457.50 1Q406-10 337-10Z"  horiz-adv-x="682" vert-adv-y="1000"  />

      
      <glyph glyph-name="uni48" unicode="&#x48;" d="M37 0L188 714L295 714L232 418L522 418L584 714L690 714L539 0L433 0L502 326L213 326L144 0L37 0Z"  horiz-adv-x="686" vert-adv-y="1000"  />

      
      <glyph glyph-name="uni49" unicode="&#x49;" d="M-23 0L-10 60L76 86L191 628L116 653L128 714L398 714L385 653L297 628L182 86L259 60L247 0L-23 0Z"  horiz-adv-x="341" vert-adv-y="1000"  />

      
      <glyph glyph-name="uni4a" unicode="&#x4a;" d="M-76-196Q-102-196-122.50-192.50Q-143-189-156-184L-154-93Q-139-97-120.50-100Q-102-103-81-103Q-35-103-2.50-74.50Q30-46 44 18L192 714L298 714L148 5Q125-103 68.50-149.50Q12-196-76-196Z"  horiz-adv-x="290" vert-adv-y="1000"  />

      
      <glyph glyph-name="uni4b" unicode="&#x4b;" d="M37 0L188 714L294 714L220 368L286 444L539 714L667 714L363 392L524 0L406 0L278 329L201 276L143 0L37 0Z"  horiz-adv-x="577" vert-adv-y="1000"  />

      
      <glyph glyph-name="uni4c" unicode="&#x4c;" d="M37 0L188 714L294 714L162 93L429 93L409 0L37 0Z"  horiz-adv-x="490" vert-adv-y="1000"  />

      
      <glyph glyph-name="uni4d" unicode="&#x4d;" d="M36 0L187 714L334 714L392 145L396 145L698 714L856 714L707 0L603 0L688 399Q701 459 714 514Q727 569 737 605L735 605L410 0L320 0L257 604L253 604Q251 584 246 549.50Q241 515 234 476Q227 437 219 400L135 0L36 0Z"  horiz-adv-x="853" vert-adv-y="1000"  />

      
      <glyph glyph-name="uni4e" unicode="&#x4e;" d="M36 0L187 714L305 714L509 143L512 143Q515 166 520.50 199.50Q526 233 532.50 269Q539 305 546 337L627 714L726 714L575 0L459 0L252 577L248 577Q246 560 240.50 525Q235 490 228 449Q221 408 213 373L135 0L36 0Z"  horiz-adv-x="721" vert-adv-y="1000"  />

      
      <glyph glyph-name="uni4f" unicode="&#x4f;" d="M333-10Q205-10 136.50 64.50Q68 139 68 266Q68 355 92.50 437.50Q117 520 163.50 585Q210 650 278 687.50Q346 725 434 725Q558 725 625.50 650.50Q693 576 693 448Q693 357 670.50 274.50Q648 192 603 128Q558 64 490.50 27Q423-10 333-10M339 83Q394 83 438.50 111.50Q483 140 515 190Q547 240 564 306Q581 372 581 448Q581 535 540 583.50Q499 632 427 632Q371 632 325.50 603.50Q280 575 247.50 524.50Q215 474 197.50 408Q180 342 180 267Q180 179 222 131Q264 83 339 83Z"  horiz-adv-x="724" vert-adv-y="1000"  />

      
      <glyph glyph-name="uni50" unicode="&#x50;" d="M37 0L188 714L360 714Q440 714 488.50 690Q537 666 559 622.50Q581 579 581 522Q581 399 498.50 335.50Q416 272 268 272L201 272L143 0L37 0M281 361Q369 361 421 400Q473 439 473 518Q473 573 442.50 598Q412 623 350 623L275 623L220 361L281 361Z"  horiz-adv-x="580" vert-adv-y="1000"  />

      
      <glyph glyph-name="uni51" unicode="&#x51;" d="M349-9Q345-10 341-10Q337-10 333-10Q205-10 136.50 64.50Q68 139 68 266Q68 355 92.50 437.50Q117 520 163.50 585Q210 650 278 687.50Q346 725 434 725Q558 725 625.50 650.50Q693 576 693 448Q693 348 665 259.50Q637 171 583.50 106Q530 41 451 11L582-170L450-170L349-9M339 83Q413 83 467.50 132Q522 181 551.50 264Q581 347 581 448Q581 535 540 583.50Q499 632 427 632Q371 632 325.50 603.50Q280 575 247.50 524.50Q215 474 197.50 408Q180 342 180 267Q180 179 222 131Q264 83 339 83Z"  horiz-adv-x="724" vert-adv-y="1000"  />

      
      <glyph glyph-name="uni52" unicode="&#x52;" d="M37 0L188 714L350 714Q459 714 516 668Q573 622 573 529Q573 449 531.50 393Q490 337 402 311L522 0L405 0L304 289L204 289L143 0L37 0M289 379Q378 379 421 418Q464 457 464 522Q464 577 433 599.50Q402 622 340 622L275 622L223 379L289 379Z"  horiz-adv-x="584" vert-adv-y="1000"  />

      
      <glyph glyph-name="uni53" unicode="&#x53;" d="M188-10Q135-10 94-1Q53 8 19 26L19 127Q54 109 95.50 95.50Q137 82 189 82Q230 82 264.50 94Q299 106 320 132Q341 158 341 198Q341 238 315 265.50Q289 293 232 327Q196 349 167.50 374Q139 399 121.50 433Q104 467 104 514Q104 579 135.50 626Q167 673 221 698.50Q275 724 342 724Q398 724 442 712.50Q486 701 526 680L486 593Q456 608 418.50 619.50Q381 631 342 631Q287 631 252 602Q217 573 217 522Q217 478 241.50 454.50Q266 431 314 401Q356 375 387 348.50Q418 322 434.50 288.50Q451 255 451 208Q451 136 417.50 87.50Q384 39 324.50 14.50Q265-10 188-10Z"  horiz-adv-x="512" vert-adv-y="1000"  />

      
      <glyph glyph-name="uni54" unicode="&#x54;" d="M146 0L277 621L88 621L108 714L593 714L574 621L385 621L253 0L146 0Z"  horiz-adv-x="510" vert-adv-y="1000"  />

      
      <glyph glyph-name="uni55" unicode="&#x55;" d="M299-10Q187-10 131.50 42.50Q76 95 76 189Q76 206 78.50 229Q81 252 87 277L180 714L286 714L193 274Q188 253 185.50 230.50Q183 208 183 193Q183 141 214 112Q245 83 306 83Q388 83 428.50 126.50Q469 170 487 255L585 714L692 714L592 246Q576 168 541 110.50Q506 53 447 21.50Q388-10 299-10Z"  horiz-adv-x="681" vert-adv-y="1000"  />

      
      <glyph glyph-name="uni56" unicode="&#x56;" d="M164 0L91 714L196 714L235 268Q239 230 240.50 189Q242 148 241 114L244 114Q257 149 274.50 187.50Q292 226 314 269L539 714L655 714L279 0L164 0Z"  horiz-adv-x="563" vert-adv-y="1000"  />

      
      <glyph glyph-name="uni57" unicode="&#x57;" d="M130 0L102 714L205 714L216 292Q217 252 215.50 207.50Q214 163 211 123L214 123Q229 162 248 211Q267 260 285 300L477 714L580 714L597 301Q599 260 599.50 210.50Q600 161 598 123L602 123Q615 162 631.50 208Q648 254 665 295L845 714L956 714L635 0L521 0L503 420Q499 504 500 569L496 569Q486 536 472.50 503.50Q459 471 439 426L243 0L130 0Z"  horiz-adv-x="867" vert-adv-y="1000"  />

      
      <glyph glyph-name="uni58" unicode="&#x58;" d="M-53 0L235 377L111 714L220 714L311 447L512 714L631 714L362 370L496 0L382 0L285 296L65 0L-53 0Z"  horiz-adv-x="550" vert-adv-y="1000"  />

      
      <glyph glyph-name="uni59" unicode="&#x59;" d="M149 0L207 269L92 714L199 714L278 376L497 714L617 714L312 267L257 0L149 0Z"  horiz-adv-x="525" vert-adv-y="1000"  />

      
      <glyph glyph-name="uni5a" unicode="&#x5a;" d="M-16 0L0 78L425 621L125 621L145 714L577 714L562 635L135 93L457 93L438 0L-16 0Z"  horiz-adv-x="532" vert-adv-y="1000"  />

      
      <glyph glyph-name="uni5b" unicode="&#x5b;" d="M-12-158L174 714L379 714L361 633L252 633L102-77L210-77L193-158L-12-158Z"  horiz-adv-x="302" vert-adv-y="1000"  />

      
      <glyph glyph-name="uni5c" unicode="&#x5c;" d="M214 0L108 714L202 714L309 0L214 0Z"  horiz-adv-x="375" vert-adv-y="1000"  />

      
      <glyph glyph-name="uni5d" unicode="&#x5d;" d="M-71-158L-53-77L55-77L205 633L97 633L114 714L319 714L133-158L-71-158Z"  horiz-adv-x="302" vert-adv-y="1000"  />

      
      <glyph glyph-name="uni5e" unicode="&#x5e;" d="M32 263L270 719L327 719L532 263L444 263L293 607L122 263L32 263Z"  horiz-adv-x="566" vert-adv-y="1000"  />

      
      <glyph glyph-name="uni5f" unicode="&#x5f;" d="M-92-158L-77-90L321-90L306-158L-92-158Z"  horiz-adv-x="396" vert-adv-y="1000"  />

      
      <glyph glyph-name="uni60" unicode="&#x60;" d="M258 606Q239 625 216.50 652Q194 679 175 706.50Q156 734 146 756L146 766L257 766Q267 730 285 691.50Q303 653 323 618L323 606L258 606Z"  horiz-adv-x="291" vert-adv-y="1000"  />

      
      <glyph glyph-name="uni61" unicode="&#x61;" d="M194-10Q132-10 89.50 36Q47 82 47 177Q47 250 65.50 316.50Q84 383 119 435.50Q154 488 201.50 518.50Q249 549 307 549Q359 549 392 522.50Q425 496 442 460L447 460L477 539L558 539L443 0L362 0L373 91L369 91Q336 49 292.50 19.50Q249-10 194-10M232 77Q267 77 299.50 102.50Q332 128 358 172Q384 216 397 269Q403 295 405.50 318Q408 341 408 363Q408 406 384.50 434Q361 462 321 462Q285 462 255 438.50Q225 415 202 374.50Q179 334 166.50 283.50Q154 233 154 178Q154 127 174.50 102Q195 77 232 77Z"  horiz-adv-x="576" vert-adv-y="1000"  />

      
      <glyph glyph-name="uni62" unicode="&#x62;" d="M278-10Q224-10 191 16Q158 42 141 78L136 78L105 0L25 0L186 760L291 760L256 592Q249 561 241.50 530.50Q234 500 227 477Q220 454 218 447L222 447Q255 488 294 518Q333 548 387 548Q451 548 493.50 502.50Q536 457 536 362Q536 290 518 223.50Q500 157 466.50 104.50Q433 52 385 21Q337-10 278-10M265 77Q301 77 331 101Q361 125 383 166Q405 207 417 257.50Q429 308 429 360Q429 462 350 462Q316 462 284.50 437Q253 412 228 370.50Q203 329 188 278.50Q173 228 173 178Q173 133 196 105Q219 77 265 77Z"  horiz-adv-x="584" vert-adv-y="1000"  />

      
      <glyph glyph-name="uni63" unicode="&#x63;" d="M247-10Q159-10 103 39Q47 88 47 190Q47 263 66 327.50Q85 392 122 442Q159 492 211.50 520.50Q264 549 329 549Q369 549 404.50 541.50Q440 534 470 520L440 436Q418 445 391 453.50Q364 462 332 462Q278 462 238 424.50Q198 387 176 326Q154 265 154 195Q154 138 182.50 107.50Q211 77 262 77Q298 77 329.50 87Q361 97 393 112L393 24Q363 9 327-0.50Q291-10 247-10Z"  horiz-adv-x="462" vert-adv-y="1000"  />

      
      <glyph glyph-name="uni64" unicode="&#x64;" d="M194-10Q132-10 89.50 35.50Q47 81 47 178Q47 249 65 315.50Q83 382 117 434.50Q151 487 199 517.50Q247 548 307 548Q359 548 390 522Q421 496 439 460L443 460Q447 485 451 518Q455 551 463 585L500 760L604 760L443 0L360 0L370 91L366 91Q332 48 291 19Q250-10 194-10M234 77Q267 77 298.50 101.50Q330 126 355 167.50Q380 209 394.50 259.50Q409 310 409 360Q409 406 387 434Q365 462 318 462Q282 462 252 437.50Q222 413 200 372Q178 331 166 280.50Q154 230 154 178Q154 77 234 77Z"  horiz-adv-x="583" vert-adv-y="1000"  />

      
      <glyph glyph-name="uni65" unicode="&#x65;" d="M247-10Q153-10 100 44Q47 98 47 195Q47 260 65.50 323Q84 386 120 437Q156 488 208 518.50Q260 549 326 549Q406 549 447 513Q488 477 488 417Q488 363 455 320Q422 277 352.50 252.50Q283 228 174 228L155 228Q153 209 153 196Q153 139 181.50 106.50Q210 74 267 74Q306 74 340.50 84.50Q375 95 418 116L418 30Q378 12 339.50 1Q301-10 247-10M180 307Q239 307 285.50 318Q332 329 358.50 352Q385 375 385 411Q385 436 369 451Q353 466 320 466Q274 466 231 423.50Q188 381 169 307L180 307Z"  horiz-adv-x="516" vert-adv-y="1000"  />

      
      <glyph glyph-name="uni66" unicode="&#x66;" d="M-40-240Q-61-240-79-237Q-97-234-111-229L-111-142Q-96-147-83-150Q-70-153-55-153Q-20-153 0.50-126.50Q21-100 32-48L139 459L50 459L60 506L156 541L167 587Q182 655 206.50 693.50Q231 732 267.50 748.50Q304 765 354 765Q382 765 409 759Q436 753 455 745L427 665Q413 671 396.50 675Q380 679 360 679Q325 679 304 658Q283 637 271 584L261 539L374 539L357 459L245 459L135-62Q117-143 77.50-191.50Q38-240-40-240Z"  horiz-adv-x="334" vert-adv-y="1000"  />

      
      <glyph glyph-name="uni67" unicode="&#x67;" d="M187-240Q135-240 93.50-230.50Q52-221 21-206L21-111Q51-128 95-140.50Q139-153 183-153Q242-153 279.50-125Q317-97 332-33L340-1Q345 20 352.50 47Q360 74 365 91L361 91Q329 50 288.50 20Q248-10 193-10Q130-10 88.50 36.50Q47 83 47 177Q47 248 65 314.50Q83 381 117 434Q151 487 198.50 518Q246 549 306 549Q360 549 392 523Q424 497 443 460L447 460L478 539L559 539L438-26Q412-144 348.50-192Q285-240 187-240M235 77Q267 77 298 101.50Q329 126 354 167Q379 208 393.50 258.50Q408 309 408 360Q408 406 387 434Q366 462 319 462Q283 462 252.50 437.50Q222 413 200 372Q178 331 166 280.50Q154 230 154 178Q154 77 235 77Z"  horiz-adv-x="583" vert-adv-y="1000"  />

      
      <glyph glyph-name="uni68" unicode="&#x68;" d="M25 0L186 760L291 760L253 582Q247 551 236.50 514.50Q226 478 218 447L222 447Q251 484 293 516Q335 548 395 548Q460 548 496 511.50Q532 475 532 405Q532 386 529 365.50Q526 345 521 322L452 0L347 0L417 331Q425 373 425 395Q425 462 360 462Q326 462 290.50 437Q255 412 225.50 360.50Q196 309 179 230L130 0L25 0Z"  horiz-adv-x="586" vert-adv-y="1000"  />

      
      <glyph glyph-name="uni69" unicode="&#x69;" d="M218 622Q194 622 178.50 634.50Q163 647 163 673Q163 703 180.50 723Q198 743 230 743Q256 743 270 730.50Q284 718 284 694Q284 661 265 641.50Q246 622 218 622M25 0L140 539L245 539L130 0L25 0Z"  horiz-adv-x="270" vert-adv-y="1000"  />

      
      <glyph glyph-name="uni6a" unicode="&#x6a;" d="M218 622Q194 622 178.50 634.50Q163 647 163 673Q163 703 180.50 723Q198 743 231 743Q284 743 284 694Q284 661 265 641.50Q246 622 218 622M-58-240Q-99-240-127-229L-127-142Q-114-147-99.50-150Q-85-153-69-153Q-7-153 13-60L140 539L245 539L115-72Q99-147 60-193.50Q21-240-58-240Z"  horiz-adv-x="270" vert-adv-y="1000"  />

      
      <glyph glyph-name="uni6b" unicode="&#x6b;" d="M24 0L185 760L291 760L224 447Q211 383 199 343Q187 303 182 288L185 288L429 539L552 539L318 304L460 0L343 0L237 237L169 187L130 0L24 0Z"  horiz-adv-x="517" vert-adv-y="1000"  />

      
      <glyph glyph-name="uni6c" unicode="&#x6c;" d="M24 0L186 760L291 760L130 0L24 0Z"  horiz-adv-x="270" vert-adv-y="1000"  />

      
      <glyph glyph-name="uni6d" unicode="&#x6d;" d="M25 0L140 539L223 539L213 439L217 439Q236 466 261 491.50Q286 517 318 533Q350 549 390 549Q445 549 475 518Q505 487 513 432L517 432Q547 478 592 513.50Q637 549 698 549Q762 549 795.50 512.50Q829 476 829 410Q829 387 826.50 366Q824 345 818 322L751 0L644 0L715 331Q719 352 721.50 367.50Q724 383 724 397Q724 428 708.50 445Q693 462 662 462Q612 462 562.50 405.50Q513 349 490 238L440 0L335 0L405 331Q413 373 413 395Q413 427 399 444.50Q385 462 353 462Q304 462 254 405Q204 348 179 230L130 0L25 0Z"  horiz-adv-x="884" vert-adv-y="1000"  />

      
      <glyph glyph-name="uni6e" unicode="&#x6e;" d="M22 0L138 541L226 541L215 441L217 441Q236 468 261.50 493.50Q287 519 320 535Q353 551 395 551Q461 551 497.50 513.50Q534 476 534 410Q534 388 530.50 364.50Q527 341 523 321L454 0L344 0L415 332Q419 352 421.50 367.50Q424 383 424 397Q424 460 360 460Q327 460 292 435Q257 410 227.50 359Q198 308 181 230L132 0L22 0Z"  horiz-adv-x="586" vert-adv-y="1000"  />

      
      <glyph glyph-name="uni6f" unicode="&#x6f;" d="M249-9Q157-9 102 47Q47 103 47 199Q47 263 64 325Q81 387 115.50 437Q150 487 201.50 517Q253 547 321 547Q416 547 469.50 491Q523 435 523 337Q523 274 506 212.50Q489 151 455 101Q421 51 369.50 21Q318-9 249-9M257 78Q302 78 338 111.50Q374 145 395 204.50Q416 264 416 344Q416 373 406.50 399.50Q397 426 376 443Q355 460 319 460Q267 460 229.50 422Q192 384 172.50 324Q153 264 153 196Q153 140 180 109Q207 78 257 78Z"  horiz-adv-x="569" vert-adv-y="1000"  />

      
      <glyph glyph-name="uni70" unicode="&#x70;" d="M-25-240L140 539L223 539L213 444L217 444Q249 486 291 517Q333 548 389 548Q451 548 493.50 502.50Q536 457 536 361Q536 289 518 222.50Q500 156 466.50 103.50Q433 51 385 20.50Q337-10 278-10Q225-10 193.50 16.50Q162 43 144 78L140 78Q138 55 133.50 25.50Q129-4 124-28L79-240L-25-240M265 77Q301 77 331 101Q361 125 383 166Q405 207 417 257.50Q429 308 429 360Q429 462 350 462Q316 462 284.50 437Q253 412 228 370.50Q203 329 188 279Q173 229 173 178Q173 133 196 105Q219 77 265 77Z"  horiz-adv-x="584" vert-adv-y="1000"  />

      
      <glyph glyph-name="uni71" unicode="&#x71;" d="M332-31Q335-17 341 5Q347 27 353.50 50Q360 73 365 91L361 91Q329 50 288.50 20Q248-10 193-10Q131-10 89 36Q47 82 47 177Q47 248 65 314.50Q83 381 117 434Q151 487 199 518Q247 549 308 549Q359 549 391.50 523Q424 497 442 460L447 460L478 539L558 539L392-240L288-240L332-31M234 77Q268 77 299 102Q330 127 355 169Q380 211 394 261Q408 311 408 360Q408 403 386.50 432.50Q365 462 319 462Q283 462 253 437.50Q223 413 201 372Q179 331 166.50 280.50Q154 230 154 178Q154 77 234 77Z"  horiz-adv-x="583" vert-adv-y="1000"  />

      
      <glyph glyph-name="uni72" unicode="&#x72;" d="M25 0L140 539L223 539L213 439L218 439Q250 484 288.50 516.50Q327 549 383 549Q396 549 411 547.50Q426 546 438 543L415 445Q403 448 390.50 450Q378 452 364 452Q318 452 281 422.50Q244 393 219 346Q194 299 182 245L130 0L25 0Z"  horiz-adv-x="405" vert-adv-y="1000"  />

      
      <glyph glyph-name="uni73" unicode="&#x73;" d="M161-10Q111-10 73.50-1Q36 8 7 23L7 116Q36 99 75.50 86Q115 73 156 73Q208 73 238 93.50Q268 114 268 150Q268 176 250 194Q232 212 180 242Q125 273 96.50 306Q68 339 68 390Q68 464 119 506.50Q170 549 258 549Q306 549 348.50 538Q391 527 424 509L390 429Q363 443 331 453.50Q299 464 259 464Q221 464 197.50 446.50Q174 429 174 399Q174 375 191 357Q208 339 258 312Q308 284 341.50 251Q375 218 375 162Q375 78 317 34Q259-10 161-10Z"  horiz-adv-x="444" vert-adv-y="1000"  />

      
      <glyph glyph-name="uni74" unicode="&#x74;" d="M189-10Q132-10 94.50 16.50Q57 43 57 110Q57 140 65 176L125 459L45 459L54 508L146 547L209 659L273 659L247 539L383 539L366 459L231 459L171 175Q168 164 166 150.50Q164 137 164 125Q164 103 176 89.50Q188 76 214 76Q232 76 249.50 79.50Q267 83 287 90L287 10Q272 3 244.50-3.50Q217-10 189-10Z"  horiz-adv-x="355" vert-adv-y="1000"  />

      
      <glyph glyph-name="uni75" unicode="&#x75;" d="M190-10Q127-10 91 26.50Q55 63 55 130Q55 151 58 174Q61 197 66 221L134 539L240 539L169 207Q161 166 161 143Q161 111 176 94Q191 77 226 77Q259 77 294.50 102Q330 127 360 178.50Q390 230 408 309L456 539L561 539L446 0L363 0L373 100L368 100Q349 73 323.50 47.50Q298 22 265 6Q232-10 190-10Z"  horiz-adv-x="586" vert-adv-y="1000"  />

      
      <glyph glyph-name="uni76" unicode="&#x76;" d="M112 0L49 539L153 539L181 244Q183 222 185 192Q187 162 188 134Q189 106 189 91L193 91Q203 113 215.50 142Q228 171 241 199Q254 227 264 245L418 539L531 539L240 0L112 0Z"  horiz-adv-x="480" vert-adv-y="1000"  />

      
      <glyph glyph-name="uni77" unicode="&#x77;" d="M81 0L58 539L159 539L165 266Q167 216 165.50 172.50Q164 129 161 95L165 95Q173 117 184 146.50Q195 176 206.50 203.50Q218 231 226 248L359 539L473 539L485 259Q486 223 486.50 178.50Q487 134 484 95L489 95Q501 132 520 183.50Q539 235 560 282L674 539L784 539L533 0L411 0L399 279Q397 316 398 357Q399 398 400 442L395 442Q382 405 368 369.50Q354 334 333 289L201 0L81 0Z"  horiz-adv-x="742" vert-adv-y="1000"  />

      
      <glyph glyph-name="uni78" unicode="&#x78;" d="M-41 0L192 277L78 539L187 539L262 351L408 539L531 539L306 272L428 0L318 0L236 196L82 0L-41 0Z"  horiz-adv-x="497" vert-adv-y="1000"  />

      
      <glyph glyph-name="uni79" unicode="&#x79;" d="M-17-240Q-41-240-57-237.50Q-73-235-87-230L-87-146Q-73-149-57.50-151.50Q-42-154-25-154Q18-154 47-128.50Q76-103 101-56L129-6L49 539L153 539L186 277Q190 248 192 213.50Q194 179 195.50 147.50Q197 116 197 95L200 95Q206 111 218 139.50Q230 168 244 199Q258 230 271 254L418 539L532 539L194-86Q152-164 103-202Q54-240-17-240Z"  horiz-adv-x="482" vert-adv-y="1000"  />

      
      <glyph glyph-name="uni7a" unicode="&#x7a;" d="M-17 0L-4 68L314 459L94 459L112 539L449 539L433 460L121 80L364 80L347 0L-17 0Z"  horiz-adv-x="448" vert-adv-y="1000"  />

      
      <glyph glyph-name="uni7b" unicode="&#x7b;" d="M221-158Q70-158 70-45Q70-29 72.50-12.50Q75 4 79 21L102 122Q104 136 106.50 148.50Q109 161 109 172Q109 242 7 242L25 326Q83 326 118 347Q153 368 163 418L195 569Q212 647 254 680.50Q296 714 382 714L407 714L389 630Q347 630 323 615.50Q299 601 289 555L254 403Q243 351 212.50 319.50Q182 288 125 279L125 277Q165 265 183.50 238Q202 211 202 172Q202 159 199.50 143Q197 127 194 111L173 14Q170 3 168.50-7.50Q167-18 167-26Q167-54 186-64Q205-74 238-74L238-158L221-158Z"  horiz-adv-x="351" vert-adv-y="1000"  />

      
      <glyph glyph-name="uni7c" unicode="&#x7c;" d="M249-237L249 759L331 759L331-237L249-237Z"  horiz-adv-x="551" vert-adv-y="1000"  />

      
      <glyph glyph-name="uni7d" unicode="&#x7d;" d="M-41-74Q4-74 31-59.50Q58-45 68 1L102 153Q114 205 144 236Q174 267 232 276L232 279Q192 291 173.50 317.50Q155 344 155 383Q155 397 157.50 412.50Q160 428 164 444L185 542Q188 553 189.50 563.50Q191 574 191 582Q191 610 169.50 620Q148 630 109 630L125 714L134 714Q287 714 287 601Q287 585 284.50 568.50Q282 552 278 535L255 434Q252 419 249.50 407Q247 395 247 384Q247 314 349 314L332 230Q273 230 238.50 209Q204 188 193 138L161-13Q144-95 100.50-126.50Q57-158-29-158L-41-158L-41-74Z"  horiz-adv-x="351" vert-adv-y="1000"  />

      
      <glyph glyph-name="uni7e" unicode="&#x7e;" d="M286 314Q250 329 225.50 335Q201 341 179 341Q151 341 120 323.50Q89 306 65 282L65 370Q114 423 186 423Q215 423 244 417Q273 411 319 391Q356 376 380 370Q404 364 425 364Q454 364 485 381.50Q516 399 540 423L540 336Q491 282 419 282Q390 282 360.50 288Q331 294 286 314Z"  horiz-adv-x="572" vert-adv-y="1000"  />

      
      <glyph glyph-name="unia1" unicode="&#xa1;" d="M171 402Q144 402 128.50 417Q113 432 113 459Q113 495 133.50 520.50Q154 546 195 546Q223 546 237.50 530Q252 514 252 488Q252 456 232.50 429Q213 402 171 402M-18-182L114 321L189 321L107-182L-18-182Z"  horiz-adv-x="268" vert-adv-y="1000"  />

      
      <glyph glyph-name="unia2" unicode="&#xa2;" d="M233 94Q173 110 136 158Q99 206 99 287Q99 377 128.50 454Q158 531 213.50 581.50Q269 632 346 643L362 724L433 724L415 643Q476 638 523 617L492 533Q470 542 443.50 550Q417 558 385 558Q331 558 291 521Q251 484 228.50 423Q206 362 206 291Q206 235 235 204Q264 173 315 173Q351 173 382.50 183Q414 193 445 208L445 120Q417 106 382 96.50Q347 87 303 86L283-10L211-10L233 94Z"  horiz-adv-x="551" vert-adv-y="1000"  />

      
      <glyph glyph-name="unia3" unicode="&#xa3;" d="M7 88Q51 98 84.50 129.50Q118 161 131 224L150 311L53 311L70 389L166 389L198 543Q219 638 276.50 681Q334 724 416 724Q469 724 512 711Q555 698 586 682L546 600Q521 613 488 624.50Q455 636 417 636Q378 636 346.50 614.50Q315 593 302 532L272 389L440 389L424 311L255 311L237 228Q225 171 199 140.50Q173 110 141 94L483 94L463 0L-10 0L7 88Z"  horiz-adv-x="551" vert-adv-y="1000"  />

      
      <glyph glyph-name="unia4" unicode="&#xa4;" d="M393 196Q372 182 346 174Q320 166 292 166Q263 166 237 174.50Q211 183 189 197L127 136L74 190L136 251Q105 297 105 353Q105 408 136 455L73 517L127 572L189 510Q211 524 237.50 532.50Q264 541 292 541Q320 541 345.50 532.50Q371 524 393 509L456 572L511 519L448 456Q462 434 470.50 407.50Q479 381 479 353Q479 324 471 298Q463 272 448 250L510 189L456 135L393 196M292 243Q339 243 371.50 275Q404 307 404 353Q404 400 371.50 432Q339 464 292 464Q246 464 214 432Q182 400 182 353Q182 307 214 275Q246 243 292 243Z"  horiz-adv-x="551" vert-adv-y="1000"  />

      
      <glyph glyph-name="unia5" unicode="&#xa5;" d="M165 0L191 122L55 122L71 195L206 195L221 269L86 269L102 342L207 342L109 714L213 714L289 377L508 714L620 714L365 342L473 342L457 269L320 269L305 195L442 195L427 122L290 122L264 0L165 0Z"  horiz-adv-x="551" vert-adv-y="1000"  />

      
      <glyph glyph-name="unia6" unicode="&#xa6;" d="M249 373L249 759L331 759L331 373L249 373M249-237L249 149L331 149L331-237L249-237Z"  horiz-adv-x="551" vert-adv-y="1000"  />

      
      <glyph glyph-name="unia7" unicode="&#xa7;" d="M173-6Q122-6 84 3.50Q46 13 22 26L22 111Q50 95 90.50 82Q131 69 174 69Q233 69 263.50 89Q294 109 294 146Q294 167 273.50 185.50Q253 204 202 227Q146 253 113.50 286.50Q81 320 81 374Q81 428 113 463.50Q145 499 190 522Q167 538 151.50 562.50Q136 587 136 620Q136 683 188 724Q240 765 331 765Q379 765 419 755Q459 745 492 728L461 656Q430 670 397.50 679.50Q365 689 328 689Q292 689 263 674Q234 659 234 624Q234 600 255 583Q276 566 325 544Q380 519 413 486.50Q446 454 446 401Q446 349 415.50 311Q385 273 340 249Q361 233 376 210.50Q391 188 391 155Q391 82 334.50 38Q278-6 173-6M282 283Q309 299 331.50 326Q354 353 354 388Q354 417 329.50 439Q305 461 250 484Q220 474 195.50 448Q171 422 171 386Q171 355 195 333Q219 311 282 283Z"  horiz-adv-x="486" vert-adv-y="1000"  />

      
      <glyph glyph-name="unia8" unicode="&#xa8;" d="M445 628Q424 628 410.50 639Q397 650 397 674Q397 701 412.50 718.50Q428 736 456 736Q502 736 502 693Q502 663 485.50 645.50Q469 628 445 628M264 628Q242 628 228.50 639Q215 650 215 674Q215 701 230.50 718.50Q246 736 274 736Q320 736 320 693Q320 663 304 645.50Q288 628 264 628Z"  horiz-adv-x="554" vert-adv-y="1000"  />

      
      <glyph glyph-name="unia9" unicode="&#xa9;" d="M416-10Q336-10 269 17Q202 44 152.50 93.50Q103 143 76 210Q49 277 49 357Q49 436 76.50 503Q104 570 153.50 619.50Q203 669 270 696.50Q337 724 416 724Q492 724 558.50 697Q625 670 675.50 620.50Q726 571 754.50 504Q783 437 783 357Q783 277 756 210Q729 143 679.50 93.50Q630 44 563 17Q496-10 416-10M416 46Q479 46 534.50 69Q590 92 632.50 133.50Q675 175 698.50 232Q722 289 722 357Q722 421 699.50 477.50Q677 534 635.50 577Q594 620 538.50 644Q483 668 416 668Q327 668 257.50 628Q188 588 148.50 518Q109 448 109 357Q109 270 148.50 199.50Q188 129 257 87.50Q326 46 416 46M431 132Q331 132 281.50 193.50Q232 255 232 357Q232 422 255.50 473Q279 524 324 553Q369 582 435 582Q500 582 558 552L529 489Q479 515 436 515Q377 515 344.50 473Q312 431 312 357Q312 281 340.50 239.50Q369 198 435 198Q458 198 486.50 204.50Q515 211 540 221L540 156Q516 145 491 138.50Q466 132 431 132Z"  horiz-adv-x="832" vert-adv-y="1000"  />

      
      <glyph glyph-name="uniaa" unicode="&#xaa;" d="M173 378Q135 378 107.50 406.50Q80 435 80 495Q80 535 90 575Q100 615 120.50 648Q141 681 171.50 701Q202 721 243 721Q275 721 293.50 707Q312 693 322 671L326 671L344 715L398 715L326 384L272 384L278 436L275 436Q256 411 232 394.50Q208 378 173 378M197 437Q223 437 242.50 454Q262 471 275 497.50Q288 524 294.50 552Q301 580 301 603Q301 630 288 646.50Q275 663 249 663Q219 663 197 638Q175 613 163 575.50Q151 538 151 499Q151 437 197 437Z"  horiz-adv-x="350" vert-adv-y="1000"  />

      
      <glyph glyph-name="uniab" unicode="&#xab;" d="M148 51L40 270L40 282L233 481L291 428L149 267L227 84L148 51M352 51L249 256L249 269L434 477L495 428L358 255L431 84L352 51Z"  horiz-adv-x="502" vert-adv-y="1000"  />

      
      <glyph glyph-name="uniac" unicode="&#xac;" d="M539 393L539 126L458 126L458 312L65 312L65 393L539 393Z"  horiz-adv-x="572" vert-adv-y="1000"  />

      
      <glyph glyph-name="uniad" unicode="&#xad;" d="M24 221L45 314L286 314L266 221L24 221Z"  horiz-adv-x="316" vert-adv-y="1000"  />

      
      <glyph glyph-name="uniae" unicode="&#xae;" d="M416-10Q336-10 269 17Q202 44 152.50 93.50Q103 143 76 210Q49 277 49 357Q49 436 76.50 503Q104 570 153.50 619.50Q203 669 270 696.50Q337 724 416 724Q492 724 558.50 697Q625 670 675.50 620.50Q726 571 754.50 504Q783 437 783 357Q783 277 756 210Q729 143 679.50 93.50Q630 44 563 17Q496-10 416-10M416 46Q479 46 534.50 69Q590 92 632.50 133.50Q675 175 698.50 232Q722 289 722 357Q722 421 699.50 477.50Q677 534 635.50 577Q594 620 538.50 644Q483 668 416 668Q327 668 257.50 628Q188 588 148.50 518Q109 448 109 357Q109 270 148.50 199.50Q188 129 257 87.50Q326 46 416 46M278 138L278 576L407 576Q489 576 527 543.50Q565 511 565 446Q565 399 541 371.50Q517 344 487 332L603 138L516 138L417 310L355 310L355 138L278 138M405 373Q444 373 465.50 393Q487 413 487 444Q487 479 467.50 495Q448 511 404 511L355 511L355 373L405 373Z"  horiz-adv-x="832" vert-adv-y="1000"  />

      
      <glyph glyph-name="uniaf" unicode="&#xaf;" d="M97 760L115 836L542 836L524 760L97 760Z"  horiz-adv-x="425" vert-adv-y="1000"  />

      
      <glyph glyph-name="unib0" unicode="&#xb0;" d="M214 408Q140 408 95 452Q50 496 50 566Q50 635 94.50 679.50Q139 724 214 724Q286 724 331.50 680Q377 636 377 566Q377 496 331.50 452Q286 408 214 408M215 477Q258 477 280.50 501.50Q303 526 303 566Q303 607 279.50 631.50Q256 656 215 656Q171 656 148 631.50Q125 607 125 566Q125 526 148 501.50Q171 477 215 477Z"  horiz-adv-x="428" vert-adv-y="1000"  />

      
      <glyph glyph-name="unib1" unicode="&#xb1;" d="M343 404L539 404L539 323L343 323L343 122L261 122L261 323L65 323L65 404L261 404L261 606L343 606L343 404M65 0L65 82L540 82L540 0L65 0Z"  horiz-adv-x="572" vert-adv-y="1000"  />

      
      <glyph glyph-name="unib2" unicode="&#xb2;" d="M67 416L80 478L210 587Q267 635 294 666.50Q321 698 321 734Q321 757 307 770.50Q293 784 268 784Q223 784 174 745L138 801Q170 827 206 840Q242 853 285 853Q347 853 376 821Q405 789 405 749Q405 713 392.50 684.50Q380 656 352 627.50Q324 599 278 563L186 488L371 488L356 416L67 416Z"  horiz-adv-x="361" vert-adv-y="1000"  />

      
      <glyph glyph-name="unib3" unicode="&#xb3;" d="M198 408Q164 408 133 415.50Q102 423 78 435L78 509Q105 494 136 484Q167 474 197 474Q243 474 267.50 493.50Q292 513 292 548Q292 606 217 606L166 606L179 668L225 668Q269 668 296 685.50Q323 703 323 735Q323 788 264 787Q238 787 215.50 778Q193 769 172 754L140 810Q167 829 201.50 841Q236 853 279 853Q344 853 374 823.50Q404 794 404 752Q404 705 376 678Q348 651 301 639L301 635Q337 626 355.50 602.50Q374 579 374 546Q374 483 327 445.50Q280 408 198 408Z"  horiz-adv-x="361" vert-adv-y="1000"  />

      
      <glyph glyph-name="unib4" unicode="&#xb4;" d="M114 619Q140 647 171.50 689.50Q203 732 225 766L344 766L344 757Q330 739 301.50 710.50Q273 682 241 653Q209 624 183 606L114 606L114 619Z"  horiz-adv-x="280" vert-adv-y="1000"  />

      
      <glyph glyph-name="uni03BC" unicode="&#x03BC;" d="M-25-240L140 539L245 539L176 208Q167 167 167 145Q167 77 232 77Q266 77 301 102Q336 127 366 178Q396 229 413 307L463 539L567 539L452 0L369 0L380 95L375 95Q346 55 306.50 22.50Q267-10 211-10Q158-10 134 32L130 32Q128 17 124.50-5Q121-27 117.50-49Q114-71 111-85L79-240L-25-240Z"  horiz-adv-x="592" vert-adv-y="1000"  />

      
      <glyph glyph-name="unib6" unicode="&#xb6;" d="M364 273Q334 264 293 264Q231 264 185 287Q139 310 113.50 364Q88 418 88 509Q88 605 116 659.50Q144 714 193.50 737Q243 760 308 760L588 760L588-127L524-127L524 676L428 676L428-127L364-127L364 273Z"  horiz-adv-x="655" vert-adv-y="1000"  />

      
      <glyph glyph-name="unib7" unicode="&#xb7;" d="M135 280Q105 280 90.50 296Q76 312 76 337Q76 371 95.50 397.50Q115 424 159 424Q184 424 200 409.50Q216 395 216 366Q216 332 195 306Q174 280 135 280Z"  horiz-adv-x="265" vert-adv-y="1000"  />

      
      <glyph glyph-name="unib8" unicode="&#xb8;" d="M-36-240Q-52-240-66.50-238Q-81-236-90-233L-90-172Q-67-178-46-178Q26-178 26-129Q26-109 8.50-98.50Q-9-88-41-84L6 0L72 0L46-51Q71-58 91.50-76Q112-94 112-130Q112-177 75-208.50Q38-240-36-240Z"  horiz-adv-x="205" vert-adv-y="1000"  />

      
      <glyph glyph-name="unib9" unicode="&#xb9;" d="M235 649Q241 676 249 706Q257 736 263 756Q255 748 243.50 738.50Q232 729 221 721L166 685L131 742L289 843L362 843L271 415L186 415L235 649Z"  horiz-adv-x="361" vert-adv-y="1000"  />

      
      <glyph glyph-name="uniba" unicode="&#xba;" d="M210 378Q154 378 119.50 411.50Q85 445 85 511Q85 565 104 613Q123 661 161 691Q199 721 256 721Q321 721 350 684Q379 647 379 590Q379 553 370 516Q361 479 341 447.50Q321 416 288.50 397Q256 378 210 378M216 438Q247 438 267.50 460.50Q288 483 298 518Q308 553 308 590Q308 627 293 643.50Q278 660 252 660Q220 660 199 638Q178 616 167.50 582Q157 548 157 511Q157 438 216 438Z"  horiz-adv-x="348" vert-adv-y="1000"  />

      
      <glyph glyph-name="unibb" unicode="&#xbb;" d="M269 51L211 104L353 264L276 448L354 481L462 261L462 248L269 51M68 55L7 104L144 275L71 448L150 481L253 275L253 262L68 55Z"  horiz-adv-x="502" vert-adv-y="1000"  />

      
      <glyph glyph-name="unibc" unicode="&#xbc;" d="M92 0L622 714L712 714L182 0L92 0M207 520Q213 547 221 577Q229 607 235 627Q227 619 215.50 609.50Q204 600 193 592L138 556L103 613L261 714L334 714L243 286L158 286L207 520M552 1L571 91L392 91L404 153L638 432L725 432L666 157L727 157L714 91L652 91L633 1L552 1M484 157L585 157L605 245Q611 269 615.50 289.50Q620 310 627 334Q620 322 604 301Q588 280 577 268L484 157Z"  horiz-adv-x="762" vert-adv-y="1000"  />

      
      <glyph glyph-name="unibd" unicode="&#xbd;" d="M93 0L623 714L713 714L183 0L93 0M207 520Q213 547 221 577Q229 607 235 627Q227 619 215.50 609.50Q204 600 193 592L138 556L103 613L261 714L334 714L243 286L158 286L207 520M449 1L462 63L592 172Q649 220 676 251.50Q703 283 703 319Q703 342 689 355.50Q675 369 650 369Q605 369 556 330L520 386Q552 412 588 425Q624 438 667 438Q729 438 758 406Q787 374 787 334Q787 298 774.50 269.50Q762 241 734 212.50Q706 184 660 148L568 73L753 73L738 1L449 1Z"  horiz-adv-x="830" vert-adv-y="1000"  />

      
      <glyph glyph-name="unibe" unicode="&#xbe;" d="M172 278Q138 278 107 285.50Q76 293 52 305L52 379Q79 364 110 354Q141 344 171 344Q217 344 241.50 363.50Q266 383 266 418Q266 476 191 476L140 476L153 538L199 538Q243 538 270 555.50Q297 573 297 605Q297 658 238 657Q212 657 189.50 648Q167 639 146 624L114 680Q141 699 175.50 711Q210 723 253 723Q318 723 348 693.50Q378 664 378 622Q378 575 350 548Q322 521 275 509L275 505Q311 496 329.50 472.50Q348 449 348 416Q348 353 301 315.50Q254 278 172 278M146 0L676 714L766 714L236 0L146 0M604 0L623 90L444 90L456 152L690 431L777 431L718 156L779 156L766 90L704 90L685 0L604 0M536 156L637 156L657 244Q663 268 667.50 288.50Q672 309 679 333Q672 321 656 300Q640 279 629 267L536 156Z"  horiz-adv-x="814" vert-adv-y="1000"  />

      
      <glyph glyph-name="unibf" unicode="&#xbf;" d="M315 320Q308 276 294 243.50Q280 211 256.50 183Q233 155 195 127Q163 104 137.50 82.50Q112 61 97 36.50Q82 12 82-21Q82-60 103.50-81.50Q125-103 168-103Q205-103 241-90Q277-77 314-60L349-139Q308-161 257-176.50Q206-192 154-192Q73-192 25-151.50Q-23-111-23-34Q-23 36 15.50 84Q54 132 121 181Q157 207 177.50 226Q198 245 209 266.50Q220 288 228 320L315 320M306 546Q336 546 350.50 530Q365 514 365 489Q365 455 345 428.50Q325 402 281 402Q256 402 240.50 416.50Q225 431 225 460Q225 494 245.50 520Q266 546 306 546Z"  horiz-adv-x="439" vert-adv-y="1000"  />

      
      <glyph glyph-name="unic0" unicode="&#xc0;" d="M-58 0L326 714L446 714L529 0L424 0L402 207L164 207L57 0L-58 0M212 301L393 301L378 461Q375 496 372 537Q369 578 368 612L366 612Q351 577 333 539Q315 501 294 460L212 301M400 781Q381 800 358.50 827Q336 854 317 881.50Q298 909 288 931L288 941L399 941Q409 905 427 866.50Q445 828 465 793L465 781L400 781Z"  horiz-adv-x="581" vert-adv-y="1000"  />

      
      <glyph glyph-name="unic1" unicode="&#xc1;" d="M-58 0L326 714L446 714L529 0L424 0L402 207L164 207L57 0L-58 0M212 301L393 301L378 461Q375 496 372 537Q369 578 368 612L366 612Q351 577 333 539Q315 501 294 460L212 301M338 794Q364 822 395.50 864.50Q427 907 449 941L568 941L568 932Q554 914 525.50 885.50Q497 857 465 828Q433 799 407 781L338 781L338 794Z"  horiz-adv-x="581" vert-adv-y="1000"  />

      
      <glyph glyph-name="unic2" unicode="&#xc2;" d="M-58 0L326 714L446 714L529 0L424 0L402 207L164 207L57 0L-58 0M212 301L393 301L378 461Q375 496 372 537Q369 578 368 612L366 612Q351 577 333 539Q315 501 294 460L212 301M223 794Q241 810 268.50 836Q296 862 323 890.50Q350 919 365 941L473 941Q488 903 513.50 863Q539 823 558 794L558 781L490 781Q473 797 452 820.50Q431 844 411 869Q382 843 352.50 821Q323 799 296 781L223 781L223 794Z"  horiz-adv-x="581" vert-adv-y="1000"  />

      
      <glyph glyph-name="unic3" unicode="&#xc3;" d="M-58 0L326 714L446 714L529 0L424 0L402 207L164 207L57 0L-58 0M212 301L393 301L378 461Q375 496 372 537Q369 578 368 612L366 612Q351 577 333 539Q315 501 294 460L212 301M223 781Q251 915 344 915Q374 915 398.50 902Q423 889 443.50 875.50Q464 862 482 862Q502 862 514 874.50Q526 887 538 916L600 916Q567 782 476 782Q448 782 424.50 795.50Q401 809 380 822.50Q359 836 338 836Q319 836 306.50 822Q294 808 285 781L223 781Z"  horiz-adv-x="581" vert-adv-y="1000"  />

      
      <glyph glyph-name="unic4" unicode="&#xc4;" d="M-58 0L326 714L446 714L529 0L424 0L402 207L164 207L57 0L-58 0M212 301L393 301L378 461Q375 496 372 537Q369 578 368 612L366 612Q351 577 333 539Q315 501 294 460L212 301M497 803Q476 803 462.50 814Q449 825 449 849Q449 876 464.50 893.50Q480 911 508 911Q554 911 554 868Q554 838 537.50 820.50Q521 803 497 803M316 803Q294 803 280.50 814Q267 825 267 849Q267 876 282.50 893.50Q298 911 326 911Q372 911 372 868Q372 838 356 820.50Q340 803 316 803Z"  horiz-adv-x="581" vert-adv-y="1000"  />

      
      <glyph glyph-name="unic5" unicode="&#xc5;" d="M-58 0L326 714L446 714L529 0L424 0L402 207L164 207L57 0L-58 0M212 301L393 301L378 461Q375 496 372 537Q369 578 368 612L366 612Q351 577 333 539Q315 501 294 460L212 301M406 781Q356 781 325 809.50Q294 838 294 889Q294 940 326.50 968Q359 996 406 996Q455 996 487.50 968Q520 940 520 890Q520 838 487 809.50Q454 781 406 781M406 836Q430 836 444.50 850.50Q459 865 459 889Q459 913 444.50 927.50Q430 942 406 942Q384 942 368.50 927.50Q353 913 353 889Q353 865 367 850.50Q381 836 406 836Z"  horiz-adv-x="581" vert-adv-y="1000"  />

      
      <glyph glyph-name="unic6" unicode="&#xc6;" d="M-59 0L396 714L883 714L864 622L597 622L554 418L803 418L784 327L535 327L486 93L752 93L732 0L359 0L402 207L190 207L61 0L-59 0M250 301L422 301L490 622L449 622L250 301Z"  horiz-adv-x="845" vert-adv-y="1000"  />

      
      <glyph glyph-name="unic7" unicode="&#xc7;" d="M325-10Q202-10 135 64Q68 138 68 265Q68 329 83 394.50Q98 460 128.50 519Q159 578 204.50 624.50Q250 671 312.50 697.50Q375 724 453 724Q509 724 553.50 713.50Q598 703 638 681L595 593Q566 609 532 620Q498 631 453 631Q383 631 331.50 599Q280 567 246.50 513.50Q213 460 196.50 396Q180 332 180 269Q180 181 222.50 132Q265 83 345 83Q386 83 426 92Q466 101 505 115L505 22Q469 9 426-0.50Q383-10 325-10M243-240Q227-240 212.50-238Q198-236 189-233L189-172Q212-178 233-178Q305-178 305-129Q305-109 287.50-98.50Q270-88 238-84L285 0L351 0L325-51Q350-58 370.50-76Q391-94 391-130Q391-177 354-208.50Q317-240 243-240Z"  horiz-adv-x="594" vert-adv-y="1000"  />

      
      <glyph glyph-name="unic8" unicode="&#xc8;" d="M37 0L188 714L560 714L541 622L275 622L232 418L480 418L462 327L213 327L162 93L429 93L409 0L37 0M384 781Q365 800 342.50 827Q320 854 301 881.50Q282 909 272 931L272 941L383 941Q393 905 411 866.50Q429 828 449 793L449 781L384 781Z"  horiz-adv-x="522" vert-adv-y="1000"  />

      
      <glyph glyph-name="unic9" unicode="&#xc9;" d="M37 0L188 714L560 714L541 622L275 622L232 418L480 418L462 327L213 327L162 93L429 93L409 0L37 0M322 794Q348 822 379.50 864.50Q411 907 433 941L552 941L552 932Q538 914 509.50 885.50Q481 857 449 828Q417 799 391 781L322 781L322 794Z"  horiz-adv-x="522" vert-adv-y="1000"  />

      
      <glyph glyph-name="unica" unicode="&#xca;" d="M37 0L188 714L560 714L541 622L275 622L232 418L480 418L462 327L213 327L162 93L429 93L409 0L37 0M207 794Q225 810 252.50 836Q280 862 307 890.50Q334 919 349 941L457 941Q472 903 497.50 863Q523 823 542 794L542 781L474 781Q457 797 436 820.50Q415 844 395 869Q366 843 336.50 821Q307 799 280 781L207 781L207 794Z"  horiz-adv-x="522" vert-adv-y="1000"  />

      
      <glyph glyph-name="unicb" unicode="&#xcb;" d="M37 0L188 714L560 714L541 622L275 622L232 418L480 418L462 327L213 327L162 93L429 93L409 0L37 0M481 803Q460 803 446.50 814Q433 825 433 849Q433 876 448.50 893.50Q464 911 492 911Q538 911 538 868Q538 838 521.50 820.50Q505 803 481 803M300 803Q278 803 264.50 814Q251 825 251 849Q251 876 266.50 893.50Q282 911 310 911Q356 911 356 868Q356 838 340 820.50Q324 803 300 803Z"  horiz-adv-x="522" vert-adv-y="1000"  />

      
      <glyph glyph-name="unicc" unicode="&#xcc;" d="M-23 0L-10 60L76 86L191 628L116 653L128 714L398 714L385 653L297 628L182 86L259 60L247 0L-23 0M278 781Q259 800 236.50 827Q214 854 195 881.50Q176 909 166 931L166 941L277 941Q287 905 305 866.50Q323 828 343 793L343 781L278 781Z"  horiz-adv-x="341" vert-adv-y="1000"  />

      
      <glyph glyph-name="unicd" unicode="&#xcd;" d="M-23 0L-10 60L76 86L191 628L116 653L128 714L398 714L385 653L297 628L182 86L259 60L247 0L-23 0M216 794Q242 822 273.50 864.50Q305 907 327 941L446 941L446 932Q432 914 403.50 885.50Q375 857 343 828Q311 799 285 781L216 781L216 794Z"  horiz-adv-x="341" vert-adv-y="1000"  />

      
      <glyph glyph-name="unice" unicode="&#xce;" d="M-23 0L-10 60L76 86L191 628L116 653L128 714L398 714L385 653L297 628L182 86L259 60L247 0L-23 0M101 794Q119 810 146.50 836Q174 862 201 890.50Q228 919 243 941L351 941Q366 903 391.50 863Q417 823 436 794L436 781L368 781Q351 797 330 820.50Q309 844 289 869Q260 843 230.50 821Q201 799 174 781L101 781L101 794Z"  horiz-adv-x="341" vert-adv-y="1000"  />

      
      <glyph glyph-name="unicf" unicode="&#xcf;" d="M-23 0L-10 60L76 86L191 628L116 653L128 714L398 714L385 653L297 628L182 86L259 60L247 0L-23 0M375 803Q354 803 340.50 814Q327 825 327 849Q327 876 342.50 893.50Q358 911 386 911Q432 911 432 868Q432 838 415.50 820.50Q399 803 375 803M194 803Q172 803 158.50 814Q145 825 145 849Q145 876 160.50 893.50Q176 911 204 911Q250 911 250 868Q250 838 234 820.50Q218 803 194 803Z"  horiz-adv-x="341" vert-adv-y="1000"  />

      
      <glyph glyph-name="unid0" unicode="&#xd0;" d="M37 0L100 308L29 308L49 399L120 399L188 714L364 714Q493 714 566 644Q639 574 639 433Q639 306 591 208.50Q543 111 450.50 55.50Q358 0 226 0L37 0M231 91Q328 91 394 137Q460 183 494 260Q528 337 528 432Q528 532 480 577.50Q432 623 352 623L275 623L228 399L373 399L353 308L208 308L162 91L231 91Z"  horiz-adv-x="670" vert-adv-y="1000"  />

      
      <glyph glyph-name="unid1" unicode="&#xd1;" d="M36 0L187 714L305 714L509 143L512 143Q515 166 520.50 199.50Q526 233 532.50 269Q539 305 546 337L627 714L726 714L575 0L459 0L252 577L248 577Q246 560 240.50 525Q235 490 228 449Q221 408 213 373L135 0L36 0M298 781Q326 915 419 915Q449 915 473.50 902Q498 889 518.50 875.50Q539 862 557 862Q577 862 589 874.50Q601 887 613 916L675 916Q642 782 551 782Q523 782 499.50 795.50Q476 809 455 822.50Q434 836 413 836Q394 836 381.50 822Q369 808 360 781L298 781Z"  horiz-adv-x="721" vert-adv-y="1000"  />

      
      <glyph glyph-name="unid2" unicode="&#xd2;" d="M333-10Q205-10 136.50 64.50Q68 139 68 266Q68 355 92.50 437.50Q117 520 163.50 585Q210 650 278 687.50Q346 725 434 725Q558 725 625.50 650.50Q693 576 693 448Q693 357 670.50 274.50Q648 192 603 128Q558 64 490.50 27Q423-10 333-10M339 83Q394 83 438.50 111.50Q483 140 515 190Q547 240 564 306Q581 372 581 448Q581 535 540 583.50Q499 632 427 632Q371 632 325.50 603.50Q280 575 247.50 524.50Q215 474 197.50 408Q180 342 180 267Q180 179 222 131Q264 83 339 83M471 781Q452 800 429.50 827Q407 854 388 881.50Q369 909 359 931L359 941L470 941Q480 905 498 866.50Q516 828 536 793L536 781L471 781Z"  horiz-adv-x="724" vert-adv-y="1000"  />

      
      <glyph glyph-name="unid3" unicode="&#xd3;" d="M333-10Q205-10 136.50 64.50Q68 139 68 266Q68 355 92.50 437.50Q117 520 163.50 585Q210 650 278 687.50Q346 725 434 725Q558 725 625.50 650.50Q693 576 693 448Q693 357 670.50 274.50Q648 192 603 128Q558 64 490.50 27Q423-10 333-10M339 83Q394 83 438.50 111.50Q483 140 515 190Q547 240 564 306Q581 372 581 448Q581 535 540 583.50Q499 632 427 632Q371 632 325.50 603.50Q280 575 247.50 524.50Q215 474 197.50 408Q180 342 180 267Q180 179 222 131Q264 83 339 83M410 794Q436 822 467.50 864.50Q499 907 521 941L640 941L640 932Q626 914 597.50 885.50Q569 857 537 828Q505 799 479 781L410 781L410 794Z"  horiz-adv-x="724" vert-adv-y="1000"  />

      
      <glyph glyph-name="unid4" unicode="&#xd4;" d="M333-10Q205-10 136.50 64.50Q68 139 68 266Q68 355 92.50 437.50Q117 520 163.50 585Q210 650 278 687.50Q346 725 434 725Q558 725 625.50 650.50Q693 576 693 448Q693 357 670.50 274.50Q648 192 603 128Q558 64 490.50 27Q423-10 333-10M339 83Q394 83 438.50 111.50Q483 140 515 190Q547 240 564 306Q581 372 581 448Q581 535 540 583.50Q499 632 427 632Q371 632 325.50 603.50Q280 575 247.50 524.50Q215 474 197.50 408Q180 342 180 267Q180 179 222 131Q264 83 339 83M294 794Q312 810 339.50 836Q367 862 394 890.50Q421 919 436 941L544 941Q559 903 584.50 863Q610 823 629 794L629 781L561 781Q544 797 523 820.50Q502 844 482 869Q453 843 423.50 821Q394 799 367 781L294 781L294 794Z"  horiz-adv-x="724" vert-adv-y="1000"  />

      
      <glyph glyph-name="unid5" unicode="&#xd5;" d="M333-10Q205-10 136.50 64.50Q68 139 68 266Q68 355 92.50 437.50Q117 520 163.50 585Q210 650 278 687.50Q346 725 434 725Q558 725 625.50 650.50Q693 576 693 448Q693 357 670.50 274.50Q648 192 603 128Q558 64 490.50 27Q423-10 333-10M339 83Q394 83 438.50 111.50Q483 140 515 190Q547 240 564 306Q581 372 581 448Q581 535 540 583.50Q499 632 427 632Q371 632 325.50 603.50Q280 575 247.50 524.50Q215 474 197.50 408Q180 342 180 267Q180 179 222 131Q264 83 339 83M295 781Q323 915 416 915Q446 915 470.50 902Q495 889 515.50 875.50Q536 862 554 862Q574 862 586 874.50Q598 887 610 916L672 916Q639 782 548 782Q520 782 496.50 795.50Q473 809 452 822.50Q431 836 410 836Q391 836 378.50 822Q366 808 357 781L295 781Z"  horiz-adv-x="724" vert-adv-y="1000"  />

      
      <glyph glyph-name="unid6" unicode="&#xd6;" d="M333-10Q205-10 136.50 64.50Q68 139 68 266Q68 355 92.50 437.50Q117 520 163.50 585Q210 650 278 687.50Q346 725 434 725Q558 725 625.50 650.50Q693 576 693 448Q693 357 670.50 274.50Q648 192 603 128Q558 64 490.50 27Q423-10 333-10M339 83Q394 83 438.50 111.50Q483 140 515 190Q547 240 564 306Q581 372 581 448Q581 535 540 583.50Q499 632 427 632Q371 632 325.50 603.50Q280 575 247.50 524.50Q215 474 197.50 408Q180 342 180 267Q180 179 222 131Q264 83 339 83M568 803Q547 803 533.50 814Q520 825 520 849Q520 876 535.50 893.50Q551 911 579 911Q625 911 625 868Q625 838 608.50 820.50Q592 803 568 803M387 803Q365 803 351.50 814Q338 825 338 849Q338 876 353.50 893.50Q369 911 397 911Q443 911 443 868Q443 838 427 820.50Q411 803 387 803Z"  horiz-adv-x="724" vert-adv-y="1000"  />

      
      <glyph glyph-name="unid7" unicode="&#xd7;" d="M466 574L524 517L360 353L522 189L466 132L301 294L140 132L82 190L244 353L81 516L139 574L302 411L466 574Z"  horiz-adv-x="572" vert-adv-y="1000"  />

      
      <glyph glyph-name="unid8" unicode="&#xd8;" d="M117-41L55 8L119 87Q93 122 80.50 167.50Q68 213 68 266Q68 355 92.50 437.50Q117 520 163.50 585Q210 650 278 687.50Q346 725 434 725Q526 725 591 677L651 752L713 703L646 620Q669 588 681 543.50Q693 499 693 448Q693 357 670.50 274.50Q648 192 603 128Q558 64 490.50 27Q423-10 333-10Q240-10 176 33L117-41M527 599Q508 615 483 624.50Q458 634 426 634Q370 634 324 605Q278 576 245.50 525.50Q213 475 195.50 408.50Q178 342 178 267Q178 218 193 178L527 599M339 82Q395 82 440 110.50Q485 139 517 189.50Q549 240 566 306Q583 372 583 448Q583 470 580 490Q577 510 572 526L239 112Q257 98 282.50 90Q308 82 339 82Z"  horiz-adv-x="724" vert-adv-y="1000"  />

      
      <glyph glyph-name="unid9" unicode="&#xd9;" d="M299-10Q187-10 131.50 42.50Q76 95 76 189Q76 206 78.50 229Q81 252 87 277L180 714L286 714L193 274Q188 253 185.50 230.50Q183 208 183 193Q183 141 214 112Q245 83 306 83Q388 83 428.50 126.50Q469 170 487 255L585 714L692 714L592 246Q576 168 541 110.50Q506 53 447 21.50Q388-10 299-10M449 781Q430 800 407.50 827Q385 854 366 881.50Q347 909 337 931L337 941L448 941Q458 905 476 866.50Q494 828 514 793L514 781L449 781Z"  horiz-adv-x="681" vert-adv-y="1000"  />

      
      <glyph glyph-name="unida" unicode="&#xda;" d="M299-10Q187-10 131.50 42.50Q76 95 76 189Q76 206 78.50 229Q81 252 87 277L180 714L286 714L193 274Q188 253 185.50 230.50Q183 208 183 193Q183 141 214 112Q245 83 306 83Q388 83 428.50 126.50Q469 170 487 255L585 714L692 714L592 246Q576 168 541 110.50Q506 53 447 21.50Q388-10 299-10M387 794Q413 822 444.50 864.50Q476 907 498 941L617 941L617 932Q603 914 574.50 885.50Q546 857 514 828Q482 799 456 781L387 781L387 794Z"  horiz-adv-x="681" vert-adv-y="1000"  />

      
      <glyph glyph-name="unidb" unicode="&#xdb;" d="M299-10Q187-10 131.50 42.50Q76 95 76 189Q76 206 78.50 229Q81 252 87 277L180 714L286 714L193 274Q188 253 185.50 230.50Q183 208 183 193Q183 141 214 112Q245 83 306 83Q388 83 428.50 126.50Q469 170 487 255L585 714L692 714L592 246Q576 168 541 110.50Q506 53 447 21.50Q388-10 299-10M272 794Q290 810 317.50 836Q345 862 372 890.50Q399 919 414 941L522 941Q537 903 562.50 863Q588 823 607 794L607 781L539 781Q522 797 501 820.50Q480 844 460 869Q431 843 401.50 821Q372 799 345 781L272 781L272 794Z"  horiz-adv-x="681" vert-adv-y="1000"  />

      
      <glyph glyph-name="unidc" unicode="&#xdc;" d="M299-10Q187-10 131.50 42.50Q76 95 76 189Q76 206 78.50 229Q81 252 87 277L180 714L286 714L193 274Q188 253 185.50 230.50Q183 208 183 193Q183 141 214 112Q245 83 306 83Q388 83 428.50 126.50Q469 170 487 255L585 714L692 714L592 246Q576 168 541 110.50Q506 53 447 21.50Q388-10 299-10M546 803Q525 803 511.50 814Q498 825 498 849Q498 876 513.50 893.50Q529 911 557 911Q603 911 603 868Q603 838 586.50 820.50Q570 803 546 803M365 803Q343 803 329.50 814Q316 825 316 849Q316 876 331.50 893.50Q347 911 375 911Q421 911 421 868Q421 838 405 820.50Q389 803 365 803Z"  horiz-adv-x="681" vert-adv-y="1000"  />

      
      <glyph glyph-name="unidd" unicode="&#xdd;" d="M149 0L207 269L92 714L199 714L278 376L497 714L617 714L312 267L257 0L149 0M307 794Q333 822 364.50 864.50Q396 907 418 941L537 941L537 932Q523 914 494.50 885.50Q466 857 434 828Q402 799 376 781L307 781L307 794Z"  horiz-adv-x="525" vert-adv-y="1000"  />

      
      <glyph glyph-name="unide" unicode="&#xde;" d="M37 0L188 714L294 714L269 594L332 594Q451 594 502.50 541Q554 488 554 401Q554 278 470.50 214.50Q387 151 239 151L175 151L143 0L37 0M253 242Q340 242 392.50 280Q445 318 445 398Q445 453 414.50 478Q384 503 321 503L250 503L194 242L253 242Z"  horiz-adv-x="579" vert-adv-y="1000"  />

      
      <glyph glyph-name="unidf" unicode="&#xdf;" d="M-60-240Q-98-240-126-229L-126-142Q-99-152-71-152Q-40-152-19-130.50Q2-109 13-58L145 566Q167 667 225.50 716Q284 765 389 765Q474 765 525 728Q576 691 576 624Q576 568 546.50 532.50Q517 497 475 468Q445 448 422 428.50Q399 409 399 384Q399 365 419 348Q439 331 458 317Q497 285 520 252.50Q543 220 543 172Q543 112 516 71.50Q489 31 442.50 10.50Q396-10 337-10Q291-10 257.50-1Q224 8 201 24L201 115Q224 99 256.50 86Q289 73 323 73Q380 73 408 98.50Q436 124 436 161Q436 191 421 210.50Q406 230 371 259Q330 290 311 317.50Q292 345 292 378Q292 429 321.50 458.50Q351 488 389 513Q422 534 445.50 557Q469 580 469 613Q469 645 445 662.50Q421 680 380 680Q321 680 291 648.50Q261 617 250 561L119-60Q101-143 61-191.50Q21-240-60-240Z"  horiz-adv-x="606" vert-adv-y="1000"  />

      
      <glyph glyph-name="unie0" unicode="&#xe0;" d="M194-10Q132-10 89.50 36Q47 82 47 177Q47 250 65.50 316.50Q84 383 119 435.50Q154 488 201.50 518.50Q249 549 307 549Q359 549 392 522.50Q425 496 442 460L447 460L477 539L558 539L443 0L362 0L373 91L369 91Q336 49 292.50 19.50Q249-10 194-10M232 77Q267 77 299.50 102.50Q332 128 358 172Q384 216 397 269Q403 295 405.50 318Q408 341 408 363Q408 406 384.50 434Q361 462 321 462Q285 462 255 438.50Q225 415 202 374.50Q179 334 166.50 283.50Q154 233 154 178Q154 127 174.50 102Q195 77 232 77M360 606Q341 625 318.50 652Q296 679 277 706.50Q258 734 248 756L248 766L359 766Q369 730 387 691.50Q405 653 425 618L425 606L360 606Z"  horiz-adv-x="576" vert-adv-y="1000"  />

      
      <glyph glyph-name="unie1" unicode="&#xe1;" d="M194-10Q132-10 89.50 36Q47 82 47 177Q47 250 65.50 316.50Q84 383 119 435.50Q154 488 201.50 518.50Q249 549 307 549Q359 549 392 522.50Q425 496 442 460L447 460L477 539L558 539L443 0L362 0L373 91L369 91Q336 49 292.50 19.50Q249-10 194-10M232 77Q267 77 299.50 102.50Q332 128 358 172Q384 216 397 269Q403 295 405.50 318Q408 341 408 363Q408 406 384.50 434Q361 462 321 462Q285 462 255 438.50Q225 415 202 374.50Q179 334 166.50 283.50Q154 233 154 178Q154 127 174.50 102Q195 77 232 77M298 619Q324 647 355.50 689.50Q387 732 409 766L528 766L528 757Q514 739 485.50 710.50Q457 682 425 653Q393 624 367 606L298 606L298 619Z"  horiz-adv-x="576" vert-adv-y="1000"  />

      
      <glyph glyph-name="unie2" unicode="&#xe2;" d="M194-10Q132-10 89.50 36Q47 82 47 177Q47 250 65.50 316.50Q84 383 119 435.50Q154 488 201.50 518.50Q249 549 307 549Q359 549 392 522.50Q425 496 442 460L447 460L477 539L558 539L443 0L362 0L373 91L369 91Q336 49 292.50 19.50Q249-10 194-10M232 77Q267 77 299.50 102.50Q332 128 358 172Q384 216 397 269Q403 295 405.50 318Q408 341 408 363Q408 406 384.50 434Q361 462 321 462Q285 462 255 438.50Q225 415 202 374.50Q179 334 166.50 283.50Q154 233 154 178Q154 127 174.50 102Q195 77 232 77M183 619Q201 635 228.50 661Q256 687 283 715.50Q310 744 325 766L433 766Q448 728 473.50 688Q499 648 518 619L518 606L450 606Q433 622 412 645.50Q391 669 371 694Q342 668 312.50 646Q283 624 256 606L183 606L183 619Z"  horiz-adv-x="576" vert-adv-y="1000"  />

      
      <glyph glyph-name="unie3" unicode="&#xe3;" d="M194-10Q132-10 89.50 36Q47 82 47 177Q47 250 65.50 316.50Q84 383 119 435.50Q154 488 201.50 518.50Q249 549 307 549Q359 549 392 522.50Q425 496 442 460L447 460L477 539L558 539L443 0L362 0L373 91L369 91Q336 49 292.50 19.50Q249-10 194-10M232 77Q267 77 299.50 102.50Q332 128 358 172Q384 216 397 269Q403 295 405.50 318Q408 341 408 363Q408 406 384.50 434Q361 462 321 462Q285 462 255 438.50Q225 415 202 374.50Q179 334 166.50 283.50Q154 233 154 178Q154 127 174.50 102Q195 77 232 77M183 606Q211 740 304 740Q334 740 358.50 727Q383 714 403.50 700.50Q424 687 442 687Q462 687 474 699.50Q486 712 498 741L560 741Q527 607 436 607Q408 607 384.50 620.50Q361 634 340 647.50Q319 661 298 661Q279 661 266.50 647Q254 633 245 606L183 606Z"  horiz-adv-x="576" vert-adv-y="1000"  />

      
      <glyph glyph-name="unie4" unicode="&#xe4;" d="M194-10Q132-10 89.50 36Q47 82 47 177Q47 250 65.50 316.50Q84 383 119 435.50Q154 488 201.50 518.50Q249 549 307 549Q359 549 392 522.50Q425 496 442 460L447 460L477 539L558 539L443 0L362 0L373 91L369 91Q336 49 292.50 19.50Q249-10 194-10M232 77Q267 77 299.50 102.50Q332 128 358 172Q384 216 397 269Q403 295 405.50 318Q408 341 408 363Q408 406 384.50 434Q361 462 321 462Q285 462 255 438.50Q225 415 202 374.50Q179 334 166.50 283.50Q154 233 154 178Q154 127 174.50 102Q195 77 232 77M456 628Q435 628 421.50 639Q408 650 408 674Q408 701 423.50 718.50Q439 736 467 736Q513 736 513 693Q513 663 496.50 645.50Q480 628 456 628M275 628Q253 628 239.50 639Q226 650 226 674Q226 701 241.50 718.50Q257 736 285 736Q331 736 331 693Q331 663 315 645.50Q299 628 275 628Z"  horiz-adv-x="576" vert-adv-y="1000"  />

      
      <glyph glyph-name="unie5" unicode="&#xe5;" d="M194-10Q132-10 89.50 36Q47 82 47 177Q47 250 65.50 316.50Q84 383 119 435.50Q154 488 201.50 518.50Q249 549 307 549Q359 549 392 522.50Q425 496 442 460L447 460L477 539L558 539L443 0L362 0L373 91L369 91Q336 49 292.50 19.50Q249-10 194-10M232 77Q267 77 299.50 102.50Q332 128 358 172Q384 216 397 269Q403 295 405.50 318Q408 341 408 363Q408 406 384.50 434Q361 462 321 462Q285 462 255 438.50Q225 415 202 374.50Q179 334 166.50 283.50Q154 233 154 178Q154 127 174.50 102Q195 77 232 77M366 606Q316 606 285 634.50Q254 663 254 714Q254 765 286.50 793Q319 821 366 821Q415 821 447.50 793Q480 765 480 715Q480 663 447 634.50Q414 606 366 606M366 661Q390 661 404.50 675.50Q419 690 419 714Q419 738 404.50 752.50Q390 767 366 767Q344 767 328.50 752.50Q313 738 313 714Q313 690 327 675.50Q341 661 366 661Z"  horiz-adv-x="576" vert-adv-y="1000"  />

      
      <glyph glyph-name="unie6" unicode="&#xe6;" d="M182-10Q122-10 84.50 38Q47 86 47 177Q47 251 66 318Q85 385 119 437Q153 489 199.50 519Q246 549 300 549Q349 549 378.50 523.50Q408 498 425 460L430 460L462 539L528 539L516 477Q541 509 580.50 529Q620 549 670 549Q731 549 771.50 515Q812 481 812 417Q812 363 779.50 320Q747 277 678 252.50Q609 228 500 228L478 228Q477 209 477 196Q477 141 504.50 107.50Q532 74 594 74Q631 74 668 86Q705 98 742 116L742 28Q702 10 661.50 0Q621-10 576-10Q524-10 485.50 7.50Q447 25 426 60L414 0L345 0L356 91L352 91Q314 45 275.50 17.50Q237-10 182-10M505 307Q564 307 610 318Q656 329 683 352Q710 375 710 410Q710 439 692.50 452.50Q675 466 650 466Q599 466 555.50 423.50Q512 381 492 307L505 307M220 77Q254 77 285 101.50Q316 126 341 169Q366 212 380 265Q387 291 390 315Q393 339 393 361Q393 406 373 434Q353 462 316 462Q282 462 252.50 438.50Q223 415 201 375Q179 335 166.50 284Q154 233 154 179Q154 126 172 101.50Q190 77 220 77Z"  horiz-adv-x="835" vert-adv-y="1000"  />

      
      <glyph glyph-name="unie7" unicode="&#xe7;" d="M247-10Q159-10 103 39Q47 88 47 190Q47 263 66 327.50Q85 392 122 442Q159 492 211.50 520.50Q264 549 329 549Q369 549 404.50 541.50Q440 534 470 520L440 436Q418 445 391 453.50Q364 462 332 462Q278 462 238 424.50Q198 387 176 326Q154 265 154 195Q154 138 182.50 107.50Q211 77 262 77Q298 77 329.50 87Q361 97 393 112L393 24Q363 9 327-0.50Q291-10 247-10M148-240Q132-240 117.50-238Q103-236 94-233L94-172Q117-178 138-178Q210-178 210-129Q210-109 192.50-98.50Q175-88 143-84L190 0L256 0L230-51Q255-58 275.50-76Q296-94 296-130Q296-177 259-208.50Q222-240 148-240Z"  horiz-adv-x="462" vert-adv-y="1000"  />

      
      <glyph glyph-name="unie8" unicode="&#xe8;" d="M247-10Q153-10 100 44Q47 98 47 195Q47 260 65.50 323Q84 386 120 437Q156 488 208 518.50Q260 549 326 549Q406 549 447 513Q488 477 488 417Q488 363 455 320Q422 277 352.50 252.50Q283 228 174 228L155 228Q153 209 153 196Q153 139 181.50 106.50Q210 74 267 74Q306 74 340.50 84.50Q375 95 418 116L418 30Q378 12 339.50 1Q301-10 247-10M180 307Q239 307 285.50 318Q332 329 358.50 352Q385 375 385 411Q385 436 369 451Q353 466 320 466Q274 466 231 423.50Q188 381 169 307L180 307M337 606Q318 625 295.50 652Q273 679 254 706.50Q235 734 225 756L225 766L336 766Q346 730 364 691.50Q382 653 402 618L402 606L337 606Z"  horiz-adv-x="516" vert-adv-y="1000"  />

      
      <glyph glyph-name="unie9" unicode="&#xe9;" d="M247-10Q153-10 100 44Q47 98 47 195Q47 260 65.50 323Q84 386 120 437Q156 488 208 518.50Q260 549 326 549Q406 549 447 513Q488 477 488 417Q488 363 455 320Q422 277 352.50 252.50Q283 228 174 228L155 228Q153 209 153 196Q153 139 181.50 106.50Q210 74 267 74Q306 74 340.50 84.50Q375 95 418 116L418 30Q378 12 339.50 1Q301-10 247-10M180 307Q239 307 285.50 318Q332 329 358.50 352Q385 375 385 411Q385 436 369 451Q353 466 320 466Q274 466 231 423.50Q188 381 169 307L180 307M275 619Q301 647 332.50 689.50Q364 732 386 766L505 766L505 757Q491 739 462.50 710.50Q434 682 402 653Q370 624 344 606L275 606L275 619Z"  horiz-adv-x="516" vert-adv-y="1000"  />

      
      <glyph glyph-name="uniea" unicode="&#xea;" d="M247-10Q153-10 100 44Q47 98 47 195Q47 260 65.50 323Q84 386 120 437Q156 488 208 518.50Q260 549 326 549Q406 549 447 513Q488 477 488 417Q488 363 455 320Q422 277 352.50 252.50Q283 228 174 228L155 228Q153 209 153 196Q153 139 181.50 106.50Q210 74 267 74Q306 74 340.50 84.50Q375 95 418 116L418 30Q378 12 339.50 1Q301-10 247-10M180 307Q239 307 285.50 318Q332 329 358.50 352Q385 375 385 411Q385 436 369 451Q353 466 320 466Q274 466 231 423.50Q188 381 169 307L180 307M160 619Q178 635 205.50 661Q233 687 260 715.50Q287 744 302 766L410 766Q425 728 450.50 688Q476 648 495 619L495 606L427 606Q410 622 389 645.50Q368 669 348 694Q319 668 289.50 646Q260 624 233 606L160 606L160 619Z"  horiz-adv-x="516" vert-adv-y="1000"  />

      
      <glyph glyph-name="unieb" unicode="&#xeb;" d="M247-10Q153-10 100 44Q47 98 47 195Q47 260 65.50 323Q84 386 120 437Q156 488 208 518.50Q260 549 326 549Q406 549 447 513Q488 477 488 417Q488 363 455 320Q422 277 352.50 252.50Q283 228 174 228L155 228Q153 209 153 196Q153 139 181.50 106.50Q210 74 267 74Q306 74 340.50 84.50Q375 95 418 116L418 30Q378 12 339.50 1Q301-10 247-10M180 307Q239 307 285.50 318Q332 329 358.50 352Q385 375 385 411Q385 436 369 451Q353 466 320 466Q274 466 231 423.50Q188 381 169 307L180 307M434 628Q413 628 399.50 639Q386 650 386 674Q386 701 401.50 718.50Q417 736 445 736Q491 736 491 693Q491 663 474.50 645.50Q458 628 434 628M253 628Q231 628 217.50 639Q204 650 204 674Q204 701 219.50 718.50Q235 736 263 736Q309 736 309 693Q309 663 293 645.50Q277 628 253 628Z"  horiz-adv-x="516" vert-adv-y="1000"  />

      
      <glyph glyph-name="uniec" unicode="&#xec;" d="M25 0L140 539L245 539L130 0L25 0M207 606Q188 625 165.50 652Q143 679 124 706.50Q105 734 95 756L95 766L206 766Q216 730 234 691.50Q252 653 272 618L272 606L207 606Z"  horiz-adv-x="270" vert-adv-y="1000"  />

      
      <glyph glyph-name="unied" unicode="&#xed;" d="M25 0L140 539L245 539L130 0L25 0M145 619Q171 647 202.50 689.50Q234 732 256 766L375 766L375 757Q361 739 332.50 710.50Q304 682 272 653Q240 624 214 606L145 606L145 619Z"  horiz-adv-x="270" vert-adv-y="1000"  />

      
      <glyph glyph-name="uniee" unicode="&#xee;" d="M25 0L140 539L245 539L130 0L25 0M30 619Q48 635 75.50 661Q103 687 130 715.50Q157 744 172 766L280 766Q295 728 320.50 688Q346 648 365 619L365 606L297 606Q280 622 259 645.50Q238 669 218 694Q189 668 159.50 646Q130 624 103 606L30 606L30 619Z"  horiz-adv-x="270" vert-adv-y="1000"  />

      
      <glyph glyph-name="unief" unicode="&#xef;" d="M25 0L140 539L245 539L130 0L25 0M304 628Q283 628 269.50 639Q256 650 256 674Q256 701 271.50 718.50Q287 736 315 736Q361 736 361 693Q361 663 344.50 645.50Q328 628 304 628M123 628Q101 628 87.50 639Q74 650 74 674Q74 701 89.50 718.50Q105 736 133 736Q179 736 179 693Q179 663 163 645.50Q147 628 123 628Z"  horiz-adv-x="270" vert-adv-y="1000"  />

      
      <glyph glyph-name="unif0" unicode="&#xf0;" d="M240-10Q149-10 95 40Q41 90 41 187Q41 264 71.50 330Q102 396 159 436.50Q216 477 294 477Q349 477 382 454.50Q415 432 431 402L435 402Q434 454 420.50 502.50Q407 551 368 596L243 526L210 586L320 646Q306 659 289 671.50Q272 684 252 696L303 765Q329 749 354.50 731.50Q380 714 402 693L525 761L559 702L450 641Q486 594 506.50 534.50Q527 475 527 395Q527 320 512 248Q497 176 463.50 117.50Q430 59 375 24.50Q320-10 240-10M245 74Q288 74 318.50 95Q349 116 368 148.50Q387 181 396 217.50Q405 254 405 284Q405 311 395 336.50Q385 362 362.50 378Q340 394 303 394Q249 394 214.50 362.50Q180 331 164 283Q148 235 148 184Q148 135 171 104.50Q194 74 245 74Z"  horiz-adv-x="572" vert-adv-y="1000"  />

      
      <glyph glyph-name="unif1" unicode="&#xf1;" d="M22 0L138 541L226 541L215 441L217 441Q236 468 261.50 493.50Q287 519 320 535Q353 551 395 551Q461 551 497.50 513.50Q534 476 534 410Q534 388 530.50 364.50Q527 341 523 321L454 0L344 0L415 332Q419 352 421.50 367.50Q424 383 424 397Q424 460 360 460Q327 460 292 435Q257 410 227.50 359Q198 308 181 230L132 0L22 0M190 606Q218 740 311 740Q341 740 365.50 727Q390 714 410.50 700.50Q431 687 449 687Q469 687 481 699.50Q493 712 505 741L567 741Q534 607 443 607Q415 607 391.50 620.50Q368 634 347 647.50Q326 661 305 661Q286 661 273.50 647Q261 633 252 606L190 606Z"  horiz-adv-x="586" vert-adv-y="1000"  />

      
      <glyph glyph-name="unif2" unicode="&#xf2;" d="M249-9Q157-9 102 47Q47 103 47 199Q47 263 64 325Q81 387 115.50 437Q150 487 201.50 517Q253 547 321 547Q416 547 469.50 491Q523 435 523 337Q523 274 506 212.50Q489 151 455 101Q421 51 369.50 21Q318-9 249-9M257 78Q302 78 338 111.50Q374 145 395 204.50Q416 264 416 344Q416 373 406.50 399.50Q397 426 376 443Q355 460 319 460Q267 460 229.50 422Q192 384 172.50 324Q153 264 153 196Q153 140 180 109Q207 78 257 78M343 606Q324 625 301.50 652Q279 679 260 706.50Q241 734 231 756L231 766L342 766Q352 730 370 691.50Q388 653 408 618L408 606L343 606Z"  horiz-adv-x="569" vert-adv-y="1000"  />

      
      <glyph glyph-name="unif3" unicode="&#xf3;" d="M249-9Q157-9 102 47Q47 103 47 199Q47 263 64 325Q81 387 115.50 437Q150 487 201.50 517Q253 547 321 547Q416 547 469.50 491Q523 435 523 337Q523 274 506 212.50Q489 151 455 101Q421 51 369.50 21Q318-9 249-9M257 78Q302 78 338 111.50Q374 145 395 204.50Q416 264 416 344Q416 373 406.50 399.50Q397 426 376 443Q355 460 319 460Q267 460 229.50 422Q192 384 172.50 324Q153 264 153 196Q153 140 180 109Q207 78 257 78M281 619Q307 647 338.50 689.50Q370 732 392 766L511 766L511 757Q497 739 468.50 710.50Q440 682 408 653Q376 624 350 606L281 606L281 619Z"  horiz-adv-x="569" vert-adv-y="1000"  />

      
      <glyph glyph-name="unif4" unicode="&#xf4;" d="M249-9Q157-9 102 47Q47 103 47 199Q47 263 64 325Q81 387 115.50 437Q150 487 201.50 517Q253 547 321 547Q416 547 469.50 491Q523 435 523 337Q523 274 506 212.50Q489 151 455 101Q421 51 369.50 21Q318-9 249-9M257 78Q302 78 338 111.50Q374 145 395 204.50Q416 264 416 344Q416 373 406.50 399.50Q397 426 376 443Q355 460 319 460Q267 460 229.50 422Q192 384 172.50 324Q153 264 153 196Q153 140 180 109Q207 78 257 78M166 619Q184 635 211.50 661Q239 687 266 715.50Q293 744 308 766L416 766Q431 728 456.50 688Q482 648 501 619L501 606L433 606Q416 622 395 645.50Q374 669 354 694Q325 668 295.50 646Q266 624 239 606L166 606L166 619Z"  horiz-adv-x="569" vert-adv-y="1000"  />

      
      <glyph glyph-name="unif5" unicode="&#xf5;" d="M249-9Q157-9 102 47Q47 103 47 199Q47 263 64 325Q81 387 115.50 437Q150 487 201.50 517Q253 547 321 547Q416 547 469.50 491Q523 435 523 337Q523 274 506 212.50Q489 151 455 101Q421 51 369.50 21Q318-9 249-9M257 78Q302 78 338 111.50Q374 145 395 204.50Q416 264 416 344Q416 373 406.50 399.50Q397 426 376 443Q355 460 319 460Q267 460 229.50 422Q192 384 172.50 324Q153 264 153 196Q153 140 180 109Q207 78 257 78M166 606Q194 740 287 740Q317 740 341.50 727Q366 714 386.50 700.50Q407 687 425 687Q445 687 457 699.50Q469 712 481 741L543 741Q510 607 419 607Q391 607 367.50 620.50Q344 634 323 647.50Q302 661 281 661Q262 661 249.50 647Q237 633 228 606L166 606Z"  horiz-adv-x="569" vert-adv-y="1000"  />

      
      <glyph glyph-name="unif6" unicode="&#xf6;" d="M249-9Q157-9 102 47Q47 103 47 199Q47 263 64 325Q81 387 115.50 437Q150 487 201.50 517Q253 547 321 547Q416 547 469.50 491Q523 435 523 337Q523 274 506 212.50Q489 151 455 101Q421 51 369.50 21Q318-9 249-9M257 78Q302 78 338 111.50Q374 145 395 204.50Q416 264 416 344Q416 373 406.50 399.50Q397 426 376 443Q355 460 319 460Q267 460 229.50 422Q192 384 172.50 324Q153 264 153 196Q153 140 180 109Q207 78 257 78M440 628Q419 628 405.50 639Q392 650 392 674Q392 701 407.50 718.50Q423 736 451 736Q497 736 497 693Q497 663 480.50 645.50Q464 628 440 628M259 628Q237 628 223.50 639Q210 650 210 674Q210 701 225.50 718.50Q241 736 269 736Q315 736 315 693Q315 663 299 645.50Q283 628 259 628Z"  horiz-adv-x="569" vert-adv-y="1000"  />

      
      <glyph glyph-name="unif7" unicode="&#xf7;" d="M302 458Q277 458 260 473.50Q243 489 243 523Q243 559 260 573Q277 587 302 587Q326 587 343.50 573Q361 559 361 523Q361 489 343.50 473.50Q326 458 302 458M65 312L65 393L540 393L540 312L65 312M302 117Q277 117 260 132.50Q243 148 243 182Q243 218 260 232Q277 246 302 246Q326 246 343.50 232Q361 218 361 182Q361 148 343.50 132.50Q326 117 302 117Z"  horiz-adv-x="572" vert-adv-y="1000"  />

      
      <glyph glyph-name="unif8" unicode="&#xf8;" d="M84-42L27 3L82 71Q48 122 48 199Q48 263 65 325Q82 387 116 437Q150 487 201.50 517Q253 547 321 547Q392 547 440 516L485 572L543 528L491 469Q507 445 514.50 411.50Q522 378 522 343Q522 279 505.50 216.50Q489 154 455 103Q421 52 370 21.50Q319-9 250-9Q184-9 134 21L84-42M382 443Q372 451 356.50 456.50Q341 462 319 462Q265 462 228 426Q191 390 171 332.50Q151 275 150 212Q150 180 156 162L382 443M257 75Q303 75 339.50 109Q376 143 397.50 200Q419 257 420 329Q420 357 416 372L192 93Q215 75 257 75Z"  horiz-adv-x="569" vert-adv-y="1000"  />

      
      <glyph glyph-name="unif9" unicode="&#xf9;" d="M190-10Q127-10 91 26.50Q55 63 55 130Q55 151 58 174Q61 197 66 221L134 539L240 539L169 207Q161 166 161 143Q161 111 176 94Q191 77 226 77Q259 77 294.50 102Q330 127 360 178.50Q390 230 408 309L456 539L561 539L446 0L363 0L373 100L368 100Q349 73 323.50 47.50Q298 22 265 6Q232-10 190-10M365 606Q346 625 323.50 652Q301 679 282 706.50Q263 734 253 756L253 766L364 766Q374 730 392 691.50Q410 653 430 618L430 606L365 606Z"  horiz-adv-x="586" vert-adv-y="1000"  />

      
      <glyph glyph-name="unifa" unicode="&#xfa;" d="M190-10Q127-10 91 26.50Q55 63 55 130Q55 151 58 174Q61 197 66 221L134 539L240 539L169 207Q161 166 161 143Q161 111 176 94Q191 77 226 77Q259 77 294.50 102Q330 127 360 178.50Q390 230 408 309L456 539L561 539L446 0L363 0L373 100L368 100Q349 73 323.50 47.50Q298 22 265 6Q232-10 190-10M304 619Q330 647 361.50 689.50Q393 732 415 766L534 766L534 757Q520 739 491.50 710.50Q463 682 431 653Q399 624 373 606L304 606L304 619Z"  horiz-adv-x="586" vert-adv-y="1000"  />

      
      <glyph glyph-name="unifb" unicode="&#xfb;" d="M190-10Q127-10 91 26.50Q55 63 55 130Q55 151 58 174Q61 197 66 221L134 539L240 539L169 207Q161 166 161 143Q161 111 176 94Q191 77 226 77Q259 77 294.50 102Q330 127 360 178.50Q390 230 408 309L456 539L561 539L446 0L363 0L373 100L368 100Q349 73 323.50 47.50Q298 22 265 6Q232-10 190-10M188 619Q206 635 233.50 661Q261 687 288 715.50Q315 744 330 766L438 766Q453 728 478.50 688Q504 648 523 619L523 606L455 606Q438 622 417 645.50Q396 669 376 694Q347 668 317.50 646Q288 624 261 606L188 606L188 619Z"  horiz-adv-x="586" vert-adv-y="1000"  />

      
      <glyph glyph-name="unifc" unicode="&#xfc;" d="M190-10Q127-10 91 26.50Q55 63 55 130Q55 151 58 174Q61 197 66 221L134 539L240 539L169 207Q161 166 161 143Q161 111 176 94Q191 77 226 77Q259 77 294.50 102Q330 127 360 178.50Q390 230 408 309L456 539L561 539L446 0L363 0L373 100L368 100Q349 73 323.50 47.50Q298 22 265 6Q232-10 190-10M462 628Q441 628 427.50 639Q414 650 414 674Q414 701 429.50 718.50Q445 736 473 736Q519 736 519 693Q519 663 502.50 645.50Q486 628 462 628M281 628Q259 628 245.50 639Q232 650 232 674Q232 701 247.50 718.50Q263 736 291 736Q337 736 337 693Q337 663 321 645.50Q305 628 281 628Z"  horiz-adv-x="586" vert-adv-y="1000"  />

      
      <glyph glyph-name="unifd" unicode="&#xfd;" d="M-17-240Q-41-240-57-237.50Q-73-235-87-230L-87-146Q-73-149-57.50-151.50Q-42-154-25-154Q18-154 47-128.50Q76-103 101-56L129-6L49 539L153 539L186 277Q190 248 192 213.50Q194 179 195.50 147.50Q197 116 197 95L200 95Q206 111 218 139.50Q230 168 244 199Q258 230 271 254L418 539L532 539L194-86Q152-164 103-202Q54-240-17-240M233 619Q259 647 290.50 689.50Q322 732 344 766L463 766L463 757Q449 739 420.50 710.50Q392 682 360 653Q328 624 302 606L233 606L233 619Z"  horiz-adv-x="482" vert-adv-y="1000"  />

      
      <glyph glyph-name="unife" unicode="&#xfe;" d="M-25-240L186 760L291 760L255 590Q246 550 236 512.50Q226 475 218 447L222 447Q256 490 296.50 519Q337 548 388 548Q455 548 495.50 501Q536 454 536 361Q536 292 519 225.50Q502 159 469.50 106Q437 53 389.50 21.50Q342-10 281-10Q228-10 195 16.50Q162 43 144 78L139 78Q138 56 133.50 26Q129-4 124-28L79-240L-25-240M265 77Q302 77 332 101Q362 125 383.50 166Q405 207 417 257.50Q429 308 429 360Q429 462 349 462Q314 462 281 435.50Q248 409 222 364.50Q196 320 183 265Q179 244 176 222Q173 200 173 178Q173 133 195 105Q217 77 265 77Z"  horiz-adv-x="584" vert-adv-y="1000"  />

      
      <glyph glyph-name="uniff" unicode="&#xff;" d="M-17-240Q-41-240-57-237.50Q-73-235-87-230L-87-146Q-73-149-57.50-151.50Q-42-154-25-154Q18-154 47-128.50Q76-103 101-56L129-6L49 539L153 539L186 277Q190 248 192 213.50Q194 179 195.50 147.50Q197 116 197 95L200 95Q206 111 218 139.50Q230 168 244 199Q258 230 271 254L418 539L532 539L194-86Q152-164 103-202Q54-240-17-240M391 628Q370 628 356.50 639Q343 650 343 674Q343 701 358.50 718.50Q374 736 402 736Q448 736 448 693Q448 663 431.50 645.50Q415 628 391 628M210 628Q188 628 174.50 639Q161 650 161 674Q161 701 176.50 718.50Q192 736 220 736Q266 736 266 693Q266 663 250 645.50Q234 628 210 628Z"  horiz-adv-x="482" vert-adv-y="1000"  />

      
      <glyph glyph-name="uni0100" unicode="&#x0100;" d="M-58 0L326 714L446 714L529 0L424 0L402 207L164 207L57 0L-58 0M212 301L393 301L378 461Q375 496 372 537Q369 578 368 612L366 612Q351 577 333 539Q315 501 294 460L212 301M256 781L273 861L552 861L534 781L256 781Z"  horiz-adv-x="581" vert-adv-y="1000"  />

      
      <glyph glyph-name="uni0101" unicode="&#x0101;" d="M194-10Q132-10 89.50 36Q47 82 47 177Q47 250 65.50 316.50Q84 383 119 435.50Q154 488 201.50 518.50Q249 549 307 549Q359 549 392 522.50Q425 496 442 460L447 460L477 539L558 539L443 0L362 0L373 91L369 91Q336 49 292.50 19.50Q249-10 194-10M232 77Q267 77 299.50 102.50Q332 128 358 172Q384 216 397 269Q403 295 405.50 318Q408 341 408 363Q408 406 384.50 434Q361 462 321 462Q285 462 255 438.50Q225 415 202 374.50Q179 334 166.50 283.50Q154 233 154 178Q154 127 174.50 102Q195 77 232 77M216 606L233 686L512 686L494 606L216 606Z"  horiz-adv-x="576" vert-adv-y="1000"  />

      
      <glyph glyph-name="uni0102" unicode="&#x0102;" d="M-58 0L326 714L446 714L529 0L424 0L402 207L164 207L57 0L-58 0M212 301L393 301L378 461Q375 496 372 537Q369 578 368 612L366 612Q351 577 333 539Q315 501 294 460L212 301M396 781Q332 781 297 813.50Q262 846 262 899Q262 914 264 924L326 924Q326 894 343.50 878.50Q361 863 404 863Q448 863 471 878.50Q494 894 502 924L568 924Q552 850 509 815.50Q466 781 396 781Z"  horiz-adv-x="581" vert-adv-y="1000"  />

      
      <glyph glyph-name="uni0103" unicode="&#x0103;" d="M194-10Q132-10 89.50 36Q47 82 47 177Q47 250 65.50 316.50Q84 383 119 435.50Q154 488 201.50 518.50Q249 549 307 549Q359 549 392 522.50Q425 496 442 460L447 460L477 539L558 539L443 0L362 0L373 91L369 91Q336 49 292.50 19.50Q249-10 194-10M232 77Q267 77 299.50 102.50Q332 128 358 172Q384 216 397 269Q403 295 405.50 318Q408 341 408 363Q408 406 384.50 434Q361 462 321 462Q285 462 255 438.50Q225 415 202 374.50Q179 334 166.50 283.50Q154 233 154 178Q154 127 174.50 102Q195 77 232 77M356 606Q292 606 257 638.50Q222 671 222 724Q222 739 224 749L286 749Q286 719 303.50 703.50Q321 688 364 688Q408 688 431 703.50Q454 719 462 749L528 749Q512 675 469 640.50Q426 606 356 606Z"  horiz-adv-x="576" vert-adv-y="1000"  />

      
      <glyph glyph-name="uni0104" unicode="&#x0104;" d="M-58 0L326 714L446 714L529 0L424 0L402 207L164 207L57 0L-58 0M212 301L393 301L378 461Q375 496 372 537Q369 578 368 612L366 612Q351 577 333 539Q315 501 294 460L212 301M415-224Q373-224 346.50-202.50Q320-181 320-139Q320-92 349.50-60Q379-28 424 0L496 0Q475-17 453.50-36Q432-55 417.50-77Q403-99 403-125Q403-157 435-157Q446-157 457-155Q468-153 478-151L478-215Q449-224 415-224Z"  horiz-adv-x="581" vert-adv-y="1000"  />

      
      <glyph glyph-name="uni0105" unicode="&#x0105;" d="M194-10Q132-10 89.50 36Q47 82 47 177Q47 250 65.50 316.50Q84 383 119 435.50Q154 488 201.50 518.50Q249 549 307 549Q359 549 392 522.50Q425 496 442 460L447 460L477 539L558 539L443 0L362 0L373 91L369 91Q336 49 292.50 19.50Q249-10 194-10M232 77Q267 77 299.50 102.50Q332 128 358 172Q384 216 397 269Q403 295 405.50 318Q408 341 408 363Q408 406 384.50 434Q361 462 321 462Q285 462 255 438.50Q225 415 202 374.50Q179 334 166.50 283.50Q154 233 154 178Q154 127 174.50 102Q195 77 232 77M352-224Q310-224 283.50-202.50Q257-181 257-139Q257-92 286.50-60Q316-28 361 0L433 0Q412-17 390.50-36Q369-55 354.50-77Q340-99 340-125Q340-157 372-157Q383-157 394-155Q405-153 415-151L415-215Q386-224 352-224Z"  horiz-adv-x="576" vert-adv-y="1000"  />

      
      <glyph glyph-name="uni0106" unicode="&#x0106;" d="M325-10Q202-10 135 64Q68 138 68 265Q68 329 83 394.50Q98 460 128.50 519Q159 578 204.50 624.50Q250 671 312.50 697.50Q375 724 453 724Q509 724 553.50 713.50Q598 703 638 681L595 593Q566 609 532 620Q498 631 453 631Q383 631 331.50 599Q280 567 246.50 513.50Q213 460 196.50 396Q180 332 180 269Q180 181 222.50 132Q265 83 345 83Q386 83 426 92Q466 101 505 115L505 22Q469 9 426-0.50Q383-10 325-10M394 794Q420 822 451.50 864.50Q483 907 505 941L624 941L624 932Q610 914 581.50 885.50Q553 857 521 828Q489 799 463 781L394 781L394 794Z"  horiz-adv-x="594" vert-adv-y="1000"  />

      
      <glyph glyph-name="uni0107" unicode="&#x0107;" d="M247-10Q159-10 103 39Q47 88 47 190Q47 263 66 327.50Q85 392 122 442Q159 492 211.50 520.50Q264 549 329 549Q369 549 404.50 541.50Q440 534 470 520L440 436Q418 445 391 453.50Q364 462 332 462Q278 462 238 424.50Q198 387 176 326Q154 265 154 195Q154 138 182.50 107.50Q211 77 262 77Q298 77 329.50 87Q361 97 393 112L393 24Q363 9 327-0.50Q291-10 247-10M265 619Q291 647 322.50 689.50Q354 732 376 766L495 766L495 757Q481 739 452.50 710.50Q424 682 392 653Q360 624 334 606L265 606L265 619Z"  horiz-adv-x="462" vert-adv-y="1000"  />

      
      <glyph glyph-name="uni0108" unicode="&#x0108;" d="M325-10Q202-10 135 64Q68 138 68 265Q68 329 83 394.50Q98 460 128.50 519Q159 578 204.50 624.50Q250 671 312.50 697.50Q375 724 453 724Q509 724 553.50 713.50Q598 703 638 681L595 593Q566 609 532 620Q498 631 453 631Q383 631 331.50 599Q280 567 246.50 513.50Q213 460 196.50 396Q180 332 180 269Q180 181 222.50 132Q265 83 345 83Q386 83 426 92Q466 101 505 115L505 22Q469 9 426-0.50Q383-10 325-10M279 794Q297 810 324.50 836Q352 862 379 890.50Q406 919 421 941L529 941Q544 903 569.50 863Q595 823 614 794L614 781L546 781Q529 797 508 820.50Q487 844 467 869Q438 843 408.50 821Q379 799 352 781L279 781L279 794Z"  horiz-adv-x="594" vert-adv-y="1000"  />

      
      <glyph glyph-name="uni0109" unicode="&#x0109;" d="M247-10Q159-10 103 39Q47 88 47 190Q47 263 66 327.50Q85 392 122 442Q159 492 211.50 520.50Q264 549 329 549Q369 549 404.50 541.50Q440 534 470 520L440 436Q418 445 391 453.50Q364 462 332 462Q278 462 238 424.50Q198 387 176 326Q154 265 154 195Q154 138 182.50 107.50Q211 77 262 77Q298 77 329.50 87Q361 97 393 112L393 24Q363 9 327-0.50Q291-10 247-10M150 619Q168 635 195.50 661Q223 687 250 715.50Q277 744 292 766L400 766Q415 728 440.50 688Q466 648 485 619L485 606L417 606Q400 622 379 645.50Q358 669 338 694Q309 668 279.50 646Q250 624 223 606L150 606L150 619Z"  horiz-adv-x="462" vert-adv-y="1000"  />

      
      <glyph glyph-name="uni010A" unicode="&#x010A;" d="M325-10Q202-10 135 64Q68 138 68 265Q68 329 83 394.50Q98 460 128.50 519Q159 578 204.50 624.50Q250 671 312.50 697.50Q375 724 453 724Q509 724 553.50 713.50Q598 703 638 681L595 593Q566 609 532 620Q498 631 453 631Q383 631 331.50 599Q280 567 246.50 513.50Q213 460 196.50 396Q180 332 180 269Q180 181 222.50 132Q265 83 345 83Q386 83 426 92Q466 101 505 115L505 22Q469 9 426-0.50Q383-10 325-10M463 797Q439 797 423 809.50Q407 822 407 848Q407 878 425 898Q443 918 475 918Q500 918 514.50 905.50Q529 893 529 869Q529 836 510 816.50Q491 797 463 797Z"  horiz-adv-x="594" vert-adv-y="1000"  />

      
      <glyph glyph-name="uni010B" unicode="&#x010B;" d="M247-10Q159-10 103 39Q47 88 47 190Q47 263 66 327.50Q85 392 122 442Q159 492 211.50 520.50Q264 549 329 549Q369 549 404.50 541.50Q440 534 470 520L440 436Q418 445 391 453.50Q364 462 332 462Q278 462 238 424.50Q198 387 176 326Q154 265 154 195Q154 138 182.50 107.50Q211 77 262 77Q298 77 329.50 87Q361 97 393 112L393 24Q363 9 327-0.50Q291-10 247-10M334 622Q310 622 294 634.50Q278 647 278 673Q278 703 296 723Q314 743 346 743Q371 743 385.50 730.50Q400 718 400 694Q400 661 381 641.50Q362 622 334 622Z"  horiz-adv-x="462" vert-adv-y="1000"  />

      
      <glyph glyph-name="uni010C" unicode="&#x010C;" d="M325-10Q202-10 135 64Q68 138 68 265Q68 329 83 394.50Q98 460 128.50 519Q159 578 204.50 624.50Q250 671 312.50 697.50Q375 724 453 724Q509 724 553.50 713.50Q598 703 638 681L595 593Q566 609 532 620Q498 631 453 631Q383 631 331.50 599Q280 567 246.50 513.50Q213 460 196.50 396Q180 332 180 269Q180 181 222.50 132Q265 83 345 83Q386 83 426 92Q466 101 505 115L505 22Q469 9 426-0.50Q383-10 325-10M399 781Q385 818 360 858.50Q335 899 316 928L316 941L382 941Q401 925 421.50 901.50Q442 878 461 853Q491 879 521 901Q551 923 579 941L650 941L650 928Q632 912 604.50 886Q577 860 550.50 831.50Q524 803 508 781L399 781Z"  horiz-adv-x="594" vert-adv-y="1000"  />

      
      <glyph glyph-name="uni010D" unicode="&#x010D;" d="M247-10Q159-10 103 39Q47 88 47 190Q47 263 66 327.50Q85 392 122 442Q159 492 211.50 520.50Q264 549 329 549Q369 549 404.50 541.50Q440 534 470 520L440 436Q418 445 391 453.50Q364 462 332 462Q278 462 238 424.50Q198 387 176 326Q154 265 154 195Q154 138 182.50 107.50Q211 77 262 77Q298 77 329.50 87Q361 97 393 112L393 24Q363 9 327-0.50Q291-10 247-10M269 606Q255 643 230 683.50Q205 724 186 753L186 766L252 766Q271 750 291.50 726.50Q312 703 331 678Q361 704 391 726Q421 748 449 766L520 766L520 753Q502 737 474.50 711Q447 685 420.50 656.50Q394 628 378 606L269 606Z"  horiz-adv-x="462" vert-adv-y="1000"  />

      
      <glyph glyph-name="uni010E" unicode="&#x010E;" d="M37 0L188 714L364 714Q493 714 566 644Q639 574 639 433Q639 306 591 208.50Q543 111 450.50 55.50Q358 0 226 0L37 0M231 91Q328 91 394 137Q460 183 494 260Q528 337 528 432Q528 532 480 577.50Q432 623 352 623L275 623L162 91L231 91M386 781Q372 818 347 858.50Q322 899 303 928L303 941L369 941Q388 925 408.50 901.50Q429 878 448 853Q478 879 508 901Q538 923 566 941L637 941L637 928Q619 912 591.50 886Q564 860 537.50 831.50Q511 803 495 781L386 781Z"  horiz-adv-x="670" vert-adv-y="1000"  />

      
      <glyph glyph-name="uni010F" unicode="&#x010F;" d="M614 613Q625 630 638 656.50Q651 683 663 711Q675 739 683 760L782 760L782 750Q774 732 757 705.50Q740 679 718 650.50Q696 622 675 600L614 600L614 613M194-10Q132-10 89.50 35.50Q47 81 47 178Q47 249 65 315.50Q83 382 117 434.50Q151 487 199 517.50Q247 548 307 548Q359 548 390 522Q421 496 439 460L443 460Q447 485 451 518Q455 551 463 585L500 760L604 760L443 0L360 0L370 91L366 91Q332 48 291 19Q250-10 194-10M234 77Q267 77 298.50 101.50Q330 126 355 167.50Q380 209 394.50 259.50Q409 310 409 360Q409 406 387 434Q365 462 318 462Q282 462 252 437.50Q222 413 200 372Q178 331 166 280.50Q154 230 154 178Q154 77 234 77Z"  horiz-adv-x="631" vert-adv-y="1000"  />

      
      <glyph glyph-name="uni0110" unicode="&#x0110;" d="M37 0L100 308L29 308L49 399L120 399L188 714L364 714Q493 714 566 644Q639 574 639 433Q639 306 591 208.50Q543 111 450.50 55.50Q358 0 226 0L37 0M231 91Q328 91 394 137Q460 183 494 260Q528 337 528 432Q528 532 480 577.50Q432 623 352 623L275 623L228 399L373 399L353 308L208 308L162 91L231 91Z"  horiz-adv-x="670" vert-adv-y="1000"  />

      
      <glyph glyph-name="uni0111" unicode="&#x0111;" d="M196-10Q130-10 88.50 37Q47 84 47 178Q47 246 64 310.50Q81 375 114 427Q147 479 194.50 509.50Q242 540 303 540Q356 540 388.50 514.50Q421 489 437 454L442 454Q444 471 447 496Q450 521 454 543L465 598L297 598L312 673L482 673L500 760L604 760L586 673L660 673L644 598L570 598L443 0L360 0L370 91L366 91Q333 50 292 20Q251-10 196-10M235 77Q267 77 298 100.50Q329 124 354 163.50Q379 203 394 252.50Q409 302 409 354Q409 398 387 426Q365 454 318 454Q281 454 251 430Q221 406 199.50 366.50Q178 327 166 278Q154 229 154 178Q154 77 235 77Z"  horiz-adv-x="583" vert-adv-y="1000"  />

      
      <glyph glyph-name="uni0112" unicode="&#x0112;" d="M37 0L188 714L560 714L541 622L275 622L232 418L480 418L462 327L213 327L162 93L429 93L409 0L37 0M240 781L257 861L536 861L518 781L240 781Z"  horiz-adv-x="522" vert-adv-y="1000"  />

      
      <glyph glyph-name="uni0113" unicode="&#x0113;" d="M247-10Q153-10 100 44Q47 98 47 195Q47 260 65.50 323Q84 386 120 437Q156 488 208 518.50Q260 549 326 549Q406 549 447 513Q488 477 488 417Q488 363 455 320Q422 277 352.50 252.50Q283 228 174 228L155 228Q153 209 153 196Q153 139 181.50 106.50Q210 74 267 74Q306 74 340.50 84.50Q375 95 418 116L418 30Q378 12 339.50 1Q301-10 247-10M180 307Q239 307 285.50 318Q332 329 358.50 352Q385 375 385 411Q385 436 369 451Q353 466 320 466Q274 466 231 423.50Q188 381 169 307L180 307M193 606L210 686L489 686L471 606L193 606Z"  horiz-adv-x="516" vert-adv-y="1000"  />

      
      <glyph glyph-name="uni0114" unicode="&#x0114;" d="M37 0L188 714L560 714L541 622L275 622L232 418L480 418L462 327L213 327L162 93L429 93L409 0L37 0M380 781Q316 781 281 813.50Q246 846 246 899Q246 914 248 924L310 924Q310 894 327.50 878.50Q345 863 388 863Q432 863 455 878.50Q478 894 486 924L552 924Q536 850 493 815.50Q450 781 380 781Z"  horiz-adv-x="522" vert-adv-y="1000"  />

      
      <glyph glyph-name="uni0115" unicode="&#x0115;" d="M247-10Q153-10 100 44Q47 98 47 195Q47 260 65.50 323Q84 386 120 437Q156 488 208 518.50Q260 549 326 549Q406 549 447 513Q488 477 488 417Q488 363 455 320Q422 277 352.50 252.50Q283 228 174 228L155 228Q153 209 153 196Q153 139 181.50 106.50Q210 74 267 74Q306 74 340.50 84.50Q375 95 418 116L418 30Q378 12 339.50 1Q301-10 247-10M180 307Q239 307 285.50 318Q332 329 358.50 352Q385 375 385 411Q385 436 369 451Q353 466 320 466Q274 466 231 423.50Q188 381 169 307L180 307M333 606Q269 606 234 638.50Q199 671 199 724Q199 739 201 749L263 749Q263 719 280.50 703.50Q298 688 341 688Q385 688 408 703.50Q431 719 439 749L505 749Q489 675 446 640.50Q403 606 333 606Z"  horiz-adv-x="516" vert-adv-y="1000"  />

      
      <glyph glyph-name="uni0116" unicode="&#x0116;" d="M37 0L188 714L560 714L541 622L275 622L232 418L480 418L462 327L213 327L162 93L429 93L409 0L37 0M391 797Q367 797 351 809.50Q335 822 335 848Q335 878 353 898Q371 918 403 918Q428 918 442.50 905.50Q457 893 457 869Q457 836 438 816.50Q419 797 391 797Z"  horiz-adv-x="522" vert-adv-y="1000"  />

      
      <glyph glyph-name="uni0117" unicode="&#x0117;" d="M247-10Q153-10 100 44Q47 98 47 195Q47 260 65.50 323Q84 386 120 437Q156 488 208 518.50Q260 549 326 549Q406 549 447 513Q488 477 488 417Q488 363 455 320Q422 277 352.50 252.50Q283 228 174 228L155 228Q153 209 153 196Q153 139 181.50 106.50Q210 74 267 74Q306 74 340.50 84.50Q375 95 418 116L418 30Q378 12 339.50 1Q301-10 247-10M180 307Q239 307 285.50 318Q332 329 358.50 352Q385 375 385 411Q385 436 369 451Q353 466 320 466Q274 466 231 423.50Q188 381 169 307L180 307M344 622Q320 622 304 634.50Q288 647 288 673Q288 703 306 723Q324 743 356 743Q381 743 395.50 730.50Q410 718 410 694Q410 661 391 641.50Q372 622 344 622Z"  horiz-adv-x="516" vert-adv-y="1000"  />

      
      <glyph glyph-name="uni0118" unicode="&#x0118;" d="M37 0L188 714L560 714L541 622L275 622L232 418L480 418L462 327L213 327L162 93L429 93L409 0L37 0M298-224Q256-224 229.50-202.50Q203-181 203-139Q203-92 232.50-60Q262-28 307 0L379 0Q358-17 336.50-36Q315-55 300.50-77Q286-99 286-125Q286-157 318-157Q329-157 340-155Q351-153 361-151L361-215Q332-224 298-224Z"  horiz-adv-x="522" vert-adv-y="1000"  />

      
      <glyph glyph-name="uni0119" unicode="&#x0119;" d="M247-10Q153-10 100 44Q47 98 47 195Q47 260 65.50 323Q84 386 120 437Q156 488 208 518.50Q260 549 326 549Q406 549 447 513Q488 477 488 417Q488 363 455 320Q422 277 352.50 252.50Q283 228 174 228L155 228Q153 209 153 196Q153 139 181.50 106.50Q210 74 267 74Q306 74 340.50 84.50Q375 95 418 116L418 30Q401 22 386 16Q343-18 311-53Q279-88 279-125Q279-157 311-157Q322-157 332.50-155Q343-153 354-151L354-215Q325-224 290-224Q249-224 222.50-202.50Q196-181 196-139Q196-96 221.50-65.50Q247-35 287-8Q268-10 247-10M180 307Q239 307 285.50 318Q332 329 358.50 352Q385 375 385 411Q385 436 369 451Q353 466 320 466Q274 466 231 423.50Q188 381 169 307L180 307Z"  horiz-adv-x="516" vert-adv-y="1000"  />

      
      </font>
</defs>
</svg>
