<?xml version="1.0" standalone="no"?>
  <!DOCTYPE svg PUBLIC "-//W3C//DTD SVG 1.1//EN" "http://www.w3.org/Graphics/SVG/1.1/DTD/svg11.dtd" >
  <svg>
  <metadata>
  Created by font-carrier
  </metadata>
  <defs>
  <font id="NotoSans-Medium" horiz-adv-x="2840" vert-adv-y="2840" >
    <font-face
      
      font-family="Noto Sans Medium"
      
      font-weight="400"
      
      font-stretch="normal"
      
      units-per-em="1000"
      
      ascent="1069"
      
      descent="-293"
      
    />
      <missing-glyph />

      

      
      <glyph glyph-name="uni21" unicode="&#x21;" d="M175 212L100 212L75 714L200 714L175 212M68 59Q68 98 88 114Q108 130 137 130Q164 130 184.50 114Q205 98 205 59Q205 20 184.50 3Q164-14 137-14Q108-14 88 3Q68 20 68 59Z"  horiz-adv-x="274" vert-adv-y="1000"  />

      
      <glyph glyph-name="uni22" unicode="&#x22;" d="M172 714L152 456L85 456L65 714L172 714M362 714L342 456L275 456L255 714L362 714Z"  horiz-adv-x="427" vert-adv-y="1000"  />

      
      <glyph glyph-name="uni23" unicode="&#x23;" d="M482 429L454 283L587 283L587 206L439 206L399 0L317 0L357 206L228 206L190 0L110 0L147 206L24 206L24 283L162 283L191 429L61 429L61 506L205 506L244 714L327 714L287 506L418 506L457 714L537 714L497 506L621 506L621 429L482 429M243 283L372 283L401 429L272 429L243 283Z"  horiz-adv-x="646" vert-adv-y="1000"  />

      
      <glyph glyph-name="uni24" unicode="&#x24;" d="M253 46Q195 47 143.50 56.50Q92 66 57 82L57 180Q93 163 147.50 149.50Q202 136 253 135L253 322Q149 354 102.50 395.50Q56 437 56 509Q56 583 110 626Q164 669 253 675L253 759L318 759L318 676Q372 674 417 664Q462 654 502 637L469 551Q434 565 395 574.50Q356 584 318 587L318 403Q380 383 425.50 361Q471 339 496 306Q521 273 521 221Q521 150 469 105Q417 60 318 50L318-58L253-58L253 46M253 585Q206 581 183 562.50Q160 544 160 514Q160 480 180.50 460.50Q201 441 253 426L253 585M318 139Q369 145 393 164.50Q417 184 417 215Q417 247 395.50 265Q374 283 318 299L318 139Z"  horiz-adv-x="572" vert-adv-y="1000"  />

      
      <glyph glyph-name="uni25" unicode="&#x25;" d="M196 724Q273 724 312.50 665.50Q352 607 352 501Q352 395 314.50 335.50Q277 276 196 276Q122 276 83 335.50Q44 395 44 501Q44 607 80.50 665.50Q117 724 196 724M668 714L272 0L183 0L579 714L668 714M196 650Q131 650 131 501Q131 350 196 350Q265 350 265 501Q265 650 196 650M652 438Q728 438 768 379.50Q808 321 808 215Q808 110 770.50 50Q733-10 652-10Q577-10 538 50Q499 110 499 215Q499 321 535.50 379.50Q572 438 652 438M652 364Q587 364 587 215Q587 65 652 65Q720 65 720 215Q720 364 652 364Z"  horiz-adv-x="852" vert-adv-y="1000"  />

      
      <glyph glyph-name="uni26" unicode="&#x26;" d="M306 725Q388 725 437.50 684.50Q487 644 487 570Q487 506 446 461Q405 416 344 380L521 209Q545 241 561 280.50Q577 320 588 365L696 365Q681 303 655 245.50Q629 188 590 142L736 0L598 0L520 75Q474 37 417.50 13.50Q361-10 284-10Q175-10 112 42.50Q49 95 49 188Q49 264 88.50 310.50Q128 357 196 396Q162 434 138 474.50Q114 515 114 566Q114 640 166 682.50Q218 725 306 725M303 640Q266 640 241 620.50Q216 601 216 564Q216 531 233 502.50Q250 474 281 441Q336 472 360.50 500Q385 528 385 566Q385 600 362 620Q339 640 303 640M259 331Q213 302 186.50 271.50Q160 241 160 194Q160 143 195.50 112.50Q231 82 289 82Q344 82 384.50 99Q425 116 454 141L259 331Z"  horiz-adv-x="737" vert-adv-y="1000"  />

      
      <glyph glyph-name="uni27" unicode="&#x27;" d="M172 714L152 456L85 456L65 714L172 714Z"  horiz-adv-x="237" vert-adv-y="1000"  />

      
      <glyph glyph-name="uni28" unicode="&#x28;" d="M40 274Q40 396 75.50 509.50Q111 623 187 714L282 714Q212 620 176.50 507Q141 394 141 275Q141 159 176.50 47Q212-65 281-158L187-158Q111-70 75.50 41.50Q40 153 40 274Z"  horiz-adv-x="312" vert-adv-y="1000"  />

      
      <glyph glyph-name="uni29" unicode="&#x29;" d="M272 274Q272 153 236 41.50Q200-70 125-158L31-158Q100-65 135 47Q170 159 170 275Q170 394 134.50 507Q99 620 30 714L125 714Q200 623 236 509.50Q272 396 272 274Z"  horiz-adv-x="312" vert-adv-y="1000"  />

      
      <glyph glyph-name="uni2a" unicode="&#x2a;" d="M326 760L306 572L495 625L510 524L331 509L447 355L354 305L271 473L197 305L101 355L215 509L38 524L54 625L240 572L219 760L326 760Z"  horiz-adv-x="549" vert-adv-y="1000"  />

      
      <glyph glyph-name="uni2b" unicode="&#x2b;" d="M326 393L522 393L522 312L326 312L326 111L244 111L244 312L48 312L48 393L244 393L244 595L326 595L326 393Z"  horiz-adv-x="572" vert-adv-y="1000"  />

      
      <glyph glyph-name="uni2c" unicode="&#x2c;" d="M201 105Q188 52 164-11.50Q140-75 115-129L38-129Q52-71 66-3.50Q80 64 88 116L194 116L201 105Z"  horiz-adv-x="273" vert-adv-y="1000"  />

      
      <glyph glyph-name="uni2d" unicode="&#x2d;" d="M37 223L37 313L285 313L285 223L37 223Z"  horiz-adv-x="322" vert-adv-y="1000"  />

      
      <glyph glyph-name="uni2e" unicode="&#x2e;" d="M68 59Q68 98 87.50 114Q107 130 136 130Q164 130 184.50 114Q205 98 205 59Q205 20 184.50 3Q164-14 136-14Q107-14 87.50 3Q68 20 68 59Z"  horiz-adv-x="273" vert-adv-y="1000"  />

      
      <glyph glyph-name="uni2f" unicode="&#x2f;" d="M376 714L110 0L9 0L275 714L376 714Z"  horiz-adv-x="384" vert-adv-y="1000"  />

      
      <glyph glyph-name="uni30" unicode="&#x30;" d="M527 358Q527 242 502.50 160Q478 78 425 34Q372-10 285-10Q162-10 103.50 87.50Q45 185 45 358Q45 473 68.50 555.50Q92 638 145 681.50Q198 725 285 725Q407 725 467 628.50Q527 532 527 358M151 358Q151 218 181 148.50Q211 79 285 79Q358 79 389 148Q420 217 420 358Q420 497 389 566.50Q358 636 285 636Q211 636 181 566.50Q151 497 151 358Z"  horiz-adv-x="572" vert-adv-y="1000"  />

      
      <glyph glyph-name="uni31" unicode="&#x31;" d="M372 0L267 0L267 474Q267 511 268 542Q269 573 271 602Q258 589 244 576.50Q230 564 212 549L134 486L80 554L284 714L372 714L372 0Z"  horiz-adv-x="572" vert-adv-y="1000"  />

      
      <glyph glyph-name="uni32" unicode="&#x32;" d="M526 0L46 0L46 82L230 269Q284 324 320 364.50Q356 405 374 442.50Q392 480 392 524Q392 578 360 606Q328 634 277 634Q228 634 189 616Q150 598 108 564L51 635Q94 671 149 697.50Q204 724 280 724Q382 724 440.50 672Q499 620 499 533Q499 476 476 427.50Q453 379 411 331Q369 283 312 228L179 99L179 94L526 94L526 0Z"  horiz-adv-x="572" vert-adv-y="1000"  />

      
      <glyph glyph-name="uni33" unicode="&#x33;" d="M498 549Q498 476 456.50 433Q415 390 349 376L349 372Q434 362 477 318.50Q520 275 520 204Q520 142 490.50 93.50Q461 45 399.50 17.50Q338-10 242-10Q185-10 136-1Q87 8 43 29L43 125Q88 102 139.50 90Q191 78 238 78Q329 78 369 112.50Q409 147 409 209Q409 269 361 297Q313 325 217 325L152 325L152 412L218 412Q309 412 350 446Q391 480 391 535Q391 583 359.50 609.50Q328 636 269 636Q214 636 173.50 619Q133 602 98 578L46 651Q85 681 141.50 702.50Q198 724 272 724Q383 724 440.50 675.50Q498 627 498 549Z"  horiz-adv-x="572" vert-adv-y="1000"  />

      
      <glyph glyph-name="uni34" unicode="&#x34;" d="M553 158L454 158L454 0L351 0L351 158L20 158L20 242L349 717L454 717L454 248L553 248L553 158M351 442Q351 489 353 530.50Q355 572 356 600L352 600Q344 580 332.50 559Q321 538 309 522L120 248L351 248L351 442Z"  horiz-adv-x="572" vert-adv-y="1000"  />

      
      <glyph glyph-name="uni35" unicode="&#x35;" d="M282 443Q388 443 453 388Q518 333 518 231Q518 119 447 54.50Q376-10 246-10Q190-10 141.50 0Q93 10 59 29L59 126Q95 105 146.50 92Q198 79 245 79Q320 79 365 113.50Q410 148 410 221Q410 286 369.50 320.50Q329 355 242 355Q213 355 179 350Q145 345 124 340L75 369L102 714L469 714L469 620L194 620L178 433Q195 436 221 439.50Q247 443 282 443Z"  horiz-adv-x="572" vert-adv-y="1000"  />

      
      <glyph glyph-name="uni36" unicode="&#x36;" d="M49 304Q49 366 57.50 426.50Q66 487 87.50 540.50Q109 594 147 635Q185 676 243.50 699.50Q302 723 385 723Q406 723 432 721Q458 719 476 715L476 626Q438 638 390 638Q321 638 276 617Q231 596 205 559Q179 522 167 473Q155 424 152 368L158 368Q180 404 220 428Q260 452 323 452Q416 452 472.50 394.50Q529 337 529 232Q529 119 466.50 54.50Q404-10 297-10Q228-10 171.50 24Q115 58 82 127.50Q49 197 49 304M296 78Q353 78 389 115.50Q425 153 425 232Q425 295 393.50 332Q362 369 299 369Q256 369 224 351Q192 333 174 305Q156 277 156 248Q156 207 172 168Q188 129 219 103.50Q250 78 296 78Z"  horiz-adv-x="572" vert-adv-y="1000"  />

      
      <glyph glyph-name="uni37" unicode="&#x37;" d="M129 0L414 620L39 620L39 714L528 714L528 638L244 0L129 0Z"  horiz-adv-x="572" vert-adv-y="1000"  />

      
      <glyph glyph-name="uni38" unicode="&#x38;" d="M285 724Q348 724 397 704.50Q446 685 474.50 647Q503 609 503 552Q503 488 464 447Q425 406 370 378Q412 357 447.50 330.50Q483 304 504.50 268.50Q526 233 526 185Q526 125 496.50 81.50Q467 38 413 14Q359-10 287-10Q171-10 108 40.50Q45 91 45 182Q45 230 65 266.50Q85 303 118 329Q151 355 190 373Q138 403 103 445.50Q68 488 68 553Q68 609 97 646.50Q126 684 175 704Q224 724 285 724M284 641Q234 641 202 616.50Q170 592 170 547Q170 497 204.50 469.50Q239 442 288 420Q335 440 367.50 468.50Q400 497 400 547Q400 592 368 616.50Q336 641 284 641M147 184Q147 136 181 104Q215 72 285 72Q353 72 388.50 103.50Q424 135 424 185Q424 234 385.50 266Q347 298 288 323L273 329Q212 303 179.50 268.50Q147 234 147 184Z"  horiz-adv-x="572" vert-adv-y="1000"  />

      
      <glyph glyph-name="uni39" unicode="&#x39;" d="M525 409Q525 348 516.50 287.50Q508 227 486.50 173.50Q465 120 427 78.50Q389 37 330 13.50Q271-10 188-10Q167-10 140-8Q113-6 96-1L96 88Q136 76 184 76Q252 76 297.50 96.50Q343 117 369 154Q395 191 407 240Q419 289 421 344L415 344Q393 310 354 285.50Q315 261 249 261Q156 261 100.50 318.50Q45 376 45 480Q45 593 108 658Q171 723 277 723Q347 723 403 689Q459 655 492 585.50Q525 516 525 409M278 636Q221 636 185 598Q149 560 149 482Q149 418 180 381Q211 344 274 344Q318 344 350 362Q382 380 400 408Q418 436 418 466Q418 506 402.50 545Q387 584 355.50 610Q324 636 278 636Z"  horiz-adv-x="572" vert-adv-y="1000"  />

      
      <glyph glyph-name="uni3a" unicode="&#x3a;" d="M68 479Q68 519 87.50 535.50Q107 552 136 552Q164 552 184.50 535.50Q205 519 205 479Q205 441 184.50 424Q164 407 136 407Q107 407 87.50 424Q68 441 68 479M68 59Q68 98 87.50 114Q107 130 136 130Q164 130 184.50 114Q205 98 205 59Q205 20 184.50 3Q164-14 136-14Q107-14 87.50 3Q68 20 68 59Z"  horiz-adv-x="273" vert-adv-y="1000"  />

      
      <glyph glyph-name="uni3b" unicode="&#x3b;" d="M66 479Q66 519 86 535.50Q106 552 135 552Q163 552 183.50 535.50Q204 519 204 479Q204 441 183.50 424Q163 407 135 407Q106 407 86 424Q66 441 66 479M195 105Q182 52 157.50-11.50Q133-75 109-129L31-129Q41-91 50.50-47.50Q60-4 68 38.50Q76 81 81 116L188 116L195 105Z"  horiz-adv-x="273" vert-adv-y="1000"  />

      
      <glyph glyph-name="uni3c" unicode="&#x3c;" d="M523 111L48 320L48 376L523 613L523 524L159 352L523 200L523 111Z"  horiz-adv-x="572" vert-adv-y="1000"  />

      
      <glyph glyph-name="uni3d" unicode="&#x3d;" d="M52 410L52 491L518 491L518 410L52 410M52 213L52 295L518 295L518 213L52 213Z"  horiz-adv-x="572" vert-adv-y="1000"  />

      
      <glyph glyph-name="uni3e" unicode="&#x3e;" d="M48 200L412 352L48 524L48 613L523 376L523 320L48 111L48 200Z"  horiz-adv-x="572" vert-adv-y="1000"  />

      
      <glyph glyph-name="uni3f" unicode="&#x3f;" d="M139 241Q139 296 157.50 331.50Q176 367 225 407Q261 436 282 456.50Q303 477 311.50 497Q320 517 320 545Q320 588 291.50 611Q263 634 209 634Q162 634 123 621.50Q84 609 47 591L9 671Q52 694 103 709Q154 724 216 724Q314 724 367.50 676Q421 628 421 548Q421 505 407 473.50Q393 442 366.50 416Q340 390 304 360Q271 334 254.50 315Q238 296 232 277Q226 258 226 232L226 212L139 212L139 241M118 59Q118 98 137.50 114Q157 130 187 130Q214 130 234.50 114Q255 98 255 59Q255 20 234.50 3Q214-14 187-14Q157-14 137.50 3Q118 20 118 59Z"  horiz-adv-x="447" vert-adv-y="1000"  />

      
      <glyph glyph-name="uni40" unicode="&#x40;" d="M843 357Q843 311 832 267Q821 223 799.50 187Q778 151 745 129.50Q712 108 667 108Q624 108 597 131.50Q570 155 563 188L557 188Q538 155 503.50 131.50Q469 108 418 108Q338 108 294.50 159.50Q251 211 251 296Q251 362 277.50 413Q304 464 353.50 493Q403 522 470 522Q515 522 559.50 514.50Q604 507 630 497L620 294Q619 278 619 269.50Q619 261 619 258Q619 209 635.50 193.50Q652 178 673 178Q702 178 721.50 202.50Q741 227 751.50 268Q762 309 762 358Q762 448 725.50 511Q689 574 625.50 607Q562 640 481 640Q370 640 293.50 594Q217 548 177.50 468Q138 388 138 284Q138 140 214.50 63Q291-14 435-14Q495-14 552.50-0.50Q610 13 656 30L656-46Q612-64 556.50-76Q501-88 436-88Q316-88 231-44Q146 0 101 82.50Q56 165 56 281Q56 374 85 453Q114 532 169.50 590.50Q225 649 303.50 681.50Q382 714 481 714Q586 714 667.50 671Q749 628 796 548Q843 468 843 357M339 294Q339 233 363.50 205.50Q388 178 430 178Q484 178 507.50 218.50Q531 259 535 323L541 443Q528 446 510 449Q492 452 472 452Q424 452 394.50 429Q365 406 352 370Q339 334 339 294Z"  horiz-adv-x="898" vert-adv-y="1000"  />

      
      <glyph glyph-name="uni41" unicode="&#x41;" d="M540 0L464 206L188 206L112 0L0 0L271 717L383 717L653 0L540 0M362 501Q359 512 351.50 534Q344 556 337 580Q330 604 326 619Q318 588 308 553Q298 518 292 501L220 300L434 300L362 501Z"  horiz-adv-x="654" vert-adv-y="1000"  />

      
      <glyph glyph-name="uni42" unicode="&#x42;" d="M304 714Q440 714 510.50 674Q581 634 581 536Q581 473 547.50 431.50Q514 390 452 379L452 374Q494 367 528.50 348Q563 329 583 294.50Q603 260 603 204Q603 107 535 53.50Q467 0 351 0L95 0L95 714L304 714M322 416Q406 416 437.50 443Q469 470 469 523Q469 576 431 599.50Q393 623 310 623L203 623L203 416L322 416M203 328L203 90L334 90Q420 90 454.50 124Q489 158 489 214Q489 265 453.50 296.50Q418 328 327 328L203 328Z"  horiz-adv-x="656" vert-adv-y="1000"  />

      
      <glyph glyph-name="uni43" unicode="&#x43;" d="M400 631Q293 631 233 557.50Q173 484 173 356Q173 229 229 156Q285 83 399 83Q445 83 487.50 91.50Q530 100 574 114L574 21Q532 5 488.50-2.50Q445-10 386-10Q276-10 204 35.50Q132 81 96 163.50Q60 246 60 357Q60 465 99.50 548Q139 631 215 677.50Q291 724 401 724Q455 724 506.50 712.50Q558 701 601 680L561 590Q526 606 485.50 618.50Q445 631 400 631Z"  horiz-adv-x="633" vert-adv-y="1000"  />

      
      <glyph glyph-name="uni44" unicode="&#x44;" d="M673 364Q673 183 573.50 91.50Q474 0 295 0L95 0L95 714L316 714Q425 714 505 674Q585 634 629 556.50Q673 479 673 364M560 361Q560 496 494.50 559.50Q429 623 309 623L203 623L203 91L290 91Q560 91 560 361Z"  horiz-adv-x="733" vert-adv-y="1000"  />

      
      <glyph glyph-name="uni45" unicode="&#x45;" d="M497 0L95 0L95 714L497 714L497 622L203 622L203 418L479 418L479 327L203 327L203 93L497 93L497 0Z"  horiz-adv-x="557" vert-adv-y="1000"  />

      
      <glyph glyph-name="uni46" unicode="&#x46;" d="M202 0L95 0L95 714L497 714L497 622L202 622L202 389L478 389L478 297L202 297L202 0Z"  horiz-adv-x="528" vert-adv-y="1000"  />

      
      <glyph glyph-name="uni47" unicode="&#x47;" d="M393 384L651 384L651 28Q594 9 534.50-0.50Q475-10 399-10Q235-10 147.50 87.50Q60 185 60 357Q60 469 103.50 551.50Q147 634 230 679Q313 724 431 724Q490 724 544 712.50Q598 701 644 681L605 591Q568 607 522.50 619Q477 631 427 631Q308 631 240 557Q172 483 172 356Q172 275 197 213.50Q222 152 276 117Q330 82 417 82Q460 82 489.50 86.50Q519 91 544 97L544 291L393 291L393 384Z"  horiz-adv-x="727" vert-adv-y="1000"  />

      
      <glyph glyph-name="uni48" unicode="&#x48;" d="M652 0L544 0L544 326L203 326L203 0L95 0L95 714L203 714L203 418L544 418L544 714L652 714L652 0Z"  horiz-adv-x="748" vert-adv-y="1000"  />

      
      <glyph glyph-name="uni49" unicode="&#x49;" d="M315 0L38 0L38 62L123 87L123 626L38 652L38 714L315 714L315 652L231 626L231 87L315 62L315 0Z"  horiz-adv-x="354" vert-adv-y="1000"  />

      
      <glyph glyph-name="uni4a" unicode="&#x4a;" d="M2-196Q-24-196-43.50-192.50Q-63-189-77-183L-77-93Q-61-97-43-100Q-25-103-5-103Q20-103 42-93Q64-83 77.50-57Q91-31 91 16L91 714L199 714L199 21Q199-92 144.50-144Q90-196 2-196Z"  horiz-adv-x="290" vert-adv-y="1000"  />

      
      <glyph glyph-name="uni4b" unicode="&#x4b;" d="M632 0L507 0L273 329L203 271L203 0L95 0L95 714L203 714L203 369Q229 399 255 429.50Q281 460 307 490L500 714L624 714L351 402L632 0Z"  horiz-adv-x="632" vert-adv-y="1000"  />

      
      <glyph glyph-name="uni4c" unicode="&#x4c;" d="M95 0L95 714L203 714L203 93L508 93L508 0L95 0Z"  horiz-adv-x="536" vert-adv-y="1000"  />

      
      <glyph glyph-name="uni4d" unicode="&#x4d;" d="M406 0L190 607L186 607Q187 586 189 552.50Q191 519 192 480Q193 441 193 403L193 0L95 0L95 714L249 714L454 141L458 141L669 714L823 714L823 0L718 0L718 409Q718 443 719.50 480.50Q721 518 722.50 551Q724 584 725 606L721 606L499 0L406 0Z"  horiz-adv-x="918" vert-adv-y="1000"  />

      
      <glyph glyph-name="uni4e" unicode="&#x4e;" d="M681 0L550 0L189 577L185 577Q187 537 190 485.50Q193 434 193 380L193 0L95 0L95 714L225 714L585 140L588 140Q587 161 585.50 193Q584 225 583 261.50Q582 298 581 330L581 714L681 714L681 0Z"  horiz-adv-x="776" vert-adv-y="1000"  />

      
      <glyph glyph-name="uni4f" unicode="&#x4f;" d="M725 358Q725 247 688 164.50Q651 82 577 36Q503-10 393-10Q280-10 206 36Q132 82 96 165Q60 248 60 359Q60 469 96.50 551Q133 633 207 679Q281 725 394 725Q504 725 577.50 679.50Q651 634 688 551.50Q725 469 725 358M174 358Q174 230 227 156Q280 82 393 82Q507 82 559 156Q611 230 611 358Q611 486 559.50 559Q508 632 394 632Q280 632 227 559Q174 486 174 358Z"  horiz-adv-x="785" vert-adv-y="1000"  />

      
      <glyph glyph-name="uni50" unicode="&#x50;" d="M295 714Q435 714 499 657.50Q563 601 563 500Q563 440 536.50 388Q510 336 448 303.50Q386 271 280 271L203 271L203 0L95 0L95 714L295 714M287 623L203 623L203 362L268 362Q359 362 405.50 393Q452 424 452 496Q452 560 412 591.50Q372 623 287 623Z"  horiz-adv-x="612" vert-adv-y="1000"  />

      
      <glyph glyph-name="uni51" unicode="&#x51;" d="M725 358Q725 230 675.50 139Q626 48 527 12L698-170L550-170L414-9Q409-9 403.50-9.50Q398-10 393-10Q280-10 206 36Q132 82 96 165Q60 248 60 359Q60 469 96.50 551Q133 633 207 679Q281 725 394 725Q504 725 577.50 679.50Q651 634 688 551.50Q725 469 725 358M174 358Q174 230 227 156Q280 82 393 82Q507 82 559 156Q611 230 611 358Q611 486 559.50 559Q508 632 394 632Q280 632 227 559Q174 486 174 358Z"  horiz-adv-x="785" vert-adv-y="1000"  />

      
      <glyph glyph-name="uni52" unicode="&#x52;" d="M295 714Q432 714 497.50 663Q563 612 563 508Q563 453 542.50 415.50Q522 378 490 354.50Q458 331 423 317L623 0L499 0L327 289L203 289L203 0L95 0L95 714L295 714M288 622L203 622L203 379L293 379Q376 379 414 410.50Q452 442 452 504Q452 568 412 595Q372 622 288 622Z"  horiz-adv-x="633" vert-adv-y="1000"  />

      
      <glyph glyph-name="uni53" unicode="&#x53;" d="M505 193Q505 98 436 44Q367-10 247-10Q189-10 137.50-0.50Q86 9 50 27L50 129Q90 111 144 96.50Q198 82 254 82Q326 82 362 110Q398 138 398 185Q398 218 381.50 240.50Q365 263 330 282Q295 301 238 324Q185 344 144.50 371Q104 398 81 438Q58 478 58 536Q58 624 122 674Q186 724 290 724Q348 724 397.50 712.50Q447 701 492 681L458 592Q417 609 374.50 620Q332 631 287 631Q228 631 197 605Q166 579 166 537Q166 504 181 481.50Q196 459 229 441Q262 423 316 401Q376 377 418.50 350.50Q461 324 483 286.50Q505 249 505 193Z"  horiz-adv-x="550" vert-adv-y="1000"  />

      
      <glyph glyph-name="uni54" unicode="&#x54;" d="M335 0L227 0L227 621L13 621L13 714L549 714L549 621L335 621L335 0Z"  horiz-adv-x="563" vert-adv-y="1000"  />

      
      <glyph glyph-name="uni55" unicode="&#x55;" d="M649 252Q649 178 618 118.50Q587 59 524.50 24.50Q462-10 366-10Q230-10 159.50 62.50Q89 135 89 254L89 714L197 714L197 259Q197 82 371 82Q461 82 501.50 130Q542 178 542 260L542 714L649 714L649 252Z"  horiz-adv-x="738" vert-adv-y="1000"  />

      
      <glyph glyph-name="uni56" unicode="&#x56;" d="M615 714L363 0L251 0L0 714L111 714L264 266Q277 230 289 187Q301 144 307 109Q313 144 325 187Q337 230 350 267L503 714L615 714Z"  horiz-adv-x="615" vert-adv-y="1000"  />

      
      <glyph glyph-name="uni57" unicode="&#x57;" d="M932 714L744 0L629 0L503 441Q496 465 488.50 495Q481 525 475 551.50Q469 578 467 589Q466 578 461 552Q456 526 448.50 495Q441 464 434 438L310 0L195 0L8 714L119 714L224 292Q235 249 244 201.50Q253 154 258 117Q263 155 273 204Q283 253 295 292L414 714L522 714L645 290Q657 250 667 200.50Q677 151 682 117Q687 153 696.50 201Q706 249 717 292L822 714L932 714Z"  horiz-adv-x="941" vert-adv-y="1000"  />

      
      <glyph glyph-name="uni58" unicode="&#x58;" d="M607 0L484 0L302 298L118 0L3 0L240 371L18 714L138 714L306 441L475 714L590 714L368 370L607 0Z"  horiz-adv-x="610" vert-adv-y="1000"  />

      
      <glyph glyph-name="uni59" unicode="&#x59;" d="M292 380L467 714L583 714L345 277L345 0L238 0L238 273L0 714L117 714L292 380Z"  horiz-adv-x="583" vert-adv-y="1000"  />

      
      <glyph glyph-name="uni5a" unicode="&#x5a;" d="M539 0L34 0L34 77L400 621L45 621L45 714L530 714L530 637L164 93L539 93L539 0Z"  horiz-adv-x="574" vert-adv-y="1000"  />

      
      <glyph glyph-name="uni5b" unicode="&#x5b;" d="M305-158L77-158L77 714L305 714L305 633L175 633L175-77L305-77L305-158Z"  horiz-adv-x="330" vert-adv-y="1000"  />

      
      <glyph glyph-name="uni5c" unicode="&#x5c;" d="M109 714L376 0L275 0L9 714L109 714Z"  horiz-adv-x="384" vert-adv-y="1000"  />

      
      <glyph glyph-name="uni5d" unicode="&#x5d;" d="M25-77L154-77L154 633L25 633L25 714L253 714L253-158L25-158L25-77Z"  horiz-adv-x="330" vert-adv-y="1000"  />

      
      <glyph glyph-name="uni5e" unicode="&#x5e;" d="M34 263L246 719L302 719L538 263L449 263L276 609L122 263L34 263Z"  horiz-adv-x="572" vert-adv-y="1000"  />

      
      <glyph glyph-name="uni5f" unicode="&#x5f;" d="M436-155L-2-155L-2-90L436-90L436-155Z"  horiz-adv-x="434" vert-adv-y="1000"  />

      
      <glyph glyph-name="uni60" unicode="&#x60;" d="M163 766Q175 744 193 716.50Q211 689 230 663Q249 637 265 618L265 606L194 606Q170 624 139.50 652Q109 680 81.50 709Q54 738 40 756L40 766L163 766Z"  horiz-adv-x="305" vert-adv-y="1000"  />

      
      <glyph glyph-name="uni61" unicode="&#x61;" d="M292 549Q393 549 443.50 504.50Q494 460 494 365L494 0L419 0L398 75L394 75Q359 31 320.50 10.50Q282-10 214-10Q141-10 93 29.50Q45 69 45 153Q45 235 107 278Q169 321 298 325L390 328L390 358Q390 417 363 441.50Q336 466 287 466Q246 466 208 454Q170 442 135 425L101 502Q139 522 188.50 535.50Q238 549 292 549M317 257Q225 253 189.50 226.50Q154 200 154 152Q154 110 179 91Q204 72 244 72Q306 72 347.50 107Q389 142 389 212L389 259L317 257Z"  horiz-adv-x="574" vert-adv-y="1000"  />

      
      <glyph glyph-name="uni62" unicode="&#x62;" d="M189 577Q189 544 187 514Q185 484 184 468L189 468Q211 502 250.50 525Q290 548 352 548Q449 548 508.50 478Q568 408 568 270Q568 131 508 60.50Q448-10 351-10Q288-10 249.50 12.50Q211 35 189 66L181 66L161 0L83 0L83 760L189 760L189 577M327 462Q249 462 219 416.50Q189 371 189 277L189 269Q189 176 218.50 126.50Q248 77 329 77Q393 77 426 127Q459 177 459 271Q459 462 327 462Z"  horiz-adv-x="620" vert-adv-y="1000"  />

      
      <glyph glyph-name="uni63" unicode="&#x63;" d="M300-10Q188-10 120 56.50Q52 123 52 266Q52 366 85 428Q118 490 176 519.50Q234 549 308 549Q353 549 392.50 539.50Q432 530 458 518L426 432Q398 443 366.50 451Q335 459 307 459Q161 459 161 267Q161 175 197 127Q233 79 303 79Q348 79 382.50 89Q417 99 446 115L446 23Q417 6 383-2Q349-10 300-10Z"  horiz-adv-x="490" vert-adv-y="1000"  />

      
      <glyph glyph-name="uni64" unicode="&#x64;" d="M268-10Q171-10 111.50 60Q52 130 52 268Q52 407 112 478Q172 549 270 549Q331 549 370 526Q409 503 433 470L439 470Q437 483 434 510Q431 537 431 558L431 760L537 760L537 0L454 0L436 72L431 72Q408 37 369 13.50Q330-10 268-10M293 77Q371 77 403 120.50Q435 164 435 251L435 267Q435 361 404.50 411.50Q374 462 292 462Q227 462 194 409.50Q161 357 161 266Q161 175 194 126Q227 77 293 77Z"  horiz-adv-x="620" vert-adv-y="1000"  />

      
      <glyph glyph-name="uni65" unicode="&#x65;" d="M295 549Q401 549 462 483.50Q523 418 523 305L523 247L161 247Q163 164 204.50 120Q246 76 321 76Q373 76 413.50 85.50Q454 95 497 114L497 26Q456 8 415-1Q374-10 317-10Q238-10 178.50 21Q119 52 85.50 113.50Q52 175 52 265Q52 356 82.50 419Q113 482 167.50 515.50Q222 549 295 549M295 467Q238 467 203.50 430Q169 393 163 325L417 325Q416 388 386.50 427.50Q357 467 295 467Z"  horiz-adv-x="572" vert-adv-y="1000"  />

      
      <glyph glyph-name="uni66" unicode="&#x66;" d="M346 458L213 458L213 0L107 0L107 458L16 458L16 508L107 541L107 575Q107 678 154.50 721.50Q202 765 287 765Q322 765 351 759Q380 753 400 746L373 665Q356 670 335.50 674.50Q315 679 292 679Q213 679 213 574L213 539L346 539L346 458Z"  horiz-adv-x="357" vert-adv-y="1000"  />

      
      <glyph glyph-name="uni67" unicode="&#x67;" d="M269 549Q376 549 434 468L439 468L451 539L537 539L537-7Q537-122 475.50-181Q414-240 288-240Q229-240 180.50-232Q132-224 91-207L91-114Q177-156 294-156Q360-156 396-118.50Q432-81 432-13L432 5Q432 18 433 39Q434 60 435 71L431 71Q404 29 363 9.50Q322-10 269-10Q167-10 109.50 63.50Q52 137 52 268Q52 398 109.50 473.50Q167 549 269 549M291 461Q228 461 194.50 411Q161 361 161 267Q161 173 194.50 124Q228 75 293 75Q367 75 401.50 115.50Q436 156 436 248L436 268Q436 371 401 416Q366 461 291 461Z"  horiz-adv-x="620" vert-adv-y="1000"  />

      
      <glyph glyph-name="uni68" unicode="&#x68;" d="M189 557Q189 531 187 506.50Q185 482 183 466L190 466Q216 508 259.50 528Q303 548 354 548Q449 548 499.50 501Q550 454 550 351L550 0L445 0L445 336Q445 462 334 462Q251 462 220 412.50Q189 363 189 271L189 0L83 0L83 760L189 760L189 557Z"  horiz-adv-x="630" vert-adv-y="1000"  />

      
      <glyph glyph-name="uni69" unicode="&#x69;" d="M137 744Q161 744 179 730Q197 716 197 683Q197 651 179 636.50Q161 622 137 622Q111 622 93.50 636.50Q76 651 76 683Q76 716 93.50 730Q111 744 137 744M189 539L189 0L83 0L83 539L189 539Z"  horiz-adv-x="272" vert-adv-y="1000"  />

      
      <glyph glyph-name="uni6a" unicode="&#x6a;" d="M76 683Q76 716 93.50 730Q111 744 137 744Q161 744 179 730Q197 716 197 683Q197 651 179 636.50Q161 622 137 622Q111 622 93.50 636.50Q76 651 76 683M26-240Q0-240-21.50-236.50Q-43-233-58-228L-58-143Q-42-148-26-150.50Q-10-153 10-153Q41-153 62-135.50Q83-118 83-69L83 539L189 539L189-74Q189-149 150.50-194.50Q112-240 26-240Z"  horiz-adv-x="272" vert-adv-y="1000"  />

      
      <glyph glyph-name="uni6b" unicode="&#x6b;" d="M188 380Q188 360 186 332Q184 304 183 282L186 282Q197 297 216.50 321.50Q236 346 251 362L416 539L539 539L322 308L553 0L428 0L250 241L188 189L188 0L83 0L83 760L188 760L188 380Z"  horiz-adv-x="559" vert-adv-y="1000"  />

      
      <glyph glyph-name="uni6c" unicode="&#x6c;" d="M189 0L83 0L83 760L189 760L189 0Z"  horiz-adv-x="272" vert-adv-y="1000"  />

      
      <glyph glyph-name="uni6d" unicode="&#x6d;" d="M687 549Q778 549 824 502Q870 455 870 351L870 0L764 0L764 337Q764 462 663 462Q591 462 560 417.50Q529 373 529 290L529 0L424 0L424 337Q424 462 322 462Q246 462 217.50 413Q189 364 189 272L189 0L83 0L83 539L167 539L182 467L188 467Q212 509 255 529Q298 549 346 549Q471 549 510 462L518 462Q544 507 590 528Q636 549 687 549Z"  horiz-adv-x="949" vert-adv-y="1000"  />

      
      <glyph glyph-name="uni6e" unicode="&#x6e;" d="M356 549Q450 549 500 502Q550 455 550 351L550 0L445 0L445 336Q445 462 334 462Q251 462 220 413Q189 364 189 272L189 0L83 0L83 539L167 539L182 467L188 467Q214 509 259.50 529Q305 549 356 549Z"  horiz-adv-x="630" vert-adv-y="1000"  />

      
      <glyph glyph-name="uni6f" unicode="&#x6f;" d="M558 270Q558 136 489 63Q420-10 303-10Q230-10 173.50 23Q117 56 84.50 118.50Q52 181 52 270Q52 404 120 476.50Q188 549 306 549Q380 549 436.50 516.50Q493 484 525.50 422Q558 360 558 270M161 270Q161 179 195.50 128Q230 77 305 77Q380 77 414.50 128Q449 179 449 270Q449 362 414 411.50Q379 461 304 461Q229 461 195 411.50Q161 362 161 270Z"  horiz-adv-x="609" vert-adv-y="1000"  />

      
      <glyph glyph-name="uni70" unicode="&#x70;" d="M352 549Q449 549 508.50 479Q568 409 568 270Q568 133 508 61.50Q448-10 351-10Q289-10 250.50 12.50Q212 35 189 66L182 66Q185 48 187 23.50Q189-1 189-20L189-240L83-240L83 539L169 539L184 467L189 467Q212 501 250.50 525Q289 549 352 549M327 462Q252 462 221 418.50Q190 375 189 287L189 271Q189 178 219 127.50Q249 77 329 77Q395 77 427 131Q459 185 459 272Q459 360 427 411Q395 462 327 462Z"  horiz-adv-x="620" vert-adv-y="1000"  />

      
      <glyph glyph-name="uni71" unicode="&#x71;" d="M431-11Q431 8 432.50 31Q434 54 437 72L431 72Q408 37 368.50 13.50Q329-10 267-10Q171-10 111.50 60Q52 130 52 268Q52 407 112.50 478Q173 549 270 549Q332 549 371 525Q410 501 434 467L438 467L451 539L537 539L537-240L431-240L431-11M294 76Q370 76 402 119Q434 162 435 249L435 267Q435 363 404 412.50Q373 462 292 462Q226 462 193.50 409.50Q161 357 161 266Q161 175 193.50 125.50Q226 76 294 76Z"  horiz-adv-x="620" vert-adv-y="1000"  />

      
      <glyph glyph-name="uni72" unicode="&#x72;" d="M349 549Q363 549 379.50 547.50Q396 546 408 544L397 445Q371 452 343 452Q303 452 267.50 432Q232 412 210.50 374.50Q189 337 189 284L189 0L83 0L83 539L167 539L181 443L185 443Q211 486 252 517.50Q293 549 349 549Z"  horiz-adv-x="425" vert-adv-y="1000"  />

      
      <glyph glyph-name="uni73" unicode="&#x73;" d="M441 152Q441 73 383 31.50Q325-10 222-10Q165-10 124.50-1.50Q84 7 50 23L50 116Q85 99 132.50 85.50Q180 72 225 72Q285 72 311.50 91Q338 110 338 142Q338 160 328 174.50Q318 189 290.50 204.50Q263 220 210 240Q158 261 122.50 281.50Q87 302 68 330.50Q49 359 49 404Q49 474 105.50 511.50Q162 549 255 549Q304 549 347.50 539Q391 529 432 511L397 430Q362 445 325 455.50Q288 466 250 466Q202 466 177 451Q152 436 152 409Q152 390 164 376Q176 362 204.50 348Q233 334 283 314Q333 295 368.50 275Q404 255 422.50 226Q441 197 441 152Z"  horiz-adv-x="484" vert-adv-y="1000"  />

      
      <glyph glyph-name="uni74" unicode="&#x74;" d="M277 76Q298 76 320 79.50Q342 83 358 89L358 9Q340 1 311.50-4.50Q283-10 254-10Q210-10 173 5Q136 20 114.50 57Q93 94 93 160L93 458L18 458L18 506L97 546L134 660L199 660L199 539L353 539L353 458L199 458L199 162Q199 118 220.50 97Q242 76 277 76Z"  horiz-adv-x="383" vert-adv-y="1000"  />

      
      <glyph glyph-name="uni75" unicode="&#x75;" d="M547 539L547 0L462 0L447 71L442 71Q416 29 370 9.50Q324-10 273-10Q178-10 128 37Q78 84 78 186L78 539L185 539L185 202Q185 77 294 77Q377 77 409 126Q441 175 441 266L441 539L547 539Z"  horiz-adv-x="630" vert-adv-y="1000"  />

      
      <glyph glyph-name="uni76" unicode="&#x76;" d="M204 0L0 539L112 539L224 224Q235 193 246 154.50Q257 116 260 91L264 91Q268 116 280 155Q292 194 302 224L414 539L526 539L321 0L204 0Z"  horiz-adv-x="526" vert-adv-y="1000"  />

      
      <glyph glyph-name="uni77" unicode="&#x77;" d="M447 270Q439 296 430.50 330Q422 364 415 394.50Q408 425 404 441L400 441Q397 425 390 394Q383 363 374.50 329Q366 295 358 269L278 1L160 1L11 540L119 540L189 267Q200 225 209.50 177.50Q219 130 223 101L227 101Q230 118 235.50 146Q241 174 247.50 202.50Q254 231 260 249L346 540L462 540L546 249Q552 229 559 201.50Q566 174 571.50 147.50Q577 121 579 102L583 102Q585 118 590 146Q595 174 602.50 206Q610 238 617 267L689 540L796 540L645 1L524 1L447 270Z"  horiz-adv-x="807" vert-adv-y="1000"  />

      
      <glyph glyph-name="uni78" unicode="&#x78;" d="M206 275L23 539L144 539L272 345L400 539L520 539L337 275L529 0L409 0L272 206L134 0L14 0L206 275Z"  horiz-adv-x="543" vert-adv-y="1000"  />

      
      <glyph glyph-name="uni79" unicode="&#x79;" d="M1 539L115 539L227 233Q240 198 249.50 165.50Q259 133 264 102L268 102Q273 128 283.50 163Q294 198 307 234L413 539L527 539L296-73Q267-151 218.50-195.50Q170-240 92-240Q67-240 49-237.50Q31-235 18-232L18-148Q28-150 44-152Q60-154 77-154Q123-154 151-127.50Q179-101 195-58L217 0L1 539Z"  horiz-adv-x="527" vert-adv-y="1000"  />

      
      <glyph glyph-name="uni7a" unicode="&#x7a;" d="M439 0L35 0L35 67L313 457L52 457L52 539L431 539L431 464L159 82L439 82L439 0Z"  horiz-adv-x="475" vert-adv-y="1000"  />

      
      <glyph glyph-name="uni7b" unicode="&#x7b;" d="M350-158Q247-157 197-120.50Q147-84 147-6L147 143Q147 193 115.50 214Q84 235 24 235L24 321Q84 322 115.50 342.50Q147 363 147 412L147 562Q147 640 198.50 677Q250 714 350 714L350 631Q302 630 274 610.50Q246 591 246 544L246 400Q246 300 136 282L136 276Q246 257 246 158L246 11Q246-36 273.50-55Q301-74 350-75L350-158Z"  horiz-adv-x="384" vert-adv-y="1000"  />

      
      <glyph glyph-name="uni7c" unicode="&#x7c;" d="M234 759L317 759L317-237L234-237L234 759Z"  horiz-adv-x="551" vert-adv-y="1000"  />

      
      <glyph glyph-name="uni7d" unicode="&#x7d;" d="M34-75Q82-74 110-54.50Q138-35 138 12L138 157Q138 256 248 275L248 281Q138 300 138 399L138 545Q138 592 110.50 611Q83 630 34 631L34 714Q137 713 187 676.50Q237 640 237 562L237 413Q237 363 268.50 342Q300 321 360 321L360 235Q300 235 268.50 214Q237 193 237 144L237-6Q237-84 185.50-121Q134-158 34-158L34-75Z"  horiz-adv-x="384" vert-adv-y="1000"  />

      
      <glyph glyph-name="uni7e" unicode="&#x7e;" d="M269 314Q232 329 208 335Q184 341 162 341Q134 341 103 323.50Q72 306 48 282L48 370Q97 423 169 423Q198 423 227 417Q256 411 302 391Q339 376 363 370Q387 364 408 364Q437 364 468 381.50Q499 399 523 423L523 336Q474 282 402 282Q373 282 343.50 288Q314 294 269 314Z"  horiz-adv-x="572" vert-adv-y="1000"  />

      
      <glyph glyph-name="unia1" unicode="&#xa1;" d="M205 474Q205 434 185 418Q165 402 136 402Q108 402 88 418Q68 434 68 474Q68 512 88 529Q108 546 136 546Q165 546 185 529Q205 512 205 474M98 320L174 320L199-181L73-181L98 320Z"  horiz-adv-x="274" vert-adv-y="1000"  />

      
      <glyph glyph-name="unia2" unicode="&#xa2;" d="M356 645Q396 643 431 634.50Q466 626 492 614L460 528Q432 540 399.50 548Q367 556 339 556Q265 556 229 508Q193 460 193 363Q193 265 229.50 220.50Q266 176 337 176Q381 176 414 184.50Q447 193 480 208L480 117Q452 103 422.50 95Q393 87 355 86L355-10L282-10L282 89Q191 102 138 165.50Q85 229 85 362Q85 454 109.50 512Q134 570 178.50 601Q223 632 282 641L282 724L356 724L356 645Z"  horiz-adv-x="572" vert-adv-y="1000"  />

      
      <glyph glyph-name="unia3" unicode="&#xa3;" d="M336 723Q391 723 436 711.50Q481 700 517 683L482 600Q451 614 415 625Q379 636 341 636Q292 636 264 609.50Q236 583 236 523L236 398L433 398L433 319L236 319L236 225Q236 167 214 138Q192 109 166 94L540 94L540 0L34 0L34 88Q77 101 103.50 131Q130 161 130 224L130 319L37 319L37 398L130 398L130 530Q130 625 187.50 674Q245 723 336 723Z"  horiz-adv-x="572" vert-adv-y="1000"  />

      
      <glyph glyph-name="unia4" unicode="&#xa4;" d="M91 353Q91 382 99.50 409Q108 436 123 459L58 525L114 579L178 516Q201 531 228.50 539.50Q256 548 286 548Q315 548 341.50 539.50Q368 531 392 516L457 579L512 526L449 460Q463 438 472 410Q481 382 481 353Q481 293 449 245L511 181L457 127L392 190Q369 176 342 167.50Q315 159 286 159Q224 159 178 191L114 128L59 182L123 246Q108 269 99.50 296.50Q91 324 91 353M168 353Q168 320 183.50 293.50Q199 267 226 251Q253 235 286 235Q319 235 346 251Q373 267 389 293.50Q405 320 405 353Q405 386 389 413.50Q373 441 346 457Q319 473 286 473Q253 473 226 457Q199 441 183.50 413.50Q168 386 168 353Z"  horiz-adv-x="572" vert-adv-y="1000"  />

      
      <glyph glyph-name="unia5" unicode="&#xa5;" d="M285 381L449 714L559 714L362 342L478 342L478 271L336 271L336 194L478 194L478 123L336 123L336 0L234 0L234 123L92 123L92 194L234 194L234 271L92 271L92 342L205 342L11 714L122 714L285 381Z"  horiz-adv-x="572" vert-adv-y="1000"  />

      
      <glyph glyph-name="unia6" unicode="&#xa6;" d="M234 759L317 759L317 373L234 373L234 759M234 149L317 149L317-237L234-237L234 149Z"  horiz-adv-x="551" vert-adv-y="1000"  />

      
      <glyph glyph-name="unia7" unicode="&#xa7;" d="M65 394Q65 441 87.50 471.50Q110 502 140 518Q105 538 86 565.50Q67 593 67 633Q67 694 119 729.50Q171 765 264 765Q318 765 358 755Q398 745 437 729L406 654Q372 668 338 679Q304 690 259 690Q205 690 182.50 675.50Q160 661 160 635Q160 608 186.50 589Q213 570 283 544Q358 516 401 479Q444 442 444 382Q444 332 423 300.50Q402 269 373 251Q407 233 425 206.50Q443 180 443 142Q443 72 385.50 33Q328-6 226-6Q171-6 130 3Q89 12 57 28L57 111Q91 95 138 81.50Q185 68 229 68Q298 68 323.50 88Q349 108 349 135Q349 153 340 166.50Q331 180 305 194.50Q279 209 228 229Q176 248 139.50 269.50Q103 291 84 320.50Q65 350 65 394M150 404Q150 369 180 344Q210 319 284 291L301 285Q322 297 340 317.50Q358 338 358 369Q358 393 345.50 412Q333 431 301.50 448.50Q270 466 213 485Q189 477 169.50 456Q150 435 150 404Z"  horiz-adv-x="505" vert-adv-y="1000"  />

      
      <glyph glyph-name="unia8" unicode="&#xa8;" d="M145 682Q145 711 160.50 723.50Q176 736 198 736Q220 736 236 723.50Q252 711 252 682Q252 655 236 641.50Q220 628 198 628Q176 628 160.50 641.50Q145 655 145 682M336 682Q336 711 351.50 723.50Q367 736 389 736Q410 736 426 723.50Q442 711 442 682Q442 655 426 641.50Q410 628 389 628Q367 628 351.50 641.50Q336 655 336 682Z"  horiz-adv-x="588" vert-adv-y="1000"  />

      
      <glyph glyph-name="unia9" unicode="&#xa9;" d="M416-10Q336-10 269 17Q202 44 152.50 93.50Q103 143 76 210Q49 277 49 357Q49 436 76.50 503Q104 570 153.50 619.50Q203 669 270 696.50Q337 724 416 724Q492 724 558.50 697Q625 670 675.50 620.50Q726 571 754.50 504Q783 437 783 357Q783 277 756 210Q729 143 679.50 93.50Q630 44 563 17Q496-10 416-10M416 46Q479 46 534.50 69Q590 92 632.50 133.50Q675 175 698.50 232Q722 289 722 357Q722 421 699.50 477.50Q677 534 635.50 577Q594 620 538.50 644Q483 668 416 668Q327 668 257.50 628Q188 588 148.50 518Q109 448 109 357Q109 270 148.50 199.50Q188 129 257 87.50Q326 46 416 46M431 132Q331 132 281.50 193.50Q232 255 232 357Q232 422 255.50 473Q279 524 324 553Q369 582 435 582Q500 582 558 552L529 489Q479 515 436 515Q377 515 344.50 473Q312 431 312 357Q312 281 340.50 239.50Q369 198 435 198Q458 198 486.50 204.50Q515 211 540 221L540 156Q516 145 491 138.50Q466 132 431 132Z"  horiz-adv-x="832" vert-adv-y="1000"  />

      
      <glyph glyph-name="uniaa" unicode="&#xaa;" d="M184 722Q317 722 317 603L317 384L265 384L252 430Q231 407 202.50 392.50Q174 378 137 378Q88 378 58.50 403Q29 428 29 480Q29 533 70 558.50Q111 584 191 587L245 589L245 607Q245 637 225.50 650Q206 663 176 663Q150 663 124 655.50Q98 648 74 636L49 690Q77 703 111 712.50Q145 722 184 722M197 538Q141 535 122.50 520Q104 505 104 481Q104 457 117.50 446.50Q131 436 153 436Q200 436 222.50 458.50Q245 481 245 519L245 540L197 538Z"  horiz-adv-x="365" vert-adv-y="1000"  />

      
      <glyph glyph-name="uniab" unicode="&#xab;" d="M40 273L212 480L288 438L149 267L288 96L212 53L40 260L40 273M252 273L426 480L501 438L362 267L501 96L426 53L252 260L252 273Z"  horiz-adv-x="540" vert-adv-y="1000"  />

      
      <glyph glyph-name="uniac" unicode="&#xac;" d="M522 393L522 126L441 126L441 312L48 312L48 393L522 393Z"  horiz-adv-x="572" vert-adv-y="1000"  />

      
      <glyph glyph-name="uniad" unicode="&#xad;" d="M37 223L37 313L285 313L285 223L37 223Z"  horiz-adv-x="322" vert-adv-y="1000"  />

      
      <glyph glyph-name="uniae" unicode="&#xae;" d="M416-10Q336-10 269 17Q202 44 152.50 93.50Q103 143 76 210Q49 277 49 357Q49 436 76.50 503Q104 570 153.50 619.50Q203 669 270 696.50Q337 724 416 724Q492 724 558.50 697Q625 670 675.50 620.50Q726 571 754.50 504Q783 437 783 357Q783 277 756 210Q729 143 679.50 93.50Q630 44 563 17Q496-10 416-10M416 46Q479 46 534.50 69Q590 92 632.50 133.50Q675 175 698.50 232Q722 289 722 357Q722 421 699.50 477.50Q677 534 635.50 577Q594 620 538.50 644Q483 668 416 668Q327 668 257.50 628Q188 588 148.50 518Q109 448 109 357Q109 270 148.50 199.50Q188 129 257 87.50Q326 46 416 46M278 138L278 576L407 576Q489 576 527 543.50Q565 511 565 446Q565 399 541 371.50Q517 344 487 332L603 138L516 138L417 310L355 310L355 138L278 138M405 373Q444 373 465.50 393Q487 413 487 444Q487 479 467.50 495Q448 511 404 511L355 511L355 373L405 373Z"  horiz-adv-x="832" vert-adv-y="1000"  />

      
      <glyph glyph-name="uniaf" unicode="&#xaf;" d="M503 760L-3 760L-3 835L503 835L503 760Z"  horiz-adv-x="500" vert-adv-y="1000"  />

      
      <glyph glyph-name="unib0" unicode="&#xb0;" d="M214 408Q140 408 95 452Q50 496 50 566Q50 635 94.50 679.50Q139 724 214 724Q286 724 331.50 680Q377 636 377 566Q377 496 331.50 452Q286 408 214 408M215 477Q258 477 280.50 501.50Q303 526 303 566Q303 607 279.50 631.50Q256 656 215 656Q171 656 148 631.50Q125 607 125 566Q125 526 148 501.50Q171 477 215 477Z"  horiz-adv-x="428" vert-adv-y="1000"  />

      
      <glyph glyph-name="unib1" unicode="&#xb1;" d="M326 404L522 404L522 323L326 323L326 122L244 122L244 323L48 323L48 404L244 404L244 606L326 606L326 404M48 0L48 82L523 82L523 0L48 0Z"  horiz-adv-x="572" vert-adv-y="1000"  />

      
      <glyph glyph-name="unib2" unicode="&#xb2;" d="M317 416L25 416L25 478L138 589Q176 625 195.50 648Q215 671 222.50 689Q230 707 230 728Q230 756 213 770.50Q196 785 170 785Q143 785 119 773.50Q95 762 70 742L27 796Q57 822 93 837.50Q129 853 175 853Q239 853 276.50 821.50Q314 790 314 734Q314 686 285.50 647.50Q257 609 201 556L129 489L317 489L317 416Z"  horiz-adv-x="359" vert-adv-y="1000"  />

      
      <glyph glyph-name="unib3" unicode="&#xb3;" d="M171 853Q239 853 276 822Q313 791 313 742Q313 704 292 678.50Q271 653 237 642L237 638Q279 629 302.50 603Q326 577 326 538Q326 480 283.50 444Q241 408 152 408Q115 408 83 415Q51 422 21 438L21 510Q54 492 87.50 482.50Q121 473 153 473Q200 473 222 491Q244 509 244 542Q244 606 142 606L86 606L86 667L139 667Q190 667 210.50 685.50Q231 704 231 732Q231 760 213 774Q195 788 167 788Q139 788 114 778Q89 768 62 750L22 803Q53 825 88 839Q123 853 171 853Z"  horiz-adv-x="359" vert-adv-y="1000"  />

      
      <glyph glyph-name="unib4" unicode="&#xb4;" d="M265 756Q250 738 223 709Q196 680 165 652Q134 624 110 606L40 606L40 618Q55 637 74 663Q93 689 111 716.50Q129 744 141 766L265 766L265 756Z"  horiz-adv-x="305" vert-adv-y="1000"  />

      
      <glyph glyph-name="unib5" unicode="&#xb5;" d="M551 539L551 0L468 0L452 72L446 72Q422 32 385.50 11Q349-10 296-10Q260-10 233 2Q206 14 188 35L184 35Q186 17 187.50-15Q189-47 189-84L189-240L83-240L83 539L189 539L189 201Q189 77 300 77Q382 77 413.50 126Q445 175 445 266L445 539L551 539Z"  horiz-adv-x="634" vert-adv-y="1000"  />

      
      <glyph glyph-name="unib6" unicode="&#xb6;" d="M555-127L491-127L491 692L395 692L395-127L331-127L331 273Q316 269 297 266.50Q278 264 260 264Q198 264 152 287Q106 310 80.50 364Q55 418 55 509Q55 605 82.50 659.50Q110 714 160 737Q210 760 275 760L555 760L555-127Z"  horiz-adv-x="655" vert-adv-y="1000"  />

      
      <glyph glyph-name="unib7" unicode="&#xb7;" d="M68 353Q68 392 87.50 408Q107 424 136 424Q164 424 184.50 408Q205 392 205 353Q205 314 184.50 297Q164 280 136 280Q107 280 87.50 297Q68 314 68 353Z"  horiz-adv-x="273" vert-adv-y="1000"  />

      
      <glyph glyph-name="unib8" unicode="&#xb8;" d="M210-134Q210-184 174-212Q138-240 61-240Q27-240 5-234L5-171Q30-177 63-177Q92-177 108.50-168.50Q125-160 125-137Q125-113 101-100.50Q77-88 37-83L79 0L147 0L125-46Q159-55 184.50-75.50Q210-96 210-134Z"  horiz-adv-x="219" vert-adv-y="1000"  />

      
      <glyph glyph-name="unib9" unicode="&#xb9;" d="M253 844L253 416L169 416L169 675Q169 699 170.50 724Q172 749 173 767Q164 759 152 748Q140 737 129 729L80 692L39 745L174 844L253 844Z"  horiz-adv-x="359" vert-adv-y="1000"  />

      
      <glyph glyph-name="uniba" unicode="&#xba;" d="M349 551Q349 469 305.50 423.50Q262 378 189 378Q120 378 75.50 422.50Q31 467 31 551Q31 633 74 677.50Q117 722 191 722Q261 722 305 678Q349 634 349 551M104 551Q104 495 124 467Q144 439 190 439Q234 439 254.50 467Q275 495 275 551Q275 607 254.50 634Q234 661 190 661Q145 661 124.50 634Q104 607 104 551Z"  horiz-adv-x="380" vert-adv-y="1000"  />

      
      <glyph glyph-name="unibb" unicode="&#xbb;" d="M500 260L327 53L252 96L391 267L252 438L327 480L500 273L500 260M287 260L115 53L39 96L178 267L39 438L115 480L287 273L287 260Z"  horiz-adv-x="540" vert-adv-y="1000"  />

      
      <glyph glyph-name="unibc" unicode="&#xbc;" d="M135 0L559 714L646 714L222 0L135 0M160 545Q160 569 161.50 594Q163 619 164 637Q155 629 143 618Q131 607 120 599L71 562L30 615L165 714L244 714L244 286L160 286L160 545M613 0L613 90L420 90L420 148L615 431L700 431L700 156L761 156L761 90L700 90L700 0L613 0M496 156L613 156L613 245Q613 266 613.50 292.50Q614 319 616 343Q611 331 596.50 306.50Q582 282 571 266L496 156Z"  horiz-adv-x="770" vert-adv-y="1000"  />

      
      <glyph glyph-name="unibd" unicode="&#xbd;" d="M114 0L538 714L625 714L201 0L114 0M152 545Q152 569 153 594Q154 619 156 637Q147 629 135 618Q123 607 112 599L62 562L22 615L157 714L236 714L236 286L152 286L152 545M468 0L468 62L581 173Q618 209 638 232Q658 255 665 273Q672 291 672 312Q672 340 655.50 354.50Q639 369 612 369Q586 369 562 357.50Q538 346 512 326L470 380Q500 406 536 421.50Q572 437 618 437Q682 437 719.50 405.50Q757 374 757 318Q757 270 728.50 231.50Q700 193 644 140L572 73L760 73L760 0L468 0Z"  horiz-adv-x="801" vert-adv-y="1000"  />

      
      <glyph glyph-name="unibe" unicode="&#xbe;" d="M155 278Q118 278 86 285Q54 292 24 308L24 380Q57 362 90.50 352.50Q124 343 156 343Q203 343 225 361Q247 379 247 412Q247 476 145 476L89 476L89 537L142 537Q193 537 213.50 555.50Q234 574 234 602Q234 630 216 644Q198 658 170 658Q142 658 117 648Q92 638 65 620L25 673Q56 695 91 709Q126 723 174 723Q242 723 279 692Q316 661 316 612Q316 574 295 548.50Q274 523 240 512L240 508Q282 499 305.50 473Q329 447 329 408Q329 350 286.50 314Q244 278 155 278M176 0L600 714L688 714L264 0L176 0M643 0L643 90L450 90L450 148L644 431L730 431L730 156L791 156L791 90L730 90L730 0L643 0M526 156L643 156L643 245Q643 266 643.50 292.50Q644 319 646 343Q641 331 626 306.50Q611 282 601 266L526 156Z"  horiz-adv-x="800" vert-adv-y="1000"  />

      
      <glyph glyph-name="unibf" unicode="&#xbf;" d="M307 291Q307 236 288.50 200.50Q270 165 221 125Q185 96 164 75.50Q143 55 134.50 35Q126 15 126-13Q126-56 154.50-79Q183-102 237-102Q284-102 323-89.50Q362-77 399-59L437-139Q394-162 343-177Q292-192 230-192Q132-192 78.50-144Q25-96 25-16Q25 27 39 58.50Q53 90 79.50 116Q106 142 142 172Q175 198 191.50 217Q208 236 214 255Q220 274 220 300L220 320L307 320L307 291M328 473Q328 434 308.50 418Q289 402 259 402Q232 402 211.50 418Q191 434 191 473Q191 512 211.50 529Q232 546 259 546Q289 546 308.50 529Q328 512 328 473Z"  horiz-adv-x="447" vert-adv-y="1000"  />

      
      <glyph glyph-name="unic0" unicode="&#xc0;" d="M540 0L464 206L188 206L112 0L0 0L271 717L383 717L653 0L540 0M362 501Q359 512 351.50 534Q344 556 337 580Q330 604 326 619Q318 588 308 553Q298 518 292 501L220 300L434 300L362 501M300 941Q312 919 330 891.50Q348 864 367 838Q386 812 402 793L402 781L331 781Q307 799 276.50 827Q246 855 218.50 884Q191 913 177 931L177 941L300 941Z"  horiz-adv-x="654" vert-adv-y="1000"  />

      
      <glyph glyph-name="unic1" unicode="&#xc1;" d="M540 0L464 206L188 206L112 0L0 0L271 717L383 717L653 0L540 0M362 501Q359 512 351.50 534Q344 556 337 580Q330 604 326 619Q318 588 308 553Q298 518 292 501L220 300L434 300L362 501M482 931Q467 913 440 884Q413 855 382 827Q351 799 327 781L257 781L257 793Q272 812 291 838Q310 864 328 891.50Q346 919 358 941L482 941L482 931Z"  horiz-adv-x="654" vert-adv-y="1000"  />

      
      <glyph glyph-name="unic2" unicode="&#xc2;" d="M540 0L464 206L188 206L112 0L0 0L271 717L383 717L653 0L540 0M362 501Q359 512 351.50 534Q344 556 337 580Q330 604 326 619Q318 588 308 553Q298 518 292 501L220 300L434 300L362 501M384 941Q397 919 419.50 891.50Q442 864 466.50 837.50Q491 811 509 793L509 781L436 781Q410 797 381.50 820Q353 843 326 870Q272 815 218 781L146 781L146 793Q165 812 188.50 838Q212 864 234 891.50Q256 919 270 941L384 941Z"  horiz-adv-x="654" vert-adv-y="1000"  />

      
      <glyph glyph-name="unic3" unicode="&#xc3;" d="M540 0L464 206L188 206L112 0L0 0L271 717L383 717L653 0L540 0M362 501Q359 512 351.50 534Q344 556 337 580Q330 604 326 619Q318 588 308 553Q298 518 292 501L220 300L434 300L362 501M136 781Q142 845 173 880Q204 915 253 915Q281 915 307.50 901.50Q334 888 358 874Q382 860 404 860Q443 860 457 916L514 916Q508 852 477 817Q446 782 398 782Q371 782 344.50 795.50Q318 809 293.50 823Q269 837 247 837Q206 837 193 781L136 781Z"  horiz-adv-x="654" vert-adv-y="1000"  />

      
      <glyph glyph-name="unic4" unicode="&#xc4;" d="M540 0L464 206L188 206L112 0L0 0L271 717L383 717L653 0L540 0M362 501Q359 512 351.50 534Q344 556 337 580Q330 604 326 619Q318 588 308 553Q298 518 292 501L220 300L434 300L362 501M177 857Q177 886 192.50 898.50Q208 911 230 911Q252 911 268 898.50Q284 886 284 857Q284 830 268 816.50Q252 803 230 803Q208 803 192.50 816.50Q177 830 177 857M368 857Q368 886 383.50 898.50Q399 911 421 911Q442 911 458 898.50Q474 886 474 857Q474 830 458 816.50Q442 803 421 803Q399 803 383.50 816.50Q368 830 368 857Z"  horiz-adv-x="654" vert-adv-y="1000"  />

      
      <glyph glyph-name="unic5" unicode="&#xc5;" d="M540 0L464 206L188 206L112 0L0 0L271 717L383 717L653 0L540 0M362 501Q359 512 351.50 534Q344 556 337 580Q330 604 326 619Q318 588 308 553Q298 518 292 501L220 300L434 300L362 501M325 662Q274 662 243 690.50Q212 719 212 771Q212 821 243 850Q274 879 325 879Q373 879 406 850.50Q439 822 439 772Q439 720 406.50 691Q374 662 325 662M325 717Q348 717 363 731.50Q378 746 378 771Q378 796 362.50 810Q347 824 325 824Q302 824 286.50 810Q271 796 271 771Q271 746 285 731.50Q299 717 325 717Z"  horiz-adv-x="654" vert-adv-y="1000"  />

      
      <glyph glyph-name="unic6" unicode="&#xc6;" d="M842 0L454 0L454 206L207 206L110 0L-1 0L333 714L842 714L842 622L562 622L562 418L824 418L824 327L562 327L562 93L842 93L842 0M248 300L454 300L454 620L395 620L248 300Z"  horiz-adv-x="902" vert-adv-y="1000"  />

      
      <glyph glyph-name="unic7" unicode="&#xc7;" d="M400 631Q293 631 233 557.50Q173 484 173 356Q173 229 229 156Q285 83 399 83Q445 83 487.50 91.50Q530 100 574 114L574 21Q532 5 488.50-2.50Q445-10 386-10Q276-10 204 35.50Q132 81 96 163.50Q60 246 60 357Q60 465 99.50 548Q139 631 215 677.50Q291 724 401 724Q455 724 506.50 712.50Q558 701 601 680L561 590Q526 606 485.50 618.50Q445 631 400 631M477-134Q477-184 441-212Q405-240 328-240Q294-240 272-234L272-171Q297-177 330-177Q359-177 375.50-168.50Q392-160 392-137Q392-113 368-100.50Q344-88 304-83L346 0L414 0L392-46Q426-55 451.50-75.50Q477-96 477-134Z"  horiz-adv-x="633" vert-adv-y="1000"  />

      
      <glyph glyph-name="unic8" unicode="&#xc8;" d="M497 0L95 0L95 714L497 714L497 622L203 622L203 418L479 418L479 327L203 327L203 93L497 93L497 0M278 941Q290 919 308 891.50Q326 864 345 838Q364 812 380 793L380 781L309 781Q285 799 254.50 827Q224 855 196.50 884Q169 913 155 931L155 941L278 941Z"  horiz-adv-x="557" vert-adv-y="1000"  />

      
      <glyph glyph-name="unic9" unicode="&#xc9;" d="M497 0L95 0L95 714L497 714L497 622L203 622L203 418L479 418L479 327L203 327L203 93L497 93L497 0M460 931Q445 913 418 884Q391 855 360 827Q329 799 305 781L235 781L235 793Q250 812 269 838Q288 864 306 891.50Q324 919 336 941L460 941L460 931Z"  horiz-adv-x="557" vert-adv-y="1000"  />

      
      <glyph glyph-name="unica" unicode="&#xca;" d="M497 0L95 0L95 714L497 714L497 622L203 622L203 418L479 418L479 327L203 327L203 93L497 93L497 0M362 941Q375 919 397.50 891.50Q420 864 444.50 837.50Q469 811 487 793L487 781L414 781Q388 797 359.50 820Q331 843 304 870Q250 815 196 781L124 781L124 793Q143 812 166.50 838Q190 864 212 891.50Q234 919 248 941L362 941Z"  horiz-adv-x="557" vert-adv-y="1000"  />

      
      <glyph glyph-name="unicb" unicode="&#xcb;" d="M497 0L95 0L95 714L497 714L497 622L203 622L203 418L479 418L479 327L203 327L203 93L497 93L497 0M155 857Q155 886 170.50 898.50Q186 911 208 911Q230 911 246 898.50Q262 886 262 857Q262 830 246 816.50Q230 803 208 803Q186 803 170.50 816.50Q155 830 155 857M346 857Q346 886 361.50 898.50Q377 911 399 911Q420 911 436 898.50Q452 886 452 857Q452 830 436 816.50Q420 803 399 803Q377 803 361.50 816.50Q346 830 346 857Z"  horiz-adv-x="557" vert-adv-y="1000"  />

      
      <glyph glyph-name="unicc" unicode="&#xcc;" d="M315 0L38 0L38 62L123 87L123 626L38 652L38 714L315 714L315 652L231 626L231 87L315 62L315 0M152 941Q164 919 182 891.50Q200 864 219 838Q238 812 254 793L254 781L183 781Q159 799 128.50 827Q98 855 70.50 884Q43 913 29 931L29 941L152 941Z"  horiz-adv-x="354" vert-adv-y="1000"  />

      
      <glyph glyph-name="unicd" unicode="&#xcd;" d="M315 0L38 0L38 62L123 87L123 626L38 652L38 714L315 714L315 652L231 626L231 87L315 62L315 0M334 931Q319 913 292 884Q265 855 234 827Q203 799 179 781L109 781L109 793Q124 812 143 838Q162 864 180 891.50Q198 919 210 941L334 941L334 931Z"  horiz-adv-x="354" vert-adv-y="1000"  />

      
      <glyph glyph-name="unice" unicode="&#xce;" d="M315 0L38 0L38 62L123 87L123 626L38 652L38 714L315 714L315 652L231 626L231 87L315 62L315 0M235 941Q248 919 270.50 891.50Q293 864 317.50 837.50Q342 811 360 793L360 781L287 781Q261 797 232.50 820Q204 843 177 870Q123 815 69 781L-3 781L-3 793Q16 812 39.50 838Q63 864 85 891.50Q107 919 121 941L235 941Z"  horiz-adv-x="354" vert-adv-y="1000"  />

      
      <glyph glyph-name="unicf" unicode="&#xcf;" d="M315 0L38 0L38 62L123 87L123 626L38 652L38 714L315 714L315 652L231 626L231 87L315 62L315 0M28 857Q28 886 43.50 898.50Q59 911 81 911Q103 911 119 898.50Q135 886 135 857Q135 830 119 816.50Q103 803 81 803Q59 803 43.50 816.50Q28 830 28 857M219 857Q219 886 234.50 898.50Q250 911 272 911Q293 911 309 898.50Q325 886 325 857Q325 830 309 816.50Q293 803 272 803Q250 803 234.50 816.50Q219 830 219 857Z"  horiz-adv-x="354" vert-adv-y="1000"  />

      
      <glyph glyph-name="unid0" unicode="&#xd0;" d="M316 714Q425 714 505 674Q585 634 629 556.50Q673 479 673 364Q673 183 573 91.50Q473 0 294 0L100 0L100 307L28 307L28 399L100 399L100 714L316 714M309 623L208 623L208 399L368 399L368 307L208 307L208 91L290 91Q560 91 560 361Q560 496 494 559.50Q428 623 309 623Z"  horiz-adv-x="733" vert-adv-y="1000"  />

      
      <glyph glyph-name="unid1" unicode="&#xd1;" d="M681 0L550 0L189 577L185 577Q187 537 190 485.50Q193 434 193 380L193 0L95 0L95 714L225 714L585 140L588 140Q587 161 585.50 193Q584 225 583 261.50Q582 298 581 330L581 714L681 714L681 0M198 781Q204 845 235 880Q266 915 315 915Q343 915 369.50 901.50Q396 888 420 874Q444 860 466 860Q505 860 519 916L576 916Q570 852 539 817Q508 782 460 782Q433 782 406.50 795.50Q380 809 355.50 823Q331 837 309 837Q268 837 255 781L198 781Z"  horiz-adv-x="776" vert-adv-y="1000"  />

      
      <glyph glyph-name="unid2" unicode="&#xd2;" d="M725 358Q725 247 688 164.50Q651 82 577 36Q503-10 393-10Q280-10 206 36Q132 82 96 165Q60 248 60 359Q60 469 96.50 551Q133 633 207 679Q281 725 394 725Q504 725 577.50 679.50Q651 634 688 551.50Q725 469 725 358M174 358Q174 230 227 156Q280 82 393 82Q507 82 559 156Q611 230 611 358Q611 486 559.50 559Q508 632 394 632Q280 632 227 559Q174 486 174 358M367 941Q379 919 397 891.50Q415 864 434 838Q453 812 469 793L469 781L398 781Q374 799 343.50 827Q313 855 285.50 884Q258 913 244 931L244 941L367 941Z"  horiz-adv-x="785" vert-adv-y="1000"  />

      
      <glyph glyph-name="unid3" unicode="&#xd3;" d="M725 358Q725 247 688 164.50Q651 82 577 36Q503-10 393-10Q280-10 206 36Q132 82 96 165Q60 248 60 359Q60 469 96.50 551Q133 633 207 679Q281 725 394 725Q504 725 577.50 679.50Q651 634 688 551.50Q725 469 725 358M174 358Q174 230 227 156Q280 82 393 82Q507 82 559 156Q611 230 611 358Q611 486 559.50 559Q508 632 394 632Q280 632 227 559Q174 486 174 358M549 931Q534 913 507 884Q480 855 449 827Q418 799 394 781L324 781L324 793Q339 812 358 838Q377 864 395 891.50Q413 919 425 941L549 941L549 931Z"  horiz-adv-x="785" vert-adv-y="1000"  />

      
      <glyph glyph-name="unid4" unicode="&#xd4;" d="M725 358Q725 247 688 164.50Q651 82 577 36Q503-10 393-10Q280-10 206 36Q132 82 96 165Q60 248 60 359Q60 469 96.50 551Q133 633 207 679Q281 725 394 725Q504 725 577.50 679.50Q651 634 688 551.50Q725 469 725 358M174 358Q174 230 227 156Q280 82 393 82Q507 82 559 156Q611 230 611 358Q611 486 559.50 559Q508 632 394 632Q280 632 227 559Q174 486 174 358M451 941Q464 919 486.50 891.50Q509 864 533.50 837.50Q558 811 576 793L576 781L503 781Q477 797 448.50 820Q420 843 393 870Q339 815 285 781L213 781L213 793Q232 812 255.50 838Q279 864 301 891.50Q323 919 337 941L451 941Z"  horiz-adv-x="785" vert-adv-y="1000"  />

      
      <glyph glyph-name="unid5" unicode="&#xd5;" d="M725 358Q725 247 688 164.50Q651 82 577 36Q503-10 393-10Q280-10 206 36Q132 82 96 165Q60 248 60 359Q60 469 96.50 551Q133 633 207 679Q281 725 394 725Q504 725 577.50 679.50Q651 634 688 551.50Q725 469 725 358M174 358Q174 230 227 156Q280 82 393 82Q507 82 559 156Q611 230 611 358Q611 486 559.50 559Q508 632 394 632Q280 632 227 559Q174 486 174 358M203 781Q209 845 240 880Q271 915 320 915Q348 915 374.50 901.50Q401 888 425 874Q449 860 471 860Q510 860 524 916L581 916Q575 852 544 817Q513 782 465 782Q438 782 411.50 795.50Q385 809 360.50 823Q336 837 314 837Q273 837 260 781L203 781Z"  horiz-adv-x="785" vert-adv-y="1000"  />

      
      <glyph glyph-name="unid6" unicode="&#xd6;" d="M725 358Q725 247 688 164.50Q651 82 577 36Q503-10 393-10Q280-10 206 36Q132 82 96 165Q60 248 60 359Q60 469 96.50 551Q133 633 207 679Q281 725 394 725Q504 725 577.50 679.50Q651 634 688 551.50Q725 469 725 358M174 358Q174 230 227 156Q280 82 393 82Q507 82 559 156Q611 230 611 358Q611 486 559.50 559Q508 632 394 632Q280 632 227 559Q174 486 174 358M244 857Q244 886 259.50 898.50Q275 911 297 911Q319 911 335 898.50Q351 886 351 857Q351 830 335 816.50Q319 803 297 803Q275 803 259.50 816.50Q244 830 244 857M435 857Q435 886 450.50 898.50Q466 911 488 911Q509 911 525 898.50Q541 886 541 857Q541 830 525 816.50Q509 803 488 803Q466 803 450.50 816.50Q435 830 435 857Z"  horiz-adv-x="785" vert-adv-y="1000"  />

      
      <glyph glyph-name="unid7" unicode="&#xd7;" d="M449 574L507 517L343 353L505 189L449 132L284 294L123 132L65 190L227 353L64 516L122 574L285 411L449 574Z"  horiz-adv-x="572" vert-adv-y="1000"  />

      
      <glyph glyph-name="unid8" unicode="&#xd8;" d="M725 358Q725 247 688 164.50Q651 82 577 36Q503-10 393-10Q286-10 214 33L167-35L101 9L151 81Q105 129 82.50 200Q60 271 60 359Q60 469 96.50 551Q133 633 207 679Q281 725 394 725Q445 725 489 714Q533 703 569 683L614 748L680 704L631 635Q725 537 725 358M174 358Q174 301 184 255Q194 209 215 174L513 601Q465 632 394 632Q280 632 227 559Q174 486 174 358M611 358Q611 475 568 543L271 115Q294 100 325 91Q356 82 393 82Q507 82 559 156Q611 230 611 358Z"  horiz-adv-x="785" vert-adv-y="1000"  />

      
      <glyph glyph-name="unid9" unicode="&#xd9;" d="M649 252Q649 178 618 118.50Q587 59 524.50 24.50Q462-10 366-10Q230-10 159.50 62.50Q89 135 89 254L89 714L197 714L197 259Q197 82 371 82Q461 82 501.50 130Q542 178 542 260L542 714L649 714L649 252M344 941Q356 919 374 891.50Q392 864 411 838Q430 812 446 793L446 781L375 781Q351 799 320.50 827Q290 855 262.50 884Q235 913 221 931L221 941L344 941Z"  horiz-adv-x="738" vert-adv-y="1000"  />

      
      <glyph glyph-name="unida" unicode="&#xda;" d="M649 252Q649 178 618 118.50Q587 59 524.50 24.50Q462-10 366-10Q230-10 159.50 62.50Q89 135 89 254L89 714L197 714L197 259Q197 82 371 82Q461 82 501.50 130Q542 178 542 260L542 714L649 714L649 252M526 931Q511 913 484 884Q457 855 426 827Q395 799 371 781L301 781L301 793Q316 812 335 838Q354 864 372 891.50Q390 919 402 941L526 941L526 931Z"  horiz-adv-x="738" vert-adv-y="1000"  />

      
      <glyph glyph-name="unidb" unicode="&#xdb;" d="M649 252Q649 178 618 118.50Q587 59 524.50 24.50Q462-10 366-10Q230-10 159.50 62.50Q89 135 89 254L89 714L197 714L197 259Q197 82 371 82Q461 82 501.50 130Q542 178 542 260L542 714L649 714L649 252M428 941Q441 919 463.50 891.50Q486 864 510.50 837.50Q535 811 553 793L553 781L480 781Q454 797 425.50 820Q397 843 370 870Q316 815 262 781L190 781L190 793Q209 812 232.50 838Q256 864 278 891.50Q300 919 314 941L428 941Z"  horiz-adv-x="738" vert-adv-y="1000"  />

      
      <glyph glyph-name="unidc" unicode="&#xdc;" d="M649 252Q649 178 618 118.50Q587 59 524.50 24.50Q462-10 366-10Q230-10 159.50 62.50Q89 135 89 254L89 714L197 714L197 259Q197 82 371 82Q461 82 501.50 130Q542 178 542 260L542 714L649 714L649 252M220 857Q220 886 235.50 898.50Q251 911 273 911Q295 911 311 898.50Q327 886 327 857Q327 830 311 816.50Q295 803 273 803Q251 803 235.50 816.50Q220 830 220 857M411 857Q411 886 426.50 898.50Q442 911 464 911Q485 911 501 898.50Q517 886 517 857Q517 830 501 816.50Q485 803 464 803Q442 803 426.50 816.50Q411 830 411 857Z"  horiz-adv-x="738" vert-adv-y="1000"  />

      
      <glyph glyph-name="unidd" unicode="&#xdd;" d="M292 380L467 714L583 714L345 277L345 0L238 0L238 273L0 714L117 714L292 380M448 931Q433 913 406 884Q379 855 348 827Q317 799 293 781L223 781L223 793Q238 812 257 838Q276 864 294 891.50Q312 919 324 941L448 941L448 931Z"  horiz-adv-x="583" vert-adv-y="1000"  />

      
      <glyph glyph-name="unide" unicode="&#xde;" d="M563 380Q563 320 537 268Q511 216 450 183.50Q389 151 282 151L203 151L203 0L95 0L95 714L203 714L203 594L296 594Q437 594 500 537Q563 480 563 380M268 241Q363 241 407.50 272.50Q452 304 452 377Q452 441 412 472Q372 503 284 503L203 503L203 241L268 241Z"  horiz-adv-x="612" vert-adv-y="1000"  />

      
      <glyph glyph-name="unidf" unicode="&#xdf;" d="M548 614Q548 579 534 553Q520 527 499 507.50Q478 488 457 472Q436 456 422 441.50Q408 427 408 411Q408 397 415.50 386.50Q423 376 443 361.50Q463 347 500 322Q553 288 583 251Q613 214 613 155Q613 70 559.50 30Q506-10 415-10Q368-10 332-1.50Q296 7 269 23L269 114Q294 98 333 85Q372 72 410 72Q460 72 483.50 92.50Q507 113 507 150Q507 172 499 189Q491 206 470.50 223Q450 240 413 263Q351 302 327.50 331.50Q304 361 304 401Q304 432 318 453.50Q332 475 352 492Q372 509 392.50 524.50Q413 540 426.50 558.50Q440 577 440 603Q440 641 405.50 660Q371 679 318 679Q283 679 253.50 669.50Q224 660 206.50 637Q189 614 189 574L189 0L83 0L83 576Q83 644 114 685.50Q145 727 198 746Q251 765 318 765Q386 765 437.50 748Q489 731 518.50 697.50Q548 664 548 614Z"  horiz-adv-x="655" vert-adv-y="1000"  />

      
      <glyph glyph-name="unie0" unicode="&#xe0;" d="M292 549Q393 549 443.50 504.50Q494 460 494 365L494 0L419 0L398 75L394 75Q359 31 320.50 10.50Q282-10 214-10Q141-10 93 29.50Q45 69 45 153Q45 235 107 278Q169 321 298 325L390 328L390 358Q390 417 363 441.50Q336 466 287 466Q246 466 208 454Q170 442 135 425L101 502Q139 522 188.50 535.50Q238 549 292 549M317 257Q225 253 189.50 226.50Q154 200 154 152Q154 110 179 91Q204 72 244 72Q306 72 347.50 107Q389 142 389 212L389 259L317 257M261 766Q273 744 291 716.50Q309 689 328 663Q347 637 363 618L363 606L292 606Q268 624 237.50 652Q207 680 179.50 709Q152 738 138 756L138 766L261 766Z"  horiz-adv-x="574" vert-adv-y="1000"  />

      
      <glyph glyph-name="unie1" unicode="&#xe1;" d="M292 549Q393 549 443.50 504.50Q494 460 494 365L494 0L419 0L398 75L394 75Q359 31 320.50 10.50Q282-10 214-10Q141-10 93 29.50Q45 69 45 153Q45 235 107 278Q169 321 298 325L390 328L390 358Q390 417 363 441.50Q336 466 287 466Q246 466 208 454Q170 442 135 425L101 502Q139 522 188.50 535.50Q238 549 292 549M317 257Q225 253 189.50 226.50Q154 200 154 152Q154 110 179 91Q204 72 244 72Q306 72 347.50 107Q389 142 389 212L389 259L317 257M443 756Q428 738 401 709Q374 680 343 652Q312 624 288 606L218 606L218 618Q233 637 252 663Q271 689 289 716.50Q307 744 319 766L443 766L443 756Z"  horiz-adv-x="574" vert-adv-y="1000"  />

      
      <glyph glyph-name="unie2" unicode="&#xe2;" d="M292 549Q393 549 443.50 504.50Q494 460 494 365L494 0L419 0L398 75L394 75Q359 31 320.50 10.50Q282-10 214-10Q141-10 93 29.50Q45 69 45 153Q45 235 107 278Q169 321 298 325L390 328L390 358Q390 417 363 441.50Q336 466 287 466Q246 466 208 454Q170 442 135 425L101 502Q139 522 188.50 535.50Q238 549 292 549M317 257Q225 253 189.50 226.50Q154 200 154 152Q154 110 179 91Q204 72 244 72Q306 72 347.50 107Q389 142 389 212L389 259L317 257M345 766Q358 744 380.50 716.50Q403 689 427.50 662.50Q452 636 470 618L470 606L397 606Q371 622 342.50 645Q314 668 287 695Q233 640 179 606L107 606L107 618Q126 637 149.50 663Q173 689 195 716.50Q217 744 231 766L345 766Z"  horiz-adv-x="574" vert-adv-y="1000"  />

      
      <glyph glyph-name="unie3" unicode="&#xe3;" d="M292 549Q393 549 443.50 504.50Q494 460 494 365L494 0L419 0L398 75L394 75Q359 31 320.50 10.50Q282-10 214-10Q141-10 93 29.50Q45 69 45 153Q45 235 107 278Q169 321 298 325L390 328L390 358Q390 417 363 441.50Q336 466 287 466Q246 466 208 454Q170 442 135 425L101 502Q139 522 188.50 535.50Q238 549 292 549M317 257Q225 253 189.50 226.50Q154 200 154 152Q154 110 179 91Q204 72 244 72Q306 72 347.50 107Q389 142 389 212L389 259L317 257M98 606Q104 670 135 705Q166 740 215 740Q243 740 269.50 726.50Q296 713 320 699Q344 685 366 685Q405 685 419 741L476 741Q470 677 439 642Q408 607 360 607Q333 607 306.50 620.50Q280 634 255.50 648Q231 662 209 662Q168 662 155 606L98 606Z"  horiz-adv-x="574" vert-adv-y="1000"  />

      
      <glyph glyph-name="unie4" unicode="&#xe4;" d="M292 549Q393 549 443.50 504.50Q494 460 494 365L494 0L419 0L398 75L394 75Q359 31 320.50 10.50Q282-10 214-10Q141-10 93 29.50Q45 69 45 153Q45 235 107 278Q169 321 298 325L390 328L390 358Q390 417 363 441.50Q336 466 287 466Q246 466 208 454Q170 442 135 425L101 502Q139 522 188.50 535.50Q238 549 292 549M317 257Q225 253 189.50 226.50Q154 200 154 152Q154 110 179 91Q204 72 244 72Q306 72 347.50 107Q389 142 389 212L389 259L317 257M138 682Q138 711 153.50 723.50Q169 736 191 736Q213 736 229 723.50Q245 711 245 682Q245 655 229 641.50Q213 628 191 628Q169 628 153.50 641.50Q138 655 138 682M329 682Q329 711 344.50 723.50Q360 736 382 736Q403 736 419 723.50Q435 711 435 682Q435 655 419 641.50Q403 628 382 628Q360 628 344.50 641.50Q329 655 329 682Z"  horiz-adv-x="574" vert-adv-y="1000"  />

      
      <glyph glyph-name="unie5" unicode="&#xe5;" d="M292 549Q393 549 443.50 504.50Q494 460 494 365L494 0L419 0L398 75L394 75Q359 31 320.50 10.50Q282-10 214-10Q141-10 93 29.50Q45 69 45 153Q45 235 107 278Q169 321 298 325L390 328L390 358Q390 417 363 441.50Q336 466 287 466Q246 466 208 454Q170 442 135 425L101 502Q139 522 188.50 535.50Q238 549 292 549M317 257Q225 253 189.50 226.50Q154 200 154 152Q154 110 179 91Q204 72 244 72Q306 72 347.50 107Q389 142 389 212L389 259L317 257M289 606Q238 606 207 634.50Q176 663 176 715Q176 765 207 794Q238 823 289 823Q337 823 370 794.50Q403 766 403 716Q403 664 370.50 635Q338 606 289 606M289 661Q312 661 327 675.50Q342 690 342 715Q342 740 326.50 754Q311 768 289 768Q266 768 250.50 754Q235 740 235 715Q235 690 249 675.50Q263 661 289 661Z"  horiz-adv-x="574" vert-adv-y="1000"  />

      
      <glyph glyph-name="unie6" unicode="&#xe6;" d="M614 549Q680 549 729 519Q778 489 804.50 434.50Q831 380 831 307L831 247L485 247Q490 76 634 76Q684 76 724 85.50Q764 95 805 114L805 26Q765 8 724.50-1Q684-10 630-10Q562-10 509 17.50Q456 45 424 99Q387 47 341 18.50Q295-10 216-10Q168-10 129 7.50Q90 25 67.50 61Q45 97 45 153Q45 317 286 325L377 328L377 364Q377 420 349.50 443Q322 466 274 466Q235 466 197 454.50Q159 443 125 426L92 502Q129 522 179.50 535.50Q230 549 282 549Q342 549 383 529.50Q424 510 447 469Q475 507 517 528Q559 549 614 549M613 467Q557 467 524.50 431Q492 395 487 325L724 325Q724 388 696.50 427.50Q669 467 613 467M307 257Q221 253 187.50 226.50Q154 200 154 152Q154 110 177.50 91Q201 72 240 72Q298 72 337 107Q376 142 376 212L376 259L307 257Z"  horiz-adv-x="880" vert-adv-y="1000"  />

      
      <glyph glyph-name="unie7" unicode="&#xe7;" d="M300-10Q188-10 120 56.50Q52 123 52 266Q52 366 85 428Q118 490 176 519.50Q234 549 308 549Q353 549 392.50 539.50Q432 530 458 518L426 432Q398 443 366.50 451Q335 459 307 459Q161 459 161 267Q161 175 197 127Q233 79 303 79Q348 79 382.50 89Q417 99 446 115L446 23Q417 6 383-2Q349-10 300-10M390-134Q390-184 354-212Q318-240 241-240Q207-240 185-234L185-171Q210-177 243-177Q272-177 288.50-168.50Q305-160 305-137Q305-113 281-100.50Q257-88 217-83L259 0L327 0L305-46Q339-55 364.50-75.50Q390-96 390-134Z"  horiz-adv-x="490" vert-adv-y="1000"  />

      
      <glyph glyph-name="unie8" unicode="&#xe8;" d="M295 549Q401 549 462 483.50Q523 418 523 305L523 247L161 247Q163 164 204.50 120Q246 76 321 76Q373 76 413.50 85.50Q454 95 497 114L497 26Q456 8 415-1Q374-10 317-10Q238-10 178.50 21Q119 52 85.50 113.50Q52 175 52 265Q52 356 82.50 419Q113 482 167.50 515.50Q222 549 295 549M295 467Q238 467 203.50 430Q169 393 163 325L417 325Q416 388 386.50 427.50Q357 467 295 467M263 766Q275 744 293 716.50Q311 689 330 663Q349 637 365 618L365 606L294 606Q270 624 239.50 652Q209 680 181.50 709Q154 738 140 756L140 766L263 766Z"  horiz-adv-x="572" vert-adv-y="1000"  />

      
      <glyph glyph-name="unie9" unicode="&#xe9;" d="M295 549Q401 549 462 483.50Q523 418 523 305L523 247L161 247Q163 164 204.50 120Q246 76 321 76Q373 76 413.50 85.50Q454 95 497 114L497 26Q456 8 415-1Q374-10 317-10Q238-10 178.50 21Q119 52 85.50 113.50Q52 175 52 265Q52 356 82.50 419Q113 482 167.50 515.50Q222 549 295 549M295 467Q238 467 203.50 430Q169 393 163 325L417 325Q416 388 386.50 427.50Q357 467 295 467M444 756Q429 738 402 709Q375 680 344 652Q313 624 289 606L219 606L219 618Q234 637 253 663Q272 689 290 716.50Q308 744 320 766L444 766L444 756Z"  horiz-adv-x="572" vert-adv-y="1000"  />

      
      <glyph glyph-name="uniea" unicode="&#xea;" d="M295 549Q401 549 462 483.50Q523 418 523 305L523 247L161 247Q163 164 204.50 120Q246 76 321 76Q373 76 413.50 85.50Q454 95 497 114L497 26Q456 8 415-1Q374-10 317-10Q238-10 178.50 21Q119 52 85.50 113.50Q52 175 52 265Q52 356 82.50 419Q113 482 167.50 515.50Q222 549 295 549M295 467Q238 467 203.50 430Q169 393 163 325L417 325Q416 388 386.50 427.50Q357 467 295 467M346 766Q359 744 381.50 716.50Q404 689 428.50 662.50Q453 636 471 618L471 606L398 606Q372 622 343.50 645Q315 668 288 695Q234 640 180 606L108 606L108 618Q127 637 150.50 663Q174 689 196 716.50Q218 744 232 766L346 766Z"  horiz-adv-x="572" vert-adv-y="1000"  />

      
      <glyph glyph-name="unieb" unicode="&#xeb;" d="M295 549Q401 549 462 483.50Q523 418 523 305L523 247L161 247Q163 164 204.50 120Q246 76 321 76Q373 76 413.50 85.50Q454 95 497 114L497 26Q456 8 415-1Q374-10 317-10Q238-10 178.50 21Q119 52 85.50 113.50Q52 175 52 265Q52 356 82.50 419Q113 482 167.50 515.50Q222 549 295 549M295 467Q238 467 203.50 430Q169 393 163 325L417 325Q416 388 386.50 427.50Q357 467 295 467M139 682Q139 711 154.50 723.50Q170 736 192 736Q214 736 230 723.50Q246 711 246 682Q246 655 230 641.50Q214 628 192 628Q170 628 154.50 641.50Q139 655 139 682M330 682Q330 711 345.50 723.50Q361 736 383 736Q404 736 420 723.50Q436 711 436 682Q436 655 420 641.50Q404 628 383 628Q361 628 345.50 641.50Q330 655 330 682Z"  horiz-adv-x="572" vert-adv-y="1000"  />

      
      <glyph glyph-name="uniec" unicode="&#xec;" d="M189 0L83 0L83 539L189 539L189 0M110 766Q122 744 140 716.50Q158 689 177 663Q196 637 212 618L212 606L141 606Q117 624 86.50 652Q56 680 28.50 709Q1 738-13 756L-13 766L110 766Z"  horiz-adv-x="272" vert-adv-y="1000"  />

      
      <glyph glyph-name="unied" unicode="&#xed;" d="M189 0L83 0L83 539L189 539L189 0M292 756Q277 738 250 709Q223 680 192 652Q161 624 137 606L67 606L67 618Q82 637 101 663Q120 689 138 716.50Q156 744 168 766L292 766L292 756Z"  horiz-adv-x="272" vert-adv-y="1000"  />

      
      <glyph glyph-name="uniee" unicode="&#xee;" d="M189 0L83 0L83 539L189 539L189 0M194 766Q207 744 229.50 716.50Q252 689 276.50 662.50Q301 636 319 618L319 606L246 606Q220 622 191.50 645Q163 668 136 695Q82 640 28 606L-44 606L-44 618Q-25 637-1.50 663Q22 689 44 716.50Q66 744 80 766L194 766Z"  horiz-adv-x="272" vert-adv-y="1000"  />

      
      <glyph glyph-name="unief" unicode="&#xef;" d="M189 0L83 0L83 539L189 539L189 0M-13 682Q-13 711 2.50 723.50Q18 736 40 736Q62 736 78 723.50Q94 711 94 682Q94 655 78 641.50Q62 628 40 628Q18 628 2.50 641.50Q-13 655-13 682M178 682Q178 711 193.50 723.50Q209 736 231 736Q252 736 268 723.50Q284 711 284 682Q284 655 268 641.50Q252 628 231 628Q209 628 193.50 641.50Q178 655 178 682Z"  horiz-adv-x="272" vert-adv-y="1000"  />

      
      <glyph glyph-name="unif0" unicode="&#xf0;" d="M218 765Q251 750 283.50 732Q316 714 344 694L458 761L499 701L405 646Q474 581 516 489Q558 397 558 276Q558 135 489.50 62.50Q421-10 303-10Q230-10 173 19.50Q116 49 84 103.50Q52 158 52 235Q52 349 116 413Q180 477 287 477Q339 477 377 463.50Q415 450 437 422L441 424Q425 476 394.50 519Q364 562 325 598L201 525L159 586L264 647Q224 673 179 697L218 765M305 394Q228 394 194 352.50Q160 311 160 232Q160 162 194.50 117.50Q229 73 305 73Q381 73 415.50 119Q450 165 450 254Q450 311 414.50 352.50Q379 394 305 394Z"  horiz-adv-x="609" vert-adv-y="1000"  />

      
      <glyph glyph-name="unif1" unicode="&#xf1;" d="M356 549Q450 549 500 502Q550 455 550 351L550 0L445 0L445 336Q445 462 334 462Q251 462 220 413Q189 364 189 272L189 0L83 0L83 539L167 539L182 467L188 467Q214 509 259.50 529Q305 549 356 549M125 606Q131 670 162 705Q193 740 242 740Q270 740 296.50 726.50Q323 713 347 699Q371 685 393 685Q432 685 446 741L503 741Q497 677 466 642Q435 607 387 607Q360 607 333.50 620.50Q307 634 282.50 648Q258 662 236 662Q195 662 182 606L125 606Z"  horiz-adv-x="630" vert-adv-y="1000"  />

      
      <glyph glyph-name="unif2" unicode="&#xf2;" d="M558 270Q558 136 489 63Q420-10 303-10Q230-10 173.50 23Q117 56 84.50 118.50Q52 181 52 270Q52 404 120 476.50Q188 549 306 549Q380 549 436.50 516.50Q493 484 525.50 422Q558 360 558 270M161 270Q161 179 195.50 128Q230 77 305 77Q380 77 414.50 128Q449 179 449 270Q449 362 414 411.50Q379 461 304 461Q229 461 195 411.50Q161 362 161 270M279 766Q291 744 309 716.50Q327 689 346 663Q365 637 381 618L381 606L310 606Q286 624 255.50 652Q225 680 197.50 709Q170 738 156 756L156 766L279 766Z"  horiz-adv-x="609" vert-adv-y="1000"  />

      
      <glyph glyph-name="unif3" unicode="&#xf3;" d="M558 270Q558 136 489 63Q420-10 303-10Q230-10 173.50 23Q117 56 84.50 118.50Q52 181 52 270Q52 404 120 476.50Q188 549 306 549Q380 549 436.50 516.50Q493 484 525.50 422Q558 360 558 270M161 270Q161 179 195.50 128Q230 77 305 77Q380 77 414.50 128Q449 179 449 270Q449 362 414 411.50Q379 461 304 461Q229 461 195 411.50Q161 362 161 270M461 756Q446 738 419 709Q392 680 361 652Q330 624 306 606L236 606L236 618Q251 637 270 663Q289 689 307 716.50Q325 744 337 766L461 766L461 756Z"  horiz-adv-x="609" vert-adv-y="1000"  />

      
      <glyph glyph-name="unif4" unicode="&#xf4;" d="M558 270Q558 136 489 63Q420-10 303-10Q230-10 173.50 23Q117 56 84.50 118.50Q52 181 52 270Q52 404 120 476.50Q188 549 306 549Q380 549 436.50 516.50Q493 484 525.50 422Q558 360 558 270M161 270Q161 179 195.50 128Q230 77 305 77Q380 77 414.50 128Q449 179 449 270Q449 362 414 411.50Q379 461 304 461Q229 461 195 411.50Q161 362 161 270M363 766Q376 744 398.50 716.50Q421 689 445.50 662.50Q470 636 488 618L488 606L415 606Q389 622 360.50 645Q332 668 305 695Q251 640 197 606L125 606L125 618Q144 637 167.50 663Q191 689 213 716.50Q235 744 249 766L363 766Z"  horiz-adv-x="609" vert-adv-y="1000"  />

      
      <glyph glyph-name="unif5" unicode="&#xf5;" d="M558 270Q558 136 489 63Q420-10 303-10Q230-10 173.50 23Q117 56 84.50 118.50Q52 181 52 270Q52 404 120 476.50Q188 549 306 549Q380 549 436.50 516.50Q493 484 525.50 422Q558 360 558 270M161 270Q161 179 195.50 128Q230 77 305 77Q380 77 414.50 128Q449 179 449 270Q449 362 414 411.50Q379 461 304 461Q229 461 195 411.50Q161 362 161 270M115 606Q121 670 152 705Q183 740 232 740Q260 740 286.50 726.50Q313 713 337 699Q361 685 383 685Q422 685 436 741L493 741Q487 677 456 642Q425 607 377 607Q350 607 323.50 620.50Q297 634 272.50 648Q248 662 226 662Q185 662 172 606L115 606Z"  horiz-adv-x="609" vert-adv-y="1000"  />

      
      <glyph glyph-name="unif6" unicode="&#xf6;" d="M558 270Q558 136 489 63Q420-10 303-10Q230-10 173.50 23Q117 56 84.50 118.50Q52 181 52 270Q52 404 120 476.50Q188 549 306 549Q380 549 436.50 516.50Q493 484 525.50 422Q558 360 558 270M161 270Q161 179 195.50 128Q230 77 305 77Q380 77 414.50 128Q449 179 449 270Q449 362 414 411.50Q379 461 304 461Q229 461 195 411.50Q161 362 161 270M156 682Q156 711 171.50 723.50Q187 736 209 736Q231 736 247 723.50Q263 711 263 682Q263 655 247 641.50Q231 628 209 628Q187 628 171.50 641.50Q156 655 156 682M347 682Q347 711 362.50 723.50Q378 736 400 736Q421 736 437 723.50Q453 711 453 682Q453 655 437 641.50Q421 628 400 628Q378 628 362.50 641.50Q347 655 347 682Z"  horiz-adv-x="609" vert-adv-y="1000"  />

      
      <glyph glyph-name="unif7" unicode="&#xf7;" d="M285 458Q260 458 242.50 473.50Q225 489 225 523Q225 559 242.50 573Q260 587 285 587Q309 587 326.50 573Q344 559 344 523Q344 489 326.50 473.50Q309 458 285 458M48 312L48 393L523 393L523 312L48 312M285 117Q260 117 242.50 132.50Q225 148 225 182Q225 218 242.50 232Q260 246 285 246Q309 246 326.50 232Q344 218 344 182Q344 148 326.50 132.50Q309 117 285 117Z"  horiz-adv-x="572" vert-adv-y="1000"  />

      
      <glyph glyph-name="unif8" unicode="&#xf8;" d="M558 270Q558 136 489 63Q420-10 303-10Q233-10 178 20L141-34L78 8L119 67Q87 103 69.50 154Q52 205 52 270Q52 404 120 476.50Q188 549 306 549Q377 549 434 516L470 567L533 525L493 469Q523 433 540.50 383.50Q558 334 558 270M161 270Q161 236 165.50 207.50Q170 179 181 156L381 441Q350 461 304 461Q229 461 195 411.50Q161 362 161 270M449 270Q449 334 431 378L231 95Q261 77 305 77Q380 77 414.50 128Q449 179 449 270Z"  horiz-adv-x="609" vert-adv-y="1000"  />

      
      <glyph glyph-name="unif9" unicode="&#xf9;" d="M547 539L547 0L462 0L447 71L442 71Q416 29 370 9.50Q324-10 273-10Q178-10 128 37Q78 84 78 186L78 539L185 539L185 202Q185 77 294 77Q377 77 409 126Q441 175 441 266L441 539L547 539M289 766Q301 744 319 716.50Q337 689 356 663Q375 637 391 618L391 606L320 606Q296 624 265.50 652Q235 680 207.50 709Q180 738 166 756L166 766L289 766Z"  horiz-adv-x="630" vert-adv-y="1000"  />

      
      <glyph glyph-name="unifa" unicode="&#xfa;" d="M547 539L547 0L462 0L447 71L442 71Q416 29 370 9.50Q324-10 273-10Q178-10 128 37Q78 84 78 186L78 539L185 539L185 202Q185 77 294 77Q377 77 409 126Q441 175 441 266L441 539L547 539M471 756Q456 738 429 709Q402 680 371 652Q340 624 316 606L246 606L246 618Q261 637 280 663Q299 689 317 716.50Q335 744 347 766L471 766L471 756Z"  horiz-adv-x="630" vert-adv-y="1000"  />

      
      <glyph glyph-name="unifb" unicode="&#xfb;" d="M547 539L547 0L462 0L447 71L442 71Q416 29 370 9.50Q324-10 273-10Q178-10 128 37Q78 84 78 186L78 539L185 539L185 202Q185 77 294 77Q377 77 409 126Q441 175 441 266L441 539L547 539M373 766Q386 744 408.50 716.50Q431 689 455.50 662.50Q480 636 498 618L498 606L425 606Q399 622 370.50 645Q342 668 315 695Q261 640 207 606L135 606L135 618Q154 637 177.50 663Q201 689 223 716.50Q245 744 259 766L373 766Z"  horiz-adv-x="630" vert-adv-y="1000"  />

      
      <glyph glyph-name="unifc" unicode="&#xfc;" d="M547 539L547 0L462 0L447 71L442 71Q416 29 370 9.50Q324-10 273-10Q178-10 128 37Q78 84 78 186L78 539L185 539L185 202Q185 77 294 77Q377 77 409 126Q441 175 441 266L441 539L547 539M166 682Q166 711 181.50 723.50Q197 736 219 736Q241 736 257 723.50Q273 711 273 682Q273 655 257 641.50Q241 628 219 628Q197 628 181.50 641.50Q166 655 166 682M357 682Q357 711 372.50 723.50Q388 736 410 736Q431 736 447 723.50Q463 711 463 682Q463 655 447 641.50Q431 628 410 628Q388 628 372.50 641.50Q357 655 357 682Z"  horiz-adv-x="630" vert-adv-y="1000"  />

      
      <glyph glyph-name="unifd" unicode="&#xfd;" d="M1 539L115 539L227 233Q240 198 249.50 165.50Q259 133 264 102L268 102Q273 128 283.50 163Q294 198 307 234L413 539L527 539L296-73Q267-151 218.50-195.50Q170-240 92-240Q67-240 49-237.50Q31-235 18-232L18-148Q28-150 44-152Q60-154 77-154Q123-154 151-127.50Q179-101 195-58L217 0L1 539M420 756Q405 738 378 709Q351 680 320 652Q289 624 265 606L195 606L195 618Q210 637 229 663Q248 689 266 716.50Q284 744 296 766L420 766L420 756Z"  horiz-adv-x="527" vert-adv-y="1000"  />

      
      <glyph glyph-name="unife" unicode="&#xfe;" d="M568 270Q568 133 508.50 61.50Q449-10 352-10Q291-10 251.50 12Q212 34 189 65L183 65Q185 52 187 25.50Q189-1 189-17L189-240L83-240L83 760L189 760L189 546Q189 529 187.50 505Q186 481 185 467L190 467Q213 501 251.50 525Q290 549 352 549Q449 549 508.50 478.50Q568 408 568 270M459 272Q459 367 427 414.50Q395 462 328 462Q252 462 221 419Q190 376 189 289L189 271Q189 178 219 127.50Q249 77 329 77Q396 77 427.50 127.50Q459 178 459 272Z"  horiz-adv-x="620" vert-adv-y="1000"  />

      
      <glyph glyph-name="uniff" unicode="&#xff;" d="M1 539L115 539L227 233Q240 198 249.50 165.50Q259 133 264 102L268 102Q273 128 283.50 163Q294 198 307 234L413 539L527 539L296-73Q267-151 218.50-195.50Q170-240 92-240Q67-240 49-237.50Q31-235 18-232L18-148Q28-150 44-152Q60-154 77-154Q123-154 151-127.50Q179-101 195-58L217 0L1 539M115 682Q115 711 130.50 723.50Q146 736 168 736Q190 736 206 723.50Q222 711 222 682Q222 655 206 641.50Q190 628 168 628Q146 628 130.50 641.50Q115 655 115 682M306 682Q306 711 321.50 723.50Q337 736 359 736Q380 736 396 723.50Q412 711 412 682Q412 655 396 641.50Q380 628 359 628Q337 628 321.50 641.50Q306 655 306 682Z"  horiz-adv-x="527" vert-adv-y="1000"  />

      
      <glyph glyph-name="uni0100" unicode="&#x0100;" d="M540 0L464 206L188 206L112 0L0 0L271 717L383 717L653 0L540 0M362 501Q359 512 351.50 534Q344 556 337 580Q330 604 326 619Q318 588 308 553Q298 518 292 501L220 300L434 300L362 501M479 861L479 781L172 781L172 861L479 861Z"  horiz-adv-x="654" vert-adv-y="1000"  />

      
      <glyph glyph-name="uni0101" unicode="&#x0101;" d="M292 549Q393 549 443.50 504.50Q494 460 494 365L494 0L419 0L398 75L394 75Q359 31 320.50 10.50Q282-10 214-10Q141-10 93 29.50Q45 69 45 153Q45 235 107 278Q169 321 298 325L390 328L390 358Q390 417 363 441.50Q336 466 287 466Q246 466 208 454Q170 442 135 425L101 502Q139 522 188.50 535.50Q238 549 292 549M317 257Q225 253 189.50 226.50Q154 200 154 152Q154 110 179 91Q204 72 244 72Q306 72 347.50 107Q389 142 389 212L389 259L317 257M440 686L440 606L133 606L133 686L440 686Z"  horiz-adv-x="574" vert-adv-y="1000"  />

      
      <glyph glyph-name="uni0102" unicode="&#x0102;" d="M540 0L464 206L188 206L112 0L0 0L271 717L383 717L653 0L540 0M362 501Q359 512 351.50 534Q344 556 337 580Q330 604 326 619Q318 588 308 553Q298 518 292 501L220 300L434 300L362 501M497 924Q491 860 447 820.50Q403 781 328 781Q250 781 209 820Q168 859 164 924L227 924Q231 883 258 872.50Q285 862 330 862Q368 862 398 873.50Q428 885 433 924L497 924Z"  horiz-adv-x="654" vert-adv-y="1000"  />

      
      <glyph glyph-name="uni0103" unicode="&#x0103;" d="M292 549Q393 549 443.50 504.50Q494 460 494 365L494 0L419 0L398 75L394 75Q359 31 320.50 10.50Q282-10 214-10Q141-10 93 29.50Q45 69 45 153Q45 235 107 278Q169 321 298 325L390 328L390 358Q390 417 363 441.50Q336 466 287 466Q246 466 208 454Q170 442 135 425L101 502Q139 522 188.50 535.50Q238 549 292 549M317 257Q225 253 189.50 226.50Q154 200 154 152Q154 110 179 91Q204 72 244 72Q306 72 347.50 107Q389 142 389 212L389 259L317 257M458 749Q452 685 408 645.50Q364 606 289 606Q211 606 170 645Q129 684 125 749L188 749Q192 708 219 697.50Q246 687 291 687Q329 687 359 698.50Q389 710 394 749L458 749Z"  horiz-adv-x="574" vert-adv-y="1000"  />

      
      <glyph glyph-name="uni0104" unicode="&#x0104;" d="M540 0L464 206L188 206L112 0L0 0L271 717L383 717L653 0L540 0M362 501Q359 512 351.50 534Q344 556 337 580Q330 604 326 619Q318 588 308 553Q298 518 292 501L220 300L434 300L362 501M554-115Q554-136 565.50-147Q577-158 597-158Q614-158 626.50-155.50Q639-153 648-151L648-216Q633-220 617.50-223Q602-226 582-226Q527-226 500-199Q473-172 473-127Q473-98 487.50-71Q502-44 524.50-21.50Q547 1 570 16L623 0Q590-32 572-58.50Q554-85 554-115Z"  horiz-adv-x="654" vert-adv-y="1000"  />

      
      <glyph glyph-name="uni0105" unicode="&#x0105;" d="M292 549Q393 549 443.50 504.50Q494 460 494 365L494 0L419 0L398 75L394 75Q359 31 320.50 10.50Q282-10 214-10Q141-10 93 29.50Q45 69 45 153Q45 235 107 278Q169 321 298 325L390 328L390 358Q390 417 363 441.50Q336 466 287 466Q246 466 208 454Q170 442 135 425L101 502Q139 522 188.50 535.50Q238 549 292 549M317 257Q225 253 189.50 226.50Q154 200 154 152Q154 110 179 91Q204 72 244 72Q306 72 347.50 107Q389 142 389 212L389 259L317 257M422-115Q422-136 433.50-147Q445-158 465-158Q482-158 494.50-155.50Q507-153 516-151L516-216Q501-220 485.50-223Q470-226 450-226Q395-226 368-199Q341-172 341-127Q341-98 355.50-71Q370-44 392.50-21.50Q415 1 438 16L491 0Q458-32 440-58.50Q422-85 422-115Z"  horiz-adv-x="574" vert-adv-y="1000"  />

      
      <glyph glyph-name="uni0106" unicode="&#x0106;" d="M400 631Q293 631 233 557.50Q173 484 173 356Q173 229 229 156Q285 83 399 83Q445 83 487.50 91.50Q530 100 574 114L574 21Q532 5 488.50-2.50Q445-10 386-10Q276-10 204 35.50Q132 81 96 163.50Q60 246 60 357Q60 465 99.50 548Q139 631 215 677.50Q291 724 401 724Q455 724 506.50 712.50Q558 701 601 680L561 590Q526 606 485.50 618.50Q445 631 400 631M535 931Q520 913 493 884Q466 855 435 827Q404 799 380 781L310 781L310 793Q325 812 344 838Q363 864 381 891.50Q399 919 411 941L535 941L535 931Z"  horiz-adv-x="633" vert-adv-y="1000"  />

      
      <glyph glyph-name="uni0107" unicode="&#x0107;" d="M300-10Q188-10 120 56.50Q52 123 52 266Q52 366 85 428Q118 490 176 519.50Q234 549 308 549Q353 549 392.50 539.50Q432 530 458 518L426 432Q398 443 366.50 451Q335 459 307 459Q161 459 161 267Q161 175 197 127Q233 79 303 79Q348 79 382.50 89Q417 99 446 115L446 23Q417 6 383-2Q349-10 300-10M441 756Q426 738 399 709Q372 680 341 652Q310 624 286 606L216 606L216 618Q231 637 250 663Q269 689 287 716.50Q305 744 317 766L441 766L441 756Z"  horiz-adv-x="490" vert-adv-y="1000"  />

      
      <glyph glyph-name="uni0108" unicode="&#x0108;" d="M400 631Q293 631 233 557.50Q173 484 173 356Q173 229 229 156Q285 83 399 83Q445 83 487.50 91.50Q530 100 574 114L574 21Q532 5 488.50-2.50Q445-10 386-10Q276-10 204 35.50Q132 81 96 163.50Q60 246 60 357Q60 465 99.50 548Q139 631 215 677.50Q291 724 401 724Q455 724 506.50 712.50Q558 701 601 680L561 590Q526 606 485.50 618.50Q445 631 400 631M437 941Q450 919 472.50 891.50Q495 864 519.50 837.50Q544 811 562 793L562 781L489 781Q463 797 434.50 820Q406 843 379 870Q325 815 271 781L199 781L199 793Q218 812 241.50 838Q265 864 287 891.50Q309 919 323 941L437 941Z"  horiz-adv-x="633" vert-adv-y="1000"  />

      
      <glyph glyph-name="uni0109" unicode="&#x0109;" d="M300-10Q188-10 120 56.50Q52 123 52 266Q52 366 85 428Q118 490 176 519.50Q234 549 308 549Q353 549 392.50 539.50Q432 530 458 518L426 432Q398 443 366.50 451Q335 459 307 459Q161 459 161 267Q161 175 197 127Q233 79 303 79Q348 79 382.50 89Q417 99 446 115L446 23Q417 6 383-2Q349-10 300-10M343 766Q356 744 378.50 716.50Q401 689 425.50 662.50Q450 636 468 618L468 606L395 606Q369 622 340.50 645Q312 668 285 695Q231 640 177 606L105 606L105 618Q124 637 147.50 663Q171 689 193 716.50Q215 744 229 766L343 766Z"  horiz-adv-x="490" vert-adv-y="1000"  />

      
      <glyph glyph-name="uni010A" unicode="&#x010A;" d="M400 631Q293 631 233 557.50Q173 484 173 356Q173 229 229 156Q285 83 399 83Q445 83 487.50 91.50Q530 100 574 114L574 21Q532 5 488.50-2.50Q445-10 386-10Q276-10 204 35.50Q132 81 96 163.50Q60 246 60 357Q60 465 99.50 548Q139 631 215 677.50Q291 724 401 724Q455 724 506.50 712.50Q558 701 601 680L561 590Q526 606 485.50 618.50Q445 631 400 631M382 919Q406 919 423.50 905Q441 891 441 858Q441 826 423.50 811.50Q406 797 382 797Q356 797 338.50 811.50Q321 826 321 858Q321 891 338.50 905Q356 919 382 919Z"  horiz-adv-x="633" vert-adv-y="1000"  />

      
      <glyph glyph-name="uni010B" unicode="&#x010B;" d="M300-10Q188-10 120 56.50Q52 123 52 266Q52 366 85 428Q118 490 176 519.50Q234 549 308 549Q353 549 392.50 539.50Q432 530 458 518L426 432Q398 443 366.50 451Q335 459 307 459Q161 459 161 267Q161 175 197 127Q233 79 303 79Q348 79 382.50 89Q417 99 446 115L446 23Q417 6 383-2Q349-10 300-10M288 744Q312 744 329.50 730Q347 716 347 683Q347 651 329.50 636.50Q312 622 288 622Q262 622 244.50 636.50Q227 651 227 683Q227 716 244.50 730Q262 744 288 744Z"  horiz-adv-x="490" vert-adv-y="1000"  />

      
      <glyph glyph-name="uni010C" unicode="&#x010C;" d="M400 631Q293 631 233 557.50Q173 484 173 356Q173 229 229 156Q285 83 399 83Q445 83 487.50 91.50Q530 100 574 114L574 21Q532 5 488.50-2.50Q445-10 386-10Q276-10 204 35.50Q132 81 96 163.50Q60 246 60 357Q60 465 99.50 548Q139 631 215 677.50Q291 724 401 724Q455 724 506.50 712.50Q558 701 601 680L561 590Q526 606 485.50 618.50Q445 631 400 631M322 781Q308 804 286 831Q264 858 240 883.50Q216 909 198 928L198 941L270 941Q296 924 324.50 901Q353 878 378 851Q405 878 433.50 901Q462 924 488 941L561 941L561 928Q543 909 518.50 883.50Q494 858 471.50 831Q449 804 436 781L322 781Z"  horiz-adv-x="633" vert-adv-y="1000"  />

      
      <glyph glyph-name="uni010D" unicode="&#x010D;" d="M300-10Q188-10 120 56.50Q52 123 52 266Q52 366 85 428Q118 490 176 519.50Q234 549 308 549Q353 549 392.50 539.50Q432 530 458 518L426 432Q398 443 366.50 451Q335 459 307 459Q161 459 161 267Q161 175 197 127Q233 79 303 79Q348 79 382.50 89Q417 99 446 115L446 23Q417 6 383-2Q349-10 300-10M228 606Q214 629 192 656Q170 683 146 708.50Q122 734 104 753L104 766L176 766Q202 749 230.50 726Q259 703 284 676Q311 703 339.50 726Q368 749 394 766L467 766L467 753Q449 734 424.50 708.50Q400 683 377.50 656Q355 629 342 606L228 606Z"  horiz-adv-x="490" vert-adv-y="1000"  />

      
      <glyph glyph-name="uni010E" unicode="&#x010E;" d="M673 364Q673 183 573.50 91.50Q474 0 295 0L95 0L95 714L316 714Q425 714 505 674Q585 634 629 556.50Q673 479 673 364M560 361Q560 496 494.50 559.50Q429 623 309 623L203 623L203 91L290 91Q560 91 560 361M307 781Q293 804 271 831Q249 858 225 883.50Q201 909 183 928L183 941L255 941Q281 924 309.50 901Q338 878 363 851Q390 878 418.50 901Q447 924 473 941L546 941L546 928Q528 909 503.50 883.50Q479 858 456.50 831Q434 804 421 781L307 781Z"  horiz-adv-x="733" vert-adv-y="1000"  />

      
      <glyph glyph-name="uni010F" unicode="&#x010F;" d="M708 751Q699 722 678 678.50Q657 635 634 600L574 600L574 612Q584 641 593.50 684.50Q603 728 606 760L708 760L708 751M268-10Q171-10 111.50 60Q52 130 52 268Q52 407 112 478Q172 549 270 549Q331 549 370 526Q409 503 433 470L439 470Q437 483 434 510Q431 537 431 558L431 760L537 760L537 0L454 0L436 72L431 72Q408 37 369 13.50Q330-10 268-10M293 77Q371 77 403 120.50Q435 164 435 251L435 267Q435 361 404.50 411.50Q374 462 292 462Q227 462 194 409.50Q161 357 161 266Q161 175 194 126Q227 77 293 77Z"  horiz-adv-x="620" vert-adv-y="1000"  />

      
      <glyph glyph-name="uni0110" unicode="&#x0110;" d="M316 714Q425 714 505 674Q585 634 629 556.50Q673 479 673 364Q673 183 573 91.50Q473 0 294 0L100 0L100 307L28 307L28 399L100 399L100 714L316 714M309 623L208 623L208 399L368 399L368 307L208 307L208 91L290 91Q560 91 560 361Q560 496 494 559.50Q428 623 309 623Z"  horiz-adv-x="733" vert-adv-y="1000"  />

      
      <glyph glyph-name="uni0111" unicode="&#x0111;" d="M268-10Q170-10 111 59Q52 128 52 263Q52 401 112 469.50Q172 538 269 538Q331 538 370 515Q409 492 433 459L439 459Q436 474 433.50 502Q431 530 431 548L431 599L236 599L236 674L431 674L431 760L537 760L537 674L613 674L613 599L537 599L537 0L453 0L435 72L431 72Q407 37 368 13.50Q329-10 268-10M294 77Q371 77 403 119Q435 161 435 246L435 262Q435 354 404.50 402.50Q374 451 292 451Q227 451 194 400.50Q161 350 161 261Q161 172 194.50 124.50Q228 77 294 77Z"  horiz-adv-x="626" vert-adv-y="1000"  />

      
      <glyph glyph-name="uni0112" unicode="&#x0112;" d="M497 0L95 0L95 714L497 714L497 622L203 622L203 418L479 418L479 327L203 327L203 93L497 93L497 0M457 861L457 781L150 781L150 861L457 861Z"  horiz-adv-x="557" vert-adv-y="1000"  />

      
      <glyph glyph-name="uni0113" unicode="&#x0113;" d="M295 549Q401 549 462 483.50Q523 418 523 305L523 247L161 247Q163 164 204.50 120Q246 76 321 76Q373 76 413.50 85.50Q454 95 497 114L497 26Q456 8 415-1Q374-10 317-10Q238-10 178.50 21Q119 52 85.50 113.50Q52 175 52 265Q52 356 82.50 419Q113 482 167.50 515.50Q222 549 295 549M295 467Q238 467 203.50 430Q169 393 163 325L417 325Q416 388 386.50 427.50Q357 467 295 467M442 686L442 606L135 606L135 686L442 686Z"  horiz-adv-x="572" vert-adv-y="1000"  />

      
      <glyph glyph-name="uni0114" unicode="&#x0114;" d="M497 0L95 0L95 714L497 714L497 622L203 622L203 418L479 418L479 327L203 327L203 93L497 93L497 0M475 924Q469 860 425 820.50Q381 781 306 781Q228 781 187 820Q146 859 142 924L205 924Q209 883 236 872.50Q263 862 308 862Q346 862 376 873.50Q406 885 411 924L475 924Z"  horiz-adv-x="557" vert-adv-y="1000"  />

      
      <glyph glyph-name="uni0115" unicode="&#x0115;" d="M295 549Q401 549 462 483.50Q523 418 523 305L523 247L161 247Q163 164 204.50 120Q246 76 321 76Q373 76 413.50 85.50Q454 95 497 114L497 26Q456 8 415-1Q374-10 317-10Q238-10 178.50 21Q119 52 85.50 113.50Q52 175 52 265Q52 356 82.50 419Q113 482 167.50 515.50Q222 549 295 549M295 467Q238 467 203.50 430Q169 393 163 325L417 325Q416 388 386.50 427.50Q357 467 295 467M459 749Q453 685 409 645.50Q365 606 290 606Q212 606 171 645Q130 684 126 749L189 749Q193 708 220 697.50Q247 687 292 687Q330 687 360 698.50Q390 710 395 749L459 749Z"  horiz-adv-x="572" vert-adv-y="1000"  />

      
      <glyph glyph-name="uni0116" unicode="&#x0116;" d="M497 0L95 0L95 714L497 714L497 622L203 622L203 418L479 418L479 327L203 327L203 93L497 93L497 0M307 919Q331 919 348.50 905Q366 891 366 858Q366 826 348.50 811.50Q331 797 307 797Q281 797 263.50 811.50Q246 826 246 858Q246 891 263.50 905Q281 919 307 919Z"  horiz-adv-x="557" vert-adv-y="1000"  />

      
      <glyph glyph-name="uni0117" unicode="&#x0117;" d="M295 549Q401 549 462 483.50Q523 418 523 305L523 247L161 247Q163 164 204.50 120Q246 76 321 76Q373 76 413.50 85.50Q454 95 497 114L497 26Q456 8 415-1Q374-10 317-10Q238-10 178.50 21Q119 52 85.50 113.50Q52 175 52 265Q52 356 82.50 419Q113 482 167.50 515.50Q222 549 295 549M295 467Q238 467 203.50 430Q169 393 163 325L417 325Q416 388 386.50 427.50Q357 467 295 467M291 744Q315 744 332.50 730Q350 716 350 683Q350 651 332.50 636.50Q315 622 291 622Q265 622 247.50 636.50Q230 651 230 683Q230 716 247.50 730Q265 744 291 744Z"  horiz-adv-x="572" vert-adv-y="1000"  />

      
      <glyph glyph-name="uni0118" unicode="&#x0118;" d="M497 0L95 0L95 714L497 714L497 622L203 622L203 418L479 418L479 327L203 327L203 93L497 93L497 0M400-115Q400-136 411.50-147Q423-158 443-158Q460-158 472.50-155.50Q485-153 494-151L494-216Q479-220 463.50-223Q448-226 428-226Q373-226 346-199Q319-172 319-127Q319-98 333.50-71Q348-44 370.50-21.50Q393 1 416 16L469 0Q436-32 418-58.50Q400-85 400-115Z"  horiz-adv-x="557" vert-adv-y="1000"  />

      
      <glyph glyph-name="uni0119" unicode="&#x0119;" d="M396-115Q396-136 407.50-147Q419-158 439-158Q456-158 468.50-155.50Q481-153 490-151L490-216Q475-220 459.50-223Q444-226 424-226Q369-226 342-199Q315-172 315-127Q315-93 335.50-61.50Q356-30 383-6Q353-10 317-10Q238-10 178.50 21Q119 52 85.50 113.50Q52 175 52 265Q52 356 82.50 419Q113 482 167.50 515.50Q222 549 295 549Q401 549 462 483.50Q523 418 523 305L523 247L161 247Q163 164 204.50 120Q246 76 321 76Q373 76 413.50 85.50Q454 95 497 114L497 26Q437-23 416.50-54Q396-85 396-115M295 467Q238 467 203.50 430Q169 393 163 325L417 325Q416 388 386.50 427.50Q357 467 295 467Z"  horiz-adv-x="572" vert-adv-y="1000"  />

      
      <glyph glyph-name="uni011A" unicode="&#x011A;" d="M497 0L95 0L95 714L497 714L497 622L203 622L203 418L479 418L479 327L203 327L203 93L497 93L497 0M247 781Q233 804 211 831Q189 858 165 883.50Q141 909 123 928L123 941L195 941Q221 924 249.50 901Q278 878 303 851Q330 878 358.50 901Q387 924 413 941L486 941L486 928Q468 909 443.50 883.50Q419 858 396.50 831Q374 804 361 781L247 781Z"  horiz-adv-x="557" vert-adv-y="1000"  />

      
      <glyph glyph-name="uni011B" unicode="&#x011B;" d="M295 549Q401 549 462 483.50Q523 418 523 305L523 247L161 247Q163 164 204.50 120Q246 76 321 76Q373 76 413.50 85.50Q454 95 497 114L497 26Q456 8 415-1Q374-10 317-10Q238-10 178.50 21Q119 52 85.50 113.50Q52 175 52 265Q52 356 82.50 419Q113 482 167.50 515.50Q222 549 295 549M295 467Q238 467 203.50 430Q169 393 163 325L417 325Q416 388 386.50 427.50Q357 467 295 467M231 606Q217 629 195 656Q173 683 149 708.50Q125 734 107 753L107 766L179 766Q205 749 233.50 726Q262 703 287 676Q314 703 342.50 726Q371 749 397 766L470 766L470 753Q452 734 427.50 708.50Q403 683 380.50 656Q358 629 345 606L231 606Z"  horiz-adv-x="572" vert-adv-y="1000"  />

      
      <glyph glyph-name="uni011C" unicode="&#x011C;" d="M393 384L651 384L651 28Q594 9 534.50-0.50Q475-10 399-10Q235-10 147.50 87.50Q60 185 60 357Q60 469 103.50 551.50Q147 634 230 679Q313 724 431 724Q490 724 544 712.50Q598 701 644 681L605 591Q568 607 522.50 619Q477 631 427 631Q308 631 240 557Q172 483 172 356Q172 275 197 213.50Q222 152 276 117Q330 82 417 82Q460 82 489.50 86.50Q519 91 544 97L544 291L393 291L393 384M462 941Q475 919 497.50 891.50Q520 864 544.50 837.50Q569 811 587 793L587 781L514 781Q488 797 459.50 820Q431 843 404 870Q350 815 296 781L224 781L224 793Q243 812 266.50 838Q290 864 312 891.50Q334 919 348 941L462 941Z"  horiz-adv-x="727" vert-adv-y="1000"  />

      
      <glyph glyph-name="uni011D" unicode="&#x011D;" d="M269 549Q376 549 434 468L439 468L451 539L537 539L537-7Q537-122 475.50-181Q414-240 288-240Q229-240 180.50-232Q132-224 91-207L91-114Q177-156 294-156Q360-156 396-118.50Q432-81 432-13L432 5Q432 18 433 39Q434 60 435 71L431 71Q404 29 363 9.50Q322-10 269-10Q167-10 109.50 63.50Q52 137 52 268Q52 398 109.50 473.50Q167 549 269 549M291 461Q228 461 194.50 411Q161 361 161 267Q161 173 194.50 124Q228 75 293 75Q367 75 401.50 115.50Q436 156 436 248L436 268Q436 371 401 416Q366 461 291 461M360 766Q373 744 395.50 716.50Q418 689 442.50 662.50Q467 636 485 618L485 606L412 606Q386 622 357.50 645Q329 668 302 695Q248 640 194 606L122 606L122 618Q141 637 164.50 663Q188 689 210 716.50Q232 744 246 766L360 766Z"  horiz-adv-x="620" vert-adv-y="1000"  />

      
      <glyph glyph-name="uni011E" unicode="&#x011E;" d="M393 384L651 384L651 28Q594 9 534.50-0.50Q475-10 399-10Q235-10 147.50 87.50Q60 185 60 357Q60 469 103.50 551.50Q147 634 230 679Q313 724 431 724Q490 724 544 712.50Q598 701 644 681L605 591Q568 607 522.50 619Q477 631 427 631Q308 631 240 557Q172 483 172 356Q172 275 197 213.50Q222 152 276 117Q330 82 417 82Q460 82 489.50 86.50Q519 91 544 97L544 291L393 291L393 384M574 924Q568 860 524 820.50Q480 781 405 781Q327 781 286 820Q245 859 241 924L304 924Q308 883 335 872.50Q362 862 407 862Q445 862 475 873.50Q505 885 510 924L574 924Z"  horiz-adv-x="727" vert-adv-y="1000"  />

      
      <glyph glyph-name="uni011F" unicode="&#x011F;" d="M269 549Q376 549 434 468L439 468L451 539L537 539L537-7Q537-122 475.50-181Q414-240 288-240Q229-240 180.50-232Q132-224 91-207L91-114Q177-156 294-156Q360-156 396-118.50Q432-81 432-13L432 5Q432 18 433 39Q434 60 435 71L431 71Q404 29 363 9.50Q322-10 269-10Q167-10 109.50 63.50Q52 137 52 268Q52 398 109.50 473.50Q167 549 269 549M291 461Q228 461 194.50 411Q161 361 161 267Q161 173 194.50 124Q228 75 293 75Q367 75 401.50 115.50Q436 156 436 248L436 268Q436 371 401 416Q366 461 291 461M473 749Q467 685 423 645.50Q379 606 304 606Q226 606 185 645Q144 684 140 749L203 749Q207 708 234 697.50Q261 687 306 687Q344 687 374 698.50Q404 710 409 749L473 749Z"  horiz-adv-x="620" vert-adv-y="1000"  />

      
      <glyph glyph-name="uni0120" unicode="&#x0120;" d="M393 384L651 384L651 28Q594 9 534.50-0.50Q475-10 399-10Q235-10 147.50 87.50Q60 185 60 357Q60 469 103.50 551.50Q147 634 230 679Q313 724 431 724Q490 724 544 712.50Q598 701 644 681L605 591Q568 607 522.50 619Q477 631 427 631Q308 631 240 557Q172 483 172 356Q172 275 197 213.50Q222 152 276 117Q330 82 417 82Q460 82 489.50 86.50Q519 91 544 97L544 291L393 291L393 384M407 919Q431 919 448.50 905Q466 891 466 858Q466 826 448.50 811.50Q431 797 407 797Q381 797 363.50 811.50Q346 826 346 858Q346 891 363.50 905Q381 919 407 919Z"  horiz-adv-x="727" vert-adv-y="1000"  />

      
      <glyph glyph-name="uni0121" unicode="&#x0121;" d="M269 549Q376 549 434 468L439 468L451 539L537 539L537-7Q537-122 475.50-181Q414-240 288-240Q229-240 180.50-232Q132-224 91-207L91-114Q177-156 294-156Q360-156 396-118.50Q432-81 432-13L432 5Q432 18 433 39Q434 60 435 71L431 71Q404 29 363 9.50Q322-10 269-10Q167-10 109.50 63.50Q52 137 52 268Q52 398 109.50 473.50Q167 549 269 549M291 461Q228 461 194.50 411Q161 361 161 267Q161 173 194.50 124Q228 75 293 75Q367 75 401.50 115.50Q436 156 436 248L436 268Q436 371 401 416Q366 461 291 461M305 744Q329 744 346.50 730Q364 716 364 683Q364 651 346.50 636.50Q329 622 305 622Q279 622 261.50 636.50Q244 651 244 683Q244 716 261.50 730Q279 744 305 744Z"  horiz-adv-x="620" vert-adv-y="1000"  />

      
      <glyph glyph-name="uni0122" unicode="&#x0122;" d="M393 384L651 384L651 28Q594 9 534.50-0.50Q475-10 399-10Q235-10 147.50 87.50Q60 185 60 357Q60 469 103.50 551.50Q147 634 230 679Q313 724 431 724Q490 724 544 712.50Q598 701 644 681L605 591Q568 607 522.50 619Q477 631 427 631Q308 631 240 557Q172 483 172 356Q172 275 197 213.50Q222 152 276 117Q330 82 417 82Q460 82 489.50 86.50Q519 91 544 97L544 291L393 291L393 384M468-70Q459-99 437-143Q415-187 388-221L329-221L329-209Q335-191 343-164.50Q351-138 357.50-110Q364-82 366-61L468-61L468-70Z"  horiz-adv-x="727" vert-adv-y="1000"  />

      
      </font>
</defs>
</svg>
