<?xml version="1.0" standalone="no"?>
  <!DOCTYPE svg PUBLIC "-//W3C//DTD SVG 1.1//EN" "http://www.w3.org/Graphics/SVG/1.1/DTD/svg11.dtd" >
  <svg>
  <metadata>
  Created by font-carrier
  </metadata>
  <defs>
  <font id="NotoSans-ExtraLightItalic" horiz-adv-x="2647" vert-adv-y="2647" >
    <font-face
      
      font-family="Noto Sans ExtraLight"
      
      font-weight="400"
      
      font-stretch="normal"
      
      units-per-em="1000"
      
      ascent="1069"
      
      descent="-293"
      
    />
      <missing-glyph />

      

      
      <glyph glyph-name="uni21" unicode="&#x21;" d="M77 179L186 714L230 714L111 179L77 179M59-9Q30-9 30 19Q30 36 39.50 52Q49 68 69 68Q83 68 90 59.50Q97 51 97 39Q97 22 87.50 6.50Q78-9 59-9Z"  horiz-adv-x="220" vert-adv-y="1000"  />

      
      <glyph glyph-name="uni22" unicode="&#x22;" d="M255 456L302 714L344 714L282 456L255 456M110 456L158 714L199 714L137 456L110 456Z"  horiz-adv-x="327" vert-adv-y="1000"  />

      
      <glyph glyph-name="uni23" unicode="&#x23;" d="M105 0L169 223L34 223L37 256L177 256L237 457L95 457L98 489L246 489L311 714L345 714L281 489L458 489L524 714L557 714L493 489L630 489L627 457L484 457L427 256L569 256L566 223L418 223L352 0L317 0L384 223L204 223L139 0L105 0M213 256L392 256L449 457L271 457L213 256Z"  horiz-adv-x="621" vert-adv-y="1000"  />

      
      <glyph glyph-name="uni24" unicode="&#x24;" d="M210 50Q160 50 117 59.50Q74 69 48 80L48 119Q79 105 123 95Q167 85 218 85L274 350Q232 366 200 385Q168 404 150.50 432Q133 460 133 502Q133 558 162 595Q191 632 238.50 651.50Q286 671 343 675L360 758L392 758L375 674Q412 671 448 663Q484 655 515 640L500 606Q467 622 434 629.50Q401 637 368 640L311 374Q355 356 387 338Q419 320 437 294Q455 268 455 226Q455 172 425.50 133.50Q396 95 347.50 74.50Q299 54 242 50L218-58L186-58L210 50M335 640Q266 636 218.50 601Q171 566 171 504Q171 471 185.50 449.50Q200 428 225 413.50Q250 399 281 385L335 640M250 85Q295 88 333 104.50Q371 121 394 151Q417 181 417 223Q417 269 387 292.50Q357 316 303 338L250 85Z"  horiz-adv-x="550" vert-adv-y="1000"  />

      
      <glyph glyph-name="uni25" unicode="&#x25;" d="M189 276Q140 276 112.50 309.50Q85 343 85 411Q85 444 91 485.50Q97 527 110 568.50Q123 610 144.50 645.50Q166 681 196.50 702.50Q227 724 268 724Q373 724 373 593Q373 562 367 520.50Q361 479 348 436.50Q335 394 313.50 357.50Q292 321 261.50 298.50Q231 276 189 276M119 0L646 714L686 714L158 0L119 0M192 309Q224 309 248 329.50Q272 350 289 382.50Q306 415 316.50 452.50Q327 490 332 526.50Q337 563 337 591Q337 643 319 667Q301 691 266 691Q235 691 210.50 671.50Q186 652 169 620Q152 588 141.50 551Q131 514 126 477.50Q121 441 121 412Q121 360 139.50 334.50Q158 309 192 309M534-12Q485-12 457 21.50Q429 55 429 123Q429 156 435.50 197.50Q442 239 455 281Q468 323 489.50 358Q511 393 541.50 414.50Q572 436 613 436Q718 436 718 306Q718 275 712 233.50Q706 192 692.50 149Q679 106 658 69.50Q637 33 606 10.50Q575-12 534-12M536 22Q568 22 592.50 42Q617 62 634 94.50Q651 127 661.50 165Q672 203 676.50 239.50Q681 276 681 303Q681 355 663.50 379Q646 403 611 403Q579 403 555 383.50Q531 364 514 332.50Q497 301 486.50 263.50Q476 226 471 189.50Q466 153 466 125Q466 72 484.50 47Q503 22 536 22Z"  horiz-adv-x="770" vert-adv-y="1000"  />

      
      <glyph glyph-name="uni26" unicode="&#x26;" d="M222-10Q145-10 94.50 32Q44 74 44 150Q44 215 71.50 258.50Q99 302 148 334Q197 366 261 395Q231 436 214.50 472.50Q198 509 198 549Q198 600 220.50 639.50Q243 679 283.50 702Q324 725 379 725Q440 725 479.50 688Q519 651 519 594Q519 538 492 501.50Q465 465 418 438.50Q371 412 313 384L480 151Q516 185 548 232.50Q580 280 602 330L641 330Q614 269 578.50 218Q543 167 501 123L589 0L543 0L475 100Q421 52 363 21Q305-10 222-10M294 410Q324 423 356.50 439Q389 455 417 476Q445 497 462.50 525.50Q480 554 480 593Q480 636 450 663.50Q420 691 375 691Q317 691 276.50 653.50Q236 616 236 550Q236 514 251 481Q266 448 294 410M227 25Q300 25 352 52.50Q404 80 455 126L280 370Q222 344 177.50 315Q133 286 108 247.50Q83 209 83 153Q83 112 103 83.50Q123 55 155.50 40Q188 25 227 25Z"  horiz-adv-x="680" vert-adv-y="1000"  />

      
      <glyph glyph-name="uni27" unicode="&#x27;" d="M110 456L158 714L199 714L137 456L110 456Z"  horiz-adv-x="182" vert-adv-y="1000"  />

      
      <glyph glyph-name="uni28" unicode="&#x28;" d="M100-158Q68-101 51-30.50Q34 40 34 121Q34 242 65 350.50Q96 459 151.50 551Q207 643 279 714L322 714Q245 637 188.50 542Q132 447 101.50 340Q71 233 71 121Q71-37 137-158L100-158Z"  horiz-adv-x="252" vert-adv-y="1000"  />

      
      <glyph glyph-name="uni29" unicode="&#x29;" d="M-66-158Q12-81 68 14Q124 109 154.50 216Q185 323 185 435Q185 593 120 714L156 714Q188 657 205.50 586.50Q223 516 223 435Q223 314 191.50 205.50Q160 97 105 5Q50-87-22-158L-66-158Z"  horiz-adv-x="252" vert-adv-y="1000"  />

      
      <glyph glyph-name="uni2a" unicode="&#x2a;" d="M391 330L318 521L174 375L147 404L301 538L122 626L139 661L314 557L349 758L388 750L337 552L541 576L539 537L341 529L429 344L391 330Z"  horiz-adv-x="535" vert-adv-y="1000"  />

      
      <glyph glyph-name="uni2b" unicode="&#x2b;" d="M322 370L536 370L536 336L322 336L322 121L288 121L288 336L74 336L74 370L288 370L288 585L322 585L322 370Z"  horiz-adv-x="570" vert-adv-y="1000"  />

      
      <glyph glyph-name="uni2c" unicode="&#x2c;" d="M-45-129Q-10-59 15 0.50Q40 60 59 116L100 116L102 104Q80 49 50-14Q20-77-13-129L-45-129Z"  horiz-adv-x="198" vert-adv-y="1000"  />

      
      <glyph glyph-name="uni2d" unicode="&#x2d;" d="M36 253L43 289L275 289L268 253L36 253Z"  horiz-adv-x="312" vert-adv-y="1000"  />

      
      <glyph glyph-name="uni2e" unicode="&#x2e;" d="M58-9Q30-9 30 19Q30 36 39.50 52Q49 68 69 68Q83 68 90 59.50Q97 51 97 39Q97 22 87 6.50Q77-9 58-9Z"  horiz-adv-x="219" vert-adv-y="1000"  />

      
      <glyph glyph-name="uni2f" unicode="&#x2f;" d="M-44 0L361 714L402 714L-2 0L-44 0Z"  horiz-adv-x="316" vert-adv-y="1000"  />

      
      <glyph glyph-name="uni30" unicode="&#x30;" d="M236-10Q157-10 110.50 45.50Q64 101 64 209Q64 274 74.50 345Q85 416 107 483.50Q129 551 163.50 605.50Q198 660 246.50 692.50Q295 725 358 725Q445 725 487 668.50Q529 612 529 517Q529 442 517.50 367Q506 292 483 224.50Q460 157 424.50 104Q389 51 342 20.50Q295-10 236-10M239 25Q288 25 328 54.50Q368 84 398 134Q428 184 448.50 247.50Q469 311 479 380Q489 449 489 515Q489 597 457 643.50Q425 690 356 690Q303 690 262 659.50Q221 629 191 578Q161 527 141.50 464Q122 401 113 335Q104 269 104 210Q104 117 139.50 71Q175 25 239 25Z"  horiz-adv-x="550" vert-adv-y="1000"  />

      
      <glyph glyph-name="uni31" unicode="&#x31;" d="M338 538Q347 582 354.50 615.50Q362 649 368 671Q355 659 341 649Q327 639 306 625L180 542L161 571L379 714L415 714L263 0L224 0L338 538Z"  horiz-adv-x="550" vert-adv-y="1000"  />

      
      <glyph glyph-name="uni32" unicode="&#x32;" d="M9 0L15 34L272 266Q321 310 367 356.50Q413 403 442.50 455.50Q472 508 472 573Q472 627 438.50 658Q405 689 348 689Q306 689 263.50 672.50Q221 656 178 625L159 653Q208 691 256.50 707.50Q305 724 350 724Q424 724 467.50 682.50Q511 641 511 575Q511 509 483.50 454.50Q456 400 407.50 348.50Q359 297 298 243L69 38L69 36L432 36L425 0L9 0Z"  horiz-adv-x="550" vert-adv-y="1000"  />

      
      <glyph glyph-name="uni33" unicode="&#x33;" d="M210-10Q150-10 103 2Q56 14 22 32L22 72Q54 53 104 39Q154 25 211 25Q279 25 328 48.50Q377 72 403.50 113.50Q430 155 430 208Q430 281 382.50 317.50Q335 354 255 354L179 354L186 388L262 388Q301 388 340.50 399Q380 410 413 432Q446 454 465.50 488.50Q485 523 485 571Q485 624 449.50 656.50Q414 689 357 689Q305 689 256 671.50Q207 654 158 621L139 651Q186 684 241 704Q296 724 359 724Q434 724 479.50 681.50Q525 639 525 572Q525 516 500 474Q475 432 433.50 406Q392 380 343 371L343 369Q401 358 436 316.50Q471 275 471 209Q471 147 439.50 97.50Q408 48 350 19Q292-10 210-10Z"  horiz-adv-x="550" vert-adv-y="1000"  />

      
      <glyph glyph-name="uni34" unicode="&#x34;" d="M321 0L361 188L13 188L19 218L466 717L511 717L407 223L530 223L522 188L399 188L359 0L321 0M68 223L369 223L428 501Q440 561 449 598Q458 635 468 673L465 673Q447 649 430 628Q413 607 388 580L68 223Z"  horiz-adv-x="550" vert-adv-y="1000"  />

      
      <glyph glyph-name="uni35" unicode="&#x35;" d="M205-10Q154-10 109.50 1.50Q65 13 38 31L38 73Q67 52 112.50 38.50Q158 25 206 25Q271 25 323.50 49.50Q376 74 406.50 122.50Q437 171 437 244Q437 313 396.50 354Q356 395 280 395Q239 395 208 389Q177 383 141 373L121 390L217 714L537 714L529 678L244 678L165 412Q187 418 216.50 423.50Q246 429 287 429Q372 429 424.50 379Q477 329 477 247Q477 166 441.50 108.50Q406 51 344.50 20.50Q283-10 205-10Z"  horiz-adv-x="550" vert-adv-y="1000"  />

      
      <glyph glyph-name="uni36" unicode="&#x36;" d="M253-10Q187-10 146 19Q105 48 86 97.50Q67 147 67 209Q67 261 78 320Q89 379 110.50 438Q132 497 162 548.50Q192 600 230 638Q275 683 332.50 704.50Q390 726 449 726Q476 726 501 722Q526 718 544 712L535 676Q519 682 496.50 686Q474 690 447 690Q376 690 312.50 655.50Q249 621 199 542.50Q149 464 118 331L120 331Q139 358 168 383.50Q197 409 237 425Q277 441 327 441Q403 441 448 393.50Q493 346 493 267Q493 189 460.50 126Q428 63 373.50 26.50Q319-10 253-10M254 25Q299 25 336 45.50Q373 66 399 100.50Q425 135 439.50 178Q454 221 454 266Q454 333 417.50 370Q381 407 318 407Q264 407 220.50 384Q177 361 149 327.50Q121 294 113 262Q110 249 108 232Q106 215 106 198Q106 158 118.50 118Q131 78 163 51.50Q195 25 254 25Z"  horiz-adv-x="550" vert-adv-y="1000"  />

      
      <glyph glyph-name="uni37" unicode="&#x37;" d="M107 0L510 678L124 678L131 714L562 714L557 686L152 0L107 0Z"  horiz-adv-x="550" vert-adv-y="1000"  />

      
      <glyph glyph-name="uni38" unicode="&#x38;" d="M240-10Q182-10 138.50 12Q95 34 71 72.50Q47 111 47 160Q47 221 75.50 262Q104 303 154 330.50Q204 358 266 378Q223 406 191 443Q159 480 159 541Q159 597 185 638.50Q211 680 257 702Q303 724 361 724Q414 724 452.50 704Q491 684 512 650.50Q533 617 533 577Q533 524 507 486Q481 448 438 421Q395 394 342 373Q379 353 409 329Q439 305 457 272Q475 239 475 191Q475 128 444 83Q413 38 359.50 14Q306-10 240-10M308 392Q362 412 403.50 436.50Q445 461 469 495Q493 529 493 576Q493 628 454.50 658.50Q416 689 359 689Q290 689 243.50 651.50Q197 614 197 541Q197 488 228 454Q259 420 308 392M242 25Q295 25 339.50 44Q384 63 410 100Q436 137 436 190Q436 234 419 263Q402 292 372 314Q342 336 302 358Q244 339 195 316Q146 293 116 256.50Q86 220 86 161Q86 97 130.50 61Q175 25 242 25Z"  horiz-adv-x="550" vert-adv-y="1000"  />

      
      <glyph glyph-name="uni39" unicode="&#x39;" d="M165-10Q131-10 100.50-5.50Q70-1 47 6L47 45Q68 37 99.50 31Q131 25 165 25Q228 25 286.50 60.50Q345 96 392 173.50Q439 251 470 378L468 378Q442 339 391 306Q340 273 267 273Q187 273 142 321Q97 369 97 445Q97 524 129.50 587Q162 650 217 687Q272 724 341 724Q403 724 443.50 696Q484 668 503.50 619Q523 570 523 506Q523 453 511 391.50Q499 330 476.50 269Q454 208 423.50 156Q393 104 356 69Q313 28 264 9Q215-10 165-10M271 307Q324 307 367 328.50Q410 350 438.50 383.50Q467 417 477 453Q484 477 484 513Q484 559 470 599Q456 639 424.50 664Q393 689 340 689Q277 689 231.50 654.50Q186 620 161.50 564.50Q137 509 137 446Q137 382 173 344.50Q209 307 271 307Z"  horiz-adv-x="550" vert-adv-y="1000"  />

      
      <glyph glyph-name="uni3a" unicode="&#x3a;" d="M156 459Q127 459 127 487Q127 504 136.50 520Q146 536 166 536Q180 536 187 527.50Q194 519 194 507Q194 490 184.50 474.50Q175 459 156 459M58-9Q30-9 30 19Q30 36 39.50 52Q49 68 69 68Q83 68 90 59.50Q97 51 97 39Q97 22 87 6.50Q77-9 58-9Z"  horiz-adv-x="219" vert-adv-y="1000"  />

      
      <glyph glyph-name="uni3b" unicode="&#x3b;" d="M155 459Q126 459 126 487Q126 504 136 520Q146 536 166 536Q180 536 186.50 527.50Q193 519 193 507Q193 490 183.50 474.50Q174 459 155 459M-46-129Q-11-59 14 0.50Q39 60 58 116L99 116L101 104Q79 49 48.50-14Q18-77-14-129L-46-129Z"  horiz-adv-x="219" vert-adv-y="1000"  />

      
      <glyph glyph-name="uni3c" unicode="&#x3c;" d="M535 134L75 347L75 371L535 590L535 554L122 360L535 170L535 134Z"  horiz-adv-x="570" vert-adv-y="1000"  />

      
      <glyph glyph-name="uni3d" unicode="&#x3d;" d="M75 438L75 471L535 471L535 438L75 438M75 235L75 268L535 268L535 235L75 235Z"  horiz-adv-x="570" vert-adv-y="1000"  />

      
      <glyph glyph-name="uni3e" unicode="&#x3e;" d="M75 170L488 360L75 554L75 590L535 371L535 347L75 134L75 170Z"  horiz-adv-x="570" vert-adv-y="1000"  />

      
      <glyph glyph-name="uni3f" unicode="&#x3f;" d="M122 179Q131 234 148.50 267.50Q166 301 192.50 326Q219 351 255 380Q288 405 319 430Q350 455 369.50 487Q389 519 389 566Q389 622 355 655.50Q321 689 265 689Q234 689 200.50 680Q167 671 130 655L116 687Q159 707 195.50 715.50Q232 724 267 724Q341 724 384.50 681Q428 638 428 569Q428 518 408.50 482Q389 446 355.50 416Q322 386 278 355Q246 331 221.50 309Q197 287 181 257Q165 227 156 179L122 179M109-9Q80-9 80 19Q80 36 90 52Q100 68 120 68Q134 68 140.50 59.50Q147 51 147 39Q147 22 137.50 6.50Q128-9 109-9Z"  horiz-adv-x="408" vert-adv-y="1000"  />

      
      <glyph glyph-name="uni40" unicode="&#x40;" d="M377-90Q290-90 216.50-53Q143-16 99 58Q55 132 55 243Q55 330 85 413Q115 496 173.50 562.50Q232 629 319 668Q406 707 519 707Q611 707 676 670Q741 633 775.50 567Q810 501 810 413Q810 329 783 259.50Q756 190 709.50 148.50Q663 107 605 107Q560 107 539 132.50Q518 158 518 206L515 206Q489 160 449.50 133.50Q410 107 359 107Q308 107 276 140Q244 173 244 234Q244 313 278 375Q312 437 368 472.50Q424 508 491 508Q528 508 559 501Q590 494 615 484L575 335Q563 292 556 262.50Q549 233 549 213Q549 180 562 160Q575 140 607 140Q651 140 689 177Q727 214 750.50 275.50Q774 337 774 412Q774 489 744.50 548.50Q715 608 657.50 641Q600 674 515 674Q414 674 335.50 639.50Q257 605 202.50 545Q148 485 120 407.50Q92 330 92 244Q92 143 131 76.50Q170 10 235-23.50Q300-57 379-57Q428-57 479-48Q530-39 578-21L578-54Q532-72 481.50-81Q431-90 377-90M364 140Q425 140 468.50 187Q512 234 535 320L573 461Q555 467 534 471.50Q513 476 487 476Q432 476 385 445.50Q338 415 309.50 361Q281 307 281 236Q281 188 304 164Q327 140 364 140Z"  horiz-adv-x="837" vert-adv-y="1000"  />

      
      <glyph glyph-name="uni41" unicode="&#x41;" d="M-51 0L360 716L399 716L501 0L463 0L425 261L142 261L-8 0L-51 0M162 297L420 297L383 565Q379 588 376 615.50Q373 643 371 669L369 669Q357 643 343 616.50Q329 590 314 564L162 297Z"  horiz-adv-x="550" vert-adv-y="1000"  />

      
      <glyph glyph-name="uni42" unicode="&#x42;" d="M48 0L199 714L381 714Q484 714 533 675.50Q582 637 582 567Q582 488 537 438.50Q492 389 414 375L413 373Q470 359 500.50 321Q531 283 531 223Q531 146 493.50 97Q456 48 391.50 24Q327 0 246 0L48 0M324 392Q420 392 480.50 433.50Q541 475 541 565Q541 678 374 678L232 678L171 392L324 392M256 35Q321 35 374 54.50Q427 74 458.50 115.50Q490 157 490 223Q490 293 443.50 325.50Q397 358 314 358L164 358L95 35L256 35Z"  horiz-adv-x="598" vert-adv-y="1000"  />

      
      <glyph glyph-name="uni43" unicode="&#x43;" d="M326-10Q249-10 194.50 24Q140 58 111 120.50Q82 183 82 267Q82 365 110 448.50Q138 532 190 593.50Q242 655 313 689.50Q384 724 468 724Q562 724 633 686L616 651Q582 671 545 679.50Q508 688 468 688Q392 688 328.50 656.50Q265 625 218.50 568.50Q172 512 147 435.50Q122 359 122 269Q122 156 177.50 91Q233 26 330 26Q379 26 421.50 34.50Q464 43 500 55L500 21Q465 8 422-1Q379-10 326-10Z"  horiz-adv-x="593" vert-adv-y="1000"  />

      
      <glyph glyph-name="uni44" unicode="&#x44;" d="M48 0L199 714L349 714Q484 714 560.50 643Q637 572 637 426Q637 341 610 264.50Q583 188 529 128.50Q475 69 393 34.50Q311 0 200 0L48 0M202 36Q299 36 372.50 66.50Q446 97 496 151.50Q546 206 571 276.50Q596 347 596 426Q596 556 528.50 617Q461 678 339 678L232 678L95 36L202 36Z"  horiz-adv-x="675" vert-adv-y="1000"  />

      
      <glyph glyph-name="uni45" unicode="&#x45;" d="M48 0L199 714L558 714L551 678L231 678L171 394L471 394L464 358L164 358L95 36L414 36L407 0L48 0Z"  horiz-adv-x="531" vert-adv-y="1000"  />

      
      <glyph glyph-name="uni46" unicode="&#x46;" d="M48 0L199 714L559 714L552 678L231 678L164 359L466 359L458 324L156 324L88 0L48 0Z"  horiz-adv-x="485" vert-adv-y="1000"  />

      
      <glyph glyph-name="uni47" unicode="&#x47;" d="M335-10Q214-10 148 64Q82 138 82 265Q82 369 112 453.50Q142 538 194.50 598.50Q247 659 316 691.50Q385 724 463 724Q521 724 570.50 713Q620 702 664 682L648 646Q607 665 560 676.50Q513 688 462 688Q393 688 331.50 658Q270 628 222.50 572.50Q175 517 148.50 439.50Q122 362 122 267Q122 148 181 87Q240 26 338 26Q388 26 436 35.50Q484 45 520 60L575 320L387 320L395 355L622 355L553 34Q504 12 447.50 1Q391-10 335-10Z"  horiz-adv-x="688" vert-adv-y="1000"  />

      
      <glyph glyph-name="uni48" unicode="&#x48;" d="M48 0L199 714L239 714L171 393L570 393L638 714L678 714L527 0L487 0L563 357L164 357L88 0L48 0Z"  horiz-adv-x="681" vert-adv-y="1000"  />

      
      <glyph glyph-name="uni49" unicode="&#x49;" d="M2 0L8 26L77 32L215 681L148 688L153 714L330 714L325 688L254 681L116 32L184 26L179 0L2 0Z"  horiz-adv-x="288" vert-adv-y="1000"  />

      
      <glyph glyph-name="uni4a" unicode="&#x4a;" d="M-86-177Q-109-177-131.50-173.50Q-154-170-167-164L-166-129Q-148-135-126.50-137.50Q-105-140-86-140Q-26-140 5-104.50Q36-69 49-5L202 714L241 714L88-11Q70-96 27-136.50Q-16-177-86-177Z"  horiz-adv-x="240" vert-adv-y="1000"  />

      
      <glyph glyph-name="uni4b" unicode="&#x4b;" d="M48 0L199 714L239 714L158 333L216 388L582 714L633 714L295 411L489 0L445 0L264 386L149 290L88 0L48 0Z"  horiz-adv-x="547" vert-adv-y="1000"  />

      
      <glyph glyph-name="uni4c" unicode="&#x4c;" d="M48 0L199 714L239 714L95 36L413 36L405 0L48 0Z"  horiz-adv-x="488" vert-adv-y="1000"  />

      
      <glyph glyph-name="uni4d" unicode="&#x4d;" d="M48 0L199 714L255 714L363 64L366 64L748 714L810 714L659 0L620 0L740 566Q745 591 751 616Q757 641 764 668L762 668L368 0L337 0L226 668L224 668Q220 642 215.50 616.50Q211 591 205 563L87 0L48 0Z"  horiz-adv-x="813" vert-adv-y="1000"  />

      
      <glyph glyph-name="uni4e" unicode="&#x4e;" d="M48 0L199 714L233 714L503 68L506 68Q513 107 521 151Q529 195 537 233L640 714L678 714L527 0L492 0L222 645L220 645Q212 604 204.50 563Q197 522 188 479L87 0L48 0Z"  horiz-adv-x="681" vert-adv-y="1000"  />

      
      <glyph glyph-name="uni4f" unicode="&#x4f;" d="M335-10Q244-10 188.50 28Q133 66 107.50 130.50Q82 195 82 274Q82 358 103.50 438.50Q125 519 168.50 583.50Q212 648 277.50 686.50Q343 725 431 725Q545 725 612 655.50Q679 586 679 446Q679 393 668 331.50Q657 270 633 210Q609 150 569 100Q529 50 471 20Q413-10 335-10M336 26Q402 26 452 53Q502 80 537.50 125.50Q573 171 595 226Q617 281 627.50 338Q638 395 638 445Q638 558 586 623.50Q534 689 429 689Q362 689 312 663.50Q262 638 225.50 595Q189 552 166.50 498.50Q144 445 133 387Q122 329 122 275Q122 201 145 145Q168 89 215 57.50Q262 26 336 26Z"  horiz-adv-x="717" vert-adv-y="1000"  />

      
      <glyph glyph-name="uni50" unicode="&#x50;" d="M48 0L199 714L355 714Q457 714 508.50 668Q560 622 560 536Q560 430 490.50 365Q421 300 276 300L151 300L88 0L48 0M282 335Q405 335 462.50 389.50Q520 444 520 535Q520 610 476 644Q432 678 349 678L232 678L159 335L282 335Z"  horiz-adv-x="560" vert-adv-y="1000"  />

      
      <glyph glyph-name="uni51" unicode="&#x51;" d="M337-10Q334-10 327-10Q242-9 187.50 28Q133 65 107.50 129Q82 193 82 274Q82 358 103.50 438.50Q125 519 168.50 583.50Q212 648 277.50 686.50Q343 725 431 725Q545 725 612 655.50Q679 586 679 446Q679 397 669.50 340Q660 283 639 226Q618 169 583.50 119.50Q549 70 499.50 36.50Q450 3 382-6L499-170L448-170L337-10M336 26Q402 26 452.50 53Q503 80 538 125.50Q573 171 595 226Q617 281 627.50 338Q638 395 638 445Q638 558 586 623.50Q534 689 429 689Q362 689 312 663.50Q262 638 225.50 595Q189 552 166.50 498.50Q144 445 133 387Q122 329 122 275Q122 201 145 145Q168 89 215 57.50Q262 26 336 26Z"  horiz-adv-x="717" vert-adv-y="1000"  />

      
      <glyph glyph-name="uni52" unicode="&#x52;" d="M48 0L199 714L348 714Q560 714 560 546Q560 361 365 323L482 0L439 0L327 315L155 315L88 0L48 0M299 350Q362 350 412 371Q462 392 491 434.50Q520 477 520 544Q520 613 476 645.50Q432 678 342 678L232 678L162 350L299 350Z"  horiz-adv-x="564" vert-adv-y="1000"  />

      
      <glyph glyph-name="uni53" unicode="&#x53;" d="M195-10Q133-10 92.50-0.50Q52 9 19 24L19 65Q53 48 96.50 37Q140 26 196 26Q229 26 264 34.50Q299 43 329 62.50Q359 82 377.50 112.50Q396 143 396 187Q396 229 378 258Q360 287 327 309.50Q294 332 249 355Q214 372 183.50 395Q153 418 134 450.50Q115 483 115 528Q115 598 148.50 641Q182 684 234.50 704Q287 724 343 724Q398 724 436.50 714Q475 704 511 686L495 651Q458 670 423 679Q388 688 342 688Q313 688 280.50 680Q248 672 219.50 654Q191 636 173 605.50Q155 575 155 530Q155 491 172 464.50Q189 438 216.50 419.50Q244 401 276 384Q321 360 357.50 335Q394 310 415.50 275.50Q437 241 437 189Q437 135 415.50 97Q394 59 359 35.50Q324 12 281 1Q238-10 195-10Z"  horiz-adv-x="499" vert-adv-y="1000"  />

      
      <glyph glyph-name="uni54" unicode="&#x54;" d="M168 0L312 678L92 678L100 714L579 714L571 678L352 678L208 0L168 0Z"  horiz-adv-x="488" vert-adv-y="1000"  />

      
      <glyph glyph-name="uni55" unicode="&#x55;" d="M300-10Q201-10 143.50 40Q86 90 86 184Q86 201 88.50 220Q91 239 95 260L192 714L231 714L135 260Q127 219 127 186Q127 108 173.50 67Q220 26 302 26Q400 26 464.50 83Q529 140 554 256L652 714L692 714L594 250Q565 117 490 53.50Q415-10 300-10Z"  horiz-adv-x="689" vert-adv-y="1000"  />

      
      <glyph glyph-name="uni56" unicode="&#x56;" d="M191 0L103 714L141 714L207 170Q211 140 213.50 108Q216 76 217 50L219 50Q231 75 246 103.50Q261 132 280 168L574 714L617 714L228 0L191 0Z"  horiz-adv-x="538" vert-adv-y="1000"  />

      
      <glyph glyph-name="uni57" unicode="&#x57;" d="M155 0L121 714L158 714L183 193Q184 161 184.50 128Q185 95 184 64L187 64Q200 94 212.50 124Q225 154 244 193L493 714L532 714L565 193Q566 161 567 125.50Q568 90 568 61L571 61Q582 90 594.50 121.50Q607 153 624 190L860 714L902 714L576 0L540 0L506 556Q503 610 503 659L501 659Q491 634 482.50 614Q474 594 464 572L192 0L155 0Z"  horiz-adv-x="832" vert-adv-y="1000"  />

      
      <glyph glyph-name="uni58" unicode="&#x58;" d="M-58 0L249 373L115 714L155 714L275 400L529 714L573 714L293 370L439 0L398 0L265 342L-12 0L-58 0Z"  horiz-adv-x="497" vert-adv-y="1000"  />

      
      <glyph glyph-name="uni59" unicode="&#x59;" d="M169 0L226 270L95 714L135 714L252 312L537 714L583 714L266 273L209 0L169 0Z"  horiz-adv-x="490" vert-adv-y="1000"  />

      
      <glyph glyph-name="uni5a" unicode="&#x5a;" d="M-8 0L-3 29L513 678L151 678L158 714L571 714L566 685L50 36L439 36L432 0L-8 0Z"  horiz-adv-x="537" vert-adv-y="1000"  />

      
      <glyph glyph-name="uni5b" unicode="&#x5b;" d="M-9-158L177 714L369 714L361 678L207 678L37-122L193-122L184-158L-9-158Z"  horiz-adv-x="300" vert-adv-y="1000"  />

      
      <glyph glyph-name="uni5c" unicode="&#x5c;" d="M225 0L100 714L135 714L260 0L225 0Z"  horiz-adv-x="316" vert-adv-y="1000"  />

      
      <glyph glyph-name="uni5d" unicode="&#x5d;" d="M-72-158L-64-122L90-122L260 678L104 678L113 714L306 714L120-158L-72-158Z"  horiz-adv-x="300" vert-adv-y="1000"  />

      
      <glyph glyph-name="uni5e" unicode="&#x5e;" d="M48 276L339 719L369 719L510 276L474 276L350 674L89 276L48 276Z"  horiz-adv-x="554" vert-adv-y="1000"  />

      
      <glyph glyph-name="uni5f" unicode="&#x5f;" d="M-86-139L-79-105L298-105L290-139L-86-139Z"  horiz-adv-x="376" vert-adv-y="1000"  />

      
      <glyph glyph-name="uni60" unicode="&#x60;" d="M246 606Q230 624 210 652.50Q190 681 173 709Q156 737 147 756L147 766L188 766Q198 741 212.50 713Q227 685 242 660Q257 635 269 618L269 606L246 606Z"  horiz-adv-x="237" vert-adv-y="1000"  />

      
      <glyph glyph-name="uni61" unicode="&#x61;" d="M196-10Q126-10 88 40.50Q50 91 50 177Q50 241 67.50 305Q85 369 119 422Q153 475 203 507.50Q253 540 317 540Q362 540 390.50 520.50Q419 501 435 472.50Q451 444 457 416L460 416L488 530L519 530L407 0L375 0L400 131L397 131Q379 101 349 68Q319 35 280 12.50Q241-10 196-10M204 25Q248 25 293.50 56.50Q339 88 374.50 142.50Q410 197 425 264Q437 323 437 359Q437 428 405 466.50Q373 505 318 505Q264 505 221.50 476.50Q179 448 149.50 400Q120 352 105 294Q90 236 90 177Q90 106 118.50 65.50Q147 25 204 25Z"  horiz-adv-x="551" vert-adv-y="1000"  />

      
      <glyph glyph-name="uni62" unicode="&#x62;" d="M245-10Q198-10 166 8Q134 26 116.50 54Q99 82 93 113L90 113L63 0L31 0L192 760L231 760L186 551Q179 516 168.50 472.50Q158 429 150 399L153 399Q172 432 202.50 464.50Q233 497 273 518Q313 539 362 539Q433 539 474.50 488.50Q516 438 516 353Q516 289 499.50 225Q483 161 449 108Q415 55 364 22.50Q313-10 245-10M244 25Q302 25 345.50 54Q389 83 418 130.50Q447 178 462 236.50Q477 295 477 353Q477 424 444.50 464.50Q412 505 353 505Q302 505 258.50 476Q215 447 182.50 398.50Q150 350 131.50 291Q113 232 113 170Q113 98 149 61.50Q185 25 244 25Z"  horiz-adv-x="570" vert-adv-y="1000"  />

      
      <glyph glyph-name="uni63" unicode="&#x63;" d="M247-10Q155-10 104.50 46.50Q54 103 54 193Q54 262 72.50 324.50Q91 387 127 435.50Q163 484 215 512Q267 540 334 540Q368 540 401 533.50Q434 527 459 515L447 480Q423 492 392.50 498.50Q362 505 334 505Q260 505 206 463Q152 421 122.50 350.50Q93 280 93 195Q93 123 133 74Q173 25 250 25Q285 25 315.50 33Q346 41 377 55L377 20Q352 7 320-1.50Q288-10 247-10Z"  horiz-adv-x="452" vert-adv-y="1000"  />

      
      <glyph glyph-name="uni64" unicode="&#x64;" d="M199-10Q125-10 87.50 40.50Q50 91 50 177Q50 240 67 304Q84 368 118 421.50Q152 475 203 507Q254 539 321 539Q369 539 400.50 520.50Q432 502 449.50 474Q467 446 473 416L476 416Q481 450 487.50 484.50Q494 519 501 552L545 760L583 760L422 0L390 0L415 132L412 132Q391 99 359.50 66Q328 33 288 11.50Q248-10 199-10M207 25Q252 25 295.50 51.50Q339 78 375 124.50Q411 171 432.50 231.50Q454 292 454 359Q454 431 418 468Q382 505 322 505Q265 505 221.50 476Q178 447 149 399Q120 351 105 293Q90 235 90 177Q90 104 119 64.50Q148 25 207 25Z"  horiz-adv-x="570" vert-adv-y="1000"  />

      
      <glyph glyph-name="uni65" unicode="&#x65;" d="M245-10Q195-10 152.50 11.50Q110 33 84.50 78Q59 123 59 194Q59 264 79.50 326.50Q100 389 136.50 437Q173 485 222 512.50Q271 540 330 540Q389 540 424.50 507.50Q460 475 460 423Q460 361 417.50 323Q375 285 301 268Q227 251 133 251L102 251Q101 240 100 225Q99 210 99 194Q99 112 140 68.50Q181 25 252 25Q294 25 328 36Q362 47 390 59L390 23Q365 10 326.50 0Q288-10 245-10M148 285Q227 285 288.50 299.50Q350 314 385.50 344Q421 374 421 421Q421 457 397 481Q373 505 325 505Q280 505 236 479Q192 453 157.50 404Q123 355 108 285L148 285Z"  horiz-adv-x="493" vert-adv-y="1000"  />

      
      <glyph glyph-name="uni66" unicode="&#x66;" d="M-66-240Q-81-240-99.50-237Q-118-234-128-230L-128-194Q-98-205-68-205Q-33-205-11.50-179Q10-153 21-103L148 496L55 496L59 521L155 530L171 605Q188 684 227 724.50Q266 765 339 765Q363 765 383.50 760.50Q404 756 419 751L408 717Q376 730 339 730Q283 730 253 700Q223 670 209 601L194 530L313 530L306 496L187 496L58-108Q44-176 13-208Q-18-240-66-240Z"  horiz-adv-x="275" vert-adv-y="1000"  />

      
      <glyph glyph-name="uni67" unicode="&#x67;" d="M175-240Q130-240 92-230Q54-220 26-207L26-167Q54-182 94.50-193.50Q135-205 175-205Q264-205 312-157.50Q360-110 378-27L387 14Q393 40 401 74.50Q409 109 416 135L414 135Q392 100 360 66.50Q328 33 287.50 11.50Q247-10 200-10Q125-10 87.50 40.50Q50 91 50 177Q50 240 67 304Q84 368 118 421.50Q152 475 203 507.50Q254 540 322 540Q369 540 400.50 521.50Q432 503 449.50 474.50Q467 446 473 416L476 416L504 530L535 530L416-29Q395-128 338.50-184Q282-240 175-240M209 25Q252 25 295.50 51.50Q339 78 374.50 124Q410 170 431.50 230.50Q453 291 453 359Q453 431 418 468Q383 505 323 505Q265 505 221.50 476Q178 447 149 399Q120 351 105 293Q90 235 90 177Q90 106 118.50 65.50Q147 25 209 25Z"  horiz-adv-x="570" vert-adv-y="1000"  />

      
      <glyph glyph-name="uni68" unicode="&#x68;" d="M31 0L192 760L231 760L188 558Q179 519 169.50 477.50Q160 436 150 399L153 399Q171 429 200.50 461.50Q230 494 271.50 516.50Q313 539 364 539Q429 539 464 506Q499 473 499 408Q499 393 496.50 375Q494 357 490 339L419 0L380 0L453 343Q460 377 460 404Q460 455 433 480Q406 505 356 505Q305 505 257.50 473Q210 441 175 387Q140 333 126 265L70 0L31 0Z"  horiz-adv-x="558" vert-adv-y="1000"  />

      
      <glyph glyph-name="uni69" unicode="&#x69;" d="M194 652Q166 652 166 679Q166 695 175 709.50Q184 724 202 724Q216 724 222.50 716Q229 708 229 697Q229 680 219 666Q209 652 194 652M31 0L144 530L182 530L70 0L31 0Z"  horiz-adv-x="217" vert-adv-y="1000"  />

      
      <glyph glyph-name="uni6a" unicode="&#x6a;" d="M194 652Q166 652 166 679Q166 695 175 709.50Q184 724 202 724Q216 724 222 716Q228 708 228 697Q228 680 218.50 666Q209 652 194 652M-82-240Q-96-240-112.50-237Q-129-234-139-230L-139-194Q-127-200-111-202.50Q-95-205-82-205Q-43-205-22-179Q-1-153 9-106L144 530L182 530L46-110Q33-175 2.50-207.50Q-28-240-82-240Z"  horiz-adv-x="217" vert-adv-y="1000"  />

      
      <glyph glyph-name="uni6b" unicode="&#x6b;" d="M31 0L192 760L231 760L154 399Q142 343 132 301Q122 259 112 219L113 219L439 530L487 530L245 300L395 0L352 0L216 275L107 176L70 0L31 0Z"  horiz-adv-x="450" vert-adv-y="1000"  />

      
      <glyph glyph-name="uni6c" unicode="&#x6c;" d="M31 0L192 760L231 760L70 0L31 0Z"  horiz-adv-x="217" vert-adv-y="1000"  />

      
      <glyph glyph-name="uni6d" unicode="&#x6d;" d="M31 0L144 530L176 530L150 399L153 399Q169 429 195.50 462Q222 495 259.50 517.50Q297 540 346 540Q411 540 439 500.50Q467 461 465 397L467 397Q484 429 511.50 462Q539 495 577.50 517.50Q616 540 664 540Q724 540 757 506.50Q790 473 790 409Q790 378 781 339L710 0L671 0L744 343Q751 377 751 404Q751 455 725.50 480Q700 505 655 505Q608 505 565 472.50Q522 440 490.50 386Q459 332 445 268L389 0L350 0L421 331Q426 353 427.50 373Q429 393 429 406Q429 453 405 479Q381 505 336 505Q289 505 246.50 472Q204 439 172 385Q140 331 126 265L70 0L31 0Z"  horiz-adv-x="849" vert-adv-y="1000"  />

      
      <glyph glyph-name="uni6e" unicode="&#x6e;" d="M30 0L143 530L176 530L152 399L154 399Q171 429 200.50 462Q230 495 271.50 517.50Q313 540 364 540Q429 540 464.50 506.50Q500 473 500 409Q500 393 497.50 374.50Q495 356 491 339L419 0L379 0L452 343Q460 378 460 404Q460 455 432.50 479.50Q405 504 356 504Q305 504 258 472.50Q211 441 176 386.50Q141 332 127 265L70 0L30 0Z"  horiz-adv-x="558" vert-adv-y="1000"  />

      
      <glyph glyph-name="uni6f" unicode="&#x6f;" d="M239-10Q147-10 100.50 46.50Q54 103 54 193Q54 294 89 372Q124 450 186 494.50Q248 539 328 539Q417 539 464 482.50Q511 426 511 338Q511 268 493 205.50Q475 143 440 94.50Q405 46 354.50 18Q304-10 239-10M243 25Q313 25 364.50 66.50Q416 108 443.50 179.50Q471 251 471 340Q471 410 435.50 457Q400 504 327 504Q260 504 207 465Q154 426 123.50 356Q93 286 93 193Q93 115 131 70Q169 25 243 25Z"  horiz-adv-x="565" vert-adv-y="1000"  />

      
      <glyph glyph-name="uni70" unicode="&#x70;" d="M-18-234L144 530L176 530L151 399L153 399Q173 432 203.50 464.50Q234 497 274 518Q314 539 363 539Q433 539 474.50 488.50Q516 438 516 352Q516 289 499.50 225Q483 161 449 108Q415 55 364 22.50Q313-10 245-10Q198-10 166.50 8Q135 26 117 54Q99 82 93 113L90 113Q86 83 79.50 49Q73 15 67-14L20-234L-18-234M244 25Q302 25 345.50 54Q389 83 418 130.50Q447 178 462 236.50Q477 295 477 353Q477 424 444.50 464.50Q412 505 353 505Q305 505 261.50 477Q218 449 184.50 401Q151 353 132 293.50Q113 234 113 170Q113 98 149 61.50Q185 25 244 25Z"  horiz-adv-x="570" vert-adv-y="1000"  />

      
      <glyph glyph-name="uni71" unicode="&#x71;" d="M381-14Q387 14 397 57Q407 100 416 136L414 136Q395 103 363 69Q331 35 289.50 12.50Q248-10 200-10Q126-10 88 40.50Q50 91 50 177Q50 240 67 304Q84 368 118 421.50Q152 475 203 507.50Q254 540 322 540Q369 540 400.50 521.50Q432 503 449.50 474.50Q467 446 473 416L476 416L504 530L535 530L373-234L335-234L381-14M209 25Q255 25 298.50 52.50Q342 80 377 127.50Q412 175 432.50 235Q453 295 453 359Q453 430 417.50 467.50Q382 505 323 505Q265 505 221.50 476Q178 447 149 399Q120 351 105 293Q90 235 90 177Q90 106 118 65.50Q146 25 209 25Z"  horiz-adv-x="570" vert-adv-y="1000"  />

      
      <glyph glyph-name="uni72" unicode="&#x72;" d="M31 0L144 530L176 530L151 399L154 399Q170 427 197.50 459.50Q225 492 261.50 515Q298 538 343 538Q376 538 402 530L393 495Q383 498 369.50 500Q356 502 341 502Q293 502 249 469Q205 436 172 381.50Q139 327 125 262L70 0L31 0Z"  horiz-adv-x="376" vert-adv-y="1000"  />

      
      <glyph glyph-name="uni73" unicode="&#x73;" d="M162-10Q110-10 72.50 2Q35 14 11 26L11 67Q40 50 79.50 37.50Q119 25 162 25Q240 25 274.50 57Q309 89 309 138Q309 169 294 189.50Q279 210 254 225.50Q229 241 200 257Q166 276 138 294.50Q110 313 94 337.50Q78 362 78 398Q78 446 101 477.50Q124 509 164 524.50Q204 540 253 540Q300 540 337.50 530.50Q375 521 402 508L389 474Q363 487 327.50 496Q292 505 252 505Q194 505 155.50 479.50Q117 454 117 401Q117 359 147.50 336.50Q178 314 223 289Q255 271 284 252.50Q313 234 331 207.50Q349 181 349 141Q349 76 303 33Q257-10 162-10Z"  horiz-adv-x="425" vert-adv-y="1000"  />

      
      <glyph glyph-name="uni74" unicode="&#x74;" d="M154-10Q52-10 52 87Q52 100 54 115.50Q56 131 60 148L133 496L55 496L61 522L140 532L180 659L207 659L180 530L337 530L329 496L172 496L99 150Q92 117 92 91Q92 60 107 42.50Q122 25 157 25Q180 25 198.50 28.50Q217 32 233 38L233 4Q218-1 198.50-5.50Q179-10 154-10Z"  horiz-adv-x="314" vert-adv-y="1000"  />

      
      <glyph glyph-name="uni75" unicode="&#x75;" d="M190-10Q125-10 90 23.50Q55 57 55 121Q55 137 57.50 154.50Q60 172 64 191L135 530L174 530L101 186Q94 153 94 126Q94 74 121 49.50Q148 25 198 25Q249 25 296.50 56.50Q344 88 379 142.50Q414 197 428 264L485 530L523 530L411 0L378 0L403 131L400 131Q383 101 353.50 68Q324 35 282.50 12.50Q241-10 190-10Z"  horiz-adv-x="558" vert-adv-y="1000"  />

      
      <glyph glyph-name="uni76" unicode="&#x76;" d="M128 0L50 530L88 530L141 158Q146 125 149 95.50Q152 66 154 42L156 42Q170 69 184.50 98Q199 127 217 159L428 530L470 530L168 0L128 0Z"  horiz-adv-x="422" vert-adv-y="1000"  />

      
      <glyph glyph-name="uni77" unicode="&#x77;" d="M85 0L55 530L93 530L112 175Q114 133 114.50 103.50Q115 74 114 49L117 49Q127 74 139.50 101.50Q152 129 175 172L357 530L392 530L427 175Q430 137 432 106.50Q434 76 434 49L437 49Q446 75 459 105Q472 135 492 180L657 530L697 530L447 0L407 0L372 369Q369 397 368 421Q367 445 366 477L364 477Q351 448 340 423.50Q329 399 314 371L125 0L85 0Z"  horiz-adv-x="666" vert-adv-y="1000"  />

      
      <glyph glyph-name="uni78" unicode="&#x78;" d="M-34 0L204 274L85 530L127 530L230 301L431 530L477 530L249 271L377 0L336 0L222 244L12 0L-34 0Z"  horiz-adv-x="461" vert-adv-y="1000"  />

      
      <glyph glyph-name="uni79" unicode="&#x79;" d="M-50-242Q-87-242-110-232L-110-197Q-98-202-84-205Q-70-208-50-208Q-13-208 16-180.50Q45-153 78-96L136 4L50 530L88 530L142 192Q150 145 154.50 106.50Q159 68 161 44L163 44Q174 66 193 104Q212 142 236 183L428 530L470 530L112-110Q76-174 38.50-208Q1-242-50-242Z"  horiz-adv-x="422" vert-adv-y="1000"  />

      
      <glyph glyph-name="uni7a" unicode="&#x7a;" d="M-14 0L-9 26L379 496L106 496L114 530L437 530L431 503L42 33L343 33L337 0L-14 0Z"  horiz-adv-x="438" vert-adv-y="1000"  />

      
      <glyph glyph-name="uni7b" unicode="&#x7b;" d="M203-158Q133-158 101.50-134.50Q70-111 70-57Q70-35 76-5L111 151Q117 178 117 197Q117 231 94.50 246.50Q72 262 24 262L31 297Q91 297 121.50 322Q152 347 164 409L201 578Q216 650 259.50 681.50Q303 713 377 714L386 714L379 679Q319 679 284.50 654.50Q250 630 237 571L201 404Q191 354 166.50 320.50Q142 287 96 279L96 277Q154 259 154 196Q154 175 147 145L114-8Q108-35 108-53Q108-95 132.50-109Q157-123 212-123L212-158L203-158Z"  horiz-adv-x="332" vert-adv-y="1000"  />

      
      <glyph glyph-name="uni7c" unicode="&#x7c;" d="M278-241L278 760L312 760L312-241L278-241Z"  horiz-adv-x="538" vert-adv-y="1000"  />

      
      <glyph glyph-name="uni7d" unicode="&#x7d;" d="M-43-124Q17-123 52-99Q87-75 100-16L136 151Q147 202 171 235Q195 268 241 276L241 279Q183 297 183 359Q183 380 190 410L223 564Q230 590 230 608Q230 650 204.50 664Q179 678 123 678L126 713L134 713Q204 713 235.50 689.50Q267 666 267 612Q267 590 261 560L226 404Q220 376 220 359Q220 325 242.50 309Q265 293 313 293L306 259Q246 259 216 233.50Q186 208 173 147L136-22Q121-96 77-127.50Q33-159-41-159L-47-159L-43-124Z"  horiz-adv-x="332" vert-adv-y="1000"  />

      
      <glyph glyph-name="uni7e" unicode="&#x7e;" d="M299 337Q271 351 247.50 359.50Q224 368 191 368Q162 368 132 354.50Q102 341 75 312L75 352Q98 375 128.50 388Q159 401 192 401Q232 401 258 392.50Q284 384 316 368Q345 355 368.50 346.50Q392 338 421 338Q449 338 478 350.50Q507 363 535 393L535 355Q516 333 486 319Q456 305 420 305Q386 305 359 313Q332 321 299 337Z"  horiz-adv-x="570" vert-adv-y="1000"  />

      
      <glyph glyph-name="unia1" unicode="&#xa1;" d="M156 461Q141 461 134.50 469.50Q128 478 128 489Q128 507 137.50 522.50Q147 538 167 538Q195 538 195 510Q195 493 185.50 477Q176 461 156 461M-6-182L115 349L146 349L38-182L-6-182Z"  horiz-adv-x="220" vert-adv-y="1000"  />

      
      <glyph glyph-name="unia2" unicode="&#xa2;" d="M256 93Q185 105 146 158.50Q107 212 107 289Q107 379 138 456.50Q169 534 227 583.50Q285 633 366 639L383 724L416 724L398 639Q428 638 457.50 632Q487 626 510 615L498 580Q475 592 443.50 598Q412 604 384 604Q314 604 260.50 562Q207 520 177 448.50Q147 377 147 290Q147 218 186.50 171Q226 124 298 124Q365 124 427 154L427 120Q391 101 357.50 95.50Q324 90 288 90L267-10L234-10L256 93Z"  horiz-adv-x="550" vert-adv-y="1000"  />

      
      <glyph glyph-name="unia3" unicode="&#xa3;" d="M-1 33Q56 44 92.50 82.50Q129 121 144 192L173 331L73 331L80 364L181 364L214 524Q236 626 287 674.50Q338 723 422 723Q465 723 501 712.50Q537 702 561 689L545 656Q521 667 490.50 677.50Q460 688 421 688Q353 688 312 647.50Q271 607 252 517L219 364L406 364L399 331L212 331L182 190Q167 122 141.50 87.50Q116 53 80 36L455 36L448 0L-7 0L-1 33Z"  horiz-adv-x="550" vert-adv-y="1000"  />

      
      <glyph glyph-name="unia4" unicode="&#xa4;" d="M429 203Q402 180 368.50 168Q335 156 300 156Q266 156 232.50 168Q199 180 172 204L98 129L76 151L150 226Q104 281 104 354Q104 426 150 482L76 557L98 579L172 504Q228 552 300 552Q335 552 368.50 540Q402 528 429 504L503 578L525 556L451 482Q498 426 498 354Q498 281 451 226L526 151L503 129L429 203M300 187Q346 187 384 210Q422 233 444.50 270.50Q467 308 467 355Q467 400 444.50 438Q422 476 384.50 498.50Q347 521 301 521Q255 521 217.50 498Q180 475 157.50 437.50Q135 400 135 354Q135 308 157 270Q179 232 216.50 209.50Q254 187 300 187Z"  horiz-adv-x="566" vert-adv-y="1000"  />

      
      <glyph glyph-name="unia5" unicode="&#xa5;" d="M196 0L229 155L68 155L75 189L237 189L258 293L97 293L104 326L251 326L119 714L158 714L283 338L568 714L612 714L316 326L463 326L457 293L295 293L274 189L434 189L427 155L267 155L234 0L196 0Z"  horiz-adv-x="550" vert-adv-y="1000"  />

      
      <glyph glyph-name="unia6" unicode="&#xa6;" d="M278 392L278 760L312 760L312 392L278 392M278-240L278 129L312 129L312-240L278-240Z"  horiz-adv-x="538" vert-adv-y="1000"  />

      
      <glyph glyph-name="unia7" unicode="&#xa7;" d="M175-2Q128-2 89.50 8.50Q51 19 28 31L28 69Q57 54 97 42.50Q137 31 175 31Q252 31 295 59Q338 87 338 140Q338 168 323 185Q308 202 282 215Q256 228 224 243Q194 256 165 274.50Q136 293 117.50 319Q99 345 99 384Q99 426 120 454Q141 482 172 499.50Q203 517 234 525Q205 538 181.50 562.50Q158 587 158 626Q158 673 184.50 702.50Q211 732 252.50 746Q294 760 340 760Q380 760 420 751Q460 742 487 730L474 698Q446 711 409 719Q372 727 340 727Q308 727 274.50 718Q241 709 218.50 687.50Q196 666 196 627Q196 592 225.50 571.50Q255 551 306 529Q336 515 365.50 499.50Q395 484 415 459Q435 434 435 393Q435 356 418 325.50Q401 295 374.50 272.50Q348 250 319 234Q344 219 360 197.50Q376 176 376 143Q376 72 322 35Q268-2 175-2M291 251Q333 273 365 307Q397 341 397 390Q397 419 382.50 438Q368 457 339 472.50Q310 488 266 507Q236 499 206.50 486Q177 473 157 449Q137 425 137 386Q137 353 154.50 331.50Q172 310 206.50 291.50Q241 273 291 251Z"  horiz-adv-x="496" vert-adv-y="1000"  />

      
      <glyph glyph-name="unia8" unicode="&#xa8;" d="M456 644Q432 644 432 669Q432 684 439.50 698.50Q447 713 466 713Q490 713 490 688Q490 672 481.50 658Q473 644 456 644M279 644Q255 644 255 669Q255 684 263 698.50Q271 713 289 713Q313 713 313 688Q313 672 304.50 658Q296 644 279 644Z"  horiz-adv-x="571" vert-adv-y="1000"  />

      
      <glyph glyph-name="unia9" unicode="&#xa9;" d="M416-8Q336-8 269 20Q202 48 153 98Q104 148 77 214.50Q50 281 50 357Q50 435 78.50 502Q107 569 157.50 618.50Q208 668 274 695Q340 722 416 722Q495 722 562 693Q629 664 678.50 612.50Q728 561 755 495.50Q782 430 782 357Q782 281 754 214.50Q726 148 675.50 98Q625 48 558.50 20Q492-8 416-8M416 22Q487 22 548 48.50Q609 75 654.50 121.50Q700 168 725 228.50Q750 289 750 357Q750 425 725 485.50Q700 546 655 592.50Q610 639 549 665.50Q488 692 416 692Q345 692 284.50 666Q224 640 178.50 594.50Q133 549 107.50 488Q82 427 82 357Q82 289 106 228Q130 167 174.50 121Q219 75 280.50 48.50Q342 22 416 22M434 141Q341 141 286 195.50Q231 250 231 356Q231 422 257 470.50Q283 519 329.50 546.50Q376 574 438 574Q479 574 508.50 566.50Q538 559 564 547L549 516Q525 527 499 533.50Q473 540 438 540Q362 540 315 490.50Q268 441 268 356Q268 266 314.50 220Q361 174 435 174Q468 174 493.50 179Q519 184 548 195L548 163Q523 152 495.50 146.50Q468 141 434 141Z"  horiz-adv-x="832" vert-adv-y="1000"  />

      
      <glyph glyph-name="uniaa" unicode="&#xaa;" d="M181 395Q141 395 114.50 422.50Q88 450 88 502Q88 563 109.50 612.50Q131 662 166.50 692Q202 722 246 722Q280 722 299 704.50Q318 687 326 662L328 662L345 716L371 716L304 399L278 399L290 468L288 468Q269 438 242 416.50Q215 395 181 395M185 426Q211 426 234 443Q257 460 274 487.50Q291 515 301 547Q311 579 311 609Q311 643 295 667.50Q279 692 245 692Q214 692 185.50 667.50Q157 643 139.50 600.50Q122 558 122 504Q122 468 139 447Q156 426 185 426Z"  horiz-adv-x="325" vert-adv-y="1000"  />

      
      <glyph glyph-name="uniab" unicode="&#xab;" d="M131 80L24 272L27 285L212 472L233 451L68 274L158 94L131 80M298 80L193 268L195 281L379 471L400 451L236 270L325 94L298 80Z"  horiz-adv-x="393" vert-adv-y="1000"  />

      
      <glyph glyph-name="uniac" unicode="&#xac;" d="M522 370L522 131L489 131L489 336L74 336L74 370L522 370Z"  horiz-adv-x="570" vert-adv-y="1000"  />

      
      <glyph glyph-name="uniad" unicode="&#xad;" d="M35 253L42 289L274 289L267 253L35 253Z"  horiz-adv-x="304" vert-adv-y="1000"  />

      
      <glyph glyph-name="uniae" unicode="&#xae;" d="M416-8Q336-8 269 20Q202 48 153 98Q104 148 77 214.50Q50 281 50 357Q50 435 78.50 502Q107 569 157.50 618.50Q208 668 274 695Q340 722 416 722Q495 722 562 693Q629 664 678.50 612.50Q728 561 755 495.50Q782 430 782 357Q782 281 754 214.50Q726 148 675.50 98Q625 48 558.50 20Q492-8 416-8M416 22Q487 22 548 48.50Q609 75 654.50 121.50Q700 168 725 228.50Q750 289 750 357Q750 425 725 485.50Q700 546 655 592.50Q610 639 549 665.50Q488 692 416 692Q345 692 284.50 666Q224 640 178.50 594.50Q133 549 107.50 488Q82 427 82 357Q82 289 106 228Q130 167 174.50 121Q219 75 280.50 48.50Q342 22 416 22M294 142L294 570L414 570Q480 570 519 541Q558 512 558 448Q558 400 532 371Q506 342 468 330L582 142L539 142L432 321L330 321L330 142L294 142M411 351Q459 351 491 375Q523 399 523 448Q523 496 492.50 517Q462 538 412 538L329 538L329 351L411 351Z"  horiz-adv-x="832" vert-adv-y="1000"  />

      
      <glyph glyph-name="uniaf" unicode="&#xaf;" d="M101 760L109 794L503 794L495 760L101 760Z"  horiz-adv-x="462" vert-adv-y="1000"  />

      
      <glyph glyph-name="unib0" unicode="&#xb0;" d="M214 436Q152 436 110 475.50Q68 515 68 580Q68 645 109.50 684.50Q151 724 214 724Q277 724 318.50 684Q360 644 360 580Q360 515 318.50 475.50Q277 436 214 436M213 468Q264 468 295 499.50Q326 531 326 580Q326 631 294.50 661.50Q263 692 213 692Q162 692 132 661.50Q102 631 102 580Q102 531 132 499.50Q162 468 213 468Z"  horiz-adv-x="428" vert-adv-y="1000"  />

      
      <glyph glyph-name="unib1" unicode="&#xb1;" d="M322 370L536 370L536 337L322 337L322 121L288 121L288 337L74 337L74 370L288 370L288 586L322 586L322 370M74 0L74 34L536 34L536 0L74 0Z"  horiz-adv-x="570" vert-adv-y="1000"  />

      
      <glyph glyph-name="unib2" unicode="&#xb2;" d="M54 416L60 444L200 563Q271 623 308.50 665Q346 707 346 756Q346 786 326.50 804.50Q307 823 273 823Q218 823 160 782L144 808Q206 855 276 855Q328 855 354.50 827Q381 799 381 759Q381 700 340 652.50Q299 605 227 546L110 448L331 448L324 416L54 416Z"  horiz-adv-x="320" vert-adv-y="1000"  />

      
      <glyph glyph-name="unib3" unicode="&#xb3;" d="M177 411Q144 411 115 418Q86 425 63 437L63 472Q90 459 118 451Q146 443 177 443Q237 443 274 470Q311 497 311 551Q311 586 284.50 605.50Q258 625 208 625L161 625L168 656L215 656Q268 656 306 680.50Q344 705 344 753Q344 783 325 801.50Q306 820 270 820Q237 820 208.50 810Q180 800 152 783L138 810Q167 829 201 840.50Q235 852 274 852Q323 852 351.50 826Q380 800 380 758Q380 707 351 679Q322 651 282 641L282 638Q311 631 329 607.50Q347 584 347 551Q347 480 299.50 445.50Q252 411 177 411Z"  horiz-adv-x="320" vert-adv-y="1000"  />

      
      <glyph glyph-name="unib4" unicode="&#xb4;" d="M114 613Q136 633 161.50 660.50Q187 688 210 716Q233 744 248 766L292 766L292 758Q275 737 250 709.50Q225 682 196.50 654.50Q168 627 142 606L114 606L114 613Z"  horiz-adv-x="227" vert-adv-y="1000"  />

      
      <glyph glyph-name="uni03BC" unicode="&#x03BC;" d="M-18-234L144 530L182 530L110 189Q105 163 103 147Q101 131 101 120Q101 79 127.50 52Q154 25 204 25Q251 25 298 52Q345 79 382.50 133.50Q420 188 438 272L493 530L531 530L419 0L387 0L411 131L409 131Q390 97 360.50 65Q331 33 290.50 11.50Q250-10 197-10Q147-10 120 13Q93 36 83 66L80 66Q75 37 68-3Q61-43 51-87L20-234L-18-234Z"  horiz-adv-x="567" vert-adv-y="1000"  />

      
      <glyph glyph-name="unib6" unicode="&#xb6;" d="M363 338Q347 334 330.50 331.50Q314 329 292 329Q207 329 163 388.50Q119 448 119 547Q119 760 307 760L556 760L556-127L523-127L523 724L396 724L396-127L363-127L363 338Z"  horiz-adv-x="655" vert-adv-y="1000"  />

      
      <glyph glyph-name="unib7" unicode="&#xb7;" d="M120 284Q92 284 92 312Q92 329 101.50 345Q111 361 131 361Q145 361 152 352.50Q159 344 159 332Q159 315 149 299.50Q139 284 120 284Z"  horiz-adv-x="219" vert-adv-y="1000"  />

      
      <glyph glyph-name="unib8" unicode="&#xb8;" d="M-32-240Q-65-240-85-234L-85-205Q-63-210-35-210Q-14-210 7.50-203Q29-196 44-180Q59-164 59-138Q59-87-23-86L24 0L56 0L23-63Q54-67 74.50-86Q95-105 95-138Q95-186 57-213Q19-240-32-240Z"  horiz-adv-x="195" vert-adv-y="1000"  />

      
      <glyph glyph-name="unib9" unicode="&#xb9;" d="M249 689Q255 717 263 748.50Q271 780 278 807Q262 797 246.50 788Q231 779 208 767L158 740L144 767L289 844L319 844L228 416L192 416L249 689Z"  horiz-adv-x="320" vert-adv-y="1000"  />

      
      <glyph glyph-name="uniba" unicode="&#xba;" d="M205 393Q152 393 122 427Q92 461 92 517Q92 576 113.50 622.50Q135 669 173 696.50Q211 724 261 724Q316 724 344 689Q372 654 372 601Q372 544 351.50 497Q331 450 293.50 421.50Q256 393 205 393M207 423Q246 423 275.50 447Q305 471 321.50 511.50Q338 552 338 599Q338 641 317.50 667.50Q297 694 259 694Q220 694 190 671Q160 648 143 608Q126 568 126 518Q126 474 147 448.50Q168 423 207 423Z"  horiz-adv-x="349" vert-adv-y="1000"  />

      
      <glyph glyph-name="unibb" unicode="&#xbb;" d="M183 80L163 101L328 278L238 459L265 472L371 280L369 267L183 80M17 82L-4 101L160 282L71 459L98 472L203 284L201 271L17 82Z"  horiz-adv-x="393" vert-adv-y="1000"  />

      
      <glyph glyph-name="unibc" unicode="&#xbc;" d="M79 0L609 714L652 714L121 0L79 0M219 560Q225 588 233 619.50Q241 651 248 678Q232 668 216.50 659Q201 650 178 638L128 611L114 638L259 715L289 715L198 287L162 287L219 560M514 1L538 114L346 114L354 147L606 432L641 432L580 146L645 146L638 114L573 114L549 1L514 1M394 146L544 146L569 260Q575 289 582.50 322.50Q590 356 596 380Q587 366 565 340Q543 314 522 291L394 146Z"  horiz-adv-x="683" vert-adv-y="1000"  />

      
      <glyph glyph-name="unibd" unicode="&#xbd;" d="M73 0L603 714L646 714L115 0L73 0M219 560Q225 588 233 619.50Q241 651 248 678Q232 668 216.50 659Q201 650 178 638L128 611L114 638L259 715L289 715L198 287L162 287L219 560M384 1L390 29L530 148Q601 208 638.50 250Q676 292 676 341Q676 371 656.50 389.50Q637 408 603 408Q548 408 490 367L474 393Q536 440 606 440Q658 440 684.50 412Q711 384 711 344Q711 285 670 237.50Q629 190 557 131L440 33L661 33L654 1L384 1Z"  horiz-adv-x="732" vert-adv-y="1000"  />

      
      <glyph glyph-name="unibe" unicode="&#xbe;" d="M141 279Q108 279 79 286Q50 293 27 305L27 340Q54 327 82 319Q110 311 141 311Q201 311 238 338Q275 365 275 419Q275 454 248.50 473.50Q222 493 172 493L125 493L132 524L179 524Q232 524 270 548.50Q308 573 308 621Q308 651 289 669.50Q270 688 234 688Q201 688 172.50 678Q144 668 116 651L102 678Q131 697 165 708.50Q199 720 238 720Q287 720 315.50 694Q344 668 344 626Q344 575 315 547Q286 519 246 509L246 506Q275 499 293 475.50Q311 452 311 419Q311 348 263.50 313.50Q216 279 141 279M119 0L649 714L692 714L161 0L119 0M539 2L563 115L371 115L379 148L631 433L666 433L605 147L670 147L663 115L598 115L574 2L539 2M419 147L569 147L594 261Q600 290 607.50 323.50Q615 357 621 381Q612 367 590 341Q568 315 547 292L419 147Z"  horiz-adv-x="709" vert-adv-y="1000"  />

      
      <glyph glyph-name="unibf" unicode="&#xbf;" d="M297 353Q288 298 270.50 264.50Q253 231 226.50 206Q200 181 164 152Q131 127 100 102Q69 77 49.50 45Q30 13 30-34Q30-90 64-123.50Q98-157 154-157Q185-157 218.50-148Q252-139 289-123L303-155Q260-175 223.50-183.50Q187-192 152-192Q78-192 34.50-149Q-9-106-9-37Q-9 14 10.50 50Q30 86 63.50 116Q97 146 141 177Q173 201 197.50 223Q222 245 238 275Q254 305 263 353L297 353M310 541Q339 541 339 513Q339 496 329 480Q319 464 299 464Q285 464 278.50 472.50Q272 481 272 493Q272 510 281.50 525.50Q291 541 310 541Z"  horiz-adv-x="408" vert-adv-y="1000"  />

      
      <glyph glyph-name="unic0" unicode="&#xc0;" d="M-51 0L360 716L399 716L501 0L463 0L425 261L142 261L-8 0L-51 0M162 297L420 297L383 565Q379 588 376 615.50Q373 643 371 669L369 669Q357 643 343 616.50Q329 590 314 564L162 297M401 790Q385 808 365 836.50Q345 865 328 893Q311 921 302 940L302 950L343 950Q353 925 367.50 897Q382 869 397 844Q412 819 424 802L424 790L401 790Z"  horiz-adv-x="550" vert-adv-y="1000"  />

      
      <glyph glyph-name="unic1" unicode="&#xc1;" d="M-51 0L360 716L399 716L501 0L463 0L425 261L142 261L-8 0L-51 0M162 297L420 297L383 565Q379 588 376 615.50Q373 643 371 669L369 669Q357 643 343 616.50Q329 590 314 564L162 297M358 797Q380 817 405.50 844.50Q431 872 454 900Q477 928 492 950L536 950L536 942Q519 921 494 893.50Q469 866 440.50 838.50Q412 811 386 790L358 790L358 797Z"  horiz-adv-x="550" vert-adv-y="1000"  />

      
      <glyph glyph-name="unic2" unicode="&#xc2;" d="M-51 0L360 716L399 716L501 0L463 0L425 261L142 261L-8 0L-51 0M162 297L420 297L383 565Q379 588 376 615.50Q373 643 371 669L369 669Q357 643 343 616.50Q329 590 314 564L162 297M259 797Q280 817 307 844Q334 871 359 898.50Q384 926 400 948L435 948Q442 926 455.50 898.50Q469 871 484.50 844.50Q500 818 513 797L512 790L486 790Q466 815 446.50 847.50Q427 880 412 908Q385 880 352 848Q319 816 289 790L258 790L259 797Z"  horiz-adv-x="550" vert-adv-y="1000"  />

      
      <glyph glyph-name="unic3" unicode="&#xc3;" d="M-51 0L360 716L399 716L501 0L463 0L425 261L142 261L-8 0L-51 0M162 297L420 297L383 565Q379 588 376 615.50Q373 643 371 669L369 669Q357 643 343 616.50Q329 590 314 564L162 297M234 800Q247 851 271 877.50Q295 904 335 904Q359 904 377.50 893Q396 882 412 868.50Q428 855 442.50 844.50Q457 834 473 834Q495 834 512 847.50Q529 861 543 904L575 904Q561 854 537 826.50Q513 799 471 799Q450 799 432.50 809.50Q415 820 399 834Q383 848 367 858.50Q351 869 333 869Q312 869 295.50 855Q279 841 266 800L234 800Z"  horiz-adv-x="550" vert-adv-y="1000"  />

      
      <glyph glyph-name="unic4" unicode="&#xc4;" d="M-51 0L360 716L399 716L501 0L463 0L425 261L142 261L-8 0L-51 0M162 297L420 297L383 565Q379 588 376 615.50Q373 643 371 669L369 669Q357 643 343 616.50Q329 590 314 564L162 297M483 828Q459 828 459 853Q459 868 466.50 882.50Q474 897 493 897Q517 897 517 872Q517 856 508.50 842Q500 828 483 828M306 828Q282 828 282 853Q282 868 290 882.50Q298 897 316 897Q340 897 340 872Q340 856 331.50 842Q323 828 306 828Z"  horiz-adv-x="550" vert-adv-y="1000"  />

      
      <glyph glyph-name="unic5" unicode="&#xc5;" d="M-51 0L360 716L399 716L501 0L463 0L425 261L142 261L-8 0L-51 0M162 297L420 297L383 565Q379 588 376 615.50Q373 643 371 669L369 669Q357 643 343 616.50Q329 590 314 564L162 297M391 713Q349 713 319 740.50Q289 768 289 814Q289 858 319.50 886.50Q350 915 391 915Q434 915 463.50 886Q493 857 493 814Q493 769 463.50 741Q434 713 391 713M391 742Q423 742 443 763Q463 784 463 814Q463 844 442 865Q421 886 391 886Q360 886 339.50 865Q319 844 319 814Q319 784 339 763Q359 742 391 742Z"  horiz-adv-x="550" vert-adv-y="1000"  />

      
      <glyph glyph-name="unic6" unicode="&#xc6;" d="M-52 0L393 714L827 714L819 678L492 678L431 394L740 394L733 358L424 358L356 36L683 36L676 0L309 0L364 260L154 260L-6 0L-52 0M177 296L371 296L451 678L413 678L177 296Z"  horiz-adv-x="791" vert-adv-y="1000"  />

      
      <glyph glyph-name="unic7" unicode="&#xc7;" d="M326-10Q249-10 194.50 24Q140 58 111 120.50Q82 183 82 267Q82 365 110 448.50Q138 532 190 593.50Q242 655 313 689.50Q384 724 468 724Q562 724 633 686L616 651Q582 671 545 679.50Q508 688 468 688Q392 688 328.50 656.50Q265 625 218.50 568.50Q172 512 147 435.50Q122 359 122 269Q122 156 177.50 91Q233 26 330 26Q379 26 421.50 34.50Q464 43 500 55L500 21Q465 8 422-1Q379-10 326-10M232-240Q199-240 179-234L179-205Q201-210 229-210Q250-210 271.50-203Q293-196 308-180Q323-164 323-138Q323-87 241-86L288 0L320 0L287-63Q318-67 338.50-86Q359-105 359-138Q359-186 321-213Q283-240 232-240Z"  horiz-adv-x="593" vert-adv-y="1000"  />

      
      <glyph glyph-name="unic8" unicode="&#xc8;" d="M48 0L199 714L558 714L551 678L231 678L171 394L471 394L464 358L164 358L95 36L414 36L407 0L48 0M404 790Q388 808 368 836.50Q348 865 331 893Q314 921 305 940L305 950L346 950Q356 925 370.50 897Q385 869 400 844Q415 819 427 802L427 790L404 790Z"  horiz-adv-x="531" vert-adv-y="1000"  />

      
      <glyph glyph-name="unic9" unicode="&#xc9;" d="M48 0L199 714L558 714L551 678L231 678L171 394L471 394L464 358L164 358L95 36L414 36L407 0L48 0M353 797Q375 817 400.50 844.50Q426 872 449 900Q472 928 487 950L531 950L531 942Q514 921 489 893.50Q464 866 435.50 838.50Q407 811 381 790L353 790L353 797Z"  horiz-adv-x="531" vert-adv-y="1000"  />

      
      <glyph glyph-name="unica" unicode="&#xca;" d="M48 0L199 714L558 714L551 678L231 678L171 394L471 394L464 358L164 358L95 36L414 36L407 0L48 0M266 797Q287 817 314 844Q341 871 366 898.50Q391 926 407 948L442 948Q449 926 462.50 898.50Q476 871 491.50 844.50Q507 818 520 797L519 790L493 790Q473 815 453.50 847.50Q434 880 419 908Q392 880 359 848Q326 816 296 790L265 790L266 797Z"  horiz-adv-x="531" vert-adv-y="1000"  />

      
      <glyph glyph-name="unicb" unicode="&#xcb;" d="M48 0L199 714L558 714L551 678L231 678L171 394L471 394L464 358L164 358L95 36L414 36L407 0L48 0M494 828Q470 828 470 853Q470 868 477.50 882.50Q485 897 504 897Q528 897 528 872Q528 856 519.50 842Q511 828 494 828M317 828Q293 828 293 853Q293 868 301 882.50Q309 897 327 897Q351 897 351 872Q351 856 342.50 842Q334 828 317 828Z"  horiz-adv-x="531" vert-adv-y="1000"  />

      
      <glyph glyph-name="unicc" unicode="&#xcc;" d="M2 0L8 26L77 32L215 681L148 688L153 714L330 714L325 688L254 681L116 32L184 26L179 0L2 0M271 790Q255 808 235 836.50Q215 865 198 893Q181 921 172 940L172 950L213 950Q223 925 237.50 897Q252 869 267 844Q282 819 294 802L294 790L271 790Z"  horiz-adv-x="288" vert-adv-y="1000"  />

      
      <glyph glyph-name="unicd" unicode="&#xcd;" d="M2 0L8 26L77 32L215 681L148 688L153 714L330 714L325 688L254 681L116 32L184 26L179 0L2 0M219 797Q241 817 266.50 844.50Q292 872 315 900Q338 928 353 950L397 950L397 942Q380 921 355 893.50Q330 866 301.50 838.50Q273 811 247 790L219 790L219 797Z"  horiz-adv-x="288" vert-adv-y="1000"  />

      
      <glyph glyph-name="unice" unicode="&#xce;" d="M2 0L8 26L77 32L215 681L148 688L153 714L330 714L325 688L254 681L116 32L184 26L179 0L2 0M121 797Q142 817 169 844Q196 871 221 898.50Q246 926 262 948L297 948Q304 926 317.50 898.50Q331 871 346.50 844.50Q362 818 375 797L374 790L348 790Q328 815 308.50 847.50Q289 880 274 908Q247 880 214 848Q181 816 151 790L120 790L121 797Z"  horiz-adv-x="288" vert-adv-y="1000"  />

      
      <glyph glyph-name="unicf" unicode="&#xcf;" d="M2 0L8 26L77 32L215 681L148 688L153 714L330 714L325 688L254 681L116 32L184 26L179 0L2 0M349 828Q325 828 325 853Q325 868 332.50 882.50Q340 897 359 897Q383 897 383 872Q383 856 374.50 842Q366 828 349 828M172 828Q148 828 148 853Q148 868 156 882.50Q164 897 182 897Q206 897 206 872Q206 856 197.50 842Q189 828 172 828Z"  horiz-adv-x="288" vert-adv-y="1000"  />

      
      <glyph glyph-name="unid0" unicode="&#xd0;" d="M48 0L120 337L42 337L49 373L127 373L199 714L349 714Q484 714 560.50 643Q637 572 637 426Q637 341 610 264.50Q583 188 529 128.50Q475 69 393 34.50Q311 0 200 0L48 0M202 36Q299 36 372.50 66.50Q446 97 496 151.50Q546 206 571 276.50Q596 347 596 426Q596 556 528.50 617Q461 678 339 678L232 678L167 373L354 373L346 337L159 337L95 36L202 36Z"  horiz-adv-x="675" vert-adv-y="1000"  />

      
      <glyph glyph-name="unid1" unicode="&#xd1;" d="M48 0L199 714L233 714L503 68L506 68Q513 107 521 151Q529 195 537 233L640 714L678 714L527 0L492 0L222 645L220 645Q212 604 204.50 563Q197 522 188 479L87 0L48 0M305 800Q318 851 342 877.50Q366 904 406 904Q430 904 448.50 893Q467 882 483 868.50Q499 855 513.50 844.50Q528 834 544 834Q566 834 583 847.50Q600 861 614 904L646 904Q632 854 608 826.50Q584 799 542 799Q521 799 503.50 809.50Q486 820 470 834Q454 848 438 858.50Q422 869 404 869Q383 869 366.50 855Q350 841 337 800L305 800Z"  horiz-adv-x="681" vert-adv-y="1000"  />

      
      <glyph glyph-name="unid2" unicode="&#xd2;" d="M335-10Q244-10 188.50 28Q133 66 107.50 130.50Q82 195 82 274Q82 358 103.50 438.50Q125 519 168.50 583.50Q212 648 277.50 686.50Q343 725 431 725Q545 725 612 655.50Q679 586 679 446Q679 393 668 331.50Q657 270 633 210Q609 150 569 100Q529 50 471 20Q413-10 335-10M336 26Q402 26 452 53Q502 80 537.50 125.50Q573 171 595 226Q617 281 627.50 338Q638 395 638 445Q638 558 586 623.50Q534 689 429 689Q362 689 312 663.50Q262 638 225.50 595Q189 552 166.50 498.50Q144 445 133 387Q122 329 122 275Q122 201 145 145Q168 89 215 57.50Q262 26 336 26M470 790Q454 808 434 836.50Q414 865 397 893Q380 921 371 940L371 950L412 950Q422 925 436.50 897Q451 869 466 844Q481 819 493 802L493 790L470 790Z"  horiz-adv-x="717" vert-adv-y="1000"  />

      
      <glyph glyph-name="unid3" unicode="&#xd3;" d="M335-10Q244-10 188.50 28Q133 66 107.50 130.50Q82 195 82 274Q82 358 103.50 438.50Q125 519 168.50 583.50Q212 648 277.50 686.50Q343 725 431 725Q545 725 612 655.50Q679 586 679 446Q679 393 668 331.50Q657 270 633 210Q609 150 569 100Q529 50 471 20Q413-10 335-10M336 26Q402 26 452 53Q502 80 537.50 125.50Q573 171 595 226Q617 281 627.50 338Q638 395 638 445Q638 558 586 623.50Q534 689 429 689Q362 689 312 663.50Q262 638 225.50 595Q189 552 166.50 498.50Q144 445 133 387Q122 329 122 275Q122 201 145 145Q168 89 215 57.50Q262 26 336 26M419 797Q441 817 466.50 844.50Q492 872 515 900Q538 928 553 950L597 950L597 942Q580 921 555 893.50Q530 866 501.50 838.50Q473 811 447 790L419 790L419 797Z"  horiz-adv-x="717" vert-adv-y="1000"  />

      
      <glyph glyph-name="unid4" unicode="&#xd4;" d="M335-10Q244-10 188.50 28Q133 66 107.50 130.50Q82 195 82 274Q82 358 103.50 438.50Q125 519 168.50 583.50Q212 648 277.50 686.50Q343 725 431 725Q545 725 612 655.50Q679 586 679 446Q679 393 668 331.50Q657 270 633 210Q609 150 569 100Q529 50 471 20Q413-10 335-10M336 26Q402 26 452 53Q502 80 537.50 125.50Q573 171 595 226Q617 281 627.50 338Q638 395 638 445Q638 558 586 623.50Q534 689 429 689Q362 689 312 663.50Q262 638 225.50 595Q189 552 166.50 498.50Q144 445 133 387Q122 329 122 275Q122 201 145 145Q168 89 215 57.50Q262 26 336 26M322 797Q343 817 370 844Q397 871 422 898.50Q447 926 463 948L498 948Q505 926 518.50 898.50Q532 871 547.50 844.50Q563 818 576 797L575 790L549 790Q529 815 509.50 847.50Q490 880 475 908Q448 880 415 848Q382 816 352 790L321 790L322 797Z"  horiz-adv-x="717" vert-adv-y="1000"  />

      
      <glyph glyph-name="unid5" unicode="&#xd5;" d="M335-10Q244-10 188.50 28Q133 66 107.50 130.50Q82 195 82 274Q82 358 103.50 438.50Q125 519 168.50 583.50Q212 648 277.50 686.50Q343 725 431 725Q545 725 612 655.50Q679 586 679 446Q679 393 668 331.50Q657 270 633 210Q609 150 569 100Q529 50 471 20Q413-10 335-10M336 26Q402 26 452 53Q502 80 537.50 125.50Q573 171 595 226Q617 281 627.50 338Q638 395 638 445Q638 558 586 623.50Q534 689 429 689Q362 689 312 663.50Q262 638 225.50 595Q189 552 166.50 498.50Q144 445 133 387Q122 329 122 275Q122 201 145 145Q168 89 215 57.50Q262 26 336 26M300 800Q313 851 337 877.50Q361 904 401 904Q425 904 443.50 893Q462 882 478 868.50Q494 855 508.50 844.50Q523 834 539 834Q561 834 578 847.50Q595 861 609 904L641 904Q627 854 603 826.50Q579 799 537 799Q516 799 498.50 809.50Q481 820 465 834Q449 848 433 858.50Q417 869 399 869Q378 869 361.50 855Q345 841 332 800L300 800Z"  horiz-adv-x="717" vert-adv-y="1000"  />

      
      <glyph glyph-name="unid6" unicode="&#xd6;" d="M335-10Q244-10 188.50 28Q133 66 107.50 130.50Q82 195 82 274Q82 358 103.50 438.50Q125 519 168.50 583.50Q212 648 277.50 686.50Q343 725 431 725Q545 725 612 655.50Q679 586 679 446Q679 393 668 331.50Q657 270 633 210Q609 150 569 100Q529 50 471 20Q413-10 335-10M336 26Q402 26 452 53Q502 80 537.50 125.50Q573 171 595 226Q617 281 627.50 338Q638 395 638 445Q638 558 586 623.50Q534 689 429 689Q362 689 312 663.50Q262 638 225.50 595Q189 552 166.50 498.50Q144 445 133 387Q122 329 122 275Q122 201 145 145Q168 89 215 57.50Q262 26 336 26M550 828Q526 828 526 853Q526 868 533.50 882.50Q541 897 560 897Q584 897 584 872Q584 856 575.50 842Q567 828 550 828M373 828Q349 828 349 853Q349 868 357 882.50Q365 897 383 897Q407 897 407 872Q407 856 398.50 842Q390 828 373 828Z"  horiz-adv-x="717" vert-adv-y="1000"  />

      
      <glyph glyph-name="unid7" unicode="&#xd7;" d="M497 568L520 545L329 353L520 161L497 138L305 329L114 138L90 161L281 353L90 544L114 568L305 377L497 568Z"  horiz-adv-x="570" vert-adv-y="1000"  />

      
      <glyph glyph-name="unid8" unicode="&#xd8;" d="M58-29L32-5L124 97Q102 133 92 178Q82 223 82 274Q82 358 103.50 438.50Q125 519 168.50 583.50Q212 648 277.50 686.50Q343 725 431 725Q490 725 536.50 706Q583 687 615 649L698 742L725 720L636 620Q679 555 679 446Q679 393 668 331.50Q657 270 633 210Q609 150 569 100Q529 50 471 20Q413-10 335-10Q269-10 222.50 11Q176 32 146 69L58-29M589 620Q563 653 523 671Q483 689 429 689Q362 689 311.50 664Q261 639 225 596Q189 553 166.50 499Q144 445 133 387Q122 329 122 275Q122 233 129.50 195.50Q137 158 152 129L589 620M336 26Q402 26 452 53Q502 80 537.50 125.50Q573 171 595.50 226Q618 281 628 338Q638 395 638 445Q638 532 609 588L171 98Q196 65 237.50 45.50Q279 26 336 26Z"  horiz-adv-x="717" vert-adv-y="1000"  />

      
      <glyph glyph-name="unid9" unicode="&#xd9;" d="M300-10Q201-10 143.50 40Q86 90 86 184Q86 201 88.50 220Q91 239 95 260L192 714L231 714L135 260Q127 219 127 186Q127 108 173.50 67Q220 26 302 26Q400 26 464.50 83Q529 140 554 256L652 714L692 714L594 250Q565 117 490 53.50Q415-10 300-10M468 790Q452 808 432 836.50Q412 865 395 893Q378 921 369 940L369 950L410 950Q420 925 434.50 897Q449 869 464 844Q479 819 491 802L491 790L468 790Z"  horiz-adv-x="689" vert-adv-y="1000"  />

      
      <glyph glyph-name="unida" unicode="&#xda;" d="M300-10Q201-10 143.50 40Q86 90 86 184Q86 201 88.50 220Q91 239 95 260L192 714L231 714L135 260Q127 219 127 186Q127 108 173.50 67Q220 26 302 26Q400 26 464.50 83Q529 140 554 256L652 714L692 714L594 250Q565 117 490 53.50Q415-10 300-10M410 797Q432 817 457.50 844.50Q483 872 506 900Q529 928 544 950L588 950L588 942Q571 921 546 893.50Q521 866 492.50 838.50Q464 811 438 790L410 790L410 797Z"  horiz-adv-x="689" vert-adv-y="1000"  />

      
      <glyph glyph-name="unidb" unicode="&#xdb;" d="M300-10Q201-10 143.50 40Q86 90 86 184Q86 201 88.50 220Q91 239 95 260L192 714L231 714L135 260Q127 219 127 186Q127 108 173.50 67Q220 26 302 26Q400 26 464.50 83Q529 140 554 256L652 714L692 714L594 250Q565 117 490 53.50Q415-10 300-10M317 797Q338 817 365 844Q392 871 417 898.50Q442 926 458 948L493 948Q500 926 513.50 898.50Q527 871 542.50 844.50Q558 818 571 797L570 790L544 790Q524 815 504.50 847.50Q485 880 470 908Q443 880 410 848Q377 816 347 790L316 790L317 797Z"  horiz-adv-x="689" vert-adv-y="1000"  />

      
      <glyph glyph-name="unidc" unicode="&#xdc;" d="M300-10Q201-10 143.50 40Q86 90 86 184Q86 201 88.50 220Q91 239 95 260L192 714L231 714L135 260Q127 219 127 186Q127 108 173.50 67Q220 26 302 26Q400 26 464.50 83Q529 140 554 256L652 714L692 714L594 250Q565 117 490 53.50Q415-10 300-10M545 828Q521 828 521 853Q521 868 528.50 882.50Q536 897 555 897Q579 897 579 872Q579 856 570.50 842Q562 828 545 828M368 828Q344 828 344 853Q344 868 352 882.50Q360 897 378 897Q402 897 402 872Q402 856 393.50 842Q385 828 368 828Z"  horiz-adv-x="689" vert-adv-y="1000"  />

      
      <glyph glyph-name="unidd" unicode="&#xdd;" d="M169 0L226 270L95 714L135 714L252 312L537 714L583 714L266 273L209 0L169 0M314 797Q336 817 361.50 844.50Q387 872 410 900Q433 928 448 950L492 950L492 942Q475 921 450 893.50Q425 866 396.50 838.50Q368 811 342 790L314 790L314 797Z"  horiz-adv-x="490" vert-adv-y="1000"  />

      
      <glyph glyph-name="unide" unicode="&#xde;" d="M48 0L199 714L239 714L211 584L328 584Q431 584 481.50 540Q532 496 532 417Q532 324 491.50 269.50Q451 215 382.50 192Q314 169 230 169L123 169L88 0L48 0M236 205Q307 205 365 224.50Q423 244 457.50 290Q492 336 492 415Q492 548 321 548L204 548L131 205L236 205Z"  horiz-adv-x="560" vert-adv-y="1000"  />

      
      <glyph glyph-name="unidf" unicode="&#xdf;" d="M-84-240Q-101-240-115-237Q-129-234-140-230L-140-194Q-128-200-113.50-202.50Q-99-205-85-205Q-48-205-24.50-179.50Q-1-154 9-106L151 564Q172 664 223.50 714.50Q275 765 366 765Q437 765 475 731Q513 697 513 645Q513 602 497.50 575.50Q482 549 458.50 531Q435 513 410 498Q379 479 354.50 456.50Q330 434 330 393Q330 365 352 344Q374 323 397 302Q426 277 448.50 245.50Q471 214 471 164Q471 85 423 37.50Q375-10 285-10Q240-10 209-1.50Q178 7 157 19L157 57Q183 43 215 34Q247 25 283 25Q354 25 392 60.50Q430 96 430 162Q430 201 413 226.50Q396 252 370 276Q340 303 316 328.50Q292 354 292 392Q292 429 306 452.50Q320 476 341 492Q362 508 386 522Q408 536 428 551Q448 566 460.50 588Q473 610 473 643Q473 681 444 705.50Q415 730 364 730Q288 730 246.50 686.50Q205 643 189 564L47-108Q20-240-84-240Z"  horiz-adv-x="542" vert-adv-y="1000"  />

      
      <glyph glyph-name="unie0" unicode="&#xe0;" d="M196-10Q126-10 88 40.50Q50 91 50 177Q50 241 67.50 305Q85 369 119 422Q153 475 203 507.50Q253 540 317 540Q362 540 390.50 520.50Q419 501 435 472.50Q451 444 457 416L460 416L488 530L519 530L407 0L375 0L400 131L397 131Q379 101 349 68Q319 35 280 12.50Q241-10 196-10M204 25Q248 25 293.50 56.50Q339 88 374.50 142.50Q410 197 425 264Q437 323 437 359Q437 428 405 466.50Q373 505 318 505Q264 505 221.50 476.50Q179 448 149.50 400Q120 352 105 294Q90 236 90 177Q90 106 118.50 65.50Q147 25 204 25M375 606Q359 624 339 652.50Q319 681 302 709Q285 737 276 756L276 766L317 766Q327 741 341.50 713Q356 685 371 660Q386 635 398 618L398 606L375 606Z"  horiz-adv-x="551" vert-adv-y="1000"  />

      
      <glyph glyph-name="unie1" unicode="&#xe1;" d="M196-10Q126-10 88 40.50Q50 91 50 177Q50 241 67.50 305Q85 369 119 422Q153 475 203 507.50Q253 540 317 540Q362 540 390.50 520.50Q419 501 435 472.50Q451 444 457 416L460 416L488 530L519 530L407 0L375 0L400 131L397 131Q379 101 349 68Q319 35 280 12.50Q241-10 196-10M204 25Q248 25 293.50 56.50Q339 88 374.50 142.50Q410 197 425 264Q437 323 437 359Q437 428 405 466.50Q373 505 318 505Q264 505 221.50 476.50Q179 448 149.50 400Q120 352 105 294Q90 236 90 177Q90 106 118.50 65.50Q147 25 204 25M307 613Q329 633 354.50 660.50Q380 688 403 716Q426 744 441 766L485 766L485 758Q468 737 443 709.50Q418 682 389.50 654.50Q361 627 335 606L307 606L307 613Z"  horiz-adv-x="551" vert-adv-y="1000"  />

      
      <glyph glyph-name="unie2" unicode="&#xe2;" d="M196-10Q126-10 88 40.50Q50 91 50 177Q50 241 67.50 305Q85 369 119 422Q153 475 203 507.50Q253 540 317 540Q362 540 390.50 520.50Q419 501 435 472.50Q451 444 457 416L460 416L488 530L519 530L407 0L375 0L400 131L397 131Q379 101 349 68Q319 35 280 12.50Q241-10 196-10M204 25Q248 25 293.50 56.50Q339 88 374.50 142.50Q410 197 425 264Q437 323 437 359Q437 428 405 466.50Q373 505 318 505Q264 505 221.50 476.50Q179 448 149.50 400Q120 352 105 294Q90 236 90 177Q90 106 118.50 65.50Q147 25 204 25M220 613Q241 633 268 660Q295 687 320 714.50Q345 742 361 764L396 764Q403 742 416.50 714.50Q430 687 445.50 660.50Q461 634 474 613L473 606L447 606Q427 631 407.50 663.50Q388 696 373 724Q346 696 313 664Q280 632 250 606L219 606L220 613Z"  horiz-adv-x="551" vert-adv-y="1000"  />

      
      <glyph glyph-name="unie3" unicode="&#xe3;" d="M196-10Q126-10 88 40.50Q50 91 50 177Q50 241 67.50 305Q85 369 119 422Q153 475 203 507.50Q253 540 317 540Q362 540 390.50 520.50Q419 501 435 472.50Q451 444 457 416L460 416L488 530L519 530L407 0L375 0L400 131L397 131Q379 101 349 68Q319 35 280 12.50Q241-10 196-10M204 25Q248 25 293.50 56.50Q339 88 374.50 142.50Q410 197 425 264Q437 323 437 359Q437 428 405 466.50Q373 505 318 505Q264 505 221.50 476.50Q179 448 149.50 400Q120 352 105 294Q90 236 90 177Q90 106 118.50 65.50Q147 25 204 25M181 616Q194 667 218 693.50Q242 720 282 720Q306 720 324.50 709Q343 698 359 684.50Q375 671 389.50 660.50Q404 650 420 650Q442 650 459 663.50Q476 677 490 720L522 720Q508 670 484 642.50Q460 615 418 615Q397 615 379.50 625.50Q362 636 346 650Q330 664 314 674.50Q298 685 280 685Q259 685 242.50 671Q226 657 213 616L181 616Z"  horiz-adv-x="551" vert-adv-y="1000"  />

      
      <glyph glyph-name="unie4" unicode="&#xe4;" d="M196-10Q126-10 88 40.50Q50 91 50 177Q50 241 67.50 305Q85 369 119 422Q153 475 203 507.50Q253 540 317 540Q362 540 390.50 520.50Q419 501 435 472.50Q451 444 457 416L460 416L488 530L519 530L407 0L375 0L400 131L397 131Q379 101 349 68Q319 35 280 12.50Q241-10 196-10M204 25Q248 25 293.50 56.50Q339 88 374.50 142.50Q410 197 425 264Q437 323 437 359Q437 428 405 466.50Q373 505 318 505Q264 505 221.50 476.50Q179 448 149.50 400Q120 352 105 294Q90 236 90 177Q90 106 118.50 65.50Q147 25 204 25M447 644Q423 644 423 669Q423 684 430.50 698.50Q438 713 457 713Q481 713 481 688Q481 672 472.50 658Q464 644 447 644M270 644Q246 644 246 669Q246 684 254 698.50Q262 713 280 713Q304 713 304 688Q304 672 295.50 658Q287 644 270 644Z"  horiz-adv-x="551" vert-adv-y="1000"  />

      
      <glyph glyph-name="unie5" unicode="&#xe5;" d="M196-10Q126-10 88 40.50Q50 91 50 177Q50 241 67.50 305Q85 369 119 422Q153 475 203 507.50Q253 540 317 540Q362 540 390.50 520.50Q419 501 435 472.50Q451 444 457 416L460 416L488 530L519 530L407 0L375 0L400 131L397 131Q379 101 349 68Q319 35 280 12.50Q241-10 196-10M204 25Q248 25 293.50 56.50Q339 88 374.50 142.50Q410 197 425 264Q437 323 437 359Q437 428 405 466.50Q373 505 318 505Q264 505 221.50 476.50Q179 448 149.50 400Q120 352 105 294Q90 236 90 177Q90 106 118.50 65.50Q147 25 204 25M354 610Q312 610 282 637.50Q252 665 252 711Q252 755 282.50 783.50Q313 812 354 812Q397 812 426.50 783Q456 754 456 711Q456 666 426.50 638Q397 610 354 610M354 639Q386 639 406 660Q426 681 426 711Q426 741 405 762Q384 783 354 783Q323 783 302.50 762Q282 741 282 711Q282 681 302 660Q322 639 354 639Z"  horiz-adv-x="551" vert-adv-y="1000"  />

      
      <glyph glyph-name="unie6" unicode="&#xe6;" d="M191-10Q125-10 87.50 40Q50 90 50 177Q50 241 67.50 305Q85 369 118.50 422Q152 475 200.50 507.50Q249 540 312 540Q355 540 380.50 519.50Q406 499 418.50 470.50Q431 442 435 416L438 416L467 530L497 530L472 417Q507 472 556.50 506Q606 540 675 540Q727 540 763.50 508Q800 476 800 424Q800 361 757.50 323Q715 285 641 268Q567 251 472 251L441 251Q440 240 439 225Q438 210 438 194Q438 115 477.50 70Q517 25 593 25Q633 25 667.50 36Q702 47 729 59L729 24Q702 9 664.50-0.50Q627-10 589-10Q524-10 475.50 23Q427 56 413 130L385 0L356 0L380 126L378 126Q359 93 332.50 61.50Q306 30 271 10Q236-10 191-10M487 285Q566 285 627.50 299.50Q689 314 724.50 344Q760 374 760 422Q760 456 737 480.50Q714 505 670 505Q621 505 575.50 479Q530 453 496 404Q462 355 447 285L487 285M199 25Q245 25 286.50 56.50Q328 88 359 142.50Q390 197 405 265Q411 296 414 318Q417 340 417 359Q417 428 389.50 466.50Q362 505 313 505Q261 505 219.50 476.50Q178 448 149.50 400Q121 352 105.50 294Q90 236 90 177Q90 105 118.50 65Q147 25 199 25Z"  horiz-adv-x="838" vert-adv-y="1000"  />

      
      <glyph glyph-name="unie7" unicode="&#xe7;" d="M247-10Q155-10 104.50 46.50Q54 103 54 193Q54 262 72.50 324.50Q91 387 127 435.50Q163 484 215 512Q267 540 334 540Q368 540 401 533.50Q434 527 459 515L447 480Q423 492 392.50 498.50Q362 505 334 505Q260 505 206 463Q152 421 122.50 350.50Q93 280 93 195Q93 123 133 74Q173 25 250 25Q285 25 315.50 33Q346 41 377 55L377 20Q352 7 320-1.50Q288-10 247-10M150-240Q117-240 97-234L97-205Q119-210 147-210Q168-210 189.50-203Q211-196 226-180Q241-164 241-138Q241-87 159-86L206 0L238 0L205-63Q236-67 256.50-86Q277-105 277-138Q277-186 239-213Q201-240 150-240Z"  horiz-adv-x="452" vert-adv-y="1000"  />

      
      <glyph glyph-name="unie8" unicode="&#xe8;" d="M245-10Q195-10 152.50 11.50Q110 33 84.50 78Q59 123 59 194Q59 264 79.50 326.50Q100 389 136.50 437Q173 485 222 512.50Q271 540 330 540Q389 540 424.50 507.50Q460 475 460 423Q460 361 417.50 323Q375 285 301 268Q227 251 133 251L102 251Q101 240 100 225Q99 210 99 194Q99 112 140 68.50Q181 25 252 25Q294 25 328 36Q362 47 390 59L390 23Q365 10 326.50 0Q288-10 245-10M148 285Q227 285 288.50 299.50Q350 314 385.50 344Q421 374 421 421Q421 457 397 481Q373 505 325 505Q280 505 236 479Q192 453 157.50 404Q123 355 108 285L148 285M344 606Q328 624 308 652.50Q288 681 271 709Q254 737 245 756L245 766L286 766Q296 741 310.50 713Q325 685 340 660Q355 635 367 618L367 606L344 606Z"  horiz-adv-x="493" vert-adv-y="1000"  />

      
      <glyph glyph-name="unie9" unicode="&#xe9;" d="M245-10Q195-10 152.50 11.50Q110 33 84.50 78Q59 123 59 194Q59 264 79.50 326.50Q100 389 136.50 437Q173 485 222 512.50Q271 540 330 540Q389 540 424.50 507.50Q460 475 460 423Q460 361 417.50 323Q375 285 301 268Q227 251 133 251L102 251Q101 240 100 225Q99 210 99 194Q99 112 140 68.50Q181 25 252 25Q294 25 328 36Q362 47 390 59L390 23Q365 10 326.50 0Q288-10 245-10M148 285Q227 285 288.50 299.50Q350 314 385.50 344Q421 374 421 421Q421 457 397 481Q373 505 325 505Q280 505 236 479Q192 453 157.50 404Q123 355 108 285L148 285M285 613Q307 633 332.50 660.50Q358 688 381 716Q404 744 419 766L463 766L463 758Q446 737 421 709.50Q396 682 367.50 654.50Q339 627 313 606L285 606L285 613Z"  horiz-adv-x="493" vert-adv-y="1000"  />

      
      <glyph glyph-name="uniea" unicode="&#xea;" d="M245-10Q195-10 152.50 11.50Q110 33 84.50 78Q59 123 59 194Q59 264 79.50 326.50Q100 389 136.50 437Q173 485 222 512.50Q271 540 330 540Q389 540 424.50 507.50Q460 475 460 423Q460 361 417.50 323Q375 285 301 268Q227 251 133 251L102 251Q101 240 100 225Q99 210 99 194Q99 112 140 68.50Q181 25 252 25Q294 25 328 36Q362 47 390 59L390 23Q365 10 326.50 0Q288-10 245-10M148 285Q227 285 288.50 299.50Q350 314 385.50 344Q421 374 421 421Q421 457 397 481Q373 505 325 505Q280 505 236 479Q192 453 157.50 404Q123 355 108 285L148 285M192 613Q213 633 240 660Q267 687 292 714.50Q317 742 333 764L368 764Q375 742 388.50 714.50Q402 687 417.50 660.50Q433 634 446 613L445 606L419 606Q399 631 379.50 663.50Q360 696 345 724Q318 696 285 664Q252 632 222 606L191 606L192 613Z"  horiz-adv-x="493" vert-adv-y="1000"  />

      
      <glyph glyph-name="unieb" unicode="&#xeb;" d="M245-10Q195-10 152.50 11.50Q110 33 84.50 78Q59 123 59 194Q59 264 79.50 326.50Q100 389 136.50 437Q173 485 222 512.50Q271 540 330 540Q389 540 424.50 507.50Q460 475 460 423Q460 361 417.50 323Q375 285 301 268Q227 251 133 251L102 251Q101 240 100 225Q99 210 99 194Q99 112 140 68.50Q181 25 252 25Q294 25 328 36Q362 47 390 59L390 23Q365 10 326.50 0Q288-10 245-10M148 285Q227 285 288.50 299.50Q350 314 385.50 344Q421 374 421 421Q421 457 397 481Q373 505 325 505Q280 505 236 479Q192 453 157.50 404Q123 355 108 285L148 285M417 644Q393 644 393 669Q393 684 400.50 698.50Q408 713 427 713Q451 713 451 688Q451 672 442.50 658Q434 644 417 644M240 644Q216 644 216 669Q216 684 224 698.50Q232 713 250 713Q274 713 274 688Q274 672 265.50 658Q257 644 240 644Z"  horiz-adv-x="493" vert-adv-y="1000"  />

      
      <glyph glyph-name="uniec" unicode="&#xec;" d="M31 0L144 530L182 530L70 0L31 0M192 606Q176 624 156 652.50Q136 681 119 709Q102 737 93 756L93 766L134 766Q144 741 158.50 713Q173 685 188 660Q203 635 215 618L215 606L192 606Z"  horiz-adv-x="217" vert-adv-y="1000"  />

      
      <glyph glyph-name="unied" unicode="&#xed;" d="M31 0L144 530L182 530L70 0L31 0M132 613Q154 633 179.50 660.50Q205 688 228 716Q251 744 266 766L310 766L310 758Q293 737 268 709.50Q243 682 214.50 654.50Q186 627 160 606L132 606L132 613Z"  horiz-adv-x="217" vert-adv-y="1000"  />

      
      <glyph glyph-name="uniee" unicode="&#xee;" d="M31 0L144 530L182 530L70 0L31 0M49 613Q70 633 97 660Q124 687 149 714.50Q174 742 190 764L225 764Q232 742 245.50 714.50Q259 687 274.50 660.50Q290 634 303 613L302 606L276 606Q256 631 236.50 663.50Q217 696 202 724Q175 696 142 664Q109 632 79 606L48 606L49 613Z"  horiz-adv-x="217" vert-adv-y="1000"  />

      
      <glyph glyph-name="unief" unicode="&#xef;" d="M31 0L144 530L182 530L70 0L31 0M272 644Q248 644 248 669Q248 684 255.50 698.50Q263 713 282 713Q306 713 306 688Q306 672 297.50 658Q289 644 272 644M95 644Q71 644 71 669Q71 684 79 698.50Q87 713 105 713Q129 713 129 688Q129 672 120.50 658Q112 644 95 644Z"  horiz-adv-x="217" vert-adv-y="1000"  />

      
      <glyph glyph-name="unif0" unicode="&#xf0;" d="M226-10Q171-10 131 15Q91 40 70 83.50Q49 127 49 182Q49 237 65 288Q81 339 113 379Q145 419 191 443Q237 467 296 467Q363 467 405.50 433.50Q448 400 461 354L464 354Q464 431 441.50 507.50Q419 584 375 643L242 568L227 596L354 666Q324 701 279 734L303 763Q326 745 347.50 725Q369 705 386 685L510 754L526 726L407 661Q444 607 471.50 530Q499 453 499 353Q499 283 482.50 218Q466 153 432.50 101.50Q399 50 347.50 20Q296-10 226-10M228 25Q287 25 336.50 57Q386 89 416 148Q446 207 446 286Q446 316 432 350Q418 384 385.50 408Q353 432 296 432Q230 432 183.50 397Q137 362 112.50 305.50Q88 249 88 183Q88 112 126.50 68.50Q165 25 228 25Z"  horiz-adv-x="555" vert-adv-y="1000"  />

      
      <glyph glyph-name="unif1" unicode="&#xf1;" d="M30 0L143 530L176 530L152 399L154 399Q171 429 200.50 462Q230 495 271.50 517.50Q313 540 364 540Q429 540 464.50 506.50Q500 473 500 409Q500 393 497.50 374.50Q495 356 491 339L419 0L379 0L452 343Q460 378 460 404Q460 455 432.50 479.50Q405 504 356 504Q305 504 258 472.50Q211 441 176 386.50Q141 332 127 265L70 0L30 0M183 616Q196 667 220 693.50Q244 720 284 720Q308 720 326.50 709Q345 698 361 684.50Q377 671 391.50 660.50Q406 650 422 650Q444 650 461 663.50Q478 677 492 720L524 720Q510 670 486 642.50Q462 615 420 615Q399 615 381.50 625.50Q364 636 348 650Q332 664 316 674.50Q300 685 282 685Q261 685 244.50 671Q228 657 215 616L183 616Z"  horiz-adv-x="558" vert-adv-y="1000"  />

      
      <glyph glyph-name="unif2" unicode="&#xf2;" d="M239-10Q147-10 100.50 46.50Q54 103 54 193Q54 294 89 372Q124 450 186 494.50Q248 539 328 539Q417 539 464 482.50Q511 426 511 338Q511 268 493 205.50Q475 143 440 94.50Q405 46 354.50 18Q304-10 239-10M243 25Q313 25 364.50 66.50Q416 108 443.50 179.50Q471 251 471 340Q471 410 435.50 457Q400 504 327 504Q260 504 207 465Q154 426 123.50 356Q93 286 93 193Q93 115 131 70Q169 25 243 25M357 606Q341 624 321 652.50Q301 681 284 709Q267 737 258 756L258 766L299 766Q309 741 323.50 713Q338 685 353 660Q368 635 380 618L380 606L357 606Z"  horiz-adv-x="565" vert-adv-y="1000"  />

      
      <glyph glyph-name="unif3" unicode="&#xf3;" d="M239-10Q147-10 100.50 46.50Q54 103 54 193Q54 294 89 372Q124 450 186 494.50Q248 539 328 539Q417 539 464 482.50Q511 426 511 338Q511 268 493 205.50Q475 143 440 94.50Q405 46 354.50 18Q304-10 239-10M243 25Q313 25 364.50 66.50Q416 108 443.50 179.50Q471 251 471 340Q471 410 435.50 457Q400 504 327 504Q260 504 207 465Q154 426 123.50 356Q93 286 93 193Q93 115 131 70Q169 25 243 25M304 613Q326 633 351.50 660.50Q377 688 400 716Q423 744 438 766L482 766L482 758Q465 737 440 709.50Q415 682 386.50 654.50Q358 627 332 606L304 606L304 613Z"  horiz-adv-x="565" vert-adv-y="1000"  />

      
      <glyph glyph-name="unif4" unicode="&#xf4;" d="M239-10Q147-10 100.50 46.50Q54 103 54 193Q54 294 89 372Q124 450 186 494.50Q248 539 328 539Q417 539 464 482.50Q511 426 511 338Q511 268 493 205.50Q475 143 440 94.50Q405 46 354.50 18Q304-10 239-10M243 25Q313 25 364.50 66.50Q416 108 443.50 179.50Q471 251 471 340Q471 410 435.50 457Q400 504 327 504Q260 504 207 465Q154 426 123.50 356Q93 286 93 193Q93 115 131 70Q169 25 243 25M208 613Q229 633 256 660Q283 687 308 714.50Q333 742 349 764L384 764Q391 742 404.50 714.50Q418 687 433.50 660.50Q449 634 462 613L461 606L435 606Q415 631 395.50 663.50Q376 696 361 724Q334 696 301 664Q268 632 238 606L207 606L208 613Z"  horiz-adv-x="565" vert-adv-y="1000"  />

      
      <glyph glyph-name="unif5" unicode="&#xf5;" d="M239-10Q147-10 100.50 46.50Q54 103 54 193Q54 294 89 372Q124 450 186 494.50Q248 539 328 539Q417 539 464 482.50Q511 426 511 338Q511 268 493 205.50Q475 143 440 94.50Q405 46 354.50 18Q304-10 239-10M243 25Q313 25 364.50 66.50Q416 108 443.50 179.50Q471 251 471 340Q471 410 435.50 457Q400 504 327 504Q260 504 207 465Q154 426 123.50 356Q93 286 93 193Q93 115 131 70Q169 25 243 25M183 616Q196 667 220 693.50Q244 720 284 720Q308 720 326.50 709Q345 698 361 684.50Q377 671 391.50 660.50Q406 650 422 650Q444 650 461 663.50Q478 677 492 720L524 720Q510 670 486 642.50Q462 615 420 615Q399 615 381.50 625.50Q364 636 348 650Q332 664 316 674.50Q300 685 282 685Q261 685 244.50 671Q228 657 215 616L183 616Z"  horiz-adv-x="565" vert-adv-y="1000"  />

      
      <glyph glyph-name="unif6" unicode="&#xf6;" d="M239-10Q147-10 100.50 46.50Q54 103 54 193Q54 294 89 372Q124 450 186 494.50Q248 539 328 539Q417 539 464 482.50Q511 426 511 338Q511 268 493 205.50Q475 143 440 94.50Q405 46 354.50 18Q304-10 239-10M243 25Q313 25 364.50 66.50Q416 108 443.50 179.50Q471 251 471 340Q471 410 435.50 457Q400 504 327 504Q260 504 207 465Q154 426 123.50 356Q93 286 93 193Q93 115 131 70Q169 25 243 25M442 644Q418 644 418 669Q418 684 425.50 698.50Q433 713 452 713Q476 713 476 688Q476 672 467.50 658Q459 644 442 644M265 644Q241 644 241 669Q241 684 249 698.50Q257 713 275 713Q299 713 299 688Q299 672 290.50 658Q282 644 265 644Z"  horiz-adv-x="565" vert-adv-y="1000"  />

      
      <glyph glyph-name="unif7" unicode="&#xf7;" d="M304 492Q288 492 280.50 502.50Q273 513 273 529Q273 546 280.50 556Q288 566 304 566Q323 566 330 556Q337 546 337 529Q337 513 330 502.50Q323 492 304 492M74 336L74 370L536 370L536 336L74 336M304 139Q288 139 280.50 149.50Q273 160 273 176Q273 193 280.50 203Q288 213 304 213Q323 213 330 203Q337 193 337 176Q337 160 330 149.50Q323 139 304 139Z"  horiz-adv-x="570" vert-adv-y="1000"  />

      
      <glyph glyph-name="unif8" unicode="&#xf8;" d="M28-31L3-8L81 75Q54 122 54 193Q54 294 89 372Q124 450 186 494.50Q248 539 328 539Q373 539 407 524Q441 509 464 482L536 558L562 536L484 456Q511 407 511 339Q511 270 493 207Q475 144 440 95.50Q405 47 354.50 18.50Q304-10 239-10Q192-10 158 5.50Q124 21 102 48L28-31M439 455Q422 477 393.50 490.50Q365 504 327 504Q260 504 207 465Q154 426 123.50 356.50Q93 287 93 194Q93 168 97 145Q101 122 109 105L439 455M243 25Q313 25 364.50 66.50Q416 108 444 179Q472 250 472 338Q472 389 456 424L126 75Q164 25 243 25Z"  horiz-adv-x="565" vert-adv-y="1000"  />

      
      <glyph glyph-name="unif9" unicode="&#xf9;" d="M190-10Q125-10 90 23.50Q55 57 55 121Q55 137 57.50 154.50Q60 172 64 191L135 530L174 530L101 186Q94 153 94 126Q94 74 121 49.50Q148 25 198 25Q249 25 296.50 56.50Q344 88 379 142.50Q414 197 428 264L485 530L523 530L411 0L378 0L403 131L400 131Q383 101 353.50 68Q324 35 282.50 12.50Q241-10 190-10M367 606Q351 624 331 652.50Q311 681 294 709Q277 737 268 756L268 766L309 766Q319 741 333.50 713Q348 685 363 660Q378 635 390 618L390 606L367 606Z"  horiz-adv-x="558" vert-adv-y="1000"  />

      
      <glyph glyph-name="unifa" unicode="&#xfa;" d="M190-10Q125-10 90 23.50Q55 57 55 121Q55 137 57.50 154.50Q60 172 64 191L135 530L174 530L101 186Q94 153 94 126Q94 74 121 49.50Q148 25 198 25Q249 25 296.50 56.50Q344 88 379 142.50Q414 197 428 264L485 530L523 530L411 0L378 0L403 131L400 131Q383 101 353.50 68Q324 35 282.50 12.50Q241-10 190-10M304 613Q326 633 351.50 660.50Q377 688 400 716Q423 744 438 766L482 766L482 758Q465 737 440 709.50Q415 682 386.50 654.50Q358 627 332 606L304 606L304 613Z"  horiz-adv-x="558" vert-adv-y="1000"  />

      
      <glyph glyph-name="unifb" unicode="&#xfb;" d="M190-10Q125-10 90 23.50Q55 57 55 121Q55 137 57.50 154.50Q60 172 64 191L135 530L174 530L101 186Q94 153 94 126Q94 74 121 49.50Q148 25 198 25Q249 25 296.50 56.50Q344 88 379 142.50Q414 197 428 264L485 530L523 530L411 0L378 0L403 131L400 131Q383 101 353.50 68Q324 35 282.50 12.50Q241-10 190-10M212 613Q233 633 260 660Q287 687 312 714.50Q337 742 353 764L388 764Q395 742 408.50 714.50Q422 687 437.50 660.50Q453 634 466 613L465 606L439 606Q419 631 399.50 663.50Q380 696 365 724Q338 696 305 664Q272 632 242 606L211 606L212 613Z"  horiz-adv-x="558" vert-adv-y="1000"  />

      
      <glyph glyph-name="unifc" unicode="&#xfc;" d="M190-10Q125-10 90 23.50Q55 57 55 121Q55 137 57.50 154.50Q60 172 64 191L135 530L174 530L101 186Q94 153 94 126Q94 74 121 49.50Q148 25 198 25Q249 25 296.50 56.50Q344 88 379 142.50Q414 197 428 264L485 530L523 530L411 0L378 0L403 131L400 131Q383 101 353.50 68Q324 35 282.50 12.50Q241-10 190-10M439 644Q415 644 415 669Q415 684 422.50 698.50Q430 713 449 713Q473 713 473 688Q473 672 464.50 658Q456 644 439 644M262 644Q238 644 238 669Q238 684 246 698.50Q254 713 272 713Q296 713 296 688Q296 672 287.50 658Q279 644 262 644Z"  horiz-adv-x="558" vert-adv-y="1000"  />

      
      <glyph glyph-name="unifd" unicode="&#xfd;" d="M-50-242Q-87-242-110-232L-110-197Q-98-202-84-205Q-70-208-50-208Q-13-208 16-180.50Q45-153 78-96L136 4L50 530L88 530L142 192Q150 145 154.50 106.50Q159 68 161 44L163 44Q174 66 193 104Q212 142 236 183L428 530L470 530L112-110Q76-174 38.50-208Q1-242-50-242M224 613Q246 633 271.50 660.50Q297 688 320 716Q343 744 358 766L402 766L402 758Q385 737 360 709.50Q335 682 306.50 654.50Q278 627 252 606L224 606L224 613Z"  horiz-adv-x="422" vert-adv-y="1000"  />

      
      <glyph glyph-name="unife" unicode="&#xfe;" d="M-18-234L192 760L231 760L186 551Q179 517 169.50 476Q160 435 150 399L153 399Q173 433 204 465.50Q235 498 275 518.50Q315 539 362 539Q433 539 474.50 488.50Q516 438 516 352Q516 289 499.50 225Q483 161 449 108Q415 55 364 22.50Q313-10 245-10Q198-10 166.50 8Q135 26 117 54Q99 82 93 113L90 113Q86 83 79.50 49Q73 15 67-14L20-234L-18-234M244 25Q302 25 345.50 54Q389 83 418 130.50Q447 178 462 236.50Q477 295 477 353Q477 424 444.50 464.50Q412 505 353 505Q304 505 257.50 474Q211 443 175 388Q139 333 123 262Q117 234 115 212Q113 190 113 170Q113 98 149 61.50Q185 25 244 25Z"  horiz-adv-x="570" vert-adv-y="1000"  />

      
      <glyph glyph-name="uniff" unicode="&#xff;" d="M-50-242Q-87-242-110-232L-110-197Q-98-202-84-205Q-70-208-50-208Q-13-208 16-180.50Q45-153 78-96L136 4L50 530L88 530L142 192Q150 145 154.50 106.50Q159 68 161 44L163 44Q174 66 193 104Q212 142 236 183L428 530L470 530L112-110Q76-174 38.50-208Q1-242-50-242M365 644Q341 644 341 669Q341 684 348.50 698.50Q356 713 375 713Q399 713 399 688Q399 672 390.50 658Q382 644 365 644M188 644Q164 644 164 669Q164 684 172 698.50Q180 713 198 713Q222 713 222 688Q222 672 213.50 658Q205 644 188 644Z"  horiz-adv-x="422" vert-adv-y="1000"  />

      
      <glyph glyph-name="uni0100" unicode="&#x0100;" d="M-51 0L360 716L399 716L501 0L463 0L425 261L142 261L-8 0L-51 0M162 297L420 297L383 565Q379 588 376 615.50Q373 643 371 669L369 669Q357 643 343 616.50Q329 590 314 564L162 297M264 796L271 831L519 831L512 796L264 796Z"  horiz-adv-x="550" vert-adv-y="1000"  />

      
      <glyph glyph-name="uni0101" unicode="&#x0101;" d="M196-10Q126-10 88 40.50Q50 91 50 177Q50 241 67.50 305Q85 369 119 422Q153 475 203 507.50Q253 540 317 540Q362 540 390.50 520.50Q419 501 435 472.50Q451 444 457 416L460 416L488 530L519 530L407 0L375 0L400 131L397 131Q379 101 349 68Q319 35 280 12.50Q241-10 196-10M204 25Q248 25 293.50 56.50Q339 88 374.50 142.50Q410 197 425 264Q437 323 437 359Q437 428 405 466.50Q373 505 318 505Q264 505 221.50 476.50Q179 448 149.50 400Q120 352 105 294Q90 236 90 177Q90 106 118.50 65.50Q147 25 204 25M223 612L230 647L478 647L471 612L223 612Z"  horiz-adv-x="551" vert-adv-y="1000"  />

      
      <glyph glyph-name="uni0102" unicode="&#x0102;" d="M-51 0L360 716L399 716L501 0L463 0L425 261L142 261L-8 0L-51 0M162 297L420 297L383 565Q379 588 376 615.50Q373 643 371 669L369 669Q357 643 343 616.50Q329 590 314 564L162 297M387 790Q340 790 310.50 815Q281 840 281 886Q281 898 283 906L314 906Q310 875 325.50 850Q341 825 389 825Q434 825 459 847Q484 869 495 906L527 906Q495 790 387 790Z"  horiz-adv-x="550" vert-adv-y="1000"  />

      
      <glyph glyph-name="uni0103" unicode="&#x0103;" d="M196-10Q126-10 88 40.50Q50 91 50 177Q50 241 67.50 305Q85 369 119 422Q153 475 203 507.50Q253 540 317 540Q362 540 390.50 520.50Q419 501 435 472.50Q451 444 457 416L460 416L488 530L519 530L407 0L375 0L400 131L397 131Q379 101 349 68Q319 35 280 12.50Q241-10 196-10M204 25Q248 25 293.50 56.50Q339 88 374.50 142.50Q410 197 425 264Q437 323 437 359Q437 428 405 466.50Q373 505 318 505Q264 505 221.50 476.50Q179 448 149.50 400Q120 352 105 294Q90 236 90 177Q90 106 118.50 65.50Q147 25 204 25M347 606Q300 606 270.50 631Q241 656 241 702Q241 714 243 722L274 722Q270 691 285.50 666Q301 641 349 641Q394 641 419 663Q444 685 455 722L487 722Q455 606 347 606Z"  horiz-adv-x="551" vert-adv-y="1000"  />

      
      <glyph glyph-name="uni0104" unicode="&#x0104;" d="M-51 0L360 716L399 716L501 0L463 0L425 261L142 261L-8 0L-51 0M162 297L420 297L383 565Q379 588 376 615.50Q373 643 371 669L369 669Q357 643 343 616.50Q329 590 314 564L162 297M421-217Q390-217 369-199Q348-181 348-147Q348-112 366.50-84Q385-56 413.50-33.50Q442-11 472 9L496 0Q473-16 447-37.50Q421-59 402.50-85Q384-111 384-143Q384-185 427-185Q440-185 451-183.50Q462-182 471-179L471-209Q461-212 448.50-214.50Q436-217 421-217Z"  horiz-adv-x="550" vert-adv-y="1000"  />

      
      <glyph glyph-name="uni0105" unicode="&#x0105;" d="M196-10Q126-10 88 40.50Q50 91 50 177Q50 241 67.50 305Q85 369 119 422Q153 475 203 507.50Q253 540 317 540Q362 540 390.50 520.50Q419 501 435 472.50Q451 444 457 416L460 416L488 530L519 530L407 0L375 0L400 131L397 131Q379 101 349 68Q319 35 280 12.50Q241-10 196-10M204 25Q248 25 293.50 56.50Q339 88 374.50 142.50Q410 197 425 264Q437 323 437 359Q437 428 405 466.50Q373 505 318 505Q264 505 221.50 476.50Q179 448 149.50 400Q120 352 105 294Q90 236 90 177Q90 106 118.50 65.50Q147 25 204 25M330-217Q299-217 278-199Q257-181 257-147Q257-112 275.50-84Q294-56 322.50-33.50Q351-11 381 9L405 0Q382-16 356-37.50Q330-59 311.50-85Q293-111 293-143Q293-185 336-185Q349-185 360-183.50Q371-182 380-179L380-209Q370-212 357.50-214.50Q345-217 330-217Z"  horiz-adv-x="551" vert-adv-y="1000"  />

      
      <glyph glyph-name="uni0106" unicode="&#x0106;" d="M326-10Q249-10 194.50 24Q140 58 111 120.50Q82 183 82 267Q82 365 110 448.50Q138 532 190 593.50Q242 655 313 689.50Q384 724 468 724Q562 724 633 686L616 651Q582 671 545 679.50Q508 688 468 688Q392 688 328.50 656.50Q265 625 218.50 568.50Q172 512 147 435.50Q122 359 122 269Q122 156 177.50 91Q233 26 330 26Q379 26 421.50 34.50Q464 43 500 55L500 21Q465 8 422-1Q379-10 326-10M412 797Q434 817 459.50 844.50Q485 872 508 900Q531 928 546 950L590 950L590 942Q573 921 548 893.50Q523 866 494.50 838.50Q466 811 440 790L412 790L412 797Z"  horiz-adv-x="593" vert-adv-y="1000"  />

      
      <glyph glyph-name="uni0107" unicode="&#x0107;" d="M247-10Q155-10 104.50 46.50Q54 103 54 193Q54 262 72.50 324.50Q91 387 127 435.50Q163 484 215 512Q267 540 334 540Q368 540 401 533.50Q434 527 459 515L447 480Q423 492 392.50 498.50Q362 505 334 505Q260 505 206 463Q152 421 122.50 350.50Q93 280 93 195Q93 123 133 74Q173 25 250 25Q285 25 315.50 33Q346 41 377 55L377 20Q352 7 320-1.50Q288-10 247-10M278 613Q300 633 325.50 660.50Q351 688 374 716Q397 744 412 766L456 766L456 758Q439 737 414 709.50Q389 682 360.50 654.50Q332 627 306 606L278 606L278 613Z"  horiz-adv-x="452" vert-adv-y="1000"  />

      
      <glyph glyph-name="uni0108" unicode="&#x0108;" d="M326-10Q249-10 194.50 24Q140 58 111 120.50Q82 183 82 267Q82 365 110 448.50Q138 532 190 593.50Q242 655 313 689.50Q384 724 468 724Q562 724 633 686L616 651Q582 671 545 679.50Q508 688 468 688Q392 688 328.50 656.50Q265 625 218.50 568.50Q172 512 147 435.50Q122 359 122 269Q122 156 177.50 91Q233 26 330 26Q379 26 421.50 34.50Q464 43 500 55L500 21Q465 8 422-1Q379-10 326-10M339 797Q360 817 387 844Q414 871 439 898.50Q464 926 480 948L515 948Q522 926 535.50 898.50Q549 871 564.50 844.50Q580 818 593 797L592 790L566 790Q546 815 526.50 847.50Q507 880 492 908Q465 880 432 848Q399 816 369 790L338 790L339 797Z"  horiz-adv-x="593" vert-adv-y="1000"  />

      
      <glyph glyph-name="uni0109" unicode="&#x0109;" d="M247-10Q155-10 104.50 46.50Q54 103 54 193Q54 262 72.50 324.50Q91 387 127 435.50Q163 484 215 512Q267 540 334 540Q368 540 401 533.50Q434 527 459 515L447 480Q423 492 392.50 498.50Q362 505 334 505Q260 505 206 463Q152 421 122.50 350.50Q93 280 93 195Q93 123 133 74Q173 25 250 25Q285 25 315.50 33Q346 41 377 55L377 20Q352 7 320-1.50Q288-10 247-10M193 613Q214 633 241 660Q268 687 293 714.50Q318 742 334 764L369 764Q376 742 389.50 714.50Q403 687 418.50 660.50Q434 634 447 613L446 606L420 606Q400 631 380.50 663.50Q361 696 346 724Q319 696 286 664Q253 632 223 606L192 606L193 613Z"  horiz-adv-x="452" vert-adv-y="1000"  />

      
      <glyph glyph-name="uni010A" unicode="&#x010A;" d="M326-10Q249-10 194.50 24Q140 58 111 120.50Q82 183 82 267Q82 365 110 448.50Q138 532 190 593.50Q242 655 313 689.50Q384 724 468 724Q562 724 633 686L616 651Q582 671 545 679.50Q508 688 468 688Q392 688 328.50 656.50Q265 625 218.50 568.50Q172 512 147 435.50Q122 359 122 269Q122 156 177.50 91Q233 26 330 26Q379 26 421.50 34.50Q464 43 500 55L500 21Q465 8 422-1Q379-10 326-10M483 836Q455 836 455 863Q455 879 464 893.50Q473 908 490 908Q505 908 511 900Q517 892 517 881Q517 864 507.50 850Q498 836 483 836Z"  horiz-adv-x="593" vert-adv-y="1000"  />

      
      <glyph glyph-name="uni010B" unicode="&#x010B;" d="M247-10Q155-10 104.50 46.50Q54 103 54 193Q54 262 72.50 324.50Q91 387 127 435.50Q163 484 215 512Q267 540 334 540Q368 540 401 533.50Q434 527 459 515L447 480Q423 492 392.50 498.50Q362 505 334 505Q260 505 206 463Q152 421 122.50 350.50Q93 280 93 195Q93 123 133 74Q173 25 250 25Q285 25 315.50 33Q346 41 377 55L377 20Q352 7 320-1.50Q288-10 247-10M336 652Q308 652 308 679Q308 695 317 709.50Q326 724 343 724Q358 724 364 716Q370 708 370 697Q370 680 360.50 666Q351 652 336 652Z"  horiz-adv-x="452" vert-adv-y="1000"  />

      
      <glyph glyph-name="uni010C" unicode="&#x010C;" d="M326-10Q249-10 194.50 24Q140 58 111 120.50Q82 183 82 267Q82 365 110 448.50Q138 532 190 593.50Q242 655 313 689.50Q384 724 468 724Q562 724 633 686L616 651Q582 671 545 679.50Q508 688 468 688Q392 688 328.50 656.50Q265 625 218.50 568.50Q172 512 147 435.50Q122 359 122 269Q122 156 177.50 91Q233 26 330 26Q379 26 421.50 34.50Q464 43 500 55L500 21Q465 8 422-1Q379-10 326-10M444 790Q437 812 423.50 839Q410 866 395 893Q380 920 366 940L368 948L393 948Q414 922 433 890Q452 858 467 830Q494 858 527.50 890Q561 922 591 948L621 948L620 940Q600 921 573 894Q546 867 520.50 839Q495 811 479 790L444 790Z"  horiz-adv-x="593" vert-adv-y="1000"  />

      
      <glyph glyph-name="uni010D" unicode="&#x010D;" d="M247-10Q155-10 104.50 46.50Q54 103 54 193Q54 262 72.50 324.50Q91 387 127 435.50Q163 484 215 512Q267 540 334 540Q368 540 401 533.50Q434 527 459 515L447 480Q423 492 392.50 498.50Q362 505 334 505Q260 505 206 463Q152 421 122.50 350.50Q93 280 93 195Q93 123 133 74Q173 25 250 25Q285 25 315.50 33Q346 41 377 55L377 20Q352 7 320-1.50Q288-10 247-10M314 606Q307 628 293.50 655Q280 682 265 709Q250 736 236 756L238 764L263 764Q284 738 303 706Q322 674 337 646Q364 674 397.50 706Q431 738 461 764L491 764L490 756Q470 737 443 710Q416 683 390.50 655Q365 627 349 606L314 606Z"  horiz-adv-x="452" vert-adv-y="1000"  />

      
      <glyph glyph-name="uni010E" unicode="&#x010E;" d="M48 0L199 714L349 714Q484 714 560.50 643Q637 572 637 426Q637 341 610 264.50Q583 188 529 128.50Q475 69 393 34.50Q311 0 200 0L48 0M202 36Q299 36 372.50 66.50Q446 97 496 151.50Q546 206 571 276.50Q596 347 596 426Q596 556 528.50 617Q461 678 339 678L232 678L95 36L202 36M418 790Q411 812 397.50 839Q384 866 369 893Q354 920 340 940L342 948L367 948Q388 922 407 890Q426 858 441 830Q468 858 501.50 890Q535 922 565 948L595 948L594 940Q574 921 547 894Q520 867 494.50 839Q469 811 453 790L418 790Z"  horiz-adv-x="675" vert-adv-y="1000"  />

      
      <glyph glyph-name="uni010F" unicode="&#x010F;" d="M604 607Q617 623 633.50 651Q650 679 665 709Q680 739 688 760L727 760L727 753Q714 719 685.50 675.50Q657 632 628 600L604 600L604 607M195-10Q121-10 83.50 40.50Q46 91 46 177Q46 240 63 304Q80 368 114 421.50Q148 475 199 507Q250 539 317 539Q365 539 396.50 520.50Q428 502 445.50 474Q463 446 469 416L472 416Q477 450 483.50 484.50Q490 519 497 552L541 760L579 760L418 0L386 0L411 132L408 132Q387 99 355.50 66Q324 33 284 11.50Q244-10 195-10M203 25Q248 25 291.50 51.50Q335 78 371 124.50Q407 171 428.50 231.50Q450 292 450 359Q450 431 414 468Q378 505 318 505Q261 505 217.50 476Q174 447 145 399Q116 351 101 293Q86 235 86 177Q86 104 115 64.50Q144 25 203 25Z"  horiz-adv-x="580" vert-adv-y="1000"  />

      
      <glyph glyph-name="uni0110" unicode="&#x0110;" d="M48 0L120 337L42 337L49 373L127 373L199 714L349 714Q484 714 560.50 643Q637 572 637 426Q637 341 610 264.50Q583 188 529 128.50Q475 69 393 34.50Q311 0 200 0L48 0M202 36Q299 36 372.50 66.50Q446 97 496 151.50Q546 206 571 276.50Q596 347 596 426Q596 556 528.50 617Q461 678 339 678L232 678L167 373L354 373L346 337L159 337L95 36L202 36Z"  horiz-adv-x="675" vert-adv-y="1000"  />

      
      <glyph glyph-name="uni0111" unicode="&#x0111;" d="M203-10Q133-10 91.50 40.50Q50 91 50 177Q50 240 67 304Q84 368 118 421.50Q152 475 202.50 507.50Q253 540 321 540Q368 540 400 522Q432 504 449.50 476Q467 448 473 417L476 417Q480 447 486.50 480.50Q493 514 499 543L516 625L302 625L309 658L524 658L545 760L583 760L562 658L634 658L627 625L554 625L422 0L390 0L415 131L412 131Q392 97 362 64.50Q332 32 292 11Q252-10 203-10M212 25Q260 25 303.50 52.50Q347 80 380.50 128Q414 176 433.50 236.50Q453 297 453 362Q453 433 417 469Q381 505 322 505Q264 505 221 476Q178 447 149 399Q120 351 105 293Q90 235 90 177Q90 106 122 65.50Q154 25 212 25Z"  horiz-adv-x="570" vert-adv-y="1000"  />

      
      <glyph glyph-name="uni0112" unicode="&#x0112;" d="M48 0L199 714L558 714L551 678L231 678L171 394L471 394L464 358L164 358L95 36L414 36L407 0L48 0M270 796L277 831L525 831L518 796L270 796Z"  horiz-adv-x="531" vert-adv-y="1000"  />

      
      <glyph glyph-name="uni0113" unicode="&#x0113;" d="M245-10Q195-10 152.50 11.50Q110 33 84.50 78Q59 123 59 194Q59 264 79.50 326.50Q100 389 136.50 437Q173 485 222 512.50Q271 540 330 540Q389 540 424.50 507.50Q460 475 460 423Q460 361 417.50 323Q375 285 301 268Q227 251 133 251L102 251Q101 240 100 225Q99 210 99 194Q99 112 140 68.50Q181 25 252 25Q294 25 328 36Q362 47 390 59L390 23Q365 10 326.50 0Q288-10 245-10M148 285Q227 285 288.50 299.50Q350 314 385.50 344Q421 374 421 421Q421 457 397 481Q373 505 325 505Q280 505 236 479Q192 453 157.50 404Q123 355 108 285L148 285M194 612L201 647L449 647L442 612L194 612Z"  horiz-adv-x="493" vert-adv-y="1000"  />

      
      <glyph glyph-name="uni0114" unicode="&#x0114;" d="M48 0L199 714L558 714L551 678L231 678L171 394L471 394L464 358L164 358L95 36L414 36L407 0L48 0M390 790Q343 790 313.50 815Q284 840 284 886Q284 898 286 906L317 906Q313 875 328.50 850Q344 825 392 825Q437 825 462 847Q487 869 498 906L530 906Q498 790 390 790Z"  horiz-adv-x="531" vert-adv-y="1000"  />

      
      </font>
</defs>
</svg>
