<?xml version="1.0" standalone="no"?>
  <!DOCTYPE svg PUBLIC "-//W3C//DTD SVG 1.1//EN" "http://www.w3.org/Graphics/SVG/1.1/DTD/svg11.dtd" >
  <svg>
  <metadata>
  Created by font-carrier
  </metadata>
  <defs>
  <font id="NotoSans-ExtraLight" horiz-adv-x="2840" vert-adv-y="2840" >
    <font-face
      
      font-family="Noto Sans ExtraLight"
      
      font-weight="400"
      
      font-stretch="normal"
      
      units-per-em="1000"
      
      ascent="1069"
      
      descent="-293"
      
    />
      <missing-glyph />

      

      
      <glyph glyph-name="uni21" unicode="&#x21;" d="M133 179L101 179L95 714L139 714L133 179M82 29Q82 46 90 57Q98 68 115 68Q134 68 141.50 57Q149 46 149 29Q149 12 141.50 1.50Q134-9 115-9Q98-9 90 1.50Q82 12 82 29Z"  horiz-adv-x="232" vert-adv-y="1000"  />

      
      <glyph glyph-name="uni22" unicode="&#x22;" d="M113 714L106 456L79 456L71 714L113 714M267 714L259 456L232 456L225 714L267 714Z"  horiz-adv-x="338" vert-adv-y="1000"  />

      
      <glyph glyph-name="uni23" unicode="&#x23;" d="M470 457L431 256L580 256L580 223L425 223L381 0L347 0L391 223L203 223L160 0L126 0L169 223L27 223L27 256L174 256L214 457L66 457L66 489L219 489L262 714L297 714L254 489L442 489L485 714L519 714L475 489L618 489L618 457L470 457M209 256L396 256L435 457L248 457L209 256Z"  horiz-adv-x="646" vert-adv-y="1000"  />

      
      <glyph glyph-name="uni24" unicode="&#x24;" d="M253 18Q192 19 145 27.50Q98 36 66 48L66 88Q100 74 149.50 64Q199 54 253 53L253 348Q199 367 156 389Q113 411 88.50 444.50Q64 478 64 530Q64 608 117.50 650.50Q171 693 253 697L253 759L285 759L285 698Q328 697 369 687.50Q410 678 450 661L436 627Q396 645 357.50 653Q319 661 285 662L285 375Q343 355 386.50 333Q430 311 454.50 278Q479 245 479 193Q479 111 425 67.50Q371 24 285 19L285-58L253-58L253 18M253 662Q188 659 145.50 627Q103 595 103 533Q103 491 123 464Q143 437 177 419.50Q211 402 253 387L253 662M285 55Q354 59 397 92.50Q440 126 440 192Q440 250 399.50 279.50Q359 309 285 336L285 55Z"  horiz-adv-x="570" vert-adv-y="1000"  />

      
      <glyph glyph-name="uni25" unicode="&#x25;" d="M197 724Q267 724 301 666.50Q335 609 335 501Q335 389 298.50 332.50Q262 276 195 276Q128 276 92.50 333.50Q57 391 57 501Q57 611 93.50 667.50Q130 724 197 724M618 714L222 0L184 0L580 714L618 714M197 691Q147 691 120 644Q93 597 93 501Q93 309 195 309Q247 309 273 358Q299 407 299 501Q299 594 274.50 642.50Q250 691 197 691M605 438Q675 438 709.50 380.50Q744 323 744 215Q744 103 707 46.50Q670-10 603-10Q536-10 500.50 47.50Q465 105 465 215Q465 325 502 381.50Q539 438 605 438M605 405Q555 405 528.50 358Q502 311 502 215Q502 23 603 23Q655 23 681 72Q707 121 707 215Q707 308 682.50 356.50Q658 405 605 405Z"  horiz-adv-x="801" vert-adv-y="1000"  />

      
      <glyph glyph-name="uni26" unicode="&#x26;" d="M304 725Q375 725 419 686Q463 647 463 579Q463 511 418 467.50Q373 424 298 387L531 153Q560 188 582.50 234Q605 280 617 334L657 334Q642 272 616.50 220.50Q591 169 556 126L680 0L628 0L531 101Q485 52 426.50 21Q368-10 280-10Q183-10 122 39Q61 88 61 180Q61 235 82 272.50Q103 310 142.50 338.50Q182 367 238 395Q190 444 162.50 483Q135 522 135 575Q135 643 181.50 684Q228 725 304 725M303 690Q243 690 208.50 659Q174 628 174 575Q174 531 199 495Q224 459 271 412Q344 445 384 483.50Q424 522 424 579Q424 631 391 660.50Q358 690 303 690M263 370Q211 344 175 319Q139 294 120 261.50Q101 229 101 181Q101 107 150.50 66.50Q200 26 281 26Q360 26 411.50 53Q463 80 506 125L263 370Z"  horiz-adv-x="708" vert-adv-y="1000"  />

      
      <glyph glyph-name="uni27" unicode="&#x27;" d="M113 714L106 456L79 456L71 714L113 714Z"  horiz-adv-x="183" vert-adv-y="1000"  />

      
      <glyph glyph-name="uni28" unicode="&#x28;" d="M42 274Q42 405 79.50 518Q117 631 187 714L230 714Q154 624 117.50 511.50Q81 399 81 275Q81 152 118.50 42Q156-68 230-158L187-158Q117-73 79.50 36Q42 145 42 274Z"  horiz-adv-x="264" vert-adv-y="1000"  />

      
      <glyph glyph-name="uni29" unicode="&#x29;" d="M223 280Q223 150 185.50 37Q148-76 78-158L35-158Q111-68 147.50 44Q184 156 184 280Q184 403 146.50 513.50Q109 624 35 714L78 714Q148 629 185.50 519.50Q223 410 223 280Z"  horiz-adv-x="264" vert-adv-y="1000"  />

      
      <glyph glyph-name="uni2a" unicode="&#x2a;" d="M294 758L285 555L479 621L488 581L295 533L418 371L383 347L273 518L166 348L129 371L252 533L58 581L68 621L261 555L252 758L294 758Z"  horiz-adv-x="551" vert-adv-y="1000"  />

      
      <glyph glyph-name="uni2b" unicode="&#x2b;" d="M302 370L516 370L516 336L302 336L302 121L268 121L268 336L54 336L54 370L268 370L268 585L302 585L302 370Z"  horiz-adv-x="570" vert-adv-y="1000"  />

      
      <glyph glyph-name="uni2c" unicode="&#x2c;" d="M139 104Q127 49 109-14Q91-77 69-129L39-129Q59-59 72 0.50Q85 60 93 116L135 116L139 104Z"  horiz-adv-x="200" vert-adv-y="1000"  />

      
      <glyph glyph-name="uni2d" unicode="&#x2d;" d="M40 253L40 289L282 289L282 253L40 253Z"  horiz-adv-x="322" vert-adv-y="1000"  />

      
      <glyph glyph-name="uni2e" unicode="&#x2e;" d="M82 29Q82 46 90 57Q98 68 115 68Q134 68 141.50 57Q149 46 149 29Q149 12 141.50 1.50Q134-9 115-9Q98-9 90 1.50Q82 12 82 29Z"  horiz-adv-x="230" vert-adv-y="1000"  />

      
      <glyph glyph-name="uni2f" unicode="&#x2f;" d="M320 714L52 0L12 0L280 714L320 714Z"  horiz-adv-x="332" vert-adv-y="1000"  />

      
      <glyph glyph-name="uni30" unicode="&#x30;" d="M510 360Q510 178 455 84Q400-10 285-10Q176-10 117.50 82Q59 174 59 360Q59 466 81 548.50Q103 631 153 678Q203 725 286 725Q370 725 419 679Q468 633 489 550.50Q510 468 510 360M99 360Q99 189 145 107Q191 25 285 25Q383 25 427 107.50Q471 190 471 360Q471 461 454.50 535Q438 609 398 649.50Q358 690 286 690Q215 690 174 648.50Q133 607 116 532.50Q99 458 99 360Z"  horiz-adv-x="570" vert-adv-y="1000"  />

      
      <glyph glyph-name="uni31" unicode="&#x31;" d="M327 0L289 0L289 550Q289 593 289 621.50Q289 650 291 672Q278 660 266 650.50Q254 641 235 627L121 542L99 570L294 714L327 714L327 0Z"  horiz-adv-x="570" vert-adv-y="1000"  />

      
      <glyph glyph-name="uni32" unicode="&#x32;" d="M497 0L57 0L57 33L273 260Q323 312 356.50 354.50Q390 397 407.50 440Q425 483 425 537Q425 609 383.50 649Q342 689 269 689Q177 689 97 624L75 652Q120 689 170.50 706.50Q221 724 269 724Q358 724 411.50 673Q465 622 465 538Q465 479 445.50 431.50Q426 384 390 339Q354 294 304 243L108 38L108 36L497 36L497 0Z"  horiz-adv-x="570" vert-adv-y="1000"  />

      
      <glyph glyph-name="uni33" unicode="&#x33;" d="M475 550Q475 479 432 433Q389 387 323 375L323 373Q407 362 452 318Q497 274 497 196Q497 106 433.50 48Q370-10 246-10Q187-10 136.50 1.50Q86 13 47 31L47 70Q86 51 139 38Q192 25 246 25Q352 25 404 71.50Q456 118 456 196Q456 282 395 317.50Q334 353 236 353L156 353L156 388L236 388Q290 388 335.50 405.50Q381 423 408 459Q435 495 435 549Q435 619 390.50 654Q346 689 273 689Q216 689 168.50 672Q121 655 74 621L54 650Q97 683 151.50 703.50Q206 724 273 724Q365 724 420 678Q475 632 475 550Z"  horiz-adv-x="570" vert-adv-y="1000"  />

      
      <glyph glyph-name="uni34" unicode="&#x34;" d="M558 188L430 188L430 0L392 0L392 188L24 188L24 217L390 718L430 718L430 223L558 223L558 188M392 512Q392 553 392.50 580Q393 607 393.50 628Q394 649 394 673L392 673Q376 648 364 629Q352 610 332 583L70 223L392 223L392 512Z"  horiz-adv-x="570" vert-adv-y="1000"  />

      
      <glyph glyph-name="uni35" unicode="&#x35;" d="M274 428Q382 428 444.50 374Q507 320 507 219Q507 148 475.50 96.50Q444 45 386.50 17.50Q329-10 252-10Q195-10 149.50 1.50Q104 13 72 31L72 72Q106 52 152.50 38.50Q199 25 252 25Q349 25 408 75.50Q467 126 467 217Q467 300 417 346.50Q367 393 268 393Q225 393 188.50 387.50Q152 382 118 372L94 390L124 714L463 714L463 678L157 678L134 410Q157 416 191.50 422Q226 428 274 428Z"  horiz-adv-x="570" vert-adv-y="1000"  />

      
      <glyph glyph-name="uni36" unicode="&#x36;" d="M65 303Q65 517 146 621.50Q227 726 370 726Q398 726 422.50 722.50Q447 719 466 713L466 677Q448 683 423.50 687Q399 691 370 691Q248 691 178 603.50Q108 516 103 330L106 330Q119 357 145.50 382.50Q172 408 212 424.50Q252 441 307 441Q405 441 460 383Q515 325 515 226Q515 156 489.50 102.50Q464 49 415.50 19.50Q367-10 299-10Q238-10 194 15.50Q150 41 121.50 85Q93 129 79 185Q65 241 65 303M299 25Q384 25 430 78Q476 131 476 226Q476 310 433 358.50Q390 407 303 407Q243 407 199.50 383Q156 359 132.50 324Q109 289 109 256Q109 226 117.50 186.50Q126 147 147.50 110Q169 73 205.50 49Q242 25 299 25Z"  horiz-adv-x="570" vert-adv-y="1000"  />

      
      <glyph glyph-name="uni37" unicode="&#x37;" d="M173 0L470 678L55 678L55 714L513 714L513 687L216 0L173 0Z"  horiz-adv-x="570" vert-adv-y="1000"  />

      
      <glyph glyph-name="uni38" unicode="&#x38;" d="M283 724Q374 724 428.50 680.50Q483 637 483 559Q483 494 439.50 452.50Q396 411 324 381Q408 351 457.50 304.50Q507 258 507 182Q507 121 477 78Q447 35 396 12.50Q345-10 281-10Q215-10 165.50 13Q116 36 88.50 78Q61 120 61 176Q61 256 110.50 303.50Q160 351 240 379Q197 397 161.50 420Q126 443 105 476.50Q84 510 84 558Q84 609 109.50 646Q135 683 180 703.50Q225 724 283 724M283 690Q213 690 168 655.50Q123 621 123 557Q123 495 168 459.50Q213 424 287 398Q363 429 403.50 465Q444 501 444 559Q444 624 401 657Q358 690 283 690M100 176Q100 107 149 65.50Q198 24 280 24Q363 24 415.50 64.50Q468 105 468 182Q468 244 425.50 284Q383 324 304 353L279 362Q228 344 187.50 320Q147 296 123.50 261Q100 226 100 176Z"  horiz-adv-x="570" vert-adv-y="1000"  />

      
      <glyph glyph-name="uni39" unicode="&#x39;" d="M504 412Q504 198 423.50 93Q343-12 199-12Q172-12 143-8.50Q114-5 95 1L95 38Q113 32 141 27.50Q169 23 199 23Q320 23 391 111.50Q462 200 466 385L463 385Q450 358 423 332Q396 306 355.50 289.50Q315 273 261 273Q163 273 108.50 331.50Q54 390 54 489Q54 559 80 612Q106 665 154.50 694.50Q203 724 271 724Q353 724 404.50 681Q456 638 480 567Q504 496 504 412M271 689Q186 689 139.50 636.50Q93 584 93 490Q93 405 136 356Q179 307 266 307Q326 307 369.50 331.50Q413 356 436.50 391Q460 426 460 460Q460 490 451.50 529Q443 568 422 604.50Q401 641 364 665Q327 689 271 689Z"  horiz-adv-x="570" vert-adv-y="1000"  />

      
      <glyph glyph-name="uni3a" unicode="&#x3a;" d="M82 497Q82 514 90 525Q98 536 115 536Q134 536 141.50 525Q149 514 149 497Q149 480 141.50 469.50Q134 459 115 459Q98 459 90 469.50Q82 480 82 497M82 29Q82 46 90 57Q98 68 115 68Q134 68 141.50 57Q149 46 149 29Q149 12 141.50 1.50Q134-9 115-9Q98-9 90 1.50Q82 12 82 29Z"  horiz-adv-x="230" vert-adv-y="1000"  />

      
      <glyph glyph-name="uni3b" unicode="&#x3b;" d="M82 497Q82 514 89.50 525Q97 536 114 536Q134 536 141.50 525Q149 514 149 497Q149 480 141.50 469.50Q134 459 114 459Q97 459 89.50 469.50Q82 480 82 497M137 104Q125 49 107-14Q89-77 68-129L37-129Q57-60 70 0Q83 60 92 116L133 116L137 104Z"  horiz-adv-x="230" vert-adv-y="1000"  />

      
      <glyph glyph-name="uni3c" unicode="&#x3c;" d="M515 134L55 347L55 371L515 590L515 554L102 360L515 170L515 134Z"  horiz-adv-x="570" vert-adv-y="1000"  />

      
      <glyph glyph-name="uni3d" unicode="&#x3d;" d="M55 438L55 471L515 471L515 438L55 438M55 235L55 268L515 268L515 235L55 235Z"  horiz-adv-x="570" vert-adv-y="1000"  />

      
      <glyph glyph-name="uni3e" unicode="&#x3e;" d="M55 170L468 360L55 554L55 590L515 371L515 347L55 134L55 170Z"  horiz-adv-x="570" vert-adv-y="1000"  />

      
      <glyph glyph-name="uni3f" unicode="&#x3f;" d="M143 195Q143 242 150 273Q157 304 175.50 327.50Q194 351 228 376Q264 403 290 427.50Q316 452 329 481Q342 510 342 553Q342 622 300.50 655Q259 688 191 688Q152 688 117.50 679.50Q83 671 47 653L33 688Q75 706 111.50 715Q148 724 192 724Q279 724 330 681Q381 638 381 553Q381 504 365 469.50Q349 435 320 407.50Q291 380 252 352Q224 331 208 310.50Q192 290 184.50 262.50Q177 235 177 193L177 179L143 179L143 195M130 29Q130 46 137.50 57Q145 68 162 68Q182 68 189 57Q196 46 196 29Q196 12 189 1.50Q182-9 162-9Q145-9 137.50 1.50Q130 12 130 29Z"  horiz-adv-x="417" vert-adv-y="1000"  />

      
      <glyph glyph-name="uni40" unicode="&#x40;" d="M829 352Q829 285 811.50 229.50Q794 174 759 140.50Q724 107 670 107Q624 107 596 134Q568 161 565 209L564 209Q542 156 501.50 131.50Q461 107 412 107Q338 107 298 153.50Q258 200 258 286Q258 351 284.50 401Q311 451 359 480Q407 509 470 509Q508 509 541.50 503.50Q575 498 603 488L595 331Q595 313 593.50 291Q592 269 592 248Q592 195 610.50 167.50Q629 140 671 140Q713 140 740 167.50Q767 195 780 243Q793 291 793 352Q793 450 755 522.50Q717 595 645 634.50Q573 674 470 674Q356 674 270.50 628Q185 582 137 494.50Q89 407 89 284Q89 175 128 97Q167 19 240.50-22.50Q314-64 418-64Q470-64 523-53.50Q576-43 623-23L623-59Q579-77 527.50-87.50Q476-98 418-98Q305-98 223-51.50Q141-5 97 80.50Q53 166 53 283Q53 417 105.50 512Q158 607 252 657.50Q346 708 470 708Q580 708 660.50 664.50Q741 621 785 541.50Q829 462 829 352M295 286Q295 215 325 177.50Q355 140 415 140Q549 140 559 317L567 462Q546 469 522.50 472.50Q499 476 470 476Q390 476 342.50 423.50Q295 371 295 286Z"  horiz-adv-x="882" vert-adv-y="1000"  />

      
      <glyph glyph-name="uni41" unicode="&#x41;" d="M548 0L448 261L143 261L41 0L0 0L281 716L318 716L589 0L548 0M330 578Q325 595 316 619.50Q307 644 298 670Q291 646 282 621.50Q273 597 265 578L157 297L434 297L330 578Z"  horiz-adv-x="590" vert-adv-y="1000"  />

      
      <glyph glyph-name="uni42" unicode="&#x42;" d="M295 714Q427 714 486.50 672Q546 630 546 541Q546 480 510 434.50Q474 389 406 377L406 375Q490 362 527.50 318Q565 274 565 203Q565 131 532.50 86.50Q500 42 443 21Q386 0 312 0L102 0L102 714L295 714M306 392Q409 392 457 429Q505 466 505 538Q505 613 455 645.50Q405 678 294 678L141 678L141 392L306 392M141 357L141 35L315 35Q416 35 470 76.50Q524 118 524 204Q524 289 467 323Q410 357 305 357L141 357Z"  horiz-adv-x="621" vert-adv-y="1000"  />

      
      <glyph glyph-name="uni43" unicode="&#x43;" d="M405 688Q309 688 241.50 646Q174 604 138.50 529.50Q103 455 103 359Q103 259 135 184Q167 109 230.50 67.50Q294 26 389 26Q445 26 489.50 34Q534 42 571 55L571 21Q536 7 491-1.50Q446-10 387-10Q280-10 208 36Q136 82 99.50 165.50Q63 249 63 360Q63 464 103.50 546.50Q144 629 220.50 676.50Q297 724 405 724Q505 724 587 686L571 651Q531 672 489 680Q447 688 405 688Z"  horiz-adv-x="618" vert-adv-y="1000"  />

      
      <glyph glyph-name="uni44" unicode="&#x44;" d="M636 364Q636 184 543 92Q450 0 265 0L102 0L102 714L288 714Q461 714 548.50 624.50Q636 535 636 364M596 363Q596 518 519 598Q442 678 277 678L141 678L141 36L265 36Q596 36 596 363Z"  horiz-adv-x="700" vert-adv-y="1000"  />

      
      <glyph glyph-name="uni45" unicode="&#x45;" d="M490 0L102 0L102 714L490 714L490 678L141 678L141 394L470 394L470 358L141 358L141 36L490 36L490 0Z"  horiz-adv-x="551" vert-adv-y="1000"  />

      
      <glyph glyph-name="uni46" unicode="&#x46;" d="M141 0L102 0L102 714L490 714L490 678L141 678L141 360L471 360L471 324L141 324L141 0Z"  horiz-adv-x="497" vert-adv-y="1000"  />

      
      <glyph glyph-name="uni47" unicode="&#x47;" d="M375 355L642 355L642 34Q592 12 534.50 1Q477-10 414-10Q242-10 152.50 85.50Q63 181 63 355Q63 462 106 545.50Q149 629 230.50 677.50Q312 726 425 726Q483 726 535 715Q587 704 634 682L617 646Q569 669 520.50 679.50Q472 690 424 690Q324 690 252 647Q180 604 141.50 528.50Q103 453 103 356Q103 186 187 106Q271 26 420 26Q476 26 521 34.50Q566 43 603 57L603 319L375 319L375 355Z"  horiz-adv-x="722" vert-adv-y="1000"  />

      
      <glyph glyph-name="uni48" unicode="&#x48;" d="M611 0L572 0L572 357L141 357L141 0L102 0L102 714L141 714L141 393L572 393L572 714L611 714L611 0Z"  horiz-adv-x="713" vert-adv-y="1000"  />

      
      <glyph glyph-name="uni49" unicode="&#x49;" d="M238 0L57 0L57 27L128 33L128 680L57 688L57 714L238 714L238 688L167 680L167 33L238 27L238 0Z"  horiz-adv-x="294" vert-adv-y="1000"  />

      
      <glyph glyph-name="uni4a" unicode="&#x4a;" d="M-16-177Q-43-177-62-173.50Q-81-170-94-165L-94-127Q-80-133-59.50-136.50Q-39-140-16-140Q49-140 76-101.50Q103-63 103 5L103 714L142 714L142 4Q142-76 105-126.50Q68-177-16-177Z"  horiz-adv-x="240" vert-adv-y="1000"  />

      
      <glyph glyph-name="uni4b" unicode="&#x4b;" d="M570 0L522 0L239 386L141 290L141 0L102 0L102 714L141 714L141 332Q156 349 172.50 366Q189 383 206 401L512 714L563 714L268 414L570 0Z"  horiz-adv-x="570" vert-adv-y="1000"  />

      
      <glyph glyph-name="uni4c" unicode="&#x4c;" d="M102 0L102 714L141 714L141 36L489 36L489 0L102 0Z"  horiz-adv-x="510" vert-adv-y="1000"  />

      
      <glyph glyph-name="uni4d" unicode="&#x4d;" d="M409 0L140 668L137 668Q138 642 138.50 617Q139 592 139 563L139 0L102 0L102 714L162 714L424 64L427 64L690 714L749 714L749 0L710 0L710 569Q710 591 710.50 616Q711 641 712 667L710 667L440 0L409 0Z"  horiz-adv-x="851" vert-adv-y="1000"  />

      
      <glyph glyph-name="uni4e" unicode="&#x4e;" d="M608 0L572 0L139 642L137 642Q138 601 138.50 562.50Q139 524 139 481L139 0L102 0L102 714L139 714L570 74L572 74Q572 108 571 151Q570 194 570 231L570 714L608 714L608 0Z"  horiz-adv-x="711" vert-adv-y="1000"  />

      
      <glyph glyph-name="uni4f" unicode="&#x4f;" d="M696 358Q696 250 661 167Q626 84 555.50 37Q485-10 379-10Q274-10 203.50 37Q133 84 98 167Q63 250 63 359Q63 467 99.50 549.50Q136 632 208 678.50Q280 725 384 725Q534 725 615 627.50Q696 530 696 358M103 359Q103 261 133 186Q163 111 224.50 68.50Q286 26 380 26Q474 26 535 68Q596 110 625.50 184.50Q655 259 655 358Q655 515 585.50 602Q516 689 384 689Q289 689 227 647Q165 605 134 530.50Q103 456 103 359Z"  horiz-adv-x="759" vert-adv-y="1000"  />

      
      <glyph glyph-name="uni50" unicode="&#x50;" d="M273 714Q397 714 460.50 666.50Q524 619 524 516Q524 405 455 352.50Q386 300 259 300L141 300L141 0L102 0L102 714L273 714M268 678L141 678L141 335L255 335Q325 335 376 351Q427 367 455 406.50Q483 446 483 514Q483 601 430.50 639.50Q378 678 268 678Z"  horiz-adv-x="580" vert-adv-y="1000"  />

      
      <glyph glyph-name="uni51" unicode="&#x51;" d="M696 358Q696 265 669.50 189Q643 113 590 63.50Q537 14 457-2L605-170L550-170L414-8Q405-9 396.50-9.50Q388-10 379-10Q274-10 203.50 37Q133 84 98 167Q63 250 63 359Q63 467 99.50 549.50Q136 632 208 678.50Q280 725 384 725Q534 725 615 627.50Q696 530 696 358M103 359Q103 261 133 186Q163 111 224.50 68.50Q286 26 380 26Q474 26 535 68Q596 110 625.50 184.50Q655 259 655 358Q655 515 585.50 602Q516 689 384 689Q289 689 227 647Q165 605 134 530.50Q103 456 103 359Z"  horiz-adv-x="759" vert-adv-y="1000"  />

      
      <glyph glyph-name="uni52" unicode="&#x52;" d="M269 714Q394 714 459 672.50Q524 631 524 522Q524 441 481 393.50Q438 346 366 326L562 0L515 0L327 315L141 315L141 0L102 0L102 714L269 714M264 678L141 678L141 350L292 350Q379 350 431 394.50Q483 439 483 521Q483 611 429 644.50Q375 678 264 678Z"  horiz-adv-x="586" vert-adv-y="1000"  />

      
      <glyph glyph-name="uni53" unicode="&#x53;" d="M492 182Q492 118 459.50 75.50Q427 33 372 11.50Q317-10 249-10Q182-10 136.50-1Q91 8 55 20L55 61Q94 46 143 36Q192 26 252 26Q308 26 353 42.50Q398 59 425 93.50Q452 128 452 181Q452 228 429.50 257Q407 286 364 306.50Q321 327 259 348Q201 367 156.50 390Q112 413 87.50 449Q63 485 63 544Q63 603 93.50 643Q124 683 175 703.50Q226 724 290 724Q389 724 474 686L459 652Q415 672 372.50 680Q330 688 288 688Q237 688 195 672.50Q153 657 128 625.50Q103 594 103 545Q103 494 126 464Q149 434 189.50 415.50Q230 397 283 379Q346 359 393 335.50Q440 312 466 276.50Q492 241 492 182Z"  horiz-adv-x="544" vert-adv-y="1000"  />

      
      <glyph glyph-name="uni54" unicode="&#x54;" d="M277 0L238 0L238 678L4 678L4 714L512 714L512 678L277 678L277 0Z"  horiz-adv-x="515" vert-adv-y="1000"  />

      
      <glyph glyph-name="uni55" unicode="&#x55;" d="M622 252Q622 123 550 56.50Q478-10 356-10Q231-10 162.50 58Q94 126 94 254L94 714L133 714L133 255Q133 142 191.50 84Q250 26 358 26Q463 26 523.50 82Q584 138 584 246L584 714L622 714L622 252Z"  horiz-adv-x="716" vert-adv-y="1000"  />

      
      <glyph glyph-name="uni56" unicode="&#x56;" d="M571 714L304 0L266 0L0 714L41 714L246 166Q258 134 268 104.50Q278 75 286 50Q293 75 302.50 102.50Q312 130 325 166L529 714L571 714Z"  horiz-adv-x="571" vert-adv-y="1000"  />

      
      <glyph glyph-name="uni57" unicode="&#x57;" d="M855 714L658 0L621 0L464 559Q456 590 449 613.50Q442 637 437 662Q433 639 428.50 619Q424 599 417 576L260 0L223 0L29 714L69 714L210 192Q220 153 228 123.50Q236 94 242 63Q249 94 256.50 124.50Q264 155 275 194L419 714L458 714L606 191Q618 150 625.50 120.50Q633 91 639 60Q645 92 651.50 121Q658 150 669 191L814 714L855 714Z"  horiz-adv-x="881" vert-adv-y="1000"  />

      
      <glyph glyph-name="uni58" unicode="&#x58;" d="M526 0L481 0L263 342L42 0L-2 0L239 370L21 714L66 714L265 399L464 714L508 714L288 371L526 0Z"  horiz-adv-x="525" vert-adv-y="1000"  />

      
      <glyph glyph-name="uni59" unicode="&#x59;" d="M259 314L474 714L517 714L279 275L279 0L240 0L240 271L0 714L44 714L259 314Z"  horiz-adv-x="517" vert-adv-y="1000"  />

      
      <glyph glyph-name="uni5a" unicode="&#x5a;" d="M537 0L36 0L36 28L474 678L61 678L61 714L525 714L525 686L88 36L537 36L537 0Z"  horiz-adv-x="577" vert-adv-y="1000"  />

      
      <glyph glyph-name="uni5b" unicode="&#x5b;" d="M291-158L86-158L86 714L291 714L291 679L124 679L124-123L291-123L291-158Z"  horiz-adv-x="316" vert-adv-y="1000"  />

      
      <glyph glyph-name="uni5c" unicode="&#x5c;" d="M52 714L320 0L280 0L12 714L52 714Z"  horiz-adv-x="332" vert-adv-y="1000"  />

      
      <glyph glyph-name="uni5d" unicode="&#x5d;" d="M25-123L192-123L192 679L25 679L25 714L230 714L230-158L25-158L25-123Z"  horiz-adv-x="316" vert-adv-y="1000"  />

      
      <glyph glyph-name="uni5e" unicode="&#x5e;" d="M44 276L276 719L304 719L526 276L487 276L289 674L83 276L44 276Z"  horiz-adv-x="570" vert-adv-y="1000"  />

      
      <glyph glyph-name="uni5f" unicode="&#x5f;" d="M404-124L-2-124L-2-91L404-91L404-124Z"  horiz-adv-x="402" vert-adv-y="1000"  />

      
      <glyph glyph-name="uni60" unicode="&#x60;" d="M85 766Q99 744 121.50 716Q144 688 169 660.50Q194 633 216 613L216 606L187 606Q161 627 133 654.50Q105 682 80.50 709.50Q56 737 40 758L40 766L85 766Z"  horiz-adv-x="256" vert-adv-y="1000"  />

      
      <glyph glyph-name="uni61" unicode="&#x61;" d="M269 539Q354 539 396.50 494.50Q439 450 439 353L439 0L408 0L401 98L399 98Q375 52 331.50 21Q288-10 209-10Q131-10 89.50 28Q48 66 48 133Q48 212 113.50 252.50Q179 293 300 299L400 305L400 345Q400 431 367 467.50Q334 504 268 504Q191 504 111 464L99 498Q137 516 180 527.50Q223 539 269 539M304 268Q202 263 145 231Q88 199 88 133Q88 81 121 52.50Q154 24 213 24Q307 24 353 77.50Q399 131 400 219L400 272L304 268Z"  horiz-adv-x="521" vert-adv-y="1000"  />

      
      <glyph glyph-name="uni62" unicode="&#x62;" d="M127 535Q127 509 126 475Q125 441 124 418L127 418Q145 471 194.50 505.50Q244 540 317 540Q421 540 476 470.50Q531 401 531 266Q531 187 506.50 124.50Q482 62 431.50 26Q381-10 304-10Q234-10 190.50 20.50Q147 51 128 97L125 97L119 0L88 0L88 760L127 760L127 535M314 505Q217 505 172 442Q127 379 127 265L127 256Q127 143 169 84Q211 25 301 25Q395 25 443 88Q491 151 491 267Q491 505 314 505Z"  horiz-adv-x="590" vert-adv-y="1000"  />

      
      <glyph glyph-name="uni63" unicode="&#x63;" d="M302-10Q220-10 166 24Q112 58 85 119.50Q58 181 58 262Q58 346 89.50 408.50Q121 471 179 505.50Q237 540 316 540Q353 540 384.50 533.50Q416 527 443 515L434 480Q405 492 374.50 498Q344 504 316 504Q248 504 199 474Q150 444 124 389.50Q98 335 98 262Q98 195 119.50 141.50Q141 88 186 56.50Q231 25 301 25Q339 25 374 32.50Q409 40 438 52L438 17Q413 5 378.50-2.50Q344-10 302-10Z"  horiz-adv-x="474" vert-adv-y="1000"  />

      
      <glyph glyph-name="uni64" unicode="&#x64;" d="M281-10Q170-10 114 58Q58 126 58 257Q58 394 118 467Q178 540 288 540Q358 540 401.50 506.50Q445 473 463 425L466 425Q464 454 463.50 484.50Q463 515 463 544L463 760L501 760L501 0L469 0L465 105L463 105Q444 58 400.50 24Q357-10 281-10M284 25Q381 25 422 86.50Q463 148 463 260L463 266Q463 382 421.50 443.50Q380 505 290 505Q197 505 147.50 442Q98 379 98 256Q98 141 144 83Q190 25 284 25Z"  horiz-adv-x="590" vert-adv-y="1000"  />

      
      <glyph glyph-name="uni65" unicode="&#x65;" d="M288 540Q356 540 399.50 507.50Q443 475 464.50 419.50Q486 364 486 294L486 263L98 263Q97 148 149.50 86.50Q202 25 300 25Q349 25 384.50 32.50Q420 40 465 61L465 23Q426 6 387.50-2Q349-10 299-10Q218-10 164.50 24Q111 58 84.50 119Q58 180 58 260Q58 337 84 400.50Q110 464 161 502Q212 540 288 540M288 505Q208 505 158 451.50Q108 398 99 297L446 297Q446 390 407 447.50Q368 505 288 505Z"  horiz-adv-x="545" vert-adv-y="1000"  />

      
      <glyph glyph-name="uni66" unicode="&#x66;" d="M273 496L151 496L151 0L112 0L112 496L12 496L12 522L112 530L112 596Q112 679 148 722Q184 765 262 765Q288 765 309 761Q330 757 349 752L341 717Q304 730 262 730Q203 730 177 699Q151 668 151 597L151 530L273 530L273 496Z"  horiz-adv-x="288" vert-adv-y="1000"  />

      
      <glyph glyph-name="uni67" unicode="&#x67;" d="M287 540Q356 540 396 513Q436 486 459 443L462 443L468 530L500 530L500-22Q500-121 448.50-180.50Q397-240 276-240Q216-240 170.50-229.50Q125-219 89-204L89-163Q125-181 173-193Q221-205 277-205Q376-205 418.50-155.50Q461-106 461-23L461 15Q461 40 461.50 61.50Q462 83 464 108L461 108Q441 50 393.50 20Q346-10 276-10Q174-10 116 58.50Q58 127 58 258Q58 388 116 464Q174 540 287 540M289 505Q192 505 145 439.50Q98 374 98 258Q98 144 144.50 84.50Q191 25 279 25Q352 25 391.50 56.50Q431 88 446.50 138.50Q462 189 462 246L462 289Q462 353 445.50 401.50Q429 450 391.50 477.50Q354 505 289 505Z"  horiz-adv-x="590" vert-adv-y="1000"  />

      
      <glyph glyph-name="uni68" unicode="&#x68;" d="M128 504Q128 482 127 464.50Q126 447 125 426L128 426Q146 472 192 505.50Q238 539 316 539Q403 539 451 492.50Q499 446 499 347L499 0L460 0L460 345Q460 428 422 466.50Q384 505 313 505Q226 505 177 453.50Q128 402 128 297L128 0L89 0L89 760L128 760L128 504Z"  horiz-adv-x="582" vert-adv-y="1000"  />

      
      <glyph glyph-name="uni69" unicode="&#x69;" d="M108 724Q127 724 133.50 714Q140 704 140 688Q140 672 133.50 662Q127 652 108 652Q92 652 85 662Q78 672 78 688Q78 704 85 714Q92 724 108 724M128 530L128 0L89 0L89 530L128 530Z"  horiz-adv-x="217" vert-adv-y="1000"  />

      
      <glyph glyph-name="uni6a" unicode="&#x6a;" d="M78 688Q78 704 85 714Q92 724 108 724Q127 724 133.50 714Q140 704 140 688Q140 672 133.50 662Q127 652 108 652Q92 652 85 662Q78 672 78 688M13-240Q-7-240-23-237Q-39-234-51-230L-51-194Q-36-201-20.50-203Q-5-205 11-205Q89-205 89-109L89 530L128 530L128-112Q128-176 95.50-208Q63-240 13-240Z"  horiz-adv-x="217" vert-adv-y="1000"  />

      
      <glyph glyph-name="uni6b" unicode="&#x6b;" d="M127 381Q127 339 127 299.50Q127 260 126 218L126 218Q141 236 155 252Q169 268 185 286L405 530L453 530L246 302L472 0L426 0L219 276L127 177L127 0L89 0L89 760L127 760L127 381Z"  horiz-adv-x="470" vert-adv-y="1000"  />

      
      <glyph glyph-name="uni6c" unicode="&#x6c;" d="M128 0L90 0L90 760L128 760L128 0Z"  horiz-adv-x="217" vert-adv-y="1000"  />

      
      <glyph glyph-name="uni6d" unicode="&#x6d;" d="M626 540Q698 540 742.50 496Q787 452 787 359L787 0L749 0L749 357Q749 434 713.50 469.50Q678 505 623 505Q547 505 502 461Q457 417 457 319L457 0L419 0L419 357Q419 434 383.50 469.50Q348 505 293 505Q221 505 174.50 460Q128 415 128 315L128 0L89 0L89 530L120 530L126 438L129 438Q140 464 161.50 487Q183 510 216 525Q249 540 296 540Q352 540 391.50 513Q431 486 446 434L448 434Q469 483 514 511.50Q559 540 626 540Z"  horiz-adv-x="869" vert-adv-y="1000"  />

      
      <glyph glyph-name="uni6e" unicode="&#x6e;" d="M316 540Q404 540 451.50 493Q499 446 499 347L499 0L460 0L460 345Q460 428 422 466.50Q384 505 313 505Q226 505 177 453.50Q128 402 128 297L128 0L89 0L89 530L120 530L126 426L129 426Q148 471 193.50 505.50Q239 540 316 540Z"  horiz-adv-x="582" vert-adv-y="1000"  />

      
      <glyph glyph-name="uni6f" unicode="&#x6f;" d="M522 265Q522 185 496.50 123Q471 61 419 25.50Q367-10 289-10Q214-10 162.50 25Q111 60 84.50 122Q58 184 58 265Q58 392 120.50 466Q183 540 294 540Q373 540 423 504Q473 468 497.50 406Q522 344 522 265M98 265Q98 158 145 91.50Q192 25 289 25Q356 25 399 55.50Q442 86 462 140Q482 194 482 265Q482 333 463 387Q444 441 402.50 473Q361 505 294 505Q199 505 148.50 441.50Q98 378 98 265Z"  horiz-adv-x="581" vert-adv-y="1000"  />

      
      <glyph glyph-name="uni70" unicode="&#x70;" d="M318 540Q422 540 477.50 471Q533 402 533 269Q533 135 474 62.50Q415-10 310-10Q235-10 190.50 24Q146 58 128 106L126 106Q127 76 127.50 44.50Q128 13 128-16L128-234L90-234L90 530L122 530L126 414L128 414Q140 447 165 475.50Q190 504 228 522Q266 540 318 540M315 505Q222 505 175.50 443.50Q129 382 128 269L128 263Q128 142 175 83.50Q222 25 308 25Q396 25 444.50 88Q493 151 493 269Q493 505 315 505Z"  horiz-adv-x="590" vert-adv-y="1000"  />

      
      <glyph glyph-name="uni71" unicode="&#x71;" d="M460 0Q460 23 461 56Q462 89 463 112L460 112Q442 59 392.50 24Q343-11 270-11Q166-11 111 59Q56 129 56 263Q56 342 80.50 404.50Q105 467 155.50 503.50Q206 540 283 540Q353 540 396.50 508.50Q440 477 459 432L461 432L467 530L499 530L499-234L460-234L460 0M273 24Q371 24 415.50 86.50Q460 149 461 262L461 273Q461 387 418.50 446Q376 505 286 505Q192 505 144 441.50Q96 378 96 263Q96 145 140 84.50Q184 24 273 24Z"  horiz-adv-x="590" vert-adv-y="1000"  />

      
      <glyph glyph-name="uni72" unicode="&#x72;" d="M290 538Q312 538 331 535.50Q350 533 367 528L360 492Q342 497 325.50 499.50Q309 502 288 502Q209 502 168.50 446Q128 390 128 295L128 0L90 0L90 530L124 530L127 429L130 429Q146 475 186.50 506.50Q227 538 290 538Z"  horiz-adv-x="383" vert-adv-y="1000"  />

      
      <glyph glyph-name="uni73" unicode="&#x73;" d="M416 137Q416 68 364.50 29Q313-10 214-10Q159-10 115 0Q71 10 42 24L42 64Q80 45 124 34.50Q168 24 215 24Q301 24 339 54Q377 84 377 135Q377 170 357.50 192Q338 214 303 229Q268 244 223 258Q175 274 137 289.50Q99 305 77 331.50Q55 358 55 406Q55 469 105.50 504.50Q156 540 241 540Q288 540 329 531Q370 522 403 508L388 474Q359 488 319 496.50Q279 505 240 505Q171 505 132.50 480.50Q94 456 94 407Q94 370 113 350Q132 330 165 317.50Q198 305 241 290Q287 275 326.50 258.50Q366 242 391 214Q416 186 416 137Z"  horiz-adv-x="462" vert-adv-y="1000"  />

      
      <glyph glyph-name="uni74" unicode="&#x74;" d="M223 25Q246 25 265.50 28Q285 31 301 37L301 4Q285-2 265-6Q245-10 220-10Q151-10 121 29Q91 68 91 143L91 496L11 496L11 522L91 531L103 659L130 659L130 530L298 530L298 496L130 496L130 146Q130 87 150.50 56Q171 25 223 25Z"  horiz-adv-x="328" vert-adv-y="1000"  />

      
      <glyph glyph-name="uni75" unicode="&#x75;" d="M492 530L492 0L460 0L454 103L452 103Q433 58 387.50 24Q342-10 264-10Q81-10 81 183L81 530L120 530L120 187Q120 103 158 64Q196 25 267 25Q354 25 403.50 76Q453 127 453 232L453 530L492 530Z"  horiz-adv-x="582" vert-adv-y="1000"  />

      
      <glyph glyph-name="uni76" unicode="&#x76;" d="M204 0L0 530L41 530L183 155Q196 122 205 95.50Q214 69 222 45L224 45Q232 69 241 95.50Q250 122 263 155L405 530L446 530L242 0L204 0Z"  horiz-adv-x="446" vert-adv-y="1000"  />

      
      <glyph glyph-name="uni77" unicode="&#x77;" d="M390 371Q381 400 374 424Q367 448 360 474L357 474Q351 448 343.50 423Q336 398 327 371L205-1L167-1L15 529L57 529L155 175Q168 130 174.50 102.50Q181 75 186 51L189 51Q195 75 202 102Q209 129 223 172L342 529L378 529L492 173Q503 135 512 105.50Q521 76 526 51L529 51Q532 75 539 103.50Q546 132 557 175L652 529L691 529L548-1L509-1L390 371Z"  horiz-adv-x="706" vert-adv-y="1000"  />

      
      <glyph glyph-name="uni78" unicode="&#x78;" d="M218 272L33 530L79 530L242 299L404 530L450 530L267 272L462 0L416 0L242 245L69 0L24 0L218 272Z"  horiz-adv-x="489" vert-adv-y="1000"  />

      
      <glyph glyph-name="uni79" unicode="&#x79;" d="M0 530L41 530L174 184Q191 138 203 104Q215 70 223 47L225 47Q232 69 244 103Q256 137 273 181L405 530L446 530L201-107Q175-174 142.50-208Q110-242 55-242Q25-242-3-233L-3-198Q11-202 23.50-205Q36-208 52-208Q92-208 117.50-182Q143-156 166-96L204 4L0 530Z"  horiz-adv-x="445" vert-adv-y="1000"  />

      
      <glyph glyph-name="uni7a" unicode="&#x7a;" d="M416 0L41 0L41 25L367 496L66 496L66 530L417 530L417 504L90 34L416 34L416 0Z"  horiz-adv-x="459" vert-adv-y="1000"  />

      
      <glyph glyph-name="uni7b" unicode="&#x7b;" d="M310-158Q226-158 182.50-122Q139-86 139-18L139 148Q139 208 112.50 234.50Q86 261 26 261L26 295Q86 295 112.50 320.50Q139 346 139 408L139 574Q139 642 183 678Q227 714 310 714L310 679Q242 679 210 652.50Q178 626 178 568L178 404Q178 353 158.50 320.50Q139 288 93 280L93 277Q139 268 158.50 235.50Q178 203 178 152L178-15Q178-71 210-97Q242-123 310-123L310-158Z"  horiz-adv-x="346" vert-adv-y="1000"  />

      
      <glyph glyph-name="uni7c" unicode="&#x7c;" d="M250 762L285 762L285-249L250-249L250 762Z"  horiz-adv-x="538" vert-adv-y="1000"  />

      
      <glyph glyph-name="uni7d" unicode="&#x7d;" d="M35-123Q102-123 134.50-97Q167-71 167-14L167 152Q167 203 186.50 235.50Q206 268 252 277L252 279Q205 288 186 320.50Q167 353 167 404L167 568Q167 626 135 652.50Q103 679 35 679L35 714Q119 714 162.50 678Q206 642 206 574L206 408Q206 346 232.50 320.50Q259 295 319 295L319 261Q259 261 232.50 234.50Q206 208 206 148L206-18Q206-86 162-122Q118-158 35-158L35-123Z"  horiz-adv-x="346" vert-adv-y="1000"  />

      
      <glyph glyph-name="uni7e" unicode="&#x7e;" d="M279 337Q251 351 227.50 359.50Q204 368 171 368Q142 368 112 354.50Q82 341 55 312L55 352Q78 375 108.50 388Q139 401 172 401Q212 401 238 392.50Q264 384 296 368Q325 355 348.50 346.50Q372 338 401 338Q429 338 458 350.50Q487 363 515 393L515 355Q496 333 466 319Q436 305 400 305Q366 305 339 313Q312 321 279 337Z"  horiz-adv-x="570" vert-adv-y="1000"  />

      
      <glyph glyph-name="unia1" unicode="&#xa1;" d="M149 500Q149 482 141.50 471.50Q134 461 116 461Q97 461 89.50 471.50Q82 482 82 500Q82 517 89.50 527.50Q97 538 116 538Q134 538 141.50 527.50Q149 517 149 500M99 349L130 349L137-185L93-185L99 349Z"  horiz-adv-x="232" vert-adv-y="1000"  />

      
      <glyph glyph-name="unia2" unicode="&#xa2;" d="M341 639Q380 639 411.50 633Q443 627 471 614L462 579Q433 592 402.50 598Q372 604 344 604Q241 604 183.50 537.50Q126 471 126 361Q126 293 147.50 239.50Q169 186 214 155.50Q259 125 330 125Q367 125 402 132.50Q437 140 466 152L466 116Q442 106 410.50 98Q379 90 341 89L341-10L307-10L307 90Q195 97 140.50 170.50Q86 244 86 361Q86 479 145 552.50Q204 626 307 637L307 724L341 724L341 639Z"  horiz-adv-x="570" vert-adv-y="1000"  />

      
      <glyph glyph-name="unia3" unicode="&#xa3;" d="M342 723Q391 723 428 714Q465 705 495 692L482 657Q449 671 416.50 679.50Q384 688 342 688Q269 688 233 646Q197 604 197 515L197 365L397 365L397 332L197 332L197 194Q197 126 174.50 89.50Q152 53 119 36L521 36L521 0L40 0L40 33Q97 44 127.50 82.50Q158 121 158 193L158 332L53 332L53 365L158 365L158 520Q158 620 206 671.50Q254 723 342 723Z"  horiz-adv-x="570" vert-adv-y="1000"  />

      
      <glyph glyph-name="unia4" unicode="&#xa4;" d="M85 354Q85 427 132 483L57 559L79 581L155 506Q182 530 215.50 542Q249 554 284 554Q319 554 353 542Q387 530 414 506L489 580L511 558L437 483Q484 427 484 354Q484 319 472 285.50Q460 252 437 224L512 149L489 126L414 202Q387 178 353 166Q319 154 284 154Q249 154 215.50 166Q182 178 155 202L79 127L58 149L132 224Q85 281 85 354M116 354Q116 306 139 267.50Q162 229 200 207Q238 185 284 185Q330 185 369 208Q408 231 430.50 269.50Q453 308 453 355Q453 401 430.50 439Q408 477 369.50 500Q331 523 285 523Q239 523 200.50 500Q162 477 139 439Q116 401 116 354Z"  horiz-adv-x="570" vert-adv-y="1000"  />

      
      <glyph glyph-name="unia5" unicode="&#xa5;" d="M286 342L504 714L547 714L316 326L475 326L475 293L305 293L305 188L475 188L475 155L305 155L305 0L267 0L267 155L96 155L96 188L267 188L267 293L96 293L96 326L254 326L23 714L66 714L286 342Z"  horiz-adv-x="570" vert-adv-y="1000"  />

      
      <glyph glyph-name="unia6" unicode="&#xa6;" d="M250 762L285 762L285 392L250 392L250 762M250 122L285 122L285-249L250-249L250 122Z"  horiz-adv-x="538" vert-adv-y="1000"  />

      
      <glyph glyph-name="unia7" unicode="&#xa7;" d="M79 395Q79 444 108 475Q137 506 181 522Q138 538 111 562.50Q84 587 84 634Q84 693 132 726.50Q180 760 264 760Q311 760 350 751.50Q389 743 421 730L407 697Q378 711 340.50 719Q303 727 263 727Q195 727 158.50 703.50Q122 680 122 634Q122 603 140 585.50Q158 568 190 556Q222 544 263 530Q308 516 346.50 499.50Q385 483 409 455.50Q433 428 433 381Q433 333 407.50 298.50Q382 264 344 245Q381 229 404.50 203.50Q428 178 428 134Q428 72 378.50 35Q329-2 232-2Q179-2 135.50 8Q92 18 64 31L64 70Q101 52 144 41.50Q187 31 233 31Q317 31 353.50 59.50Q390 88 390 133Q390 165 371.50 185Q353 205 319.50 219Q286 233 241 247Q195 262 158.50 278.50Q122 295 100.50 322Q79 349 79 395M115 397Q115 361 133 339.50Q151 318 183.50 304.50Q216 291 258 277L310 260Q348 276 372.50 306.50Q397 337 397 379Q397 430 353 457Q309 484 223 507Q178 495 146.50 469Q115 443 115 397Z"  horiz-adv-x="517" vert-adv-y="1000"  />

      
      <glyph glyph-name="unia8" unicode="&#xa8;" d="M166 679Q166 694 172.50 703.50Q179 713 194 713Q211 713 217 703.50Q223 694 223 679Q223 663 217 653.50Q211 644 194 644Q179 644 172.50 653.50Q166 663 166 679M351 679Q351 694 357.50 703.50Q364 713 379 713Q396 713 402 703.50Q408 694 408 679Q408 663 402 653.50Q396 644 379 644Q364 644 357.50 653.50Q351 663 351 679Z"  horiz-adv-x="576" vert-adv-y="1000"  />

      
      <glyph glyph-name="unia9" unicode="&#xa9;" d="M416-8Q336-8 269 20Q202 48 153 98Q104 148 77 214.50Q50 281 50 357Q50 435 78.50 502Q107 569 157.50 618.50Q208 668 274 695Q340 722 416 722Q495 722 562 693Q629 664 678.50 612.50Q728 561 755 495.50Q782 430 782 357Q782 281 754 214.50Q726 148 675.50 98Q625 48 558.50 20Q492-8 416-8M416 22Q487 22 548 48.50Q609 75 654.50 121.50Q700 168 725 228.50Q750 289 750 357Q750 425 725 485.50Q700 546 655 592.50Q610 639 549 665.50Q488 692 416 692Q345 692 284.50 666Q224 640 178.50 594.50Q133 549 107.50 488Q82 427 82 357Q82 289 106 228Q130 167 174.50 121Q219 75 280.50 48.50Q342 22 416 22M434 141Q341 141 286 195.50Q231 250 231 356Q231 422 257 470.50Q283 519 329.50 546.50Q376 574 438 574Q479 574 508.50 566.50Q538 559 564 547L549 516Q525 527 499 533.50Q473 540 438 540Q362 540 315 490.50Q268 441 268 356Q268 266 314.50 220Q361 174 435 174Q468 174 493.50 179Q519 184 548 195L548 163Q523 152 495.50 146.50Q468 141 434 141Z"  horiz-adv-x="832" vert-adv-y="1000"  />

      
      <glyph glyph-name="uniaa" unicode="&#xaa;" d="M171 722Q276 722 276 619L276 399L248 399L243 445Q230 424 204 409.50Q178 395 141 395Q94 395 66.50 417.50Q39 440 39 485Q39 533 77 557.50Q115 582 196 585L243 587L243 617Q243 656 223 674Q203 692 169 692Q143 692 120 685.50Q97 679 74 666L62 695Q85 707 113 714.50Q141 722 171 722M196 556Q132 553 103 537.50Q74 522 74 485Q74 425 145 425Q194 425 218.50 452Q243 479 243 526L243 558L196 556Z"  horiz-adv-x="329" vert-adv-y="1000"  />

      
      <glyph glyph-name="uniab" unicode="&#xab;" d="M29 282L184 472L210 455L72 276L210 97L184 81L29 269L29 282M204 282L359 472L385 455L247 276L385 97L359 81L204 269L204 282Z"  horiz-adv-x="413" vert-adv-y="1000"  />

      
      <glyph glyph-name="uniac" unicode="&#xac;" d="M502 370L502 131L469 131L469 336L54 336L54 370L502 370Z"  horiz-adv-x="570" vert-adv-y="1000"  />

      
      <glyph glyph-name="uniad" unicode="&#xad;" d="M40 253L40 289L282 289L282 253L40 253Z"  horiz-adv-x="322" vert-adv-y="1000"  />

      
      <glyph glyph-name="uniae" unicode="&#xae;" d="M416-8Q336-8 269 20Q202 48 153 98Q104 148 77 214.50Q50 281 50 357Q50 435 78.50 502Q107 569 157.50 618.50Q208 668 274 695Q340 722 416 722Q495 722 562 693Q629 664 678.50 612.50Q728 561 755 495.50Q782 430 782 357Q782 281 754 214.50Q726 148 675.50 98Q625 48 558.50 20Q492-8 416-8M416 22Q487 22 548 48.50Q609 75 654.50 121.50Q700 168 725 228.50Q750 289 750 357Q750 425 725 485.50Q700 546 655 592.50Q610 639 549 665.50Q488 692 416 692Q345 692 284.50 666Q224 640 178.50 594.50Q133 549 107.50 488Q82 427 82 357Q82 289 106 228Q130 167 174.50 121Q219 75 280.50 48.50Q342 22 416 22M294 142L294 570L414 570Q480 570 519 541Q558 512 558 448Q558 400 532 371Q506 342 468 330L582 142L539 142L432 321L330 321L330 142L294 142M411 351Q459 351 491 375Q523 399 523 448Q523 496 492.50 517Q462 538 412 538L329 538L329 351L411 351Z"  horiz-adv-x="832" vert-adv-y="1000"  />

      
      <glyph glyph-name="uniaf" unicode="&#xaf;" d="M503 760L-3 760L-3 793L503 793L503 760Z"  horiz-adv-x="500" vert-adv-y="1000"  />

      
      <glyph glyph-name="unib0" unicode="&#xb0;" d="M214 436Q152 436 110 475.50Q68 515 68 580Q68 645 109.50 684.50Q151 724 214 724Q277 724 318.50 684Q360 644 360 580Q360 515 318.50 475.50Q277 436 214 436M213 468Q264 468 295 499.50Q326 531 326 580Q326 631 294.50 661.50Q263 692 213 692Q162 692 132 661.50Q102 631 102 580Q102 531 132 499.50Q162 468 213 468Z"  horiz-adv-x="428" vert-adv-y="1000"  />

      
      <glyph glyph-name="unib1" unicode="&#xb1;" d="M302 370L516 370L516 337L302 337L302 121L268 121L268 337L54 337L54 370L268 370L268 586L302 586L302 370M54 0L54 34L516 34L516 0L54 0Z"  horiz-adv-x="570" vert-adv-y="1000"  />

      
      <glyph glyph-name="unib2" unicode="&#xb2;" d="M307 416L26 416L26 444L148 567Q203 623 232.50 659.50Q262 696 262 739Q262 776 238 799.50Q214 823 169 823Q138 823 111.50 812.50Q85 802 58 781L40 807Q68 830 100 842.50Q132 855 169 855Q230 855 263.50 822.50Q297 790 297 740Q297 705 282 676.50Q267 648 239 617.50Q211 587 172 548L74 449L307 449L307 416Z"  horiz-adv-x="332" vert-adv-y="1000"  />

      
      <glyph glyph-name="unib3" unicode="&#xb3;" d="M169 851Q228 851 262.50 823Q297 795 297 746Q297 704 275.50 677.50Q254 651 221 643L221 641Q262 632 284.50 606.50Q307 581 307 539Q307 479 266.50 445Q226 411 150 411Q115 411 83 418Q51 425 24 437L24 472Q55 458 86 450.50Q117 443 151 443Q210 443 240.50 468.50Q271 494 271 539Q271 624 153 624L88 624L88 655L153 655Q205 655 233 678.50Q261 702 261 745Q261 780 236.50 800Q212 820 169 820Q133 820 104 809.50Q75 799 47 782L32 809Q60 828 93.50 839.50Q127 851 169 851Z"  horiz-adv-x="332" vert-adv-y="1000"  />

      
      <glyph glyph-name="unib4" unicode="&#xb4;" d="M216 758Q199 737 174.50 709.50Q150 682 122 654.50Q94 627 69 606L40 606L40 613Q61 633 86 660.50Q111 688 133.50 716Q156 744 170 766L216 766L216 758Z"  horiz-adv-x="256" vert-adv-y="1000"  />

      
      <glyph glyph-name="unib5" unicode="&#xb5;" d="M499 530L499 0L466 0L461 90L458 90Q445 62 424 39.50Q403 17 369.50 3.50Q336-10 283-10Q223-10 184.50 10Q146 30 128 64L126 64Q126 44 126.50 19.50Q127-5 127-31L127-240L89-240L89 530L127 530L127 186Q127 25 284 25Q382 25 421.50 79Q461 133 461 233L461 530L499 530Z"  horiz-adv-x="589" vert-adv-y="1000"  />

      
      <glyph glyph-name="unib6" unicode="&#xb6;" d="M524-127L491-127L491 729L364 729L364-127L331-127L331 338Q299 329 260 329Q175 329 131 388.50Q87 448 87 547Q87 760 275 760L524 760L524-127Z"  horiz-adv-x="655" vert-adv-y="1000"  />

      
      <glyph glyph-name="unib7" unicode="&#xb7;" d="M82 322Q82 339 90 350Q98 361 115 361Q134 361 141.50 350Q149 339 149 322Q149 305 141.50 294.50Q134 284 115 284Q98 284 90 294.50Q82 305 82 322Z"  horiz-adv-x="230" vert-adv-y="1000"  />

      
      <glyph glyph-name="unib8" unicode="&#xb8;" d="M187-144Q187-188 153.50-214Q120-240 66-240Q32-240 11-234L11-204Q23-207 36-208.50Q49-210 67-210Q105-210 128.50-193.50Q152-177 152-145Q152-87 52-85L95 0L127 0L96-63Q137-66 162-86.50Q187-107 187-144Z"  horiz-adv-x="200" vert-adv-y="1000"  />

      
      <glyph glyph-name="unib9" unicode="&#xb9;" d="M203 844L203 416L167 416L167 695Q167 723 167.50 752.50Q168 782 169 808Q153 797 138 788Q123 779 101 768L53 740L37 767L172 844L203 844Z"  horiz-adv-x="332" vert-adv-y="1000"  />

      
      <glyph glyph-name="uniba" unicode="&#xba;" d="M323 559Q323 487 286.50 440Q250 393 179 393Q110 393 73 439Q36 485 36 559Q36 636 75 680Q114 724 182 724Q254 724 288.50 677Q323 630 323 559M70 559Q70 498 97 460.50Q124 423 179 423Q236 423 262.50 461Q289 499 289 559Q289 616 263.50 655Q238 694 182 694Q128 694 99 658.50Q70 623 70 559Z"  horiz-adv-x="357" vert-adv-y="1000"  />

      
      <glyph glyph-name="unibb" unicode="&#xbb;" d="M385 271L229 81L204 98L341 277L204 456L229 472L385 284L385 271M209 271L54 81L29 98L166 277L29 456L54 472L209 284L209 271Z"  horiz-adv-x="413" vert-adv-y="1000"  />

      
      <glyph glyph-name="unibc" unicode="&#xbc;" d="M143 0L528 714L565 714L180 0L143 0M150 565Q150 593 150.50 622.50Q151 652 152 678Q136 667 121 658Q106 649 84 638L36 610L20 637L154 714L185 714L185 286L150 286L150 565M592 0L592 124L390 124L390 149L590 431L627 431L627 155L699 155L699 124L627 124L627 0L592 0M430 155L592 155L592 305Q592 328 592.50 349.50Q593 371 593 391Q585 376 576 363Q567 350 557 334L430 155Z"  horiz-adv-x="708" vert-adv-y="1000"  />

      
      <glyph glyph-name="unibd" unicode="&#xbd;" d="M137 0L522 714L559 714L174 0L137 0M148 565Q148 593 148 622.50Q148 652 149 678Q134 667 118.50 658Q103 649 82 638L33 610L17 637L152 714L183 714L183 286L148 286L148 565M443 0L443 28L565 151Q620 207 649.50 243.50Q679 280 679 323Q679 360 655 383.50Q631 407 586 407Q555 407 528.50 396.50Q502 386 475 365L457 391Q485 414 517 426.50Q549 439 586 439Q647 439 680.50 406.50Q714 374 714 324Q714 289 699 260.50Q684 232 656 201.50Q628 171 589 132L491 33L724 33L724 0L443 0Z"  horiz-adv-x="749" vert-adv-y="1000"  />

      
      <glyph glyph-name="unibe" unicode="&#xbe;" d="M150 281Q114 281 82 288Q50 295 24 307L24 342Q55 328 86 320.50Q117 313 150 313Q210 313 240.50 338.50Q271 364 271 409Q271 494 152 494L87 494L87 525L152 525Q205 525 232.50 548.50Q260 572 260 615Q260 650 236 670Q212 690 169 690Q133 690 104 679.50Q75 669 47 652L31 679Q60 698 93.50 709.50Q127 721 169 721Q228 721 262 693Q296 665 296 616Q296 574 274.50 547.50Q253 521 221 513L221 511Q262 502 284.50 476.50Q307 451 307 409Q307 349 266 315Q225 281 150 281M199 0L584 714L622 714L237 0L199 0M647 0L647 124L445 124L445 149L645 431L682 431L682 155L754 155L754 124L682 124L682 0L647 0M485 155L647 155L647 305Q647 328 647.50 349.50Q648 371 649 391Q640 376 631 363Q622 350 612 334L485 155Z"  horiz-adv-x="763" vert-adv-y="1000"  />

      
      <glyph glyph-name="unibf" unicode="&#xbf;" d="M276 337Q276 290 269 259Q262 228 243.50 204.50Q225 181 191 156Q155 129 129 104.50Q103 80 90 51Q77 22 77-21Q77-90 118.50-123Q160-156 228-156Q267-156 301.50-147.50Q336-139 372-121L386-156Q344-174 307.50-183Q271-192 227-192Q140-192 89-149Q38-106 38-21Q38 28 54 62.50Q70 97 99 124.50Q128 152 167 180Q195 201 211 221.50Q227 242 234.50 269.50Q242 297 242 339L242 353L276 353L276 337M289 503Q289 486 281.50 475Q274 464 257 464Q237 464 230 475Q223 486 223 503Q223 520 230 530.50Q237 541 257 541Q274 541 281.50 530.50Q289 520 289 503Z"  horiz-adv-x="417" vert-adv-y="1000"  />

      
      <glyph glyph-name="unic0" unicode="&#xc0;" d="M548 0L448 261L143 261L41 0L0 0L281 716L318 716L589 0L548 0M330 578Q325 595 316 619.50Q307 644 298 670Q291 646 282 621.50Q273 597 265 578L157 297L434 297L330 578M219 950Q233 928 255.50 900Q278 872 303 844.50Q328 817 350 797L350 790L321 790Q295 811 267 838.50Q239 866 214.50 893.50Q190 921 174 942L174 950L219 950Z"  horiz-adv-x="590" vert-adv-y="1000"  />

      
      <glyph glyph-name="unic1" unicode="&#xc1;" d="M548 0L448 261L143 261L41 0L0 0L281 716L318 716L589 0L548 0M330 578Q325 595 316 619.50Q307 644 298 670Q291 646 282 621.50Q273 597 265 578L157 297L434 297L330 578M442 942Q425 921 400.50 893.50Q376 866 348 838.50Q320 811 295 790L266 790L266 797Q287 817 312 844.50Q337 872 359.50 900Q382 928 396 950L442 950L442 942Z"  horiz-adv-x="590" vert-adv-y="1000"  />

      
      <glyph glyph-name="unic2" unicode="&#xc2;" d="M548 0L448 261L143 261L41 0L0 0L281 716L318 716L589 0L548 0M330 578Q325 595 316 619.50Q307 644 298 670Q291 646 282 621.50Q273 597 265 578L157 297L434 297L330 578M317 948Q329 927 349.50 899.50Q370 872 392.50 844.50Q415 817 433 797L433 790L404 790Q377 815 349 847.50Q321 880 299 908Q277 880 248.50 847.50Q220 815 193 790L164 790L164 797Q183 817 205.50 844.50Q228 872 248.50 899.50Q269 927 281 948L317 948Z"  horiz-adv-x="590" vert-adv-y="1000"  />

      
      <glyph glyph-name="unic3" unicode="&#xc3;" d="M548 0L448 261L143 261L41 0L0 0L281 716L318 716L589 0L548 0M330 578Q325 595 316 619.50Q307 644 298 670Q291 646 282 621.50Q273 597 265 578L157 297L434 297L330 578M112 800Q116 851 140.50 877.50Q165 904 205 904Q229 904 248 893Q267 882 283.50 868Q300 854 316.50 843Q333 832 352 832Q375 832 392.50 846.50Q410 861 415 904L446 904Q441 853 415.50 826Q390 799 351 799Q326 799 307.50 810Q289 821 273 835Q257 849 240.50 859.50Q224 870 203 870Q182 870 164.50 855.50Q147 841 142 800L112 800Z"  horiz-adv-x="590" vert-adv-y="1000"  />

      
      <glyph glyph-name="unic4" unicode="&#xc4;" d="M548 0L448 261L143 261L41 0L0 0L281 716L318 716L589 0L548 0M330 578Q325 595 316 619.50Q307 644 298 670Q291 646 282 621.50Q273 597 265 578L157 297L434 297L330 578M177 863Q177 878 183.50 887.50Q190 897 205 897Q222 897 228 887.50Q234 878 234 863Q234 847 228 837.50Q222 828 205 828Q190 828 183.50 837.50Q177 847 177 863M362 863Q362 878 368.50 887.50Q375 897 390 897Q407 897 413 887.50Q419 878 419 863Q419 847 413 837.50Q407 828 390 828Q375 828 368.50 837.50Q362 847 362 863Z"  horiz-adv-x="590" vert-adv-y="1000"  />

      
      <glyph glyph-name="unic5" unicode="&#xc5;" d="M548 0L448 261L143 261L41 0L0 0L281 716L318 716L589 0L548 0M330 578Q325 595 316 619.50Q307 644 298 670Q291 646 282 621.50Q273 597 265 578L157 297L434 297L330 578M297 690Q254 690 224 717.50Q194 745 194 791Q194 835 224 863.50Q254 892 297 892Q339 892 369 863Q399 834 399 791Q399 746 369 718Q339 690 297 690M297 719Q329 719 349 740Q369 761 369 791Q369 822 347.50 842.50Q326 863 297 863Q265 863 244.50 842.50Q224 822 224 791Q224 761 244 740Q264 719 297 719Z"  horiz-adv-x="590" vert-adv-y="1000"  />

      
      <glyph glyph-name="unic6" unicode="&#xc6;" d="M764 0L382 0L382 260L155 260L43 0L-1 0L313 714L764 714L764 678L421 678L421 394L745 394L745 358L421 358L421 36L764 36L764 0M172 296L382 296L382 678L337 678L172 296Z"  horiz-adv-x="787" vert-adv-y="1000"  />

      
      <glyph glyph-name="unic7" unicode="&#xc7;" d="M405 688Q309 688 241.50 646Q174 604 138.50 529.50Q103 455 103 359Q103 259 135 184Q167 109 230.50 67.50Q294 26 389 26Q445 26 489.50 34Q534 42 571 55L571 21Q536 7 491-1.50Q446-10 387-10Q280-10 208 36Q136 82 99.50 165.50Q63 249 63 360Q63 464 103.50 546.50Q144 629 220.50 676.50Q297 724 405 724Q505 724 587 686L571 651Q531 672 489 680Q447 688 405 688M446-144Q446-188 412.50-214Q379-240 325-240Q291-240 270-234L270-204Q282-207 295-208.50Q308-210 326-210Q364-210 387.50-193.50Q411-177 411-145Q411-87 311-85L354 0L386 0L355-63Q396-66 421-86.50Q446-107 446-144Z"  horiz-adv-x="618" vert-adv-y="1000"  />

      
      <glyph glyph-name="unic8" unicode="&#xc8;" d="M490 0L102 0L102 714L490 714L490 678L141 678L141 394L470 394L470 358L141 358L141 36L490 36L490 0M229 950Q243 928 265.50 900Q288 872 313 844.50Q338 817 360 797L360 790L331 790Q305 811 277 838.50Q249 866 224.50 893.50Q200 921 184 942L184 950L229 950Z"  horiz-adv-x="551" vert-adv-y="1000"  />

      
      <glyph glyph-name="unic9" unicode="&#xc9;" d="M490 0L102 0L102 714L490 714L490 678L141 678L141 394L470 394L470 358L141 358L141 36L490 36L490 0M452 942Q435 921 410.50 893.50Q386 866 358 838.50Q330 811 305 790L276 790L276 797Q297 817 322 844.50Q347 872 369.50 900Q392 928 406 950L452 950L452 942Z"  horiz-adv-x="551" vert-adv-y="1000"  />

      
      <glyph glyph-name="unica" unicode="&#xca;" d="M490 0L102 0L102 714L490 714L490 678L141 678L141 394L470 394L470 358L141 358L141 36L490 36L490 0M327 948Q339 927 359.50 899.50Q380 872 402.50 844.50Q425 817 443 797L443 790L414 790Q387 815 359 847.50Q331 880 309 908Q287 880 258.50 847.50Q230 815 203 790L174 790L174 797Q193 817 215.50 844.50Q238 872 258.50 899.50Q279 927 291 948L327 948Z"  horiz-adv-x="551" vert-adv-y="1000"  />

      
      <glyph glyph-name="unicb" unicode="&#xcb;" d="M490 0L102 0L102 714L490 714L490 678L141 678L141 394L470 394L470 358L141 358L141 36L490 36L490 0M187 863Q187 878 193.50 887.50Q200 897 215 897Q232 897 238 887.50Q244 878 244 863Q244 847 238 837.50Q232 828 215 828Q200 828 193.50 837.50Q187 847 187 863M372 863Q372 878 378.50 887.50Q385 897 400 897Q417 897 423 887.50Q429 878 429 863Q429 847 423 837.50Q417 828 400 828Q385 828 378.50 837.50Q372 847 372 863Z"  horiz-adv-x="551" vert-adv-y="1000"  />

      
      <glyph glyph-name="unicc" unicode="&#xcc;" d="M238 0L57 0L57 27L128 33L128 680L57 688L57 714L238 714L238 688L167 680L167 33L238 27L238 0M68 950Q82 928 104.50 900Q127 872 152 844.50Q177 817 199 797L199 790L170 790Q144 811 116 838.50Q88 866 63.50 893.50Q39 921 23 942L23 950L68 950Z"  horiz-adv-x="294" vert-adv-y="1000"  />

      
      <glyph glyph-name="unicd" unicode="&#xcd;" d="M238 0L57 0L57 27L128 33L128 680L57 688L57 714L238 714L238 688L167 680L167 33L238 27L238 0M290 942Q273 921 248.50 893.50Q224 866 196 838.50Q168 811 143 790L114 790L114 797Q135 817 160 844.50Q185 872 207.50 900Q230 928 244 950L290 950L290 942Z"  horiz-adv-x="294" vert-adv-y="1000"  />

      
      <glyph glyph-name="unice" unicode="&#xce;" d="M238 0L57 0L57 27L128 33L128 680L57 688L57 714L238 714L238 688L167 680L167 33L238 27L238 0M165 948Q177 927 197.50 899.50Q218 872 240.50 844.50Q263 817 281 797L281 790L252 790Q225 815 197 847.50Q169 880 147 908Q125 880 96.50 847.50Q68 815 41 790L12 790L12 797Q31 817 53.50 844.50Q76 872 96.50 899.50Q117 927 129 948L165 948Z"  horiz-adv-x="294" vert-adv-y="1000"  />

      
      <glyph glyph-name="unicf" unicode="&#xcf;" d="M238 0L57 0L57 27L128 33L128 680L57 688L57 714L238 714L238 688L167 680L167 33L238 27L238 0M25 863Q25 878 31.50 887.50Q38 897 53 897Q70 897 76 887.50Q82 878 82 863Q82 847 76 837.50Q70 828 53 828Q38 828 31.50 837.50Q25 847 25 863M210 863Q210 878 216.50 887.50Q223 897 238 897Q255 897 261 887.50Q267 878 267 863Q267 847 261 837.50Q255 828 238 828Q223 828 216.50 837.50Q210 847 210 863Z"  horiz-adv-x="294" vert-adv-y="1000"  />

      
      <glyph glyph-name="unid0" unicode="&#xd0;" d="M288 714Q461 714 548.50 624.50Q636 535 636 364Q636 184 543 92Q450 0 265 0L103 0L103 337L20 337L20 373L103 373L103 714L288 714M277 678L142 678L142 373L343 373L343 337L142 337L142 36L265 36Q596 36 596 363Q596 518 519 598Q442 678 277 678Z"  horiz-adv-x="700" vert-adv-y="1000"  />

      
      <glyph glyph-name="unid1" unicode="&#xd1;" d="M608 0L572 0L139 642L137 642Q138 601 138.50 562.50Q139 524 139 481L139 0L102 0L102 714L139 714L570 74L572 74Q572 108 571 151Q570 194 570 231L570 714L608 714L608 0M185 800Q189 851 213.50 877.50Q238 904 278 904Q302 904 321 893Q340 882 356.50 868Q373 854 389.50 843Q406 832 425 832Q448 832 465.50 846.50Q483 861 488 904L519 904Q514 853 488.50 826Q463 799 424 799Q399 799 380.50 810Q362 821 346 835Q330 849 313.50 859.50Q297 870 276 870Q255 870 237.50 855.50Q220 841 215 800L185 800Z"  horiz-adv-x="711" vert-adv-y="1000"  />

      
      <glyph glyph-name="unid2" unicode="&#xd2;" d="M696 358Q696 250 661 167Q626 84 555.50 37Q485-10 379-10Q274-10 203.50 37Q133 84 98 167Q63 250 63 359Q63 467 99.50 549.50Q136 632 208 678.50Q280 725 384 725Q534 725 615 627.50Q696 530 696 358M103 359Q103 261 133 186Q163 111 224.50 68.50Q286 26 380 26Q474 26 535 68Q596 110 625.50 184.50Q655 259 655 358Q655 515 585.50 602Q516 689 384 689Q289 689 227 647Q165 605 134 530.50Q103 456 103 359M300 950Q314 928 336.50 900Q359 872 384 844.50Q409 817 431 797L431 790L402 790Q376 811 348 838.50Q320 866 295.50 893.50Q271 921 255 942L255 950L300 950Z"  horiz-adv-x="759" vert-adv-y="1000"  />

      
      <glyph glyph-name="unid3" unicode="&#xd3;" d="M696 358Q696 250 661 167Q626 84 555.50 37Q485-10 379-10Q274-10 203.50 37Q133 84 98 167Q63 250 63 359Q63 467 99.50 549.50Q136 632 208 678.50Q280 725 384 725Q534 725 615 627.50Q696 530 696 358M103 359Q103 261 133 186Q163 111 224.50 68.50Q286 26 380 26Q474 26 535 68Q596 110 625.50 184.50Q655 259 655 358Q655 515 585.50 602Q516 689 384 689Q289 689 227 647Q165 605 134 530.50Q103 456 103 359M523 942Q506 921 481.50 893.50Q457 866 429 838.50Q401 811 376 790L347 790L347 797Q368 817 393 844.50Q418 872 440.50 900Q463 928 477 950L523 950L523 942Z"  horiz-adv-x="759" vert-adv-y="1000"  />

      
      <glyph glyph-name="unid4" unicode="&#xd4;" d="M696 358Q696 250 661 167Q626 84 555.50 37Q485-10 379-10Q274-10 203.50 37Q133 84 98 167Q63 250 63 359Q63 467 99.50 549.50Q136 632 208 678.50Q280 725 384 725Q534 725 615 627.50Q696 530 696 358M103 359Q103 261 133 186Q163 111 224.50 68.50Q286 26 380 26Q474 26 535 68Q596 110 625.50 184.50Q655 259 655 358Q655 515 585.50 602Q516 689 384 689Q289 689 227 647Q165 605 134 530.50Q103 456 103 359M397 948Q409 927 429.50 899.50Q450 872 472.50 844.50Q495 817 513 797L513 790L484 790Q457 815 429 847.50Q401 880 379 908Q357 880 328.50 847.50Q300 815 273 790L244 790L244 797Q263 817 285.50 844.50Q308 872 328.50 899.50Q349 927 361 948L397 948Z"  horiz-adv-x="759" vert-adv-y="1000"  />

      
      <glyph glyph-name="unid5" unicode="&#xd5;" d="M696 358Q696 250 661 167Q626 84 555.50 37Q485-10 379-10Q274-10 203.50 37Q133 84 98 167Q63 250 63 359Q63 467 99.50 549.50Q136 632 208 678.50Q280 725 384 725Q534 725 615 627.50Q696 530 696 358M103 359Q103 261 133 186Q163 111 224.50 68.50Q286 26 380 26Q474 26 535 68Q596 110 625.50 184.50Q655 259 655 358Q655 515 585.50 602Q516 689 384 689Q289 689 227 647Q165 605 134 530.50Q103 456 103 359M193 800Q197 851 221.50 877.50Q246 904 286 904Q310 904 329 893Q348 882 364.50 868Q381 854 397.50 843Q414 832 433 832Q456 832 473.50 846.50Q491 861 496 904L527 904Q522 853 496.50 826Q471 799 432 799Q407 799 388.50 810Q370 821 354 835Q338 849 321.50 859.50Q305 870 284 870Q263 870 245.50 855.50Q228 841 223 800L193 800Z"  horiz-adv-x="759" vert-adv-y="1000"  />

      
      <glyph glyph-name="unid6" unicode="&#xd6;" d="M696 358Q696 250 661 167Q626 84 555.50 37Q485-10 379-10Q274-10 203.50 37Q133 84 98 167Q63 250 63 359Q63 467 99.50 549.50Q136 632 208 678.50Q280 725 384 725Q534 725 615 627.50Q696 530 696 358M103 359Q103 261 133 186Q163 111 224.50 68.50Q286 26 380 26Q474 26 535 68Q596 110 625.50 184.50Q655 259 655 358Q655 515 585.50 602Q516 689 384 689Q289 689 227 647Q165 605 134 530.50Q103 456 103 359M258 863Q258 878 264.50 887.50Q271 897 286 897Q303 897 309 887.50Q315 878 315 863Q315 847 309 837.50Q303 828 286 828Q271 828 264.50 837.50Q258 847 258 863M443 863Q443 878 449.50 887.50Q456 897 471 897Q488 897 494 887.50Q500 878 500 863Q500 847 494 837.50Q488 828 471 828Q456 828 449.50 837.50Q443 847 443 863Z"  horiz-adv-x="759" vert-adv-y="1000"  />

      
      <glyph glyph-name="unid7" unicode="&#xd7;" d="M477 568L500 545L309 353L500 161L477 138L285 329L94 138L70 161L261 353L70 544L94 568L285 377L477 568Z"  horiz-adv-x="570" vert-adv-y="1000"  />

      
      <glyph glyph-name="unid8" unicode="&#xd8;" d="M696 358Q696 250 661 167Q626 84 555.50 37Q485-10 379-10Q316-10 265.50 7.50Q215 25 178 58L116-27L87-7L152 81Q108 131 85.50 202Q63 273 63 359Q63 467 99.50 549.50Q136 632 208 678.50Q280 725 384 725Q443 725 491.50 709Q540 693 577 663L634 741L663 721L604 640Q648 593 672 521.50Q696 450 696 358M103 359Q103 283 121 220.50Q139 158 175 114L555 633Q523 660 480 674.50Q437 689 384 689Q289 689 227 647Q165 605 134 530.50Q103 456 103 359M655 358Q655 522 580 608L200 88Q233 59 278 42.50Q323 26 380 26Q474 26 535 68Q596 110 625.50 184.50Q655 259 655 358Z"  horiz-adv-x="759" vert-adv-y="1000"  />

      
      <glyph glyph-name="unid9" unicode="&#xd9;" d="M622 252Q622 123 550 56.50Q478-10 356-10Q231-10 162.50 58Q94 126 94 254L94 714L133 714L133 255Q133 142 191.50 84Q250 26 358 26Q463 26 523.50 82Q584 138 584 246L584 714L622 714L622 252M279 950Q293 928 315.50 900Q338 872 363 844.50Q388 817 410 797L410 790L381 790Q355 811 327 838.50Q299 866 274.50 893.50Q250 921 234 942L234 950L279 950Z"  horiz-adv-x="716" vert-adv-y="1000"  />

      
      <glyph glyph-name="unida" unicode="&#xda;" d="M622 252Q622 123 550 56.50Q478-10 356-10Q231-10 162.50 58Q94 126 94 254L94 714L133 714L133 255Q133 142 191.50 84Q250 26 358 26Q463 26 523.50 82Q584 138 584 246L584 714L622 714L622 252M501 942Q484 921 459.50 893.50Q435 866 407 838.50Q379 811 354 790L325 790L325 797Q346 817 371 844.50Q396 872 418.50 900Q441 928 455 950L501 950L501 942Z"  horiz-adv-x="716" vert-adv-y="1000"  />

      
      <glyph glyph-name="unidb" unicode="&#xdb;" d="M622 252Q622 123 550 56.50Q478-10 356-10Q231-10 162.50 58Q94 126 94 254L94 714L133 714L133 255Q133 142 191.50 84Q250 26 358 26Q463 26 523.50 82Q584 138 584 246L584 714L622 714L622 252M376 948Q388 927 408.50 899.50Q429 872 451.50 844.50Q474 817 492 797L492 790L463 790Q436 815 408 847.50Q380 880 358 908Q336 880 307.50 847.50Q279 815 252 790L223 790L223 797Q242 817 264.50 844.50Q287 872 307.50 899.50Q328 927 340 948L376 948Z"  horiz-adv-x="716" vert-adv-y="1000"  />

      
      <glyph glyph-name="unidc" unicode="&#xdc;" d="M622 252Q622 123 550 56.50Q478-10 356-10Q231-10 162.50 58Q94 126 94 254L94 714L133 714L133 255Q133 142 191.50 84Q250 26 358 26Q463 26 523.50 82Q584 138 584 246L584 714L622 714L622 252M237 863Q237 878 243.50 887.50Q250 897 265 897Q282 897 288 887.50Q294 878 294 863Q294 847 288 837.50Q282 828 265 828Q250 828 243.50 837.50Q237 847 237 863M422 863Q422 878 428.50 887.50Q435 897 450 897Q467 897 473 887.50Q479 878 479 863Q479 847 473 837.50Q467 828 450 828Q435 828 428.50 837.50Q422 847 422 863Z"  horiz-adv-x="716" vert-adv-y="1000"  />

      
      <glyph glyph-name="unidd" unicode="&#xdd;" d="M259 314L474 714L517 714L279 275L279 0L240 0L240 271L0 714L44 714L259 314M402 942Q385 921 360.50 893.50Q336 866 308 838.50Q280 811 255 790L226 790L226 797Q247 817 272 844.50Q297 872 319.50 900Q342 928 356 950L402 950L402 942Z"  horiz-adv-x="517" vert-adv-y="1000"  />

      
      <glyph glyph-name="unide" unicode="&#xde;" d="M525 382Q525 276 456.50 222.50Q388 169 258 169L141 169L141 0L102 0L102 714L141 714L141 584L281 584Q405 584 465 535Q525 486 525 382M253 205Q325 205 377 221.50Q429 238 457 276.50Q485 315 485 381Q485 469 434.50 508.50Q384 548 274 548L141 548L141 205L253 205Z"  horiz-adv-x="580" vert-adv-y="1000"  />

      
      <glyph glyph-name="unidf" unicode="&#xdf;" d="M456 632Q456 595 442 571.50Q428 548 407.50 531.50Q387 515 366.50 500Q346 485 332 466Q318 447 318 418Q318 382 341.50 359.50Q365 337 411 306Q441 286 465.50 264.50Q490 243 505 213Q520 183 520 138Q520 74 476.50 32Q433-10 350-10Q303-10 271.50-1.50Q240 7 214 18L214 57Q245 42 278 33Q311 24 349 24Q415 24 448 55Q481 86 481 137Q481 190 455 220Q429 250 387 279Q355 301 331 320Q307 339 293 362Q279 385 279 417Q279 452 293 474Q307 496 327.50 512Q348 528 368.50 543Q389 558 402.50 578.50Q416 599 416 631Q416 678 382.50 704Q349 730 287 730Q127 730 127 567L127 0L88 0L88 567Q88 665 140.50 715Q193 765 287 765Q367 765 411.50 729Q456 693 456 632Z"  horiz-adv-x="570" vert-adv-y="1000"  />

      
      <glyph glyph-name="unie0" unicode="&#xe0;" d="M269 539Q354 539 396.50 494.50Q439 450 439 353L439 0L408 0L401 98L399 98Q375 52 331.50 21Q288-10 209-10Q131-10 89.50 28Q48 66 48 133Q48 212 113.50 252.50Q179 293 300 299L400 305L400 345Q400 431 367 467.50Q334 504 268 504Q191 504 111 464L99 498Q137 516 180 527.50Q223 539 269 539M304 268Q202 263 145 231Q88 199 88 133Q88 81 121 52.50Q154 24 213 24Q307 24 353 77.50Q399 131 400 219L400 272L304 268M177 766Q191 744 213.50 716Q236 688 261 660.50Q286 633 308 613L308 606L279 606Q253 627 225 654.50Q197 682 172.50 709.50Q148 737 132 758L132 766L177 766Z"  horiz-adv-x="521" vert-adv-y="1000"  />

      
      <glyph glyph-name="unie1" unicode="&#xe1;" d="M269 539Q354 539 396.50 494.50Q439 450 439 353L439 0L408 0L401 98L399 98Q375 52 331.50 21Q288-10 209-10Q131-10 89.50 28Q48 66 48 133Q48 212 113.50 252.50Q179 293 300 299L400 305L400 345Q400 431 367 467.50Q334 504 268 504Q191 504 111 464L99 498Q137 516 180 527.50Q223 539 269 539M304 268Q202 263 145 231Q88 199 88 133Q88 81 121 52.50Q154 24 213 24Q307 24 353 77.50Q399 131 400 219L400 272L304 268M400 758Q383 737 358.50 709.50Q334 682 306 654.50Q278 627 253 606L224 606L224 613Q245 633 270 660.50Q295 688 317.50 716Q340 744 354 766L400 766L400 758Z"  horiz-adv-x="521" vert-adv-y="1000"  />

      
      <glyph glyph-name="unie2" unicode="&#xe2;" d="M269 539Q354 539 396.50 494.50Q439 450 439 353L439 0L408 0L401 98L399 98Q375 52 331.50 21Q288-10 209-10Q131-10 89.50 28Q48 66 48 133Q48 212 113.50 252.50Q179 293 300 299L400 305L400 345Q400 431 367 467.50Q334 504 268 504Q191 504 111 464L99 498Q137 516 180 527.50Q223 539 269 539M304 268Q202 263 145 231Q88 199 88 133Q88 81 121 52.50Q154 24 213 24Q307 24 353 77.50Q399 131 400 219L400 272L304 268M274 764Q286 743 306.50 715.50Q327 688 349.50 660.50Q372 633 390 613L390 606L361 606Q334 631 306 663.50Q278 696 256 724Q234 696 205.50 663.50Q177 631 150 606L121 606L121 613Q140 633 162.50 660.50Q185 688 205.50 715.50Q226 743 238 764L274 764Z"  horiz-adv-x="521" vert-adv-y="1000"  />

      
      <glyph glyph-name="unie3" unicode="&#xe3;" d="M269 539Q354 539 396.50 494.50Q439 450 439 353L439 0L408 0L401 98L399 98Q375 52 331.50 21Q288-10 209-10Q131-10 89.50 28Q48 66 48 133Q48 212 113.50 252.50Q179 293 300 299L400 305L400 345Q400 431 367 467.50Q334 504 268 504Q191 504 111 464L99 498Q137 516 180 527.50Q223 539 269 539M304 268Q202 263 145 231Q88 199 88 133Q88 81 121 52.50Q154 24 213 24Q307 24 353 77.50Q399 131 400 219L400 272L304 268M70 616Q74 667 98.50 693.50Q123 720 163 720Q187 720 206 709Q225 698 241.50 684Q258 670 274.50 659Q291 648 310 648Q333 648 350.50 662.50Q368 677 373 720L404 720Q399 669 373.50 642Q348 615 309 615Q284 615 265.50 626Q247 637 231 651Q215 665 198.50 675.50Q182 686 161 686Q140 686 122.50 671.50Q105 657 100 616L70 616Z"  horiz-adv-x="521" vert-adv-y="1000"  />

      
      <glyph glyph-name="unie4" unicode="&#xe4;" d="M269 539Q354 539 396.50 494.50Q439 450 439 353L439 0L408 0L401 98L399 98Q375 52 331.50 21Q288-10 209-10Q131-10 89.50 28Q48 66 48 133Q48 212 113.50 252.50Q179 293 300 299L400 305L400 345Q400 431 367 467.50Q334 504 268 504Q191 504 111 464L99 498Q137 516 180 527.50Q223 539 269 539M304 268Q202 263 145 231Q88 199 88 133Q88 81 121 52.50Q154 24 213 24Q307 24 353 77.50Q399 131 400 219L400 272L304 268M135 679Q135 694 141.50 703.50Q148 713 163 713Q180 713 186 703.50Q192 694 192 679Q192 663 186 653.50Q180 644 163 644Q148 644 141.50 653.50Q135 663 135 679M320 679Q320 694 326.50 703.50Q333 713 348 713Q365 713 371 703.50Q377 694 377 679Q377 663 371 653.50Q365 644 348 644Q333 644 326.50 653.50Q320 663 320 679Z"  horiz-adv-x="521" vert-adv-y="1000"  />

      
      <glyph glyph-name="unie5" unicode="&#xe5;" d="M269 539Q354 539 396.50 494.50Q439 450 439 353L439 0L408 0L401 98L399 98Q375 52 331.50 21Q288-10 209-10Q131-10 89.50 28Q48 66 48 133Q48 212 113.50 252.50Q179 293 300 299L400 305L400 345Q400 431 367 467.50Q334 504 268 504Q191 504 111 464L99 498Q137 516 180 527.50Q223 539 269 539M304 268Q202 263 145 231Q88 199 88 133Q88 81 121 52.50Q154 24 213 24Q307 24 353 77.50Q399 131 400 219L400 272L304 268M256 610Q213 610 183 637.50Q153 665 153 711Q153 755 183 783.50Q213 812 256 812Q298 812 328 783Q358 754 358 711Q358 666 328 638Q298 610 256 610M256 639Q288 639 308 660Q328 681 328 711Q328 742 306.50 762.50Q285 783 256 783Q224 783 203.50 762.50Q183 742 183 711Q183 681 203 660Q223 639 256 639Z"  horiz-adv-x="521" vert-adv-y="1000"  />

      
      <glyph glyph-name="unie6" unicode="&#xe6;" d="M604 540Q668 540 711 507.50Q754 475 775 419.50Q796 364 794 294L794 263L429 263Q428 147 477.50 86Q527 25 615 25Q660 25 694 32.50Q728 40 773 61L773 23Q699-10 615-10Q534-10 482.50 30.50Q431 71 410 136Q389 70 341.50 30Q294-10 211-10Q132-10 90 28Q48 66 48 133Q48 212 113 252.50Q178 293 295 299L390 305L390 346Q390 431 357 467.50Q324 504 262 504Q188 504 108 464L96 498Q135 517 177.50 528Q220 539 264 539Q332 539 370.50 505.50Q409 472 419 399Q442 461 488 500.50Q534 540 604 540M604 505Q534 505 486 452Q438 399 430 297L753 297Q754 390 716.50 447.50Q679 505 604 505M299 268Q200 263 144 231Q88 199 88 133Q88 81 121 52.50Q154 24 214 24Q301 24 344.50 77.50Q388 131 389 219L389 272L299 268Z"  horiz-adv-x="853" vert-adv-y="1000"  />

      
      <glyph glyph-name="unie7" unicode="&#xe7;" d="M302-10Q220-10 166 24Q112 58 85 119.50Q58 181 58 262Q58 346 89.50 408.50Q121 471 179 505.50Q237 540 316 540Q353 540 384.50 533.50Q416 527 443 515L434 480Q405 492 374.50 498Q344 504 316 504Q248 504 199 474Q150 444 124 389.50Q98 335 98 262Q98 195 119.50 141.50Q141 88 186 56.50Q231 25 301 25Q339 25 374 32.50Q409 40 438 52L438 17Q413 5 378.50-2.50Q344-10 302-10M363-144Q363-188 329.50-214Q296-240 242-240Q208-240 187-234L187-204Q199-207 212-208.50Q225-210 243-210Q281-210 304.50-193.50Q328-177 328-145Q328-87 228-85L271 0L303 0L272-63Q313-66 338-86.50Q363-107 363-144Z"  horiz-adv-x="474" vert-adv-y="1000"  />

      
      <glyph glyph-name="unie8" unicode="&#xe8;" d="M288 540Q356 540 399.50 507.50Q443 475 464.50 419.50Q486 364 486 294L486 263L98 263Q97 148 149.50 86.50Q202 25 300 25Q349 25 384.50 32.50Q420 40 465 61L465 23Q426 6 387.50-2Q349-10 299-10Q218-10 164.50 24Q111 58 84.50 119Q58 180 58 260Q58 337 84 400.50Q110 464 161 502Q212 540 288 540M288 505Q208 505 158 451.50Q108 398 99 297L446 297Q446 390 407 447.50Q368 505 288 505M202 766Q216 744 238.50 716Q261 688 286 660.50Q311 633 333 613L333 606L304 606Q278 627 250 654.50Q222 682 197.50 709.50Q173 737 157 758L157 766L202 766Z"  horiz-adv-x="545" vert-adv-y="1000"  />

      
      <glyph glyph-name="unie9" unicode="&#xe9;" d="M288 540Q356 540 399.50 507.50Q443 475 464.50 419.50Q486 364 486 294L486 263L98 263Q97 148 149.50 86.50Q202 25 300 25Q349 25 384.50 32.50Q420 40 465 61L465 23Q426 6 387.50-2Q349-10 299-10Q218-10 164.50 24Q111 58 84.50 119Q58 180 58 260Q58 337 84 400.50Q110 464 161 502Q212 540 288 540M288 505Q208 505 158 451.50Q108 398 99 297L446 297Q446 390 407 447.50Q368 505 288 505M424 758Q407 737 382.50 709.50Q358 682 330 654.50Q302 627 277 606L248 606L248 613Q269 633 294 660.50Q319 688 341.50 716Q364 744 378 766L424 766L424 758Z"  horiz-adv-x="545" vert-adv-y="1000"  />

      
      <glyph glyph-name="uniea" unicode="&#xea;" d="M288 540Q356 540 399.50 507.50Q443 475 464.50 419.50Q486 364 486 294L486 263L98 263Q97 148 149.50 86.50Q202 25 300 25Q349 25 384.50 32.50Q420 40 465 61L465 23Q426 6 387.50-2Q349-10 299-10Q218-10 164.50 24Q111 58 84.50 119Q58 180 58 260Q58 337 84 400.50Q110 464 161 502Q212 540 288 540M288 505Q208 505 158 451.50Q108 398 99 297L446 297Q446 390 407 447.50Q368 505 288 505M299 764Q311 743 331.50 715.50Q352 688 374.50 660.50Q397 633 415 613L415 606L386 606Q359 631 331 663.50Q303 696 281 724Q259 696 230.50 663.50Q202 631 175 606L146 606L146 613Q165 633 187.50 660.50Q210 688 230.50 715.50Q251 743 263 764L299 764Z"  horiz-adv-x="545" vert-adv-y="1000"  />

      
      <glyph glyph-name="unieb" unicode="&#xeb;" d="M288 540Q356 540 399.50 507.50Q443 475 464.50 419.50Q486 364 486 294L486 263L98 263Q97 148 149.50 86.50Q202 25 300 25Q349 25 384.50 32.50Q420 40 465 61L465 23Q426 6 387.50-2Q349-10 299-10Q218-10 164.50 24Q111 58 84.50 119Q58 180 58 260Q58 337 84 400.50Q110 464 161 502Q212 540 288 540M288 505Q208 505 158 451.50Q108 398 99 297L446 297Q446 390 407 447.50Q368 505 288 505M159 679Q159 694 165.50 703.50Q172 713 187 713Q204 713 210 703.50Q216 694 216 679Q216 663 210 653.50Q204 644 187 644Q172 644 165.50 653.50Q159 663 159 679M344 679Q344 694 350.50 703.50Q357 713 372 713Q389 713 395 703.50Q401 694 401 679Q401 663 395 653.50Q389 644 372 644Q357 644 350.50 653.50Q344 663 344 679Z"  horiz-adv-x="545" vert-adv-y="1000"  />

      
      <glyph glyph-name="uniec" unicode="&#xec;" d="M128 0L89 0L89 530L128 530L128 0M29 766Q43 744 65.50 716Q88 688 113 660.50Q138 633 160 613L160 606L131 606Q105 627 77 654.50Q49 682 24.50 709.50Q0 737-16 758L-16 766L29 766Z"  horiz-adv-x="217" vert-adv-y="1000"  />

      
      <glyph glyph-name="unied" unicode="&#xed;" d="M128 0L89 0L89 530L128 530L128 0M251 758Q234 737 209.50 709.50Q185 682 157 654.50Q129 627 104 606L75 606L75 613Q96 633 121 660.50Q146 688 168.50 716Q191 744 205 766L251 766L251 758Z"  horiz-adv-x="217" vert-adv-y="1000"  />

      
      <glyph glyph-name="uniee" unicode="&#xee;" d="M128 0L89 0L89 530L128 530L128 0M126 764Q138 743 158.50 715.50Q179 688 201.50 660.50Q224 633 242 613L242 606L213 606Q186 631 158 663.50Q130 696 108 724Q86 696 57.50 663.50Q29 631 2 606L-27 606L-27 613Q-8 633 14.50 660.50Q37 688 57.50 715.50Q78 743 90 764L126 764Z"  horiz-adv-x="217" vert-adv-y="1000"  />

      
      <glyph glyph-name="unief" unicode="&#xef;" d="M128 0L89 0L89 530L128 530L128 0M-13 679Q-13 694-6.50 703.50Q0 713 15 713Q32 713 38 703.50Q44 694 44 679Q44 663 38 653.50Q32 644 15 644Q0 644-6.50 653.50Q-13 663-13 679M172 679Q172 694 178.50 703.50Q185 713 200 713Q217 713 223 703.50Q229 694 229 679Q229 663 223 653.50Q217 644 200 644Q185 644 178.50 653.50Q172 663 172 679Z"  horiz-adv-x="217" vert-adv-y="1000"  />

      
      <glyph glyph-name="unif0" unicode="&#xf0;" d="M206 759Q277 726 325 687L435 754L454 726L351 665Q428 589 467 489Q506 389 506 273Q506 192 480.50 128Q455 64 405 27Q355-10 279-10Q174-10 115.50 54.50Q57 119 57 225Q57 300 86 354Q115 408 165.50 437.50Q216 467 281 467Q348 467 388.50 447Q429 427 453 396L456 396Q441 465 406 531.50Q371 598 319 646L190 569L172 596L292 668Q271 685 244 701Q217 717 189 730L206 759M284 432Q201 432 148.50 377.50Q96 323 96 224Q96 129 145.50 77Q195 25 280 25Q369 25 417.50 89.50Q466 154 466 278Q466 302 457.50 328.50Q449 355 429 378.50Q409 402 373.50 417Q338 432 284 432Z"  horiz-adv-x="564" vert-adv-y="1000"  />

      
      <glyph glyph-name="unif1" unicode="&#xf1;" d="M316 540Q404 540 451.50 493Q499 446 499 347L499 0L460 0L460 345Q460 428 422 466.50Q384 505 313 505Q226 505 177 453.50Q128 402 128 297L128 0L89 0L89 530L120 530L126 426L129 426Q148 471 193.50 505.50Q239 540 316 540M119 616Q123 667 147.50 693.50Q172 720 212 720Q236 720 255 709Q274 698 290.50 684Q307 670 323.50 659Q340 648 359 648Q382 648 399.50 662.50Q417 677 422 720L453 720Q448 669 422.50 642Q397 615 358 615Q333 615 314.50 626Q296 637 280 651Q264 665 247.50 675.50Q231 686 210 686Q189 686 171.50 671.50Q154 657 149 616L119 616Z"  horiz-adv-x="582" vert-adv-y="1000"  />

      
      <glyph glyph-name="unif2" unicode="&#xf2;" d="M522 265Q522 185 496.50 123Q471 61 419 25.50Q367-10 289-10Q214-10 162.50 25Q111 60 84.50 122Q58 184 58 265Q58 392 120.50 466Q183 540 294 540Q373 540 423 504Q473 468 497.50 406Q522 344 522 265M98 265Q98 158 145 91.50Q192 25 289 25Q356 25 399 55.50Q442 86 462 140Q482 194 482 265Q482 333 463 387Q444 441 402.50 473Q361 505 294 505Q199 505 148.50 441.50Q98 378 98 265M211 766Q225 744 247.50 716Q270 688 295 660.50Q320 633 342 613L342 606L313 606Q287 627 259 654.50Q231 682 206.50 709.50Q182 737 166 758L166 766L211 766Z"  horiz-adv-x="581" vert-adv-y="1000"  />

      
      <glyph glyph-name="unif3" unicode="&#xf3;" d="M522 265Q522 185 496.50 123Q471 61 419 25.50Q367-10 289-10Q214-10 162.50 25Q111 60 84.50 122Q58 184 58 265Q58 392 120.50 466Q183 540 294 540Q373 540 423 504Q473 468 497.50 406Q522 344 522 265M98 265Q98 158 145 91.50Q192 25 289 25Q356 25 399 55.50Q442 86 462 140Q482 194 482 265Q482 333 463 387Q444 441 402.50 473Q361 505 294 505Q199 505 148.50 441.50Q98 378 98 265M433 758Q416 737 391.50 709.50Q367 682 339 654.50Q311 627 286 606L257 606L257 613Q278 633 303 660.50Q328 688 350.50 716Q373 744 387 766L433 766L433 758Z"  horiz-adv-x="581" vert-adv-y="1000"  />

      
      <glyph glyph-name="unif4" unicode="&#xf4;" d="M522 265Q522 185 496.50 123Q471 61 419 25.50Q367-10 289-10Q214-10 162.50 25Q111 60 84.50 122Q58 184 58 265Q58 392 120.50 466Q183 540 294 540Q373 540 423 504Q473 468 497.50 406Q522 344 522 265M98 265Q98 158 145 91.50Q192 25 289 25Q356 25 399 55.50Q442 86 462 140Q482 194 482 265Q482 333 463 387Q444 441 402.50 473Q361 505 294 505Q199 505 148.50 441.50Q98 378 98 265M308 764Q320 743 340.50 715.50Q361 688 383.50 660.50Q406 633 424 613L424 606L395 606Q368 631 340 663.50Q312 696 290 724Q268 696 239.50 663.50Q211 631 184 606L155 606L155 613Q174 633 196.50 660.50Q219 688 239.50 715.50Q260 743 272 764L308 764Z"  horiz-adv-x="581" vert-adv-y="1000"  />

      
      <glyph glyph-name="unif5" unicode="&#xf5;" d="M522 265Q522 185 496.50 123Q471 61 419 25.50Q367-10 289-10Q214-10 162.50 25Q111 60 84.50 122Q58 184 58 265Q58 392 120.50 466Q183 540 294 540Q373 540 423 504Q473 468 497.50 406Q522 344 522 265M98 265Q98 158 145 91.50Q192 25 289 25Q356 25 399 55.50Q442 86 462 140Q482 194 482 265Q482 333 463 387Q444 441 402.50 473Q361 505 294 505Q199 505 148.50 441.50Q98 378 98 265M104 616Q108 667 132.50 693.50Q157 720 197 720Q221 720 240 709Q259 698 275.50 684Q292 670 308.50 659Q325 648 344 648Q367 648 384.50 662.50Q402 677 407 720L438 720Q433 669 407.50 642Q382 615 343 615Q318 615 299.50 626Q281 637 265 651Q249 665 232.50 675.50Q216 686 195 686Q174 686 156.50 671.50Q139 657 134 616L104 616Z"  horiz-adv-x="581" vert-adv-y="1000"  />

      
      <glyph glyph-name="unif6" unicode="&#xf6;" d="M522 265Q522 185 496.50 123Q471 61 419 25.50Q367-10 289-10Q214-10 162.50 25Q111 60 84.50 122Q58 184 58 265Q58 392 120.50 466Q183 540 294 540Q373 540 423 504Q473 468 497.50 406Q522 344 522 265M98 265Q98 158 145 91.50Q192 25 289 25Q356 25 399 55.50Q442 86 462 140Q482 194 482 265Q482 333 463 387Q444 441 402.50 473Q361 505 294 505Q199 505 148.50 441.50Q98 378 98 265M169 679Q169 694 175.50 703.50Q182 713 197 713Q214 713 220 703.50Q226 694 226 679Q226 663 220 653.50Q214 644 197 644Q182 644 175.50 653.50Q169 663 169 679M354 679Q354 694 360.50 703.50Q367 713 382 713Q399 713 405 703.50Q411 694 411 679Q411 663 405 653.50Q399 644 382 644Q367 644 360.50 653.50Q354 663 354 679Z"  horiz-adv-x="581" vert-adv-y="1000"  />

      
      <glyph glyph-name="unif7" unicode="&#xf7;" d="M284 492Q268 492 260.50 502.50Q253 513 253 529Q253 546 260.50 556Q268 566 284 566Q303 566 310 556Q317 546 317 529Q317 513 310 502.50Q303 492 284 492M54 336L54 370L516 370L516 336L54 336M284 139Q268 139 260.50 149.50Q253 160 253 176Q253 193 260.50 203Q268 213 284 213Q303 213 310 203Q317 193 317 176Q317 160 310 149.50Q303 139 284 139Z"  horiz-adv-x="570" vert-adv-y="1000"  />

      
      <glyph glyph-name="unif8" unicode="&#xf8;" d="M522 265Q522 185 496.50 123Q471 61 419 25.50Q367-10 289-10Q240-10 202.50 5Q165 20 137 48L76-28L49-8L113 73Q58 147 58 265Q58 392 120.50 466Q183 540 294 540Q341 540 377 526.50Q413 513 440 488L494 557L521 537L464 465Q493 428 507.50 376.50Q522 325 522 265M98 265Q98 165 137 104L417 460Q395 481 364.50 493Q334 505 294 505Q199 505 148.50 441.50Q98 378 98 265M482 265Q482 315 472 358Q462 401 440 433L159 76Q182 52 214.50 38.50Q247 25 289 25Q356 25 399 55.50Q442 86 462 140Q482 194 482 265Z"  horiz-adv-x="581" vert-adv-y="1000"  />

      
      <glyph glyph-name="unif9" unicode="&#xf9;" d="M492 530L492 0L460 0L454 103L452 103Q433 58 387.50 24Q342-10 264-10Q81-10 81 183L81 530L120 530L120 187Q120 103 158 64Q196 25 267 25Q354 25 403.50 76Q453 127 453 232L453 530L492 530M212 766Q226 744 248.50 716Q271 688 296 660.50Q321 633 343 613L343 606L314 606Q288 627 260 654.50Q232 682 207.50 709.50Q183 737 167 758L167 766L212 766Z"  horiz-adv-x="582" vert-adv-y="1000"  />

      
      <glyph glyph-name="unifa" unicode="&#xfa;" d="M492 530L492 0L460 0L454 103L452 103Q433 58 387.50 24Q342-10 264-10Q81-10 81 183L81 530L120 530L120 187Q120 103 158 64Q196 25 267 25Q354 25 403.50 76Q453 127 453 232L453 530L492 530M435 758Q418 737 393.50 709.50Q369 682 341 654.50Q313 627 288 606L259 606L259 613Q280 633 305 660.50Q330 688 352.50 716Q375 744 389 766L435 766L435 758Z"  horiz-adv-x="582" vert-adv-y="1000"  />

      
      <glyph glyph-name="unifb" unicode="&#xfb;" d="M492 530L492 0L460 0L454 103L452 103Q433 58 387.50 24Q342-10 264-10Q81-10 81 183L81 530L120 530L120 187Q120 103 158 64Q196 25 267 25Q354 25 403.50 76Q453 127 453 232L453 530L492 530M309 764Q321 743 341.50 715.50Q362 688 384.50 660.50Q407 633 425 613L425 606L396 606Q369 631 341 663.50Q313 696 291 724Q269 696 240.50 663.50Q212 631 185 606L156 606L156 613Q175 633 197.50 660.50Q220 688 240.50 715.50Q261 743 273 764L309 764Z"  horiz-adv-x="582" vert-adv-y="1000"  />

      
      <glyph glyph-name="unifc" unicode="&#xfc;" d="M492 530L492 0L460 0L454 103L452 103Q433 58 387.50 24Q342-10 264-10Q81-10 81 183L81 530L120 530L120 187Q120 103 158 64Q196 25 267 25Q354 25 403.50 76Q453 127 453 232L453 530L492 530M170 679Q170 694 176.50 703.50Q183 713 198 713Q215 713 221 703.50Q227 694 227 679Q227 663 221 653.50Q215 644 198 644Q183 644 176.50 653.50Q170 663 170 679M355 679Q355 694 361.50 703.50Q368 713 383 713Q400 713 406 703.50Q412 694 412 679Q412 663 406 653.50Q400 644 383 644Q368 644 361.50 653.50Q355 663 355 679Z"  horiz-adv-x="582" vert-adv-y="1000"  />

      
      <glyph glyph-name="unifd" unicode="&#xfd;" d="M0 530L41 530L174 184Q191 138 203 104Q215 70 223 47L225 47Q232 69 244 103Q256 137 273 181L405 530L446 530L201-107Q175-174 142.50-208Q110-242 55-242Q25-242-3-233L-3-198Q11-202 23.50-205Q36-208 52-208Q92-208 117.50-182Q143-156 166-96L204 4L0 530M365 758Q348 737 323.50 709.50Q299 682 271 654.50Q243 627 218 606L189 606L189 613Q210 633 235 660.50Q260 688 282.50 716Q305 744 319 766L365 766L365 758Z"  horiz-adv-x="445" vert-adv-y="1000"  />

      
      <glyph glyph-name="unife" unicode="&#xfe;" d="M533 269Q533 135 474 62.50Q415-10 311-10Q235-10 190.50 24Q146 58 128 106L126 106Q127 77 127.50 45Q128 13 128-15L128-234L90-234L90 760L128 760L128 527Q128 505 127.50 472.50Q127 440 126 418L129 418Q147 466 193.50 503Q240 540 318 540Q422 540 477.50 471Q533 402 533 269M493 269Q493 505 315 505Q222 505 175.50 443.50Q129 382 129 270L129 263Q129 142 175.50 83.50Q222 25 308 25Q396 25 444.50 87Q493 149 493 269Z"  horiz-adv-x="590" vert-adv-y="1000"  />

      
      <glyph glyph-name="uniff" unicode="&#xff;" d="M0 530L41 530L174 184Q191 138 203 104Q215 70 223 47L225 47Q232 69 244 103Q256 137 273 181L405 530L446 530L201-107Q175-174 142.50-208Q110-242 55-242Q25-242-3-233L-3-198Q11-202 23.50-205Q36-208 52-208Q92-208 117.50-182Q143-156 166-96L204 4L0 530M101 679Q101 694 107.50 703.50Q114 713 129 713Q146 713 152 703.50Q158 694 158 679Q158 663 152 653.50Q146 644 129 644Q114 644 107.50 653.50Q101 663 101 679M286 679Q286 694 292.50 703.50Q299 713 314 713Q331 713 337 703.50Q343 694 343 679Q343 663 337 653.50Q331 644 314 644Q299 644 292.50 653.50Q286 663 286 679Z"  horiz-adv-x="445" vert-adv-y="1000"  />

      
      <glyph glyph-name="uni0100" unicode="&#x0100;" d="M548 0L448 261L143 261L41 0L0 0L281 716L318 716L589 0L548 0M330 578Q325 595 316 619.50Q307 644 298 670Q291 646 282 621.50Q273 597 265 578L157 297L434 297L330 578M431 830L431 796L167 796L167 830L431 830Z"  horiz-adv-x="590" vert-adv-y="1000"  />

      
      <glyph glyph-name="uni0101" unicode="&#x0101;" d="M269 539Q354 539 396.50 494.50Q439 450 439 353L439 0L408 0L401 98L399 98Q375 52 331.50 21Q288-10 209-10Q131-10 89.50 28Q48 66 48 133Q48 212 113.50 252.50Q179 293 300 299L400 305L400 345Q400 431 367 467.50Q334 504 268 504Q191 504 111 464L99 498Q137 516 180 527.50Q223 539 269 539M304 268Q202 263 145 231Q88 199 88 133Q88 81 121 52.50Q154 24 213 24Q307 24 353 77.50Q399 131 400 219L400 272L304 268M388 646L388 612L124 612L124 646L388 646Z"  horiz-adv-x="521" vert-adv-y="1000"  />

      
      <glyph glyph-name="uni0102" unicode="&#x0102;" d="M548 0L448 261L143 261L41 0L0 0L281 716L318 716L589 0L548 0M330 578Q325 595 316 619.50Q307 644 298 670Q291 646 282 621.50Q273 597 265 578L157 297L434 297L330 578M426 906Q420 851 387 820.50Q354 790 296 790Q238 790 205 820Q172 850 168 906L199 906Q207 824 297 824Q343 824 367 845.50Q391 867 395 906L426 906Z"  horiz-adv-x="590" vert-adv-y="1000"  />

      
      <glyph glyph-name="uni0103" unicode="&#x0103;" d="M269 539Q354 539 396.50 494.50Q439 450 439 353L439 0L408 0L401 98L399 98Q375 52 331.50 21Q288-10 209-10Q131-10 89.50 28Q48 66 48 133Q48 212 113.50 252.50Q179 293 300 299L400 305L400 345Q400 431 367 467.50Q334 504 268 504Q191 504 111 464L99 498Q137 516 180 527.50Q223 539 269 539M304 268Q202 263 145 231Q88 199 88 133Q88 81 121 52.50Q154 24 213 24Q307 24 353 77.50Q399 131 400 219L400 272L304 268M384 722Q378 667 345 636.50Q312 606 254 606Q196 606 163 636Q130 666 126 722L157 722Q165 640 255 640Q301 640 325 661.50Q349 683 353 722L384 722Z"  horiz-adv-x="521" vert-adv-y="1000"  />

      
      <glyph glyph-name="uni0104" unicode="&#x0104;" d="M548 0L448 261L143 261L41 0L0 0L281 716L318 716L589 0L548 0M330 578Q325 595 316 619.50Q307 644 298 670Q291 646 282 621.50Q273 597 265 578L157 297L434 297L330 578M485-128Q485-186 541-186Q555-186 567.50-184Q580-182 589-179L589-209Q579-213 566-215.50Q553-218 536-218Q498-218 474-196.50Q450-175 450-133Q450-96 475-60Q500-24 548 12L572 0Q538-28 511.50-59.50Q485-91 485-128Z"  horiz-adv-x="590" vert-adv-y="1000"  />

      
      <glyph glyph-name="uni0105" unicode="&#x0105;" d="M269 539Q354 539 396.50 494.50Q439 450 439 353L439 0L408 0L401 98L399 98Q375 52 331.50 21Q288-10 209-10Q131-10 89.50 28Q48 66 48 133Q48 212 113.50 252.50Q179 293 300 299L400 305L400 345Q400 431 367 467.50Q334 504 268 504Q191 504 111 464L99 498Q137 516 180 527.50Q223 539 269 539M304 268Q202 263 145 231Q88 199 88 133Q88 81 121 52.50Q154 24 213 24Q307 24 353 77.50Q399 131 400 219L400 272L304 268M357-128Q357-186 413-186Q427-186 439.50-184Q452-182 461-179L461-209Q451-213 438-215.50Q425-218 408-218Q370-218 346-196.50Q322-175 322-133Q322-96 347-60Q372-24 420 12L444 0Q410-28 383.50-59.50Q357-91 357-128Z"  horiz-adv-x="521" vert-adv-y="1000"  />

      
      <glyph glyph-name="uni0106" unicode="&#x0106;" d="M405 688Q309 688 241.50 646Q174 604 138.50 529.50Q103 455 103 359Q103 259 135 184Q167 109 230.50 67.50Q294 26 389 26Q445 26 489.50 34Q534 42 571 55L571 21Q536 7 491-1.50Q446-10 387-10Q280-10 208 36Q136 82 99.50 165.50Q63 249 63 360Q63 464 103.50 546.50Q144 629 220.50 676.50Q297 724 405 724Q505 724 587 686L571 651Q531 672 489 680Q447 688 405 688M518 942Q501 921 476.50 893.50Q452 866 424 838.50Q396 811 371 790L342 790L342 797Q363 817 388 844.50Q413 872 435.50 900Q458 928 472 950L518 950L518 942Z"  horiz-adv-x="618" vert-adv-y="1000"  />

      
      <glyph glyph-name="uni0107" unicode="&#x0107;" d="M302-10Q220-10 166 24Q112 58 85 119.50Q58 181 58 262Q58 346 89.50 408.50Q121 471 179 505.50Q237 540 316 540Q353 540 384.50 533.50Q416 527 443 515L434 480Q405 492 374.50 498Q344 504 316 504Q248 504 199 474Q150 444 124 389.50Q98 335 98 262Q98 195 119.50 141.50Q141 88 186 56.50Q231 25 301 25Q339 25 374 32.50Q409 40 438 52L438 17Q413 5 378.50-2.50Q344-10 302-10M427 758Q410 737 385.50 709.50Q361 682 333 654.50Q305 627 280 606L251 606L251 613Q272 633 297 660.50Q322 688 344.50 716Q367 744 381 766L427 766L427 758Z"  horiz-adv-x="474" vert-adv-y="1000"  />

      
      <glyph glyph-name="uni0108" unicode="&#x0108;" d="M405 688Q309 688 241.50 646Q174 604 138.50 529.50Q103 455 103 359Q103 259 135 184Q167 109 230.50 67.50Q294 26 389 26Q445 26 489.50 34Q534 42 571 55L571 21Q536 7 491-1.50Q446-10 387-10Q280-10 208 36Q136 82 99.50 165.50Q63 249 63 360Q63 464 103.50 546.50Q144 629 220.50 676.50Q297 724 405 724Q505 724 587 686L571 651Q531 672 489 680Q447 688 405 688M392 948Q404 927 424.50 899.50Q445 872 467.50 844.50Q490 817 508 797L508 790L479 790Q452 815 424 847.50Q396 880 374 908Q352 880 323.50 847.50Q295 815 268 790L239 790L239 797Q258 817 280.50 844.50Q303 872 323.50 899.50Q344 927 356 948L392 948Z"  horiz-adv-x="618" vert-adv-y="1000"  />

      
      <glyph glyph-name="uni0109" unicode="&#x0109;" d="M302-10Q220-10 166 24Q112 58 85 119.50Q58 181 58 262Q58 346 89.50 408.50Q121 471 179 505.50Q237 540 316 540Q353 540 384.50 533.50Q416 527 443 515L434 480Q405 492 374.50 498Q344 504 316 504Q248 504 199 474Q150 444 124 389.50Q98 335 98 262Q98 195 119.50 141.50Q141 88 186 56.50Q231 25 301 25Q339 25 374 32.50Q409 40 438 52L438 17Q413 5 378.50-2.50Q344-10 302-10M302 764Q314 743 334.50 715.50Q355 688 377.50 660.50Q400 633 418 613L418 606L389 606Q362 631 334 663.50Q306 696 284 724Q262 696 233.50 663.50Q205 631 178 606L149 606L149 613Q168 633 190.50 660.50Q213 688 233.50 715.50Q254 743 266 764L302 764Z"  horiz-adv-x="474" vert-adv-y="1000"  />

      
      <glyph glyph-name="uni010A" unicode="&#x010A;" d="M405 688Q309 688 241.50 646Q174 604 138.50 529.50Q103 455 103 359Q103 259 135 184Q167 109 230.50 67.50Q294 26 389 26Q445 26 489.50 34Q534 42 571 55L571 21Q536 7 491-1.50Q446-10 387-10Q280-10 208 36Q136 82 99.50 165.50Q63 249 63 360Q63 464 103.50 546.50Q144 629 220.50 676.50Q297 724 405 724Q505 724 587 686L571 651Q531 672 489 680Q447 688 405 688M367 908Q386 908 392.50 898Q399 888 399 872Q399 856 392.50 846Q386 836 367 836Q351 836 344 846Q337 856 337 872Q337 888 344 898Q351 908 367 908Z"  horiz-adv-x="618" vert-adv-y="1000"  />

      
      <glyph glyph-name="uni010B" unicode="&#x010B;" d="M302-10Q220-10 166 24Q112 58 85 119.50Q58 181 58 262Q58 346 89.50 408.50Q121 471 179 505.50Q237 540 316 540Q353 540 384.50 533.50Q416 527 443 515L434 480Q405 492 374.50 498Q344 504 316 504Q248 504 199 474Q150 444 124 389.50Q98 335 98 262Q98 195 119.50 141.50Q141 88 186 56.50Q231 25 301 25Q339 25 374 32.50Q409 40 438 52L438 17Q413 5 378.50-2.50Q344-10 302-10M277 724Q296 724 302.50 714Q309 704 309 688Q309 672 302.50 662Q296 652 277 652Q261 652 254 662Q247 672 247 688Q247 704 254 714Q261 724 277 724Z"  horiz-adv-x="474" vert-adv-y="1000"  />

      
      <glyph glyph-name="uni010C" unicode="&#x010C;" d="M405 688Q309 688 241.50 646Q174 604 138.50 529.50Q103 455 103 359Q103 259 135 184Q167 109 230.50 67.50Q294 26 389 26Q445 26 489.50 34Q534 42 571 55L571 21Q536 7 491-1.50Q446-10 387-10Q280-10 208 36Q136 82 99.50 165.50Q63 249 63 360Q63 464 103.50 546.50Q144 629 220.50 676.50Q297 724 405 724Q505 724 587 686L571 651Q531 672 489 680Q447 688 405 688M355 790Q343 811 322.50 838.50Q302 866 279.50 893Q257 920 239 940L239 948L268 948Q295 922 323 890Q351 858 373 829Q395 858 423.50 890Q452 922 479 948L508 948L508 940Q490 920 467 893Q444 866 423.50 838.50Q403 811 391 790L355 790Z"  horiz-adv-x="618" vert-adv-y="1000"  />

      
      <glyph glyph-name="uni010D" unicode="&#x010D;" d="M302-10Q220-10 166 24Q112 58 85 119.50Q58 181 58 262Q58 346 89.50 408.50Q121 471 179 505.50Q237 540 316 540Q353 540 384.50 533.50Q416 527 443 515L434 480Q405 492 374.50 498Q344 504 316 504Q248 504 199 474Q150 444 124 389.50Q98 335 98 262Q98 195 119.50 141.50Q141 88 186 56.50Q231 25 301 25Q339 25 374 32.50Q409 40 438 52L438 17Q413 5 378.50-2.50Q344-10 302-10M264 606Q252 627 231.50 654.50Q211 682 188.50 709Q166 736 148 756L148 764L177 764Q204 738 232 706Q260 674 282 645Q304 674 332.50 706Q361 738 388 764L417 764L417 756Q399 736 376 709Q353 682 332.50 654.50Q312 627 300 606L264 606Z"  horiz-adv-x="474" vert-adv-y="1000"  />

      
      <glyph glyph-name="uni010E" unicode="&#x010E;" d="M636 364Q636 184 543 92Q450 0 265 0L102 0L102 714L288 714Q461 714 548.50 624.50Q636 535 636 364M596 363Q596 518 519 598Q442 678 277 678L141 678L141 36L265 36Q596 36 596 363M331 790Q319 811 298.50 838.50Q278 866 255.50 893Q233 920 215 940L215 948L244 948Q271 922 299 890Q327 858 349 829Q371 858 399.50 890Q428 922 455 948L484 948L484 940Q466 920 443 893Q420 866 399.50 838.50Q379 811 367 790L331 790Z"  horiz-adv-x="700" vert-adv-y="1000"  />

      
      <glyph glyph-name="uni010F" unicode="&#x010F;" d="M627 753Q618 717 602 676Q586 635 565 600L542 600L542 607Q549 623 558.50 651Q568 679 575.50 709Q583 739 586 760L627 760L627 753M281-10Q170-10 114 58Q58 126 58 257Q58 394 118 467Q178 540 288 540Q358 540 401.50 506.50Q445 473 463 425L466 425Q464 454 463.50 484.50Q463 515 463 544L463 760L501 760L501 0L469 0L465 105L463 105Q444 58 400.50 24Q357-10 281-10M284 25Q381 25 422 86.50Q463 148 463 260L463 266Q463 382 421.50 443.50Q380 505 290 505Q197 505 147.50 442Q98 379 98 256Q98 141 144 83Q190 25 284 25Z"  horiz-adv-x="590" vert-adv-y="1000"  />

      
      <glyph glyph-name="uni0110" unicode="&#x0110;" d="M288 714Q461 714 548.50 624.50Q636 535 636 364Q636 184 543 92Q450 0 265 0L103 0L103 337L20 337L20 373L103 373L103 714L288 714M277 678L142 678L142 373L343 373L343 337L142 337L142 36L265 36Q596 36 596 363Q596 518 519 598Q442 678 277 678Z"  horiz-adv-x="700" vert-adv-y="1000"  />

      
      <glyph glyph-name="uni0111" unicode="&#x0111;" d="M281-10Q170-10 114 58Q58 126 58 256Q58 394 118 466.50Q178 539 288 539Q358 539 401.50 506Q445 473 463 424L466 424Q464 454 463.50 484.50Q463 515 463 543L463 625L227 625L227 658L463 658L463 760L501 760L501 658L576 658L576 625L501 625L501 0L469 0L465 105L463 105Q443 58 400 24Q357-10 281-10M284 25Q381 25 421.50 86.50Q462 148 462 260L462 266Q462 382 421 443Q380 504 290 504Q197 504 147.50 441.50Q98 379 98 256Q98 141 144 83Q190 25 284 25Z"  horiz-adv-x="589" vert-adv-y="1000"  />

      
      <glyph glyph-name="uni0112" unicode="&#x0112;" d="M490 0L102 0L102 714L490 714L490 678L141 678L141 394L470 394L470 358L141 358L141 36L490 36L490 0M440 830L440 796L176 796L176 830L440 830Z"  horiz-adv-x="551" vert-adv-y="1000"  />

      
      <glyph glyph-name="uni0113" unicode="&#x0113;" d="M288 540Q356 540 399.50 507.50Q443 475 464.50 419.50Q486 364 486 294L486 263L98 263Q97 148 149.50 86.50Q202 25 300 25Q349 25 384.50 32.50Q420 40 465 61L465 23Q426 6 387.50-2Q349-10 299-10Q218-10 164.50 24Q111 58 84.50 119Q58 180 58 260Q58 337 84 400.50Q110 464 161 502Q212 540 288 540M288 505Q208 505 158 451.50Q108 398 99 297L446 297Q446 390 407 447.50Q368 505 288 505M413 646L413 612L149 612L149 646L413 646Z"  horiz-adv-x="545" vert-adv-y="1000"  />

      
      <glyph glyph-name="uni0114" unicode="&#x0114;" d="M490 0L102 0L102 714L490 714L490 678L141 678L141 394L470 394L470 358L141 358L141 36L490 36L490 0M436 906Q430 851 397 820.50Q364 790 306 790Q248 790 215 820Q182 850 178 906L209 906Q217 824 307 824Q353 824 377 845.50Q401 867 405 906L436 906Z"  horiz-adv-x="551" vert-adv-y="1000"  />

      
      <glyph glyph-name="uni0115" unicode="&#x0115;" d="M288 540Q356 540 399.50 507.50Q443 475 464.50 419.50Q486 364 486 294L486 263L98 263Q97 148 149.50 86.50Q202 25 300 25Q349 25 384.50 32.50Q420 40 465 61L465 23Q426 6 387.50-2Q349-10 299-10Q218-10 164.50 24Q111 58 84.50 119Q58 180 58 260Q58 337 84 400.50Q110 464 161 502Q212 540 288 540M288 505Q208 505 158 451.50Q108 398 99 297L446 297Q446 390 407 447.50Q368 505 288 505M409 722Q403 667 370 636.50Q337 606 279 606Q221 606 188 636Q155 666 151 722L182 722Q190 640 280 640Q326 640 350 661.50Q374 683 378 722L409 722Z"  horiz-adv-x="545" vert-adv-y="1000"  />

      
      <glyph glyph-name="uni0116" unicode="&#x0116;" d="M490 0L102 0L102 714L490 714L490 678L141 678L141 394L470 394L470 358L141 358L141 36L490 36L490 0M301 908Q320 908 326.50 898Q333 888 333 872Q333 856 326.50 846Q320 836 301 836Q285 836 278 846Q271 856 271 872Q271 888 278 898Q285 908 301 908Z"  horiz-adv-x="551" vert-adv-y="1000"  />

      
      <glyph glyph-name="uni0117" unicode="&#x0117;" d="M288 540Q356 540 399.50 507.50Q443 475 464.50 419.50Q486 364 486 294L486 263L98 263Q97 148 149.50 86.50Q202 25 300 25Q349 25 384.50 32.50Q420 40 465 61L465 23Q426 6 387.50-2Q349-10 299-10Q218-10 164.50 24Q111 58 84.50 119Q58 180 58 260Q58 337 84 400.50Q110 464 161 502Q212 540 288 540M288 505Q208 505 158 451.50Q108 398 99 297L446 297Q446 390 407 447.50Q368 505 288 505M274 724Q293 724 299.50 714Q306 704 306 688Q306 672 299.50 662Q293 652 274 652Q258 652 251 662Q244 672 244 688Q244 704 251 714Q258 724 274 724Z"  horiz-adv-x="545" vert-adv-y="1000"  />

      
      <glyph glyph-name="uni0118" unicode="&#x0118;" d="M490 0L102 0L102 714L490 714L490 678L141 678L141 394L470 394L470 358L141 358L141 36L490 36L490 0M379-128Q379-186 435-186Q449-186 461.50-184Q474-182 483-179L483-209Q473-213 460-215.50Q447-218 430-218Q392-218 368-196.50Q344-175 344-133Q344-96 369-60Q394-24 442 12L466 0Q432-28 405.50-59.50Q379-91 379-128Z"  horiz-adv-x="551" vert-adv-y="1000"  />

      
      <glyph glyph-name="uni0119" unicode="&#x0119;" d="M358-128Q358-186 413-186Q428-186 440.50-184Q453-182 461-179L461-209Q452-213 438.50-215.50Q425-218 409-218Q371-218 347-196.50Q323-175 323-133Q323-69 397 0Q354-10 299-10Q218-10 164.50 24Q111 58 84.50 119Q58 180 58 260Q58 337 84 400.50Q110 464 161 502Q212 540 288 540Q356 540 399.50 507.50Q443 475 464.50 419.50Q486 364 486 294L486 263L98 263Q97 148 149.50 86.50Q202 25 300 25Q349 25 384.50 32.50Q420 40 465 61L465 23Q460 21 455 19Q409-21 383.50-56.50Q358-92 358-128M288 505Q208 505 158 451.50Q108 398 99 297L446 297Q446 390 407 447.50Q368 505 288 505Z"  horiz-adv-x="545" vert-adv-y="1000"  />

      
      <glyph glyph-name="uni011A" unicode="&#x011A;" d="M490 0L102 0L102 714L490 714L490 678L141 678L141 394L470 394L470 358L141 358L141 36L490 36L490 0M289 790Q277 811 256.50 838.50Q236 866 213.50 893Q191 920 173 940L173 948L202 948Q229 922 257 890Q285 858 307 829Q329 858 357.50 890Q386 922 413 948L442 948L442 940Q424 920 401 893Q378 866 357.50 838.50Q337 811 325 790L289 790Z"  horiz-adv-x="551" vert-adv-y="1000"  />

      
      <glyph glyph-name="uni011B" unicode="&#x011B;" d="M288 540Q356 540 399.50 507.50Q443 475 464.50 419.50Q486 364 486 294L486 263L98 263Q97 148 149.50 86.50Q202 25 300 25Q349 25 384.50 32.50Q420 40 465 61L465 23Q426 6 387.50-2Q349-10 299-10Q218-10 164.50 24Q111 58 84.50 119Q58 180 58 260Q58 337 84 400.50Q110 464 161 502Q212 540 288 540M288 505Q208 505 158 451.50Q108 398 99 297L446 297Q446 390 407 447.50Q368 505 288 505M261 606Q249 627 228.50 654.50Q208 682 185.50 709Q163 736 145 756L145 764L174 764Q201 738 229 706Q257 674 279 645Q301 674 329.50 706Q358 738 385 764L414 764L414 756Q396 736 373 709Q350 682 329.50 654.50Q309 627 297 606L261 606Z"  horiz-adv-x="545" vert-adv-y="1000"  />

      
      <glyph glyph-name="uni011C" unicode="&#x011C;" d="M375 355L642 355L642 34Q592 12 534.50 1Q477-10 414-10Q242-10 152.50 85.50Q63 181 63 355Q63 462 106 545.50Q149 629 230.50 677.50Q312 726 425 726Q483 726 535 715Q587 704 634 682L617 646Q569 669 520.50 679.50Q472 690 424 690Q324 690 252 647Q180 604 141.50 528.50Q103 453 103 356Q103 186 187 106Q271 26 420 26Q476 26 521 34.50Q566 43 603 57L603 319L375 319L375 355M417 948Q429 927 449.50 899.50Q470 872 492.50 844.50Q515 817 533 797L533 790L504 790Q477 815 449 847.50Q421 880 399 908Q377 880 348.50 847.50Q320 815 293 790L264 790L264 797Q283 817 305.50 844.50Q328 872 348.50 899.50Q369 927 381 948L417 948Z"  horiz-adv-x="722" vert-adv-y="1000"  />

      
      <glyph glyph-name="uni011D" unicode="&#x011D;" d="M287 540Q356 540 396 513Q436 486 459 443L462 443L468 530L500 530L500-22Q500-121 448.50-180.50Q397-240 276-240Q216-240 170.50-229.50Q125-219 89-204L89-163Q125-181 173-193Q221-205 277-205Q376-205 418.50-155.50Q461-106 461-23L461 15Q461 40 461.50 61.50Q462 83 464 108L461 108Q441 50 393.50 20Q346-10 276-10Q174-10 116 58.50Q58 127 58 258Q58 388 116 464Q174 540 287 540M289 505Q192 505 145 439.50Q98 374 98 258Q98 144 144.50 84.50Q191 25 279 25Q352 25 391.50 56.50Q431 88 446.50 138.50Q462 189 462 246L462 289Q462 353 445.50 401.50Q429 450 391.50 477.50Q354 505 289 505M303 764Q315 743 335.50 715.50Q356 688 378.50 660.50Q401 633 419 613L419 606L390 606Q363 631 335 663.50Q307 696 285 724Q263 696 234.50 663.50Q206 631 179 606L150 606L150 613Q169 633 191.50 660.50Q214 688 234.50 715.50Q255 743 267 764L303 764Z"  horiz-adv-x="590" vert-adv-y="1000"  />

      
      <glyph glyph-name="uni011E" unicode="&#x011E;" d="M375 355L642 355L642 34Q592 12 534.50 1Q477-10 414-10Q242-10 152.50 85.50Q63 181 63 355Q63 462 106 545.50Q149 629 230.50 677.50Q312 726 425 726Q483 726 535 715Q587 704 634 682L617 646Q569 669 520.50 679.50Q472 690 424 690Q324 690 252 647Q180 604 141.50 528.50Q103 453 103 356Q103 186 187 106Q271 26 420 26Q476 26 521 34.50Q566 43 603 57L603 319L375 319L375 355M526 906Q520 851 487 820.50Q454 790 396 790Q338 790 305 820Q272 850 268 906L299 906Q307 824 397 824Q443 824 467 845.50Q491 867 495 906L526 906Z"  horiz-adv-x="722" vert-adv-y="1000"  />

      
      <glyph glyph-name="uni011F" unicode="&#x011F;" d="M287 540Q356 540 396 513Q436 486 459 443L462 443L468 530L500 530L500-22Q500-121 448.50-180.50Q397-240 276-240Q216-240 170.50-229.50Q125-219 89-204L89-163Q125-181 173-193Q221-205 277-205Q376-205 418.50-155.50Q461-106 461-23L461 15Q461 40 461.50 61.50Q462 83 464 108L461 108Q441 50 393.50 20Q346-10 276-10Q174-10 116 58.50Q58 127 58 258Q58 388 116 464Q174 540 287 540M289 505Q192 505 145 439.50Q98 374 98 258Q98 144 144.50 84.50Q191 25 279 25Q352 25 391.50 56.50Q431 88 446.50 138.50Q462 189 462 246L462 289Q462 353 445.50 401.50Q429 450 391.50 477.50Q354 505 289 505M413 722Q407 667 374 636.50Q341 606 283 606Q225 606 192 636Q159 666 155 722L186 722Q194 640 284 640Q330 640 354 661.50Q378 683 382 722L413 722Z"  horiz-adv-x="590" vert-adv-y="1000"  />

      
      </font>
</defs>
</svg>
