<?xml version="1.0" standalone="no"?>
  <!DOCTYPE svg PUBLIC "-//W3C//DTD SVG 1.1//EN" "http://www.w3.org/Graphics/SVG/1.1/DTD/svg11.dtd" >
  <svg>
  <metadata>
  Created by font-carrier
  </metadata>
  <defs>
  <font id="NotoSans-ExtraBoldItalic" horiz-adv-x="2837" vert-adv-y="2837" >
    <font-face
      
      font-family="Noto Sans ExtraBold"
      
      font-weight="400"
      
      font-stretch="normal"
      
      units-per-em="1000"
      
      ascent="1069"
      
      descent="-293"
      
    />
      <missing-glyph />

      

      
      <glyph glyph-name="uni21" unicode="&#x21;" d="M65 244L144 714L329 714L207 244L65 244M92-13Q46-13 27.50 9Q9 31 9 59Q9 100 35 132Q61 164 118 164Q155 164 176.50 144.50Q198 125 198 90Q198 42 169 14.50Q140-13 92-13Z"  horiz-adv-x="294" vert-adv-y="1000"  />

      
      <glyph glyph-name="uni22" unicode="&#x22;" d="M299 456L335 714L485 714L410 456L299 456M94 456L129 714L279 714L203 456L94 456Z"  horiz-adv-x="453" vert-adv-y="1000"  />

      
      <glyph glyph-name="uni23" unicode="&#x23;" d="M71 0L126 196L14 196L23 304L156 304L187 410L68 410L78 519L218 519L274 714L392 714L336 519L426 519L482 714L599 714L544 519L657 519L647 410L513 410L482 304L604 304L595 196L451 196L395 0L277 0L333 196L244 196L188 0L71 0M274 304L364 304L395 410L305 410L274 304Z"  horiz-adv-x="646" vert-adv-y="1000"  />

      
      <glyph glyph-name="uni24" unicode="&#x24;" d="M198 37Q143 41 100.50 52Q58 63 27 81L26 219Q70 197 121.50 181.50Q173 166 225 163L257 310Q187 337 142 378.50Q97 420 97 491Q97 582 163 632.50Q229 683 337 690L352 760L427 760L411 689Q452 685 488 674.50Q524 664 559 646L509 524Q481 538 448 548Q415 558 384 561L354 420Q430 388 472 349Q514 310 514 241Q514 154 451.50 98.50Q389 43 271 36L252-58L178-58L198 37M310 560Q253 551 253 499Q253 465 286 450L310 560M299 165Q362 177 362 227Q362 247 351.50 260.50Q341 274 324 282L299 165Z"  horiz-adv-x="564" vert-adv-y="1000"  />

      
      <glyph glyph-name="uni25" unicode="&#x25;" d="M203 276Q132 276 94 317.50Q56 359 56 438Q56 482 67 531.50Q78 581 102.50 625Q127 669 167 696.50Q207 724 266 724Q338 724 375.50 682.50Q413 641 413 563Q413 520 402.50 470.50Q392 421 368 376.50Q344 332 303.50 304Q263 276 203 276M127 0L658 714L785 714L257 0L127 0M212 385Q229 385 242 403Q255 421 264.50 450Q274 479 279 511Q284 543 284 570Q284 615 257 615Q242 615 229 597.50Q216 580 206.50 552Q197 524 191.50 491.50Q186 459 186 429Q186 385 212 385M652-9Q579-9 541 31Q503 71 503 147Q503 196 514.50 247Q526 298 550.50 341.50Q575 385 615 412Q655 439 713 439Q785 439 822.50 397.50Q860 356 860 280Q860 235 849.50 185Q839 135 815 90.50Q791 46 751 18.50Q711-9 652-9M659 99Q676 99 689 117.50Q702 136 711.50 164.50Q721 193 726 225.50Q731 258 731 285Q731 329 704 329Q689 329 676 311.50Q663 294 653.50 266Q644 238 638.50 206Q633 174 633 144Q633 99 659 99Z"  horiz-adv-x="890" vert-adv-y="1000"  />

      
      <glyph glyph-name="uni26" unicode="&#x26;" d="M250-10Q142-10 81 39.50Q20 89 20 181Q20 259 63.50 309.50Q107 360 193 396Q174 425 164 459Q154 493 154 520Q154 620 215.50 672.50Q277 725 377 725Q467 725 516.50 682Q566 639 566 571Q566 499 520 449Q474 399 393 362L473 251Q497 280 515 316.50Q533 353 546 391L711 391Q684 314 645 249Q606 184 559 134L655 0L464 0L435 40Q399 18 353.50 4Q308-10 250-10M329 455Q363 472 388 496Q413 520 413 556Q413 579 400 591.50Q387 604 368 604Q339 604 322.50 583.50Q306 563 306 531Q306 514 311.50 493Q317 472 329 455M272 127Q299 127 321 133Q343 139 361 148L258 297Q224 280 207.50 256Q191 232 191 197Q191 170 211 148.50Q231 127 272 127Z"  horiz-adv-x="720" vert-adv-y="1000"  />

      
      <glyph glyph-name="uni27" unicode="&#x27;" d="M94 456L129 714L279 714L203 456L94 456Z"  horiz-adv-x="247" vert-adv-y="1000"  />

      
      <glyph glyph-name="uni28" unicode="&#x28;" d="M108-158Q72-95 53.50-13.50Q35 68 35 147Q35 319 98.50 459Q162 599 282 723L424 723Q353 646 297.50 557Q242 468 210 364.50Q178 261 178 141Q178 67 193-12Q208-91 235-158L108-158Z"  horiz-adv-x="355" vert-adv-y="1000"  />

      
      <glyph glyph-name="uni29" unicode="&#x29;" d="M-69-158Q2-81 57 8Q112 97 143.50 200.50Q175 304 175 424Q175 498 160 577Q145 656 118 723L246 723Q283 658 301 577.50Q319 497 319 418Q319 246 256.50 106Q194-34 74-158L-69-158Z"  horiz-adv-x="355" vert-adv-y="1000"  />

      
      <glyph glyph-name="uni2a" unicode="&#x2a;" d="M344 276L303 433L214 305L103 390L232 506L79 550L125 675L285 592L301 768L438 740L382 573L566 587L557 453L398 473L473 315L344 276Z"  horiz-adv-x="544" vert-adv-y="1000"  />

      
      <glyph glyph-name="uni2b" unicode="&#x2b;" d="M353 412L539 412L539 293L353 293L353 111L235 111L235 293L49 293L49 412L235 412L235 596L353 596L353 412Z"  horiz-adv-x="578" vert-adv-y="1000"  />

      
      <glyph glyph-name="uni2c" unicode="&#x2c;" d="M-50-129Q-24-70 0-3Q24 64 43 116L196 116L200 105Q177 52 143-11Q109-74 74-129L-50-129Z"  horiz-adv-x="295" vert-adv-y="1000"  />

      
      <glyph glyph-name="uni2d" unicode="&#x2d;" d="M16 200L44 336L307 336L278 200L16 200Z"  horiz-adv-x="325" vert-adv-y="1000"  />

      
      <glyph glyph-name="uni2e" unicode="&#x2e;" d="M87-13Q46-13 26 7Q6 27 6 59Q6 106 35 135Q64 164 115 164Q151 164 173 145Q195 126 195 90Q195 38 165.50 12.50Q136-13 87-13Z"  horiz-adv-x="295" vert-adv-y="1000"  />

      
      <glyph glyph-name="uni2f" unicode="&#x2f;" d="M-44-5L357 719L513 719L111-5L-44-5Z"  horiz-adv-x="442" vert-adv-y="1000"  />

      
      <glyph glyph-name="uni30" unicode="&#x30;" d="M234-10Q134-10 83 50.50Q32 111 32 228Q32 322 51.50 411Q71 500 110.50 571Q150 642 210 683.50Q270 725 352 725Q454 725 503.50 660Q553 595 553 488Q553 391 534 302Q515 213 476 142.50Q437 72 376.50 31Q316-10 234-10M249 127Q273 127 294.50 150Q316 173 332.50 212Q349 251 361 299Q373 347 379 397Q385 447 385 492Q385 588 334 588Q310 588 289 563.50Q268 539 251.50 498.50Q235 458 223 409.50Q211 361 205 312.50Q199 264 199 224Q199 176 210 151.50Q221 127 249 127Z"  horiz-adv-x="564" vert-adv-y="1000"  />

      
      <glyph glyph-name="uni31" unicode="&#x31;" d="M274 398Q280 425 290.50 463.50Q301 502 311 531Q300 521 281 506.50Q262 492 248 483L151 423L82 536L370 714L506 714L355 0L187 0L274 398Z"  horiz-adv-x="564" vert-adv-y="1000"  />

      
      <glyph glyph-name="uni32" unicode="&#x32;" d="M-26 0L-3 114L232 323Q312 394 341.50 439Q371 484 371 519Q371 550 354.50 565.50Q338 581 311 581Q277 581 243 563Q209 545 167 508L86 620Q138 666 200 695Q262 724 340 724Q405 724 449.50 700.50Q494 677 517 637Q540 597 540 547Q540 492 517.50 444Q495 396 451 348.50Q407 301 340 245L224 147L224 142L483 142L454 0L-26 0Z"  horiz-adv-x="564" vert-adv-y="1000"  />

      
      <glyph glyph-name="uni33" unicode="&#x33;" d="M196-10Q141-10 91 0Q41 10 7 29L7 174Q49 149 96.50 137Q144 125 190 125Q255 125 296.50 149.50Q338 174 338 228Q338 251 327 268Q316 285 288 294.50Q260 304 207 304L152 304L176 427L213 427Q257 427 294.50 437.50Q332 448 354.50 470.50Q377 493 377 528Q377 552 360 570Q343 588 304 588Q265 588 231 574Q197 560 168 543L99 653Q148 685 202.50 704.50Q257 724 338 724Q435 724 489.50 678Q544 632 544 558Q544 482 498 433.50Q452 385 373 370L373 366Q433 355 469 315.50Q505 276 505 213Q505 147 468 96.50Q431 46 361.50 18Q292-10 196-10Z"  horiz-adv-x="564" vert-adv-y="1000"  />

      
      <glyph glyph-name="uni34" unicode="&#x34;" d="M240 0L270 143L-9 143L15 262L389 714L552 714L459 273L538 273L510 143L432 143L402 0L240 0M168 273L297 273L323 382Q329 403 335.50 429.50Q342 456 348.50 478Q355 500 358 510L354 510Q344 492 327.50 467.50Q311 443 295 423L168 273Z"  horiz-adv-x="564" vert-adv-y="1000"  />

      
      <glyph glyph-name="uni35" unicode="&#x35;" d="M205-10Q149-10 95 0.50Q41 11 12 30L12 174Q48 153 94.50 139.50Q141 126 186 126Q265 126 300 158.50Q335 191 335 239Q335 275 312 301Q289 327 234 327Q206 327 178 322Q150 317 132 311L77 352L180 714L562 714L532 572L297 572L261 454Q273 456 286 457Q299 458 311 458Q366 458 410 436Q454 414 480.50 369.50Q507 325 507 258Q507 136 430 63Q353-10 205-10Z"  horiz-adv-x="564" vert-adv-y="1000"  />

      
      <glyph glyph-name="uni36" unicode="&#x36;" d="M261-10Q149-10 95 56.50Q41 123 41 238Q41 312 58.50 386.50Q76 461 109.50 525.50Q143 590 189 633Q245 684 309 704.50Q373 725 463 725Q493 725 522 721Q551 717 575 711L547 578Q528 583 503 586.50Q478 590 456 590Q384 590 337.50 567.50Q291 545 261 500.50Q231 456 211 388L215 388Q238 421 273.50 445.50Q309 470 367 470Q440 470 483.50 423.50Q527 377 527 282Q527 231 512 179.50Q497 128 465 85Q433 42 382.50 16Q332-10 261-10M266 124Q297 124 317.50 145.50Q338 167 348.50 200Q359 233 359 269Q359 301 345 320Q331 339 302 339Q269 339 244 314Q219 289 211 257Q205 233 205 206Q205 168 221 146Q237 124 266 124Z"  horiz-adv-x="564" vert-adv-y="1000"  />

      
      <glyph glyph-name="uni37" unicode="&#x37;" d="M28 0L384 572L89 572L119 714L608 714L586 611L220 0L28 0Z"  horiz-adv-x="564" vert-adv-y="1000"  />

      
      <glyph glyph-name="uni38" unicode="&#x38;" d="M256-10Q180-10 128.50 14Q77 38 51.50 78Q26 118 26 168Q26 244 69 294.50Q112 345 192 374Q162 398 137.50 433.50Q113 469 113 523Q113 578 140.50 624Q168 670 221 697.50Q274 725 353 725Q420 725 465.50 703Q511 681 534 644Q557 607 557 562Q557 494 516 446.50Q475 399 412 378Q454 348 482.50 305.50Q511 263 511 200Q511 141 482 93.50Q453 46 396.50 18Q340-10 256-10M323 444Q360 459 380 484.50Q400 510 400 542Q400 571 383.50 586.50Q367 602 342 602Q310 602 290.50 580.50Q271 559 271 528Q271 500 285.50 478.50Q300 457 323 444M264 113Q306 113 329.50 138Q353 163 353 198Q353 234 334 260Q315 286 284 306Q238 286 212 257Q186 228 186 187Q186 153 208.50 133Q231 113 264 113Z"  horiz-adv-x="564" vert-adv-y="1000"  />

      
      <glyph glyph-name="uni39" unicode="&#x39;" d="M157-10Q125-10 96.50-5.50Q68-1 47 6L47 143Q68 135 94.50 129.50Q121 124 152 124Q220 126 263 152Q306 178 331.50 223Q357 268 370 324L366 324Q344 291 310 267.50Q276 244 221 244Q140 244 98.50 298Q57 352 57 437Q57 485 71 535.50Q85 586 116.50 629Q148 672 200 698.50Q252 725 327 725Q433 725 488 661Q543 597 543 478Q543 408 528.50 335.50Q514 263 484 197.50Q454 132 407 84Q363 41 301.50 15.50Q240-10 157-10M283 375Q316 375 339.50 400.50Q363 426 371 457Q378 481 378 507Q378 543 363 566.50Q348 590 317 590Q288 590 267 570Q246 550 235.50 518.50Q225 487 225 454Q225 375 283 375Z"  horiz-adv-x="564" vert-adv-y="1000"  />

      
      <glyph glyph-name="uni3a" unicode="&#x3a;" d="M178 382Q138 382 118 402Q98 422 98 453Q98 500 126.50 529Q155 558 207 558Q243 558 265 539.50Q287 521 287 485Q287 433 257.50 407.50Q228 382 178 382M87-13Q46-13 26 7Q6 27 6 59Q6 106 35 135Q64 164 115 164Q151 164 173 145Q195 126 195 90Q195 38 165.50 12.50Q136-13 87-13Z"  horiz-adv-x="295" vert-adv-y="1000"  />

      
      <glyph glyph-name="uni3b" unicode="&#x3b;" d="M178 382Q138 382 118 402Q98 422 98 453Q98 500 126.50 529Q155 558 207 558Q243 558 265 539.50Q287 521 287 485Q287 433 257.50 407.50Q228 382 178 382M-53-129Q-27-70-2.50-3Q22 64 40 116L194 116L198 105Q174 52 140-11Q106-74 71-129L-53-129Z"  horiz-adv-x="295" vert-adv-y="1000"  />

      
      <glyph glyph-name="uni3c" unicode="&#x3c;" d="M538 93L49 310L49 386L538 631L538 501L219 353L538 223L538 93Z"  horiz-adv-x="578" vert-adv-y="1000"  />

      
      <glyph glyph-name="uni3d" unicode="&#x3d;" d="M49 396L49 513L539 513L539 396L49 396M49 191L49 309L539 309L539 191L49 191Z"  horiz-adv-x="578" vert-adv-y="1000"  />

      
      <glyph glyph-name="uni3e" unicode="&#x3e;" d="M49 223L369 353L49 501L49 631L538 386L538 310L49 93L49 223Z"  horiz-adv-x="578" vert-adv-y="1000"  />

      
      <glyph glyph-name="uni3f" unicode="&#x3f;" d="M125 244Q134 294 148.50 328.50Q163 363 188 390Q213 417 254 445Q303 478 322 498Q341 518 341 543Q341 564 328.50 577Q316 590 286 590Q254 590 216.50 576.50Q179 563 134 539L83 661Q129 687 185 705.50Q241 724 304 724Q397 724 450 680.50Q503 637 503 561Q503 508 484 472.50Q465 437 433 411Q401 385 362 360Q329 339 311 323Q293 307 283.50 289Q274 271 266 244L125 244M158-13Q111-13 93 9Q75 31 75 59Q75 100 100.50 132Q126 164 183 164Q221 164 242 144.50Q263 125 263 90Q263 42 234 14.50Q205-13 158-13Z"  horiz-adv-x="472" vert-adv-y="1000"  />

      
      <glyph glyph-name="uni40" unicode="&#x40;" d="M386-91Q278-91 201.50-48.50Q125-6 84 69.50Q43 145 43 244Q43 359 80.50 447.50Q118 536 182.50 596.50Q247 657 330.50 688Q414 719 507 719Q615 719 693 682Q771 645 813 575.50Q855 506 855 407Q855 346 837.50 291Q820 236 787 193Q754 150 708.50 125Q663 100 606 100Q567 100 539 116.50Q511 133 500 168L495 168Q473 136 443 118Q413 100 367 100Q311 100 274 138Q237 176 237 251Q237 300 254 348.50Q271 397 304 437.50Q337 478 385.50 502.50Q434 527 498 527Q545 527 585 518.50Q625 510 659 497L609 293Q604 272 600.50 256Q597 240 597 225Q597 198 621 198Q652 198 679 225.50Q706 253 722 300Q738 347 738 405Q738 503 679 560Q620 617 495 617Q399 617 323.50 572.50Q248 528 204 447Q160 366 160 255Q160 182 187.50 127Q215 72 267 41.50Q319 11 392 11Q504 11 616 55L616-45Q571-64 511.50-77.50Q452-91 386-91M402 198Q436 198 458.50 229Q481 260 497 323L523 424Q516 427 508 428Q500 429 490 429Q456 429 431.50 412Q407 395 391 368.50Q375 342 367.50 312.50Q360 283 360 258Q360 225 372 211.50Q384 198 402 198Z"  horiz-adv-x="875" vert-adv-y="1000"  />

      
      <glyph glyph-name="uni41" unicode="&#x41;" d="M-60 0L309 714L521 714L587 0L423 0L415 153L189 153L116 0L-60 0M254 292L408 292L398 486Q396 512 395 539Q394 566 395 593L392 593Q384 568 373.50 543.50Q363 519 350 492L254 292Z"  horiz-adv-x="650" vert-adv-y="1000"  />

      
      <glyph glyph-name="uni42" unicode="&#x42;" d="M21 0L172 714L394 714Q502 714 558.50 674Q615 634 615 556Q615 484 575.50 437.50Q536 391 464 373L464 369Q510 355 537.50 320.50Q565 286 565 233Q565 151 527.50 99.50Q490 48 425.50 24Q361 0 282 0L21 0M337 435Q441 435 441 521Q441 580 368 580L313 580L282 435L337 435M284 136Q334 136 364.50 162Q395 188 395 232Q395 268 376 286.50Q357 305 314 305L255 305L219 136L284 136Z"  horiz-adv-x="626" vert-adv-y="1000"  />

      
      <glyph glyph-name="uni43" unicode="&#x43;" d="M319-10Q187-10 121.50 66.50Q56 143 56 269Q56 332 70 397Q84 462 113 520.50Q142 579 187.50 625.50Q233 672 295 698.50Q357 725 436 725Q506 725 557.50 710.50Q609 696 658 668L594 534Q554 557 517 570.50Q480 584 436 584Q384 584 344.50 556.50Q305 529 279 484.50Q253 440 240 386Q227 332 227 278Q227 131 351 131Q393 131 434.50 142Q476 153 523 172L523 31Q483 14 431.50 2Q380-10 319-10Z"  horiz-adv-x="620" vert-adv-y="1000"  />

      
      <glyph glyph-name="uni44" unicode="&#x44;" d="M21 0L172 714L370 714Q501 714 575 645Q649 576 649 444Q649 307 601.50 207.50Q554 108 464 54Q374 0 246 0L21 0M263 140Q333 140 380.50 179.50Q428 219 453 286Q478 353 478 435Q478 506 446 540.50Q414 575 358 575L312 575L219 140L263 140Z"  horiz-adv-x="680" vert-adv-y="1000"  />

      
      <glyph glyph-name="uni45" unicode="&#x45;" d="M21 0L172 714L583 714L554 576L312 576L284 439L509 439L479 301L253 301L219 140L461 140L432 0L21 0Z"  horiz-adv-x="551" vert-adv-y="1000"  />

      
      <glyph glyph-name="uni46" unicode="&#x46;" d="M21 0L172 714L580 714L551 576L312 576L278 414L500 414L470 275L247 275L190 0L21 0Z"  horiz-adv-x="549" vert-adv-y="1000"  />

      
      <glyph glyph-name="uni47" unicode="&#x47;" d="M322-10Q199-10 127.50 61.50Q56 133 56 271Q56 360 82 441.50Q108 523 160 587Q212 651 290.50 688Q369 725 474 725Q591 725 683 675L619 539Q586 558 549 570.50Q512 583 469 583Q405 583 359 554.50Q313 526 283.50 480.50Q254 435 240.50 382Q227 329 227 279Q227 205 257 168.50Q287 132 351 132Q374 132 390 134.50Q406 137 426 141L455 272L333 272L363 409L649 409L568 29Q518 13 460.50 1.50Q403-10 322-10Z"  horiz-adv-x="694" vert-adv-y="1000"  />

      
      <glyph glyph-name="uni48" unicode="&#x48;" d="M21 0L172 714L341 714L284 441L486 441L543 714L711 714L560 0L392 0L455 300L253 300L190 0L21 0Z"  horiz-adv-x="706" vert-adv-y="1000"  />

      
      <glyph glyph-name="uni49" unicode="&#x49;" d="M-32 0L-12 97L80 136L174 576L98 617L118 714L458 714L438 617L342 576L249 136L326 97L306 0L-32 0Z"  horiz-adv-x="403" vert-adv-y="1000"  />

      
      <glyph glyph-name="uni4a" unicode="&#x4a;" d="M-61-217Q-90-217-114-213Q-138-209-158-203L-158-65Q-141-69-121-72.50Q-101-76-76-76Q-29-76 0.50-48.50Q30-21 45 48L187 714L355 714L208 25Q190-62 156.50-115.50Q123-169 69.50-193Q16-217-61-217Z"  horiz-adv-x="350" vert-adv-y="1000"  />

      
      <glyph glyph-name="uni4b" unicode="&#x4b;" d="M21 0L172 714L341 714L270 387L344 489L524 714L723 714L442 378L580 0L392 0L297 286L243 255L190 0L21 0Z"  horiz-adv-x="639" vert-adv-y="1000"  />

      
      <glyph glyph-name="uni4c" unicode="&#x4c;" d="M21 0L172 714L341 714L219 139L461 139L432 0L21 0Z"  horiz-adv-x="522" vert-adv-y="1000"  />

      
      <glyph glyph-name="uni4d" unicode="&#x4d;" d="M21 0L172 714L395 714L412 192L416 192L668 714L898 714L746 0L594 0L658 306Q675 384 690.50 441.50Q706 499 715 534L711 534L452 0L295 0L279 534L275 534Q267 482 256.50 418.50Q246 355 235 300L172 0L21 0Z"  horiz-adv-x="893" vert-adv-y="1000"  />

      
      <glyph glyph-name="uni4e" unicode="&#x4e;" d="M21 0L172 714L369 714L523 209L527 209Q530 230 535 263.50Q540 297 546 332Q552 367 557 394L626 714L776 714L625 0L433 0L274 522L269 522Q269 515 266 492Q263 469 259 438Q255 407 250 375Q245 343 239 318L172 0L21 0Z"  horiz-adv-x="771" vert-adv-y="1000"  />

      
      <glyph glyph-name="uni4f" unicode="&#x4f;" d="M325-10Q192-10 124 65Q56 140 56 263Q56 347 79 429Q102 511 149 578Q196 645 268 685Q340 725 438 725Q569 725 635.50 651Q702 577 702 454Q702 369 680 286.50Q658 204 612 137Q566 70 494.50 30Q423-10 325-10M339 131Q392 131 436 172.50Q480 214 505.50 286Q531 358 531 451Q531 512 504 548Q477 584 424 584Q381 584 344.50 557.50Q308 531 282 486Q256 441 241.50 383.50Q227 326 227 264Q227 199 256 165Q285 131 339 131Z"  horiz-adv-x="733" vert-adv-y="1000"  />

      
      <glyph glyph-name="uni50" unicode="&#x50;" d="M21 0L172 714L364 714Q454 714 509 687Q564 660 588.50 612Q613 564 613 503Q613 418 572.50 361Q532 304 462 275Q392 246 301 246L241 246L190 0L21 0M318 385Q375 385 409.50 416Q444 447 444 498Q444 534 424 554.50Q404 575 363 575L312 575L271 385L318 385Z"  horiz-adv-x="616" vert-adv-y="1000"  />

      
      <glyph glyph-name="uni51" unicode="&#x51;" d="M331-10L319-10Q191-10 123.50 65Q56 140 56 263Q56 347 79 429Q102 511 149 578Q196 645 268.50 685Q341 725 439 725Q569 725 635.50 651Q702 577 702 454Q702 367 679 283.50Q656 200 608 133Q560 66 487 28L607-170L414-170L331-10M335 133Q390 133 434.50 174Q479 215 505 287Q531 359 531 452Q531 514 504 548.50Q477 583 426 583Q382 583 346 558Q310 533 283 488.50Q256 444 241.50 386Q227 328 227 262Q227 198 255.50 165.50Q284 133 335 133Z"  horiz-adv-x="733" vert-adv-y="1000"  />

      
      <glyph glyph-name="uni52" unicode="&#x52;" d="M21 0L172 714L354 714Q468 714 532 666.50Q596 619 596 518Q596 457 575 414Q554 371 520 343.50Q486 316 448 301L576 0L392 0L294 268L246 268L190 0L21 0M307 401Q359 401 392.50 426.50Q426 452 426 508Q426 541 406.50 560.50Q387 580 344 580L312 580L275 401L307 401Z"  horiz-adv-x="628" vert-adv-y="1000"  />

      
      <glyph glyph-name="uni53" unicode="&#x53;" d="M199-10Q145-10 99 2Q53 14 20 35L20 186Q62 162 109.50 146Q157 130 202 130Q246 130 272.50 147Q299 164 299 199Q299 233 275 256Q251 279 215 306Q168 342 133.50 388.50Q99 435 99 505Q99 569 130 618.50Q161 668 217 696Q273 724 348 724Q405 724 455 711.50Q505 699 549 674L490 546Q454 563 418 574Q382 585 349 585Q309 585 289 565Q269 545 269 517Q269 486 289 464Q309 442 353 411Q412 370 440.50 323Q469 276 469 215Q469 142 434.50 91.50Q400 41 339.50 15.50Q279-10 199-10Z"  horiz-adv-x="538" vert-adv-y="1000"  />

      
      <glyph glyph-name="uni54" unicode="&#x54;" d="M123 0L243 573L79 573L109 714L607 714L576 573L412 573L291 0L123 0Z"  horiz-adv-x="541" vert-adv-y="1000"  />

      
      <glyph glyph-name="uni55" unicode="&#x55;" d="M296-10Q185-10 125 46.50Q65 103 65 194Q65 209 66.50 227.50Q68 246 72 263L168 714L337 714L242 266Q238 251 236 235.50Q234 220 234 208Q234 132 313 132Q368 132 397 165.50Q426 199 441 272L535 714L704 714L606 255Q589 174 552.50 114.50Q516 55 453.50 22.50Q391-10 296-10Z"  horiz-adv-x="696" vert-adv-y="1000"  />

      
      <glyph glyph-name="uni56" unicode="&#x56;" d="M139 0L82 714L246 714L265 316Q266 293 266 263.50Q266 234 265 206Q264 178 261 158L265 158Q275 194 289 233Q303 272 317 301L509 714L685 714L325 0L139 0Z"  horiz-adv-x="602" vert-adv-y="1000"  />

      
      <glyph glyph-name="uni57" unicode="&#x57;" d="M106 0L83 714L242 714L241 339Q241 299 239 252.50Q237 206 233 170L237 170Q249 206 265.50 248.50Q282 291 297 325L469 714L616 714L621 320Q622 303 621.50 276.50Q621 250 620 221Q619 192 617 167L621 167Q633 207 651.50 258Q670 309 685 347L834 714L1003 714L690 0L495 0L490 301Q490 354 490 392Q490 430 493 469L489 469Q461 385 428 309L292 0L106 0Z"  horiz-adv-x="913" vert-adv-y="1000"  />

      
      <glyph glyph-name="uni58" unicode="&#x58;" d="M-59 0L219 376L107 714L284 714L352 472L517 714L709 714L444 360L574 0L389 0L311 255L131 0L-59 0Z"  horiz-adv-x="632" vert-adv-y="1000"  />

      
      <glyph glyph-name="uni59" unicode="&#x59;" d="M143 0L201 275L86 714L259 714L313 436L482 714L670 714L369 275L311 0L143 0Z"  horiz-adv-x="582" vert-adv-y="1000"  />

      
      <glyph glyph-name="uni5a" unicode="&#x5a;" d="M-37 0L-16 107L344 575L93 575L122 714L590 714L568 605L204 139L483 139L454 0L-37 0Z"  horiz-adv-x="537" vert-adv-y="1000"  />

      
      <glyph glyph-name="uni5b" unicode="&#x5b;" d="M-22-163L167 723L411 723L387 611L282 611L141-50L246-50L222-163L-22-163Z"  horiz-adv-x="344" vert-adv-y="1000"  />

      
      <glyph glyph-name="uni5c" unicode="&#x5c;" d="M219-5L108 719L246 719L361-5L219-5Z"  horiz-adv-x="442" vert-adv-y="1000"  />

      
      <glyph glyph-name="uni5d" unicode="&#x5d;" d="M-66-163L-42-50L62-50L202 611L97 611L122 723L365 723L176-163L-66-163Z"  horiz-adv-x="344" vert-adv-y="1000"  />

      
      <glyph glyph-name="uni5e" unicode="&#x5e;" d="M8 250L313 716L390 716L527 250L406 250L326 545L139 250L8 250Z"  horiz-adv-x="544" vert-adv-y="1000"  />

      
      <glyph glyph-name="uni5f" unicode="&#x5f;" d="M-91-170L-70-78L356-78L335-170L-91-170Z"  horiz-adv-x="423" vert-adv-y="1000"  />

      
      <glyph glyph-name="uni60" unicode="&#x60;" d="M265 606Q244 626 220.50 652Q197 678 176.50 705Q156 732 145 756L145 766L315 766Q323 733 336 694Q349 655 367 618L367 606L265 606Z"  horiz-adv-x="336" vert-adv-y="1000"  />

      
      <glyph glyph-name="uni61" unicode="&#x61;" d="M198-10Q157-10 121.50 10Q86 30 64.50 74.50Q43 119 43 194Q43 253 59 317Q75 381 107 436Q139 491 185.50 525Q232 559 292 559Q342 559 373.50 537.50Q405 516 424 480L428 480L455 549L586 549L469 0L340 0L346 66L342 66Q317 32 282.50 11Q248-10 198-10M265 124Q291 124 313.50 146Q336 168 352 203Q368 238 375 277Q378 295 379.50 312.50Q381 330 381 350Q381 383 366.50 404Q352 425 326 425Q303 425 282 405.50Q261 386 245.50 353.50Q230 321 221 282Q212 243 212 203Q212 124 265 124Z"  horiz-adv-x="600" vert-adv-y="1000"  />

      
      <glyph glyph-name="uni62" unicode="&#x62;" d="M309-10Q261-10 229.50 9.50Q198 29 175 66L171 66L145 0L15 0L176 760L342 760L315 632Q307 595 294.50 553Q282 511 273 485L277 485Q300 514 327 536.50Q354 559 403 559Q443 559 478.50 539.50Q514 520 536 475Q558 430 558 355Q558 296 541.50 232Q525 168 493.50 113Q462 58 415.50 24Q369-10 309-10M274 124Q297 124 318 143.50Q339 163 355 195.50Q371 228 380 267.50Q389 307 389 346Q389 425 335 425Q305 425 283.50 402Q262 379 248 344Q234 309 227 271Q220 233 220 203Q220 167 234 145.50Q248 124 274 124Z"  horiz-adv-x="601" vert-adv-y="1000"  />

      
      <glyph glyph-name="uni63" unicode="&#x63;" d="M247-10Q191-10 144.50 11.50Q98 33 70.50 80Q43 127 43 203Q43 276 62.50 340.50Q82 405 120 454Q158 503 212 531Q266 559 335 559Q385 559 425.50 549.50Q466 540 504 522L452 397Q426 409 399 417.50Q372 426 342 426Q310 426 285.50 406.50Q261 387 244 355.50Q227 324 219 287Q211 250 211 215Q211 167 230 145.50Q249 124 284 124Q320 124 352.50 135.50Q385 147 420 165L420 31Q383 12 342 1Q301-10 247-10Z"  horiz-adv-x="493" vert-adv-y="1000"  />

      
      <glyph glyph-name="uni64" unicode="&#x64;" d="M198-10Q157-10 121.50 10Q86 30 64.50 74.50Q43 119 43 195Q43 254 59 317.50Q75 381 107 436Q139 491 185.50 525Q232 559 292 559Q339 559 365 537.50Q391 516 412 482L416 482Q416 486 417.50 506Q419 526 422 551Q425 576 429 598L463 760L630 760L469 0L339 0L346 66L342 66Q317 33 284 11.50Q251-10 198-10M267 124Q296 124 317.50 147Q339 170 353 205.50Q367 241 374 279Q381 317 381 346Q381 382 367 403.50Q353 425 327 425Q303 425 282.50 405.50Q262 386 246 353.50Q230 321 221 282Q212 243 212 203Q212 124 267 124Z"  horiz-adv-x="599" vert-adv-y="1000"  />

      
      <glyph glyph-name="uni65" unicode="&#x65;" d="M260-10Q160-10 101.50 45Q43 100 43 205Q43 273 62.50 336.50Q82 400 120.50 450Q159 500 217.50 529.50Q276 559 353 559Q445 559 494.50 517Q544 475 544 408Q544 319 469 265.50Q394 212 237 212L211 212Q210 208 210 204.50Q210 201 210 197Q210 157 233 135Q256 113 299 113Q342 113 378 124Q414 135 460 157L460 36Q416 14 370.50 2Q325-10 260-10M246 320Q321 320 353 345Q385 370 385 401Q385 443 339 443Q314 443 291 426Q268 409 251 381Q234 353 228 320L246 320Z"  horiz-adv-x="567" vert-adv-y="1000"  />

      
      <glyph glyph-name="uni66" unicode="&#x66;" d="M-12-240Q-37-240-63-236.50Q-89-233-105-228L-105-96Q-74-105-48-105Q19-105 34-32L131 423L50 423L68 505L158 548L167 587Q188 684 238 724.50Q288 765 370 765Q406 765 438.50 758Q471 751 496 739L453 621Q438 627 422 631.50Q406 636 389 636Q366 636 351 621Q336 606 331 582L324 549L429 549L402 423L297 423L194-58Q183-109 159-150.50Q135-192 93.50-216Q52-240-12-240Z"  horiz-adv-x="390" vert-adv-y="1000"  />

      
      <glyph glyph-name="uni67" unicode="&#x67;" d="M191-240Q130-240 89.50-231Q49-222 13-207L13-66Q51-87 94-97.50Q137-108 184-108Q280-108 304-20L308-2Q312 13 317.50 32Q323 51 327 64L323 64Q300 35 269 13.50Q238-8 189-8Q149-8 115.50 12.50Q82 33 62.50 77Q43 121 43 193Q43 253 59.50 317Q76 381 107.50 436Q139 491 185 525Q231 559 290 559Q341 559 370 539Q399 519 424 480L428 480L455 549L586 549L466-13Q448-99 408.50-148.50Q369-198 314-219Q259-240 191-240M268 124Q295 124 316 145.50Q337 167 351.50 201Q366 235 373.50 273.50Q381 312 381 346Q381 382 367 403.50Q353 425 327 425Q303 425 282 405.50Q261 386 245.50 353.50Q230 321 221 282Q212 243 212 203Q212 124 268 124Z"  horiz-adv-x="600" vert-adv-y="1000"  />

      
      <glyph glyph-name="uni68" unicode="&#x68;" d="M15 0L176 760L342 760L315 633Q308 598 295 555.50Q282 513 272 485L276 485Q304 521 339.50 540Q375 559 420 559Q493 559 528 514.50Q563 470 563 402Q563 380 560 354.50Q557 329 552 303L488 0L322 0L387 311Q390 326 392.50 343Q395 360 395 374Q395 400 383 413Q371 426 350 426Q310 426 280.50 377Q251 328 233 246L181 0L15 0Z"  horiz-adv-x="612" vert-adv-y="1000"  />

      
      <glyph glyph-name="uni69" unicode="&#x69;" d="M237 610Q202 610 178 624.50Q154 639 154 674Q154 720 180 744Q206 768 253 768Q286 768 310.50 754Q335 740 335 704Q335 662 311 636Q287 610 237 610M15 0L131 549L298 549L181 0L15 0Z"  horiz-adv-x="310" vert-adv-y="1000"  />

      
      <glyph glyph-name="uni6a" unicode="&#x6a;" d="M239 610Q204 610 180.50 624.50Q157 639 157 674Q157 720 183 744Q209 768 255 768Q288 768 313 754Q338 740 338 704Q338 662 314 636Q290 610 239 610M-37-240Q-61-240-87-236.50Q-113-233-129-228L-129-96Q-112-101-99.50-103Q-87-105-73-105Q-43-105-20.50-87Q2-69 11-27L134 549L300 549L172-53Q161-103 137-145.50Q113-188 71-214Q29-240-37-240Z"  horiz-adv-x="310" vert-adv-y="1000"  />

      
      <glyph glyph-name="uni6b" unicode="&#x6b;" d="M15 0L175 760L341 760L271 428Q265 402 255.50 369Q246 336 241 320L245 320L452 549L642 549L400 301L537 0L350 0L271 199L216 168L181 0L15 0Z"  horiz-adv-x="591" vert-adv-y="1000"  />

      
      <glyph glyph-name="uni6c" unicode="&#x6c;" d="M15 0L176 760L342 760L181 0L15 0Z"  horiz-adv-x="310" vert-adv-y="1000"  />

      
      <glyph glyph-name="uni6d" unicode="&#x6d;" d="M15 0L131 549L261 549L252 453L256 453Q287 504 326.50 531.50Q366 559 423 559Q479 559 510 531Q541 503 552 453L556 453Q588 503 630 531Q672 559 728 559Q796 559 831 517Q866 475 866 399Q866 359 855 306L791 0L625 0L690 314Q693 327 695.50 343Q698 359 698 375Q698 426 656 426Q612 426 583 376Q554 326 537 245L487 0L320 0L386 314Q389 328 391.50 344Q394 360 394 372Q394 426 352 426Q312 426 282.50 379Q253 332 234 246L181 0L15 0Z"  horiz-adv-x="915" vert-adv-y="1000"  />

      
      <glyph glyph-name="uni6e" unicode="&#x6e;" d="M15 0L131 549L261 549L253 459L257 459Q287 507 326 533Q365 559 420 559Q493 559 528 514.50Q563 470 563 402Q563 380 560 354.50Q557 329 552 303L488 0L322 0L387 311Q390 326 392.50 343Q395 360 395 374Q395 400 383 413Q371 426 350 426Q310 426 280 376.50Q250 327 233 246L181 0L15 0Z"  horiz-adv-x="612" vert-adv-y="1000"  />

      
      <glyph glyph-name="uni6f" unicode="&#x6f;" d="M253-10Q157-10 100 46Q43 102 43 201Q43 273 61.50 337.50Q80 402 118 452Q156 502 212 530.50Q268 559 343 559Q441 559 497 503Q553 447 553 345Q553 275 534.50 211Q516 147 478.50 97Q441 47 385 18.50Q329-10 253-10M270 120Q304 120 330 153Q356 186 370 238Q384 290 384 347Q384 384 370.50 406.50Q357 429 327 429Q299 429 277.50 408Q256 387 241.50 352.50Q227 318 219 277.50Q211 237 211 199Q211 120 270 120Z"  horiz-adv-x="595" vert-adv-y="1000"  />

      
      <glyph glyph-name="uni70" unicode="&#x70;" d="M-36-240L131 549L261 549L254 476L258 476Q282 511 317 535Q352 559 400 559Q466 559 512 510Q558 461 558 358Q558 291 540.50 225.50Q523 160 490 106.50Q457 53 411 21.50Q365-10 307-10Q263-10 235.50 11.50Q208 33 188 66L184 66Q181 26 176-9.50Q171-45 161-95L130-240L-36-240M276 124Q300 124 320.50 143.50Q341 163 356 195.50Q371 228 380 267.50Q389 307 389 346Q389 425 335 425Q306 425 284 402.50Q262 380 248 345Q234 310 227 272Q220 234 220 203Q220 167 235 145.50Q250 124 276 124Z"  horiz-adv-x="601" vert-adv-y="1000"  />

      
      <glyph glyph-name="uni71" unicode="&#x71;" d="M286-85Q293-50 306-6.50Q319 37 328 64L324 64Q301 34 270 12Q239-10 190-10Q154-10 120 10Q86 30 64.50 74.50Q43 119 43 193Q43 253 59 317Q75 381 107 436Q139 491 185.50 525Q232 559 292 559Q340 559 369.50 539Q399 519 424 480L428 480L455 549L586 549L418-240L251-240L286-85M268 124Q297 124 318 147Q339 170 353 205.50Q367 241 374 279Q381 317 381 346Q381 382 367 403.50Q353 425 327 425Q303 425 282.50 405.50Q262 386 246 353.50Q230 321 221 282Q212 243 212 203Q212 124 268 124Z"  horiz-adv-x="600" vert-adv-y="1000"  />

      
      <glyph glyph-name="uni72" unicode="&#x72;" d="M15 0L131 549L261 549L252 452L256 452Q290 507 330 533Q370 559 424 559Q436 559 448.50 558Q461 557 468 555L432 392Q422 396 408 398.50Q394 401 377 401Q328 401 289.50 364Q251 327 233 244L181 0L15 0Z"  horiz-adv-x="428" vert-adv-y="1000"  />

      
      <glyph glyph-name="uni73" unicode="&#x73;" d="M181-10Q77-10 13 22L13 157Q91 113 172 113Q198 113 224 123.50Q250 134 250 160Q250 173 244 183Q238 193 221 205Q204 217 171 236Q119 265 93.50 299Q68 333 68 385Q68 466 123.50 512.50Q179 559 285 559Q335 559 379.50 547.50Q424 536 466 510L413 397Q385 415 351.50 427.50Q318 440 287 440Q266 440 251.50 430.50Q237 421 237 400Q237 383 252.50 370.50Q268 358 307 338Q359 312 389 275.50Q419 239 419 186Q419 88 354.50 39Q290-10 181-10Z"  horiz-adv-x="486" vert-adv-y="1000"  />

      
      <glyph glyph-name="uni74" unicode="&#x74;" d="M200-10Q132-10 94 19Q56 48 56 119Q56 135 58.50 154.50Q61 174 64 191L114 423L39 423L56 505L156 547L222 663L331 663L307 549L447 549L419 423L280 423L231 195Q229 185 227.50 174.50Q226 164 226 158Q226 140 236 132Q246 124 263 124Q283 124 303 129.50Q323 135 347 144L347 19Q320 6 283.50-2Q247-10 200-10Z"  horiz-adv-x="432" vert-adv-y="1000"  />

      
      <glyph glyph-name="uni75" unicode="&#x75;" d="M193-10Q119-10 85 34.50Q51 79 51 147Q51 196 63 255L125 549L291 549L226 239Q223 224 220.50 207Q218 190 218 175Q218 149 230 136.50Q242 124 263 124Q302 124 332 173Q362 222 380 303L432 549L598 549L482 0L352 0L360 90L355 90Q326 42 287 16Q248-10 193-10Z"  horiz-adv-x="612" vert-adv-y="1000"  />

      
      <glyph glyph-name="uni76" unicode="&#x76;" d="M116 0L47 549L211 549L228 267Q229 248 229 221Q229 194 229 172L233 172Q240 192 250 218.50Q260 245 268 261L406 549L585 549L288 0L116 0Z"  horiz-adv-x="527" vert-adv-y="1000"  />

      
      <glyph glyph-name="uni77" unicode="&#x77;" d="M84 0L56 549L212 549L213 294Q213 260 212 226Q211 192 207 157L211 157Q217 177 225 201Q233 225 240.50 246Q248 267 253 278L363 549L541 549L534 283Q534 258 533 226Q532 194 528 157L533 157Q543 189 556 227.50Q569 266 581 295L690 549L857 549L597 0L415 0L416 238Q417 261 418 291.50Q419 322 421 354Q423 386 425 411L420 411Q408 372 392 326Q376 280 364 252L261 0L84 0Z"  horiz-adv-x="804" vert-adv-y="1000"  />

      
      <glyph glyph-name="uni78" unicode="&#x78;" d="M-53 0L179 281L74 549L253 549L300 391L407 549L603 549L376 272L491 0L309 0L258 164L141 0L-53 0Z"  horiz-adv-x="547" vert-adv-y="1000"  />

      
      <glyph glyph-name="uni79" unicode="&#x79;" d="M7-240Q-20-240-37.50-237.50Q-55-235-66-231L-66-99Q-55-101-41.50-103Q-28-105-11-105Q34-105 62.50-82Q91-59 113-19L125 3L45 549L211 549L234 296Q237 266 237.50 234Q238 202 238 176L242 176Q250 200 261 230.50Q272 261 286 291L405 549L584 549L255-74Q210-159 150-199.50Q90-240 7-240Z"  horiz-adv-x="531" vert-adv-y="1000"  />

      
      <glyph glyph-name="uni7a" unicode="&#x7a;" d="M-22 0L-3 97L262 420L79 420L107 549L487 549L464 442L204 129L405 129L377 0L-22 0Z"  horiz-adv-x="469" vert-adv-y="1000"  />

      
      <glyph glyph-name="uni7b" unicode="&#x7b;" d="M229-158Q136-158 97-123Q58-88 58-31Q58-14 60 1Q62 16 65 31L84 119Q86 127 87.50 135.50Q89 144 89 151Q89 184 66.50 201Q44 218-6 218L18 343Q78 343 108.50 363Q139 383 150 430L178 560Q189 609 210.50 643.50Q232 678 271.50 696Q311 714 376 714L427 714L400 592Q364 591 342 578Q320 565 312 525L283 389Q271 334 235 308.50Q199 283 147 277L147 273Q189 260 209.50 232Q230 204 230 164Q230 153 228 141.50Q226 130 223 117L206 34Q203 19 203 9Q203-16 218.50-26Q234-36 261-36L261-158L229-158Z"  horiz-adv-x="357" vert-adv-y="1000"  />

      
      <glyph glyph-name="uni7c" unicode="&#x7c;" d="M219-227L219 757L338 757L338-227L219-227Z"  horiz-adv-x="558" vert-adv-y="1000"  />

      
      <glyph glyph-name="uni7d" unicode="&#x7d;" d="M-54-36Q-10-34 11.50-21.50Q33-9 41 31L70 167Q82 222 117.50 247.50Q153 273 206 279L206 283Q163 296 143 324Q123 352 123 392Q123 403 125 414.50Q127 426 129 439L147 522Q150 537 150 547Q150 592 81 592L104 714L126 714Q219 714 257 677.50Q295 641 295 587Q295 557 288 525L269 437Q267 429 265.50 420.50Q264 412 264 405Q264 338 362 338L338 213Q278 213 245.50 193Q213 173 203 126L175-4Q158-78 114.50-118Q71-158-26-158L-54-158L-54-36Z"  horiz-adv-x="357" vert-adv-y="1000"  />

      
      <glyph glyph-name="uni7e" unicode="&#x7e;" d="M276 295Q239 311 212.50 316.50Q186 322 163 322Q134 322 104 305Q74 288 49 263L49 388Q100 441 176 441Q205 441 234.50 435Q264 429 312 410Q349 394 376 388.50Q403 383 425 383Q454 383 484 400Q514 417 539 442L539 317Q488 264 412 264Q383 264 353.50 270Q324 276 276 295Z"  horiz-adv-x="578" vert-adv-y="1000"  />

      
      <glyph glyph-name="unia1" unicode="&#xa1;" d="M168 378Q130 378 109 397Q88 416 88 451Q88 499 117 526.50Q146 554 193 554Q240 554 258 532Q276 510 276 483Q276 441 250.50 409.50Q225 378 168 378M-44-174L81 296L218 296L142-174L-44-174Z"  horiz-adv-x="294" vert-adv-y="1000"  />

      
      <glyph glyph-name="unia2" unicode="&#xa2;" d="M210 93Q153 108 115.50 153.50Q78 199 78 285Q78 380 107.50 458Q137 536 193 587Q249 638 327 649L343 724L444 724L427 649Q460 644 486.50 635.50Q513 627 539 615L487 490Q458 503 433 510.50Q408 518 377 518Q345 518 320.50 498.50Q296 479 279.50 447.50Q263 416 255 377.50Q247 339 247 301Q247 258 265.50 237.50Q284 217 319 217Q355 217 387.50 229Q420 241 455 259L455 124Q422 107 387 96.50Q352 86 307 83L287-10L186-10L210 93Z"  horiz-adv-x="564" vert-adv-y="1000"  />

      
      <glyph glyph-name="unia3" unicode="&#xa3;" d="M20 135Q70 149 97 176.50Q124 204 136 259L147 308L54 308L78 429L171 429L189 523Q210 632 270 678.50Q330 725 421 725Q476 725 520.50 712.50Q565 700 602 683L540 554Q509 569 482 577.50Q455 586 429 586Q402 586 384.50 570Q367 554 359 515L341 429L476 429L451 308L316 308L306 265Q296 218 268 188Q240 158 206 143L514 143L484 0L-7 0L20 135Z"  horiz-adv-x="564" vert-adv-y="1000"  />

      
      <glyph glyph-name="unia4" unicode="&#xa4;" d="M382 179Q362 170 338 163.50Q314 157 289 157Q263 157 239.50 162Q216 167 195 179L134 120L55 199L117 260Q93 303 93 353Q93 379 99.50 402.50Q106 426 117 446L54 508L134 588L196 527Q217 537 241.50 543.50Q266 550 289 550Q338 550 382 525L444 588L526 510L463 447Q486 405 486 353Q486 303 463 259L523 198L444 119L382 179M289 269Q325 269 350 293.50Q375 318 375 353Q375 389 350 413Q325 437 289 437Q254 437 230 413Q206 389 206 353Q206 318 230 293.50Q254 269 289 269Z"  horiz-adv-x="564" vert-adv-y="1000"  />

      
      <glyph glyph-name="unia5" unicode="&#xa5;" d="M136 0L158 101L40 101L60 194L177 194L190 259L73 259L94 352L185 352L93 714L258 714L304 449L467 714L638 714L395 352L489 352L469 259L352 259L339 194L455 194L436 101L320 101L298 0L136 0Z"  horiz-adv-x="564" vert-adv-y="1000"  />

      
      <glyph glyph-name="unia6" unicode="&#xa6;" d="M220 352L220 756L338 756L338 352L220 352M220-222L220 181L338 181L338-222L220-222Z"  horiz-adv-x="558" vert-adv-y="1000"  />

      
      <glyph glyph-name="unia7" unicode="&#xa7;" d="M179-11Q125-11 83.50 0.50Q42 12 14 30L14 145Q51 122 94.50 106.50Q138 91 185 91Q230 91 249.50 108Q269 125 269 147Q269 167 252.50 183Q236 199 196 220Q140 249 107.50 285.50Q75 322 75 374Q75 459 168 516Q149 534 136.50 559Q124 584 124 610Q124 689 184 728Q244 767 340 767Q389 767 430.50 754.50Q472 742 512 721L468 620Q441 637 406 651Q371 665 327 665Q265 665 265 620Q265 601 281 585.50Q297 570 342 549Q406 521 433.50 484Q461 447 461 400Q461 342 434 309Q407 276 372 255Q390 237 401 212Q412 187 412 159Q412 78 349.50 33.50Q287-11 179-11M289 306Q305 317 318.50 335Q332 353 332 379Q332 431 251 464Q230 453 216.50 433.50Q203 414 203 393Q203 367 225 346.50Q247 326 289 306Z"  horiz-adv-x="495" vert-adv-y="1000"  />

      
      <glyph glyph-name="unia8" unicode="&#xa8;" d="M467 618Q436 618 416 630Q396 642 396 675Q396 718 418 738.50Q440 759 481 759Q508 759 529.50 747.50Q551 736 551 702Q551 664 532 641Q513 618 467 618M257 618Q226 618 205.50 630Q185 642 185 675Q185 718 207.50 738.50Q230 759 270 759Q297 759 319 747.50Q341 736 341 702Q341 664 321.50 641Q302 618 257 618Z"  horiz-adv-x="554" vert-adv-y="1000"  />

      
      <glyph glyph-name="unia9" unicode="&#xa9;" d="M414-10Q334-10 267 17Q200 44 150.50 93.50Q101 143 74 210Q47 277 47 357Q47 435 74.50 501.50Q102 568 151.50 618Q201 668 268 696Q335 724 414 724Q492 724 559 697Q626 670 675.50 620.50Q725 571 753 504Q781 437 781 357Q781 277 754 210Q727 143 677.50 93.50Q628 44 561 17Q494-10 414-10M414 61Q496 61 561 99Q626 137 664 203.50Q702 270 702 357Q702 441 664.50 508Q627 575 562 614Q497 653 414 653Q330 653 264.50 615Q199 577 161.50 510.50Q124 444 124 357Q124 270 161 203.50Q198 137 263.50 99Q329 61 414 61M423 128Q318 128 265.50 191Q213 254 213 358Q213 459 266.50 522.50Q320 586 423 586Q460 586 495 577Q530 568 561 552L525 470Q474 496 427 496Q377 496 349.50 459.50Q322 423 322 357Q322 287 347 252Q372 217 428 217Q486 217 543 245L543 155Q516 142 488 135Q460 128 423 128Z"  horiz-adv-x="828" vert-adv-y="1000"  />

      
      <glyph glyph-name="uniaa" unicode="&#xaa;" d="M176 361Q152 361 127.50 373Q103 385 87 414Q71 443 71 493Q71 528 81 567.50Q91 607 112 642Q133 677 164.50 698.50Q196 720 240 720Q275 720 296.50 707Q318 694 335 671L339 671L357 714L442 714L363 367L280 367L284 410L280 410Q262 389 236.50 375Q211 361 176 361M225 442Q246 442 261 457.50Q276 473 285.50 496Q295 519 299.50 543Q304 567 304 585Q304 607 295 623Q286 639 265 639Q241 639 223.50 616Q206 593 196 559Q186 525 186 493Q186 442 225 442Z"  horiz-adv-x="389" vert-adv-y="1000"  />

      
      <glyph glyph-name="uniab" unicode="&#xab;" d="M381 41L284 276L284 283L485 516L594 428L458 271L521 99L381 41M127 41L33 269L33 277L230 515L340 428L206 265L267 99L127 41Z"  horiz-adv-x="590" vert-adv-y="1000"  />

      
      <glyph glyph-name="uniac" unicode="&#xac;" d="M539 412L539 119L420 119L420 293L49 293L49 412L539 412Z"  horiz-adv-x="578" vert-adv-y="1000"  />

      
      <glyph glyph-name="uniad" unicode="&#xad;" d="M16 200L44 336L307 336L278 200L16 200Z"  horiz-adv-x="325" vert-adv-y="1000"  />

      
      <glyph glyph-name="uniae" unicode="&#xae;" d="M414-10Q334-10 267 17Q200 44 150.50 93.50Q101 143 74 210Q47 277 47 357Q47 435 74.50 501.50Q102 568 151.50 618Q201 668 268 696Q335 724 414 724Q492 724 559 697Q626 670 675.50 620.50Q725 571 753 504Q781 437 781 357Q781 277 754 210Q727 143 677.50 93.50Q628 44 561 17Q494-10 414-10M414 61Q496 61 561 99Q626 137 664 203.50Q702 270 702 357Q702 441 664.50 508Q627 575 562 614Q497 653 414 653Q330 653 264.50 615Q199 577 161.50 510.50Q124 444 124 357Q124 270 161 203.50Q198 137 263.50 99Q329 61 414 61M264 145L264 580L399 580Q491 580 532 545.50Q573 511 573 447Q573 398 551 371Q529 344 499 331L605 145L494 145L410 307L368 307L368 145L264 145M398 383Q468 383 468 444Q468 475 451 487Q434 499 398 499L368 499L368 383L398 383Z"  horiz-adv-x="828" vert-adv-y="1000"  />

      
      <glyph glyph-name="uniaf" unicode="&#xaf;" d="M93 760L118 868L600 868L575 760L93 760Z"  horiz-adv-x="477" vert-adv-y="1000"  />

      
      <glyph glyph-name="unib0" unicode="&#xb0;" d="M213 377Q161 377 121 399Q81 421 58 460Q35 499 35 550Q35 600 58 639.50Q81 679 121 701.50Q161 724 213 724Q265 724 304.50 701.50Q344 679 366.50 640Q389 601 389 550Q389 499 366.50 460Q344 421 304.50 399Q265 377 213 377M213 481Q243 481 263 500Q283 519 283 550Q283 583 263 602Q243 621 213 621Q182 621 162 602Q142 583 142 550Q142 519 162 500Q182 481 213 481Z"  horiz-adv-x="425" vert-adv-y="1000"  />

      
      <glyph glyph-name="unib1" unicode="&#xb1;" d="M353 448L539 448L539 329L353 329L353 147L235 147L235 329L49 329L49 448L235 448L235 632L353 632L353 448M49 0L49 118L539 118L539 0L49 0Z"  horiz-adv-x="578" vert-adv-y="1000"  />

      
      <glyph glyph-name="unib2" unicode="&#xb2;" d="M58 415L77 505L211 610Q260 648 282 671Q304 694 304 717Q304 734 293.50 742Q283 750 268 750Q248 750 224.50 740.50Q201 731 176 711L122 795Q160 824 201.50 838.50Q243 853 302 853Q363 853 402 823.50Q441 794 441 746Q441 707 425 677.50Q409 648 377 621Q345 594 298 561L247 525L410 525L387 415L58 415Z"  horiz-adv-x="395" vert-adv-y="1000"  />

      
      <glyph glyph-name="unib3" unicode="&#xb3;" d="M218 408Q174 408 139 415.50Q104 423 78 438L78 540Q107 521 139 511.50Q171 502 202 502Q238 502 260 514.50Q282 527 282 551Q282 567 270 578.50Q258 590 226 590L166 590L185 676L230 676Q268 676 290.50 688Q313 700 313 725Q313 742 301.50 750.50Q290 759 271 759Q250 759 228.50 751.50Q207 744 179 727L135 807Q172 831 209.50 842Q247 853 295 853Q364 853 400.50 824Q437 795 437 750Q437 699 406 674Q375 649 328 638L328 634Q371 624 388.50 601.50Q406 579 406 547Q406 503 381 472Q356 441 313.50 424.50Q271 408 218 408Z"  horiz-adv-x="395" vert-adv-y="1000"  />

      
      <glyph glyph-name="unib4" unicode="&#xb4;" d="M113 618Q142 646 175.50 688Q209 730 234 766L421 766L421 758Q411 745 388 724.50Q365 704 336.50 681.50Q308 659 280.50 639Q253 619 232 606L113 606L113 618Z"  horiz-adv-x="358" vert-adv-y="1000"  />

      
      <glyph glyph-name="uni03BC" unicode="&#x03BC;" d="M-36-240L131 549L298 549L233 241Q230 226 227.50 208Q225 190 225 176Q225 151 238 137.50Q251 124 271 124Q316 124 342.50 171.50Q369 219 386 302L438 549L605 549L488 0L364 0L370 74L365 74Q320-10 253-10Q203-10 184 25L180 25Q177-5 172-37Q167-69 160-101L131-240L-36-240Z"  horiz-adv-x="619" vert-adv-y="1000"  />

      
      <glyph glyph-name="unib6" unicode="&#xb6;" d="M333 273Q318 269 303 266.50Q288 264 267 264Q205 264 159 287Q113 310 87.50 364Q62 418 62 509Q62 605 89.50 659.50Q117 714 166.50 737Q216 760 282 760L583 760L583-127L498-127L498 656L419 656L419-127L333-127L333 273Z"  horiz-adv-x="649" vert-adv-y="1000"  />

      
      <glyph glyph-name="unib7" unicode="&#xb7;" d="M141 265Q100 265 80 285Q60 305 60 337Q60 384 89 413Q118 442 169 442Q205 442 227 423Q249 404 249 368Q249 316 219.50 290.50Q190 265 141 265Z"  horiz-adv-x="295" vert-adv-y="1000"  />

      
      <glyph glyph-name="unib8" unicode="&#xb8;" d="M-21-240Q-47-240-68.50-236.50Q-90-233-104-228L-104-137Q-91-142-71-145.50Q-51-149-37-149Q5-149 5-117Q5-102-9.50-89.50Q-24-77-65-71L-23 0L72 0L56-28Q89-37 111.50-58Q134-79 134-119Q134-173 95.50-206.50Q57-240-21-240Z"  horiz-adv-x="197" vert-adv-y="1000"  />

      
      <glyph glyph-name="unib9" unicode="&#xb9;" d="M217 602Q225 634 232.50 660.50Q240 687 244 703Q235 695 223.50 686Q212 677 207 674L146 635L92 720L293 843L404 843L313 415L177 415L217 602Z"  horiz-adv-x="395" vert-adv-y="1000"  />

      
      <glyph glyph-name="uniba" unicode="&#xba;" d="M221 360Q153 360 116.50 397.50Q80 435 80 503Q80 561 101.50 610.50Q123 660 167 690.50Q211 721 276 721Q345 721 380.50 682Q416 643 416 576Q416 540 405.50 502Q395 464 372 432Q349 400 312 380Q275 360 221 360M231 450Q254 450 269 470.50Q284 491 291.50 522Q299 553 299 582Q299 632 265 632Q242 632 227 610Q212 588 204 557Q196 526 196 500Q196 450 231 450Z"  horiz-adv-x="382" vert-adv-y="1000"  />

      
      <glyph glyph-name="unibb" unicode="&#xbb;" d="M360 33L250 120L384 283L323 450L463 508L557 279L557 272L360 33M105 32L-3 120L132 277L70 450L209 508L306 273L306 265L105 32Z"  horiz-adv-x="590" vert-adv-y="1000"  />

      
      <glyph glyph-name="unibc" unicode="&#xbc;" d="M127 0L659 714L786 714L257 0L127 0M202 472Q210 504 217.50 530.50Q225 557 229 573Q220 565 208.50 556Q197 547 192 544L131 505L77 590L278 713L389 713L298 285L162 285L202 472M625 0L640 68L452 68L467 154L703 431L844 431L786 157L842 157L824 68L767 68L753 0L625 0M576 157L658 157L678 236Q683 256 688.50 274Q694 292 699 309Q691 296 676.50 277.50Q662 259 653 248L576 157Z"  horiz-adv-x="879" vert-adv-y="1000"  />

      
      <glyph glyph-name="unibd" unicode="&#xbd;" d="M122 0L654 714L781 714L252 0L122 0M202 472Q210 504 217.50 530.50Q225 557 229 573Q220 565 208.50 556Q197 547 192 544L131 505L77 590L278 713L389 713L298 285L162 285L202 472M507-1L526 89L660 194Q709 232 731 255Q753 278 753 301Q753 318 742.50 326Q732 334 717 334Q697 334 673.50 324.50Q650 315 625 295L571 379Q609 408 650.50 422.50Q692 437 751 437Q812 437 851 407.50Q890 378 890 330Q890 291 874 261.50Q858 232 826 205Q794 178 747 145L696 109L859 109L836-1L507-1Z"  horiz-adv-x="931" vert-adv-y="1000"  />

      
      <glyph glyph-name="unibe" unicode="&#xbe;" d="M193 279Q149 279 114 286.50Q79 294 53 309L53 411Q82 392 114 382.50Q146 373 177 373Q213 373 235 385.50Q257 398 257 422Q257 438 245 449.50Q233 461 201 461L141 461L160 547L205 547Q243 547 265.50 559Q288 571 288 596Q288 613 276.50 621.50Q265 630 246 630Q225 630 203.50 622.50Q182 615 154 598L110 678Q147 702 184.50 713Q222 724 270 724Q339 724 375.50 695Q412 666 412 621Q412 570 381 545Q350 520 303 509L303 505Q346 495 363.50 472.50Q381 450 381 418Q381 374 356 343Q331 312 288.50 295.50Q246 279 193 279M154 0L686 714L813 714L284 0L154 0M651 0L666 68L478 68L493 154L729 431L870 431L812 157L868 157L850 68L793 68L779 0L651 0M602 157L684 157L704 236Q709 256 714.50 274Q720 292 725 309Q717 296 702.50 277.50Q688 259 679 248L602 157Z"  horiz-adv-x="905" vert-adv-y="1000"  />

      
      <glyph glyph-name="unibf" unicode="&#xbf;" d="M348 299Q339 249 324.50 214.50Q310 180 285 153Q260 126 219 98Q170 65 151 45Q132 25 132 0Q132-21 144.50-34Q157-47 187-47Q219-47 256.50-33.50Q294-20 339 4L390-118Q344-144 288-162.50Q232-181 169-181Q76-181 23-137.50Q-30-94-30-18Q-30 35-11 70.50Q8 106 40 132Q72 158 111 183Q144 204 162 220Q180 236 189.50 254Q199 272 207 299L348 299M315 556Q362 556 380 534Q398 512 398 484Q398 443 372.50 411Q347 379 290 379Q252 379 231 398.50Q210 418 210 453Q210 501 239 528.50Q268 556 315 556Z"  horiz-adv-x="472" vert-adv-y="1000"  />

      
      <glyph glyph-name="unic0" unicode="&#xc0;" d="M-60 0L309 714L521 714L587 0L423 0L415 153L189 153L116 0L-60 0M254 292L408 292L398 486Q396 512 395 539Q394 566 395 593L392 593Q384 568 373.50 543.50Q363 519 350 492L254 292M415 771Q394 791 370.50 817Q347 843 326.50 870Q306 897 295 921L295 931L465 931Q473 898 486 859Q499 820 517 783L517 771L415 771Z"  horiz-adv-x="650" vert-adv-y="1000"  />

      
      <glyph glyph-name="unic1" unicode="&#xc1;" d="M-60 0L309 714L521 714L587 0L423 0L415 153L189 153L116 0L-60 0M254 292L408 292L398 486Q396 512 395 539Q394 566 395 593L392 593Q384 568 373.50 543.50Q363 519 350 492L254 292M342 783Q371 811 404.50 853Q438 895 463 931L650 931L650 923Q640 910 617 889.50Q594 869 565.50 846.50Q537 824 509.50 804Q482 784 461 771L342 771L342 783Z"  horiz-adv-x="650" vert-adv-y="1000"  />

      
      <glyph glyph-name="unic2" unicode="&#xc2;" d="M-60 0L309 714L521 714L587 0L423 0L415 153L189 153L116 0L-60 0M254 292L408 292L398 486Q396 512 395 539Q394 566 395 593L392 593Q384 568 373.50 543.50Q363 519 350 492L254 292M211 783Q232 802 259.50 828.50Q287 855 313 882Q339 909 358 931L547 931Q562 897 587.50 854.50Q613 812 634 783L634 771L522 771Q505 786 482.50 810.50Q460 835 444 854Q416 831 387.50 810.50Q359 790 329 771L211 771L211 783Z"  horiz-adv-x="650" vert-adv-y="1000"  />

      
      <glyph glyph-name="unic3" unicode="&#xc3;" d="M-60 0L309 714L521 714L587 0L423 0L415 153L189 153L116 0L-60 0M254 292L408 292L398 486Q396 512 395 539Q394 566 395 593L392 593Q384 568 373.50 543.50Q363 519 350 492L254 292M233 770Q248 854 285.50 891Q323 928 377 928Q407 928 430.50 915.50Q454 903 474 890.50Q494 878 515 878Q549 878 569 929L657 929Q639 843 601.50 807Q564 771 509 771Q477 771 453.50 783Q430 795 409.50 807.50Q389 820 368 820Q353 820 339.50 806.50Q326 793 321 770L233 770Z"  horiz-adv-x="650" vert-adv-y="1000"  />

      
      <glyph glyph-name="unic4" unicode="&#xc4;" d="M-60 0L309 714L521 714L587 0L423 0L415 153L189 153L116 0L-60 0M254 292L408 292L398 486Q396 512 395 539Q394 566 395 593L392 593Q384 568 373.50 543.50Q363 519 350 492L254 292M541 783Q510 783 490 795Q470 807 470 840Q470 883 492 903.50Q514 924 555 924Q582 924 603.50 912.50Q625 901 625 867Q625 829 606 806Q587 783 541 783M331 783Q300 783 279.50 795Q259 807 259 840Q259 883 281.50 903.50Q304 924 344 924Q371 924 393 912.50Q415 901 415 867Q415 829 395.50 806Q376 783 331 783Z"  horiz-adv-x="650" vert-adv-y="1000"  />

      
      <glyph glyph-name="unic5" unicode="&#xc5;" d="M-60 0L309 714L521 714L587 0L423 0L415 153L189 153L116 0L-60 0M254 292L408 292L398 486Q396 512 395 539Q394 566 395 593L392 593Q384 568 373.50 543.50Q363 519 350 492L254 292M440 770Q384 770 349 801.50Q314 833 314 889Q314 945 349 976.50Q384 1008 440 1008Q493 1008 530 976.50Q567 945 567 890Q567 834 530.50 802Q494 770 440 770M440 845Q459 845 472 857Q485 869 485 889Q485 909 472 921Q459 933 440 933Q421 933 408 921Q395 909 395 889Q395 869 406.50 857Q418 845 440 845Z"  horiz-adv-x="650" vert-adv-y="1000"  />

      
      <glyph glyph-name="unic6" unicode="&#xc6;" d="M-60 0L387 714L950 714L921 576L679 576L651 439L877 439L846 301L620 301L586 140L828 140L799 0L389 0L421 153L215 153L119 0L-60 0M304 296L452 296L510 576L474 576L304 296Z"  horiz-adv-x="919" vert-adv-y="1000"  />

      
      <glyph glyph-name="unic7" unicode="&#xc7;" d="M319-10Q187-10 121.50 66.50Q56 143 56 269Q56 332 70 397Q84 462 113 520.50Q142 579 187.50 625.50Q233 672 295 698.50Q357 725 436 725Q506 725 557.50 710.50Q609 696 658 668L594 534Q554 557 517 570.50Q480 584 436 584Q384 584 344.50 556.50Q305 529 279 484.50Q253 440 240 386Q227 332 227 278Q227 131 351 131Q393 131 434.50 142Q476 153 523 172L523 31Q483 14 431.50 2Q380-10 319-10M274-240Q248-240 226.50-236.50Q205-233 191-228L191-137Q204-142 224-145.50Q244-149 258-149Q300-149 300-117Q300-102 285.50-89.50Q271-77 230-71L272 0L367 0L351-28Q384-37 406.50-58Q429-79 429-119Q429-173 390.50-206.50Q352-240 274-240Z"  horiz-adv-x="620" vert-adv-y="1000"  />

      
      <glyph glyph-name="unic8" unicode="&#xc8;" d="M21 0L172 714L583 714L554 576L312 576L284 439L509 439L479 301L253 301L219 140L461 140L432 0L21 0M372 771Q351 791 327.50 817Q304 843 283.50 870Q263 897 252 921L252 931L422 931Q430 898 443 859Q456 820 474 783L474 771L372 771Z"  horiz-adv-x="551" vert-adv-y="1000"  />

      
      <glyph glyph-name="unic9" unicode="&#xc9;" d="M21 0L172 714L583 714L554 576L312 576L284 439L509 439L479 301L253 301L219 140L461 140L432 0L21 0M299 783Q328 811 361.50 853Q395 895 420 931L607 931L607 923Q597 910 574 889.50Q551 869 522.50 846.50Q494 824 466.50 804Q439 784 418 771L299 771L299 783Z"  horiz-adv-x="551" vert-adv-y="1000"  />

      
      <glyph glyph-name="unica" unicode="&#xca;" d="M21 0L172 714L583 714L554 576L312 576L284 439L509 439L479 301L253 301L219 140L461 140L432 0L21 0M168 783Q189 802 216.50 828.50Q244 855 270 882Q296 909 315 931L504 931Q519 897 544.50 854.50Q570 812 591 783L591 771L479 771Q462 786 439.50 810.50Q417 835 401 854Q373 831 344.50 810.50Q316 790 286 771L168 771L168 783Z"  horiz-adv-x="551" vert-adv-y="1000"  />

      
      <glyph glyph-name="unicb" unicode="&#xcb;" d="M21 0L172 714L583 714L554 576L312 576L284 439L509 439L479 301L253 301L219 140L461 140L432 0L21 0M498 783Q467 783 447 795Q427 807 427 840Q427 883 449 903.50Q471 924 512 924Q539 924 560.50 912.50Q582 901 582 867Q582 829 563 806Q544 783 498 783M288 783Q257 783 236.50 795Q216 807 216 840Q216 883 238.50 903.50Q261 924 301 924Q328 924 350 912.50Q372 901 372 867Q372 829 352.50 806Q333 783 288 783Z"  horiz-adv-x="551" vert-adv-y="1000"  />

      
      <glyph glyph-name="unicc" unicode="&#xcc;" d="M-32 0L-12 97L80 136L174 576L98 617L118 714L458 714L438 617L342 576L249 136L326 97L306 0L-32 0M284 771Q263 791 239.50 817Q216 843 195.50 870Q175 897 164 921L164 931L334 931Q342 898 355 859Q368 820 386 783L386 771L284 771Z"  horiz-adv-x="403" vert-adv-y="1000"  />

      
      <glyph glyph-name="unicd" unicode="&#xcd;" d="M-32 0L-12 97L80 136L174 576L98 617L118 714L458 714L438 617L342 576L249 136L326 97L306 0L-32 0M211 783Q240 811 273.50 853Q307 895 332 931L519 931L519 923Q509 910 486 889.50Q463 869 434.50 846.50Q406 824 378.50 804Q351 784 330 771L211 771L211 783Z"  horiz-adv-x="403" vert-adv-y="1000"  />

      
      <glyph glyph-name="unice" unicode="&#xce;" d="M-32 0L-12 97L80 136L174 576L98 617L118 714L458 714L438 617L342 576L249 136L326 97L306 0L-32 0M80 783Q101 802 128.50 828.50Q156 855 182 882Q208 909 227 931L416 931Q431 897 456.50 854.50Q482 812 503 783L503 771L391 771Q374 786 351.50 810.50Q329 835 313 854Q285 831 256.50 810.50Q228 790 198 771L80 771L80 783Z"  horiz-adv-x="403" vert-adv-y="1000"  />

      
      <glyph glyph-name="unicf" unicode="&#xcf;" d="M-32 0L-12 97L80 136L174 576L98 617L118 714L458 714L438 617L342 576L249 136L326 97L306 0L-32 0M410 783Q379 783 359 795Q339 807 339 840Q339 883 361 903.50Q383 924 424 924Q451 924 472.50 912.50Q494 901 494 867Q494 829 475 806Q456 783 410 783M200 783Q169 783 148.50 795Q128 807 128 840Q128 883 150.50 903.50Q173 924 213 924Q240 924 262 912.50Q284 901 284 867Q284 829 264.50 806Q245 783 200 783Z"  horiz-adv-x="403" vert-adv-y="1000"  />

      
      <glyph glyph-name="unid0" unicode="&#xd0;" d="M21 0L81 284L12 284L42 422L110 422L172 714L373 714Q505 714 577 644.50Q649 575 649 444Q649 307 603 207.50Q557 108 468 54Q379 0 251 0L21 0M263 140Q333 140 380.50 179.50Q428 219 453 286.50Q478 354 478 438Q478 506 446 540.50Q414 575 358 575L312 575L279 422L382 422L352 284L249 284L219 140L263 140Z"  horiz-adv-x="680" vert-adv-y="1000"  />

      
      <glyph glyph-name="unid1" unicode="&#xd1;" d="M21 0L172 714L369 714L523 209L527 209Q530 230 535 263.50Q540 297 546 332Q552 367 557 394L626 714L776 714L625 0L433 0L274 522L269 522Q269 515 266 492Q263 469 259 438Q255 407 250 375Q245 343 239 318L172 0L21 0M299 770Q314 854 351.50 891Q389 928 443 928Q473 928 496.50 915.50Q520 903 540 890.50Q560 878 581 878Q615 878 635 929L723 929Q705 843 667.50 807Q630 771 575 771Q543 771 519.50 783Q496 795 475.50 807.50Q455 820 434 820Q419 820 405.50 806.50Q392 793 387 770L299 770Z"  horiz-adv-x="771" vert-adv-y="1000"  />

      
      <glyph glyph-name="unid2" unicode="&#xd2;" d="M325-10Q192-10 124 65Q56 140 56 263Q56 347 79 429Q102 511 149 578Q196 645 268 685Q340 725 438 725Q569 725 635.50 651Q702 577 702 454Q702 369 680 286.50Q658 204 612 137Q566 70 494.50 30Q423-10 325-10M339 131Q392 131 436 172.50Q480 214 505.50 286Q531 358 531 451Q531 512 504 548Q477 584 424 584Q381 584 344.50 557.50Q308 531 282 486Q256 441 241.50 383.50Q227 326 227 264Q227 199 256 165Q285 131 339 131M454 771Q433 791 409.50 817Q386 843 365.50 870Q345 897 334 921L334 931L504 931Q512 898 525 859Q538 820 556 783L556 771L454 771Z"  horiz-adv-x="733" vert-adv-y="1000"  />

      
      <glyph glyph-name="unid3" unicode="&#xd3;" d="M325-10Q192-10 124 65Q56 140 56 263Q56 347 79 429Q102 511 149 578Q196 645 268 685Q340 725 438 725Q569 725 635.50 651Q702 577 702 454Q702 369 680 286.50Q658 204 612 137Q566 70 494.50 30Q423-10 325-10M339 131Q392 131 436 172.50Q480 214 505.50 286Q531 358 531 451Q531 512 504 548Q477 584 424 584Q381 584 344.50 557.50Q308 531 282 486Q256 441 241.50 383.50Q227 326 227 264Q227 199 256 165Q285 131 339 131M380 783Q409 811 442.50 853Q476 895 501 931L688 931L688 923Q678 910 655 889.50Q632 869 603.50 846.50Q575 824 547.50 804Q520 784 499 771L380 771L380 783Z"  horiz-adv-x="733" vert-adv-y="1000"  />

      
      <glyph glyph-name="unid4" unicode="&#xd4;" d="M325-10Q192-10 124 65Q56 140 56 263Q56 347 79 429Q102 511 149 578Q196 645 268 685Q340 725 438 725Q569 725 635.50 651Q702 577 702 454Q702 369 680 286.50Q658 204 612 137Q566 70 494.50 30Q423-10 325-10M339 131Q392 131 436 172.50Q480 214 505.50 286Q531 358 531 451Q531 512 504 548Q477 584 424 584Q381 584 344.50 557.50Q308 531 282 486Q256 441 241.50 383.50Q227 326 227 264Q227 199 256 165Q285 131 339 131M249 783Q270 802 297.50 828.50Q325 855 351 882Q377 909 396 931L585 931Q600 897 625.50 854.50Q651 812 672 783L672 771L560 771Q543 786 520.50 810.50Q498 835 482 854Q454 831 425.50 810.50Q397 790 367 771L249 771L249 783Z"  horiz-adv-x="733" vert-adv-y="1000"  />

      
      <glyph glyph-name="unid5" unicode="&#xd5;" d="M325-10Q192-10 124 65Q56 140 56 263Q56 347 79 429Q102 511 149 578Q196 645 268 685Q340 725 438 725Q569 725 635.50 651Q702 577 702 454Q702 369 680 286.50Q658 204 612 137Q566 70 494.50 30Q423-10 325-10M339 131Q392 131 436 172.50Q480 214 505.50 286Q531 358 531 451Q531 512 504 548Q477 584 424 584Q381 584 344.50 557.50Q308 531 282 486Q256 441 241.50 383.50Q227 326 227 264Q227 199 256 165Q285 131 339 131M272 770Q287 854 324.50 891Q362 928 416 928Q446 928 469.50 915.50Q493 903 513 890.50Q533 878 554 878Q588 878 608 929L696 929Q678 843 640.50 807Q603 771 548 771Q516 771 492.50 783Q469 795 448.50 807.50Q428 820 407 820Q392 820 378.50 806.50Q365 793 360 770L272 770Z"  horiz-adv-x="733" vert-adv-y="1000"  />

      
      <glyph glyph-name="unid6" unicode="&#xd6;" d="M325-10Q192-10 124 65Q56 140 56 263Q56 347 79 429Q102 511 149 578Q196 645 268 685Q340 725 438 725Q569 725 635.50 651Q702 577 702 454Q702 369 680 286.50Q658 204 612 137Q566 70 494.50 30Q423-10 325-10M339 131Q392 131 436 172.50Q480 214 505.50 286Q531 358 531 451Q531 512 504 548Q477 584 424 584Q381 584 344.50 557.50Q308 531 282 486Q256 441 241.50 383.50Q227 326 227 264Q227 199 256 165Q285 131 339 131M580 783Q549 783 529 795Q509 807 509 840Q509 883 531 903.50Q553 924 594 924Q621 924 642.50 912.50Q664 901 664 867Q664 829 645 806Q626 783 580 783M370 783Q339 783 318.50 795Q298 807 298 840Q298 883 320.50 903.50Q343 924 383 924Q410 924 432 912.50Q454 901 454 867Q454 829 434.50 806Q415 783 370 783Z"  horiz-adv-x="733" vert-adv-y="1000"  />

      
      <glyph glyph-name="unid7" unicode="&#xd7;" d="M434 575L517 495L375 353L515 212L434 131L292 271L152 132L72 213L210 353L71 493L152 575L292 437L434 575Z"  horiz-adv-x="578" vert-adv-y="1000"  />

      
      <glyph glyph-name="unid8" unicode="&#xd8;" d="M124-42L48 14L106 87Q56 155 56 263Q56 347 78.50 429Q101 511 148 578Q195 645 266 685Q337 725 434 725Q480 725 517.50 715.50Q555 706 585 689L633 749L708 692L655 625Q702 558 702 454Q702 369 680 286.50Q658 204 612 137Q566 70 495.50 30Q425-10 329-10Q239-10 177 25L124-42M488 567Q476 575 459 580.50Q442 586 421 586Q377 586 341 561Q305 536 279 492.50Q253 449 239 392.50Q225 336 225 274Q225 265 225.50 255.50Q226 246 227 236L488 567M340 130Q395 130 439 170Q483 210 508.50 280Q534 350 534 441Q534 448 533.50 456.50Q533 465 533 472L274 146Q300 130 340 130Z"  horiz-adv-x="733" vert-adv-y="1000"  />

      
      <glyph glyph-name="unid9" unicode="&#xd9;" d="M296-10Q185-10 125 46.50Q65 103 65 194Q65 209 66.50 227.50Q68 246 72 263L168 714L337 714L242 266Q238 251 236 235.50Q234 220 234 208Q234 132 313 132Q368 132 397 165.50Q426 199 441 272L535 714L704 714L606 255Q589 174 552.50 114.50Q516 55 453.50 22.50Q391-10 296-10M431 771Q410 791 386.50 817Q363 843 342.50 870Q322 897 311 921L311 931L481 931Q489 898 502 859Q515 820 533 783L533 771L431 771Z"  horiz-adv-x="696" vert-adv-y="1000"  />

      
      <glyph glyph-name="unida" unicode="&#xda;" d="M296-10Q185-10 125 46.50Q65 103 65 194Q65 209 66.50 227.50Q68 246 72 263L168 714L337 714L242 266Q238 251 236 235.50Q234 220 234 208Q234 132 313 132Q368 132 397 165.50Q426 199 441 272L535 714L704 714L606 255Q589 174 552.50 114.50Q516 55 453.50 22.50Q391-10 296-10M357 783Q386 811 419.50 853Q453 895 478 931L665 931L665 923Q655 910 632 889.50Q609 869 580.50 846.50Q552 824 524.50 804Q497 784 476 771L357 771L357 783Z"  horiz-adv-x="696" vert-adv-y="1000"  />

      
      <glyph glyph-name="unidb" unicode="&#xdb;" d="M296-10Q185-10 125 46.50Q65 103 65 194Q65 209 66.50 227.50Q68 246 72 263L168 714L337 714L242 266Q238 251 236 235.50Q234 220 234 208Q234 132 313 132Q368 132 397 165.50Q426 199 441 272L535 714L704 714L606 255Q589 174 552.50 114.50Q516 55 453.50 22.50Q391-10 296-10M226 783Q247 802 274.50 828.50Q302 855 328 882Q354 909 373 931L562 931Q577 897 602.50 854.50Q628 812 649 783L649 771L537 771Q520 786 497.50 810.50Q475 835 459 854Q431 831 402.50 810.50Q374 790 344 771L226 771L226 783Z"  horiz-adv-x="696" vert-adv-y="1000"  />

      
      <glyph glyph-name="unidc" unicode="&#xdc;" d="M296-10Q185-10 125 46.50Q65 103 65 194Q65 209 66.50 227.50Q68 246 72 263L168 714L337 714L242 266Q238 251 236 235.50Q234 220 234 208Q234 132 313 132Q368 132 397 165.50Q426 199 441 272L535 714L704 714L606 255Q589 174 552.50 114.50Q516 55 453.50 22.50Q391-10 296-10M557 783Q526 783 506 795Q486 807 486 840Q486 883 508 903.50Q530 924 571 924Q598 924 619.50 912.50Q641 901 641 867Q641 829 622 806Q603 783 557 783M347 783Q316 783 295.50 795Q275 807 275 840Q275 883 297.50 903.50Q320 924 360 924Q387 924 409 912.50Q431 901 431 867Q431 829 411.50 806Q392 783 347 783Z"  horiz-adv-x="696" vert-adv-y="1000"  />

      
      <glyph glyph-name="unidd" unicode="&#xdd;" d="M143 0L201 275L86 714L259 714L313 436L482 714L670 714L369 275L311 0L143 0M292 783Q321 811 354.50 853Q388 895 413 931L600 931L600 923Q590 910 567 889.50Q544 869 515.50 846.50Q487 824 459.50 804Q432 784 411 771L292 771L292 783Z"  horiz-adv-x="582" vert-adv-y="1000"  />

      
      <glyph glyph-name="unide" unicode="&#xde;" d="M21 0L172 714L341 714L318 606L346 606Q433 606 486 578.50Q539 551 562.50 503.50Q586 456 586 395Q586 310 545.50 253Q505 196 434.50 167.50Q364 139 274 139L219 139L190 0L21 0M291 278Q348 278 382.50 306.50Q417 335 417 390Q417 426 395.50 446.50Q374 467 332 467L289 467L249 278L291 278Z"  horiz-adv-x="614" vert-adv-y="1000"  />

      
      <glyph glyph-name="unidf" unicode="&#xdf;" d="M-38-240Q-60-240-85.50-236.50Q-111-233-127-228L-127-96Q-96-105-71-105Q-38-105-17.50-87.50Q3-70 11-30L133 546Q156 655 221.50 710Q287 765 421 765Q535 765 596 717.50Q657 670 657 594Q657 532 630 495Q603 458 549 430Q517 412 504.50 399.50Q492 387 492 374Q492 356 509.50 344Q527 332 557 310Q592 284 612 253Q632 222 632 176Q632 126 607.50 83.50Q583 41 531.50 15.50Q480-10 398-10Q352-10 318-3Q284 4 258 16L258 147Q285 132 320 122Q355 112 387 112Q427 112 445.50 126Q464 140 464 160Q464 178 451.50 192.50Q439 207 399 236Q355 267 336.50 295.50Q318 324 318 358Q318 408 344.50 436.50Q371 465 419 492Q453 510 469.50 528.50Q486 547 486 572Q486 597 468.50 615.50Q451 634 407 634Q357 634 332 605Q307 576 297 531L174-56Q162-110 137.50-151.50Q113-193 70.50-216.50Q28-240-38-240Z"  horiz-adv-x="684" vert-adv-y="1000"  />

      
      <glyph glyph-name="unie0" unicode="&#xe0;" d="M198-10Q157-10 121.50 10Q86 30 64.50 74.50Q43 119 43 194Q43 253 59 317Q75 381 107 436Q139 491 185.50 525Q232 559 292 559Q342 559 373.50 537.50Q405 516 424 480L428 480L455 549L586 549L469 0L340 0L346 66L342 66Q317 32 282.50 11Q248-10 198-10M265 124Q291 124 313.50 146Q336 168 352 203Q368 238 375 277Q378 295 379.50 312.50Q381 330 381 350Q381 383 366.50 404Q352 425 326 425Q303 425 282 405.50Q261 386 245.50 353.50Q230 321 221 282Q212 243 212 203Q212 124 265 124M354 606Q333 626 309.50 652Q286 678 265.50 705Q245 732 234 756L234 766L404 766Q412 733 425 694Q438 655 456 618L456 606L354 606Z"  horiz-adv-x="600" vert-adv-y="1000"  />

      
      <glyph glyph-name="unie1" unicode="&#xe1;" d="M198-10Q157-10 121.50 10Q86 30 64.50 74.50Q43 119 43 194Q43 253 59 317Q75 381 107 436Q139 491 185.50 525Q232 559 292 559Q342 559 373.50 537.50Q405 516 424 480L428 480L455 549L586 549L469 0L340 0L346 66L342 66Q317 32 282.50 11Q248-10 198-10M265 124Q291 124 313.50 146Q336 168 352 203Q368 238 375 277Q378 295 379.50 312.50Q381 330 381 350Q381 383 366.50 404Q352 425 326 425Q303 425 282 405.50Q261 386 245.50 353.50Q230 321 221 282Q212 243 212 203Q212 124 265 124M281 618Q310 646 343.50 688Q377 730 402 766L589 766L589 758Q579 745 556 724.50Q533 704 504.50 681.50Q476 659 448.50 639Q421 619 400 606L281 606L281 618Z"  horiz-adv-x="600" vert-adv-y="1000"  />

      
      <glyph glyph-name="unie2" unicode="&#xe2;" d="M198-10Q157-10 121.50 10Q86 30 64.50 74.50Q43 119 43 194Q43 253 59 317Q75 381 107 436Q139 491 185.50 525Q232 559 292 559Q342 559 373.50 537.50Q405 516 424 480L428 480L455 549L586 549L469 0L340 0L346 66L342 66Q317 32 282.50 11Q248-10 198-10M265 124Q291 124 313.50 146Q336 168 352 203Q368 238 375 277Q378 295 379.50 312.50Q381 330 381 350Q381 383 366.50 404Q352 425 326 425Q303 425 282 405.50Q261 386 245.50 353.50Q230 321 221 282Q212 243 212 203Q212 124 265 124M150 618Q171 637 198.50 663.50Q226 690 252 717Q278 744 297 766L486 766Q501 732 526.50 689.50Q552 647 573 618L573 606L461 606Q444 621 421.50 645.50Q399 670 383 689Q355 666 326.50 645.50Q298 625 268 606L150 606L150 618Z"  horiz-adv-x="600" vert-adv-y="1000"  />

      
      <glyph glyph-name="unie3" unicode="&#xe3;" d="M198-10Q157-10 121.50 10Q86 30 64.50 74.50Q43 119 43 194Q43 253 59 317Q75 381 107 436Q139 491 185.50 525Q232 559 292 559Q342 559 373.50 537.50Q405 516 424 480L428 480L455 549L586 549L469 0L340 0L346 66L342 66Q317 32 282.50 11Q248-10 198-10M265 124Q291 124 313.50 146Q336 168 352 203Q368 238 375 277Q378 295 379.50 312.50Q381 330 381 350Q381 383 366.50 404Q352 425 326 425Q303 425 282 405.50Q261 386 245.50 353.50Q230 321 221 282Q212 243 212 203Q212 124 265 124M172 605Q187 689 224.50 726Q262 763 316 763Q346 763 369.50 750.50Q393 738 413 725.50Q433 713 454 713Q488 713 508 764L596 764Q578 678 540.50 642Q503 606 448 606Q416 606 392.50 618Q369 630 348.50 642.50Q328 655 307 655Q292 655 278.50 641.50Q265 628 260 605L172 605Z"  horiz-adv-x="600" vert-adv-y="1000"  />

      
      <glyph glyph-name="unie4" unicode="&#xe4;" d="M198-10Q157-10 121.50 10Q86 30 64.50 74.50Q43 119 43 194Q43 253 59 317Q75 381 107 436Q139 491 185.50 525Q232 559 292 559Q342 559 373.50 537.50Q405 516 424 480L428 480L455 549L586 549L469 0L340 0L346 66L342 66Q317 32 282.50 11Q248-10 198-10M265 124Q291 124 313.50 146Q336 168 352 203Q368 238 375 277Q378 295 379.50 312.50Q381 330 381 350Q381 383 366.50 404Q352 425 326 425Q303 425 282 405.50Q261 386 245.50 353.50Q230 321 221 282Q212 243 212 203Q212 124 265 124M480 618Q449 618 429 630Q409 642 409 675Q409 718 431 738.50Q453 759 494 759Q521 759 542.50 747.50Q564 736 564 702Q564 664 545 641Q526 618 480 618M270 618Q239 618 218.50 630Q198 642 198 675Q198 718 220.50 738.50Q243 759 283 759Q310 759 332 747.50Q354 736 354 702Q354 664 334.50 641Q315 618 270 618Z"  horiz-adv-x="600" vert-adv-y="1000"  />

      
      <glyph glyph-name="unie5" unicode="&#xe5;" d="M198-10Q157-10 121.50 10Q86 30 64.50 74.50Q43 119 43 194Q43 253 59 317Q75 381 107 436Q139 491 185.50 525Q232 559 292 559Q342 559 373.50 537.50Q405 516 424 480L428 480L455 549L586 549L469 0L340 0L346 66L342 66Q317 32 282.50 11Q248-10 198-10M265 124Q291 124 313.50 146Q336 168 352 203Q368 238 375 277Q378 295 379.50 312.50Q381 330 381 350Q381 383 366.50 404Q352 425 326 425Q303 425 282 405.50Q261 386 245.50 353.50Q230 321 221 282Q212 243 212 203Q212 124 265 124M379 605Q323 605 288 636.50Q253 668 253 724Q253 780 288 811.50Q323 843 379 843Q432 843 469 811.50Q506 780 506 725Q506 669 469.50 637Q433 605 379 605M379 680Q398 680 411 692Q424 704 424 724Q424 744 411 756Q398 768 379 768Q360 768 347 756Q334 744 334 724Q334 704 345.50 692Q357 680 379 680Z"  horiz-adv-x="600" vert-adv-y="1000"  />

      
      <glyph glyph-name="unie6" unicode="&#xe6;" d="M196-10Q131-10 87 39Q43 88 43 194Q43 256 59.50 320Q76 384 108 438.50Q140 493 186 526Q232 559 291 559Q340 559 369 539Q398 519 421 480L425 480L453 549L549 549L544 504Q567 529 604 544Q641 559 683 559Q760 559 804.50 517Q849 475 849 408Q849 319 774.50 265.50Q700 212 543 212L516 212Q515 206 515 198Q515 160 537 136.50Q559 113 609 113Q648 113 688 125.50Q728 138 765 157L765 36Q727 16 684 3Q641-10 586-10Q491-10 449 46L437 0L337 0L343 66L338 66Q312 32 279.50 11Q247-10 196-10M552 320Q627 320 658.50 345Q690 370 690 401Q690 443 644 443Q619 443 596 426Q573 409 556 381Q539 353 533 320L552 320M264 124Q289 124 310 144Q331 164 346.50 197Q362 230 370 269Q378 305 378 346Q378 382 364 403.50Q350 425 323 425Q299 425 278.50 405.50Q258 386 243 353.50Q228 321 220 282Q212 243 212 203Q212 162 226.50 143Q241 124 264 124Z"  horiz-adv-x="872" vert-adv-y="1000"  />

      
      <glyph glyph-name="unie7" unicode="&#xe7;" d="M247-10Q191-10 144.50 11.50Q98 33 70.50 80Q43 127 43 203Q43 276 62.50 340.50Q82 405 120 454Q158 503 212 531Q266 559 335 559Q385 559 425.50 549.50Q466 540 504 522L452 397Q426 409 399 417.50Q372 426 342 426Q310 426 285.50 406.50Q261 387 244 355.50Q227 324 219 287Q211 250 211 215Q211 167 230 145.50Q249 124 284 124Q320 124 352.50 135.50Q385 147 420 165L420 31Q383 12 342 1Q301-10 247-10M179-240Q153-240 131.50-236.50Q110-233 96-228L96-137Q109-142 129-145.50Q149-149 163-149Q205-149 205-117Q205-102 190.50-89.50Q176-77 135-71L177 0L272 0L256-28Q289-37 311.50-58Q334-79 334-119Q334-173 295.50-206.50Q257-240 179-240Z"  horiz-adv-x="493" vert-adv-y="1000"  />

      
      <glyph glyph-name="unie8" unicode="&#xe8;" d="M260-10Q160-10 101.50 45Q43 100 43 205Q43 273 62.50 336.50Q82 400 120.50 450Q159 500 217.50 529.50Q276 559 353 559Q445 559 494.50 517Q544 475 544 408Q544 319 469 265.50Q394 212 237 212L211 212Q210 208 210 204.50Q210 201 210 197Q210 157 233 135Q256 113 299 113Q342 113 378 124Q414 135 460 157L460 36Q416 14 370.50 2Q325-10 260-10M246 320Q321 320 353 345Q385 370 385 401Q385 443 339 443Q314 443 291 426Q268 409 251 381Q234 353 228 320L246 320M344 606Q323 626 299.50 652Q276 678 255.50 705Q235 732 224 756L224 766L394 766Q402 733 415 694Q428 655 446 618L446 606L344 606Z"  horiz-adv-x="567" vert-adv-y="1000"  />

      
      <glyph glyph-name="unie9" unicode="&#xe9;" d="M260-10Q160-10 101.50 45Q43 100 43 205Q43 273 62.50 336.50Q82 400 120.50 450Q159 500 217.50 529.50Q276 559 353 559Q445 559 494.50 517Q544 475 544 408Q544 319 469 265.50Q394 212 237 212L211 212Q210 208 210 204.50Q210 201 210 197Q210 157 233 135Q256 113 299 113Q342 113 378 124Q414 135 460 157L460 36Q416 14 370.50 2Q325-10 260-10M246 320Q321 320 353 345Q385 370 385 401Q385 443 339 443Q314 443 291 426Q268 409 251 381Q234 353 228 320L246 320M270 618Q299 646 332.50 688Q366 730 391 766L578 766L578 758Q568 745 545 724.50Q522 704 493.50 681.50Q465 659 437.50 639Q410 619 389 606L270 606L270 618Z"  horiz-adv-x="567" vert-adv-y="1000"  />

      
      <glyph glyph-name="uniea" unicode="&#xea;" d="M260-10Q160-10 101.50 45Q43 100 43 205Q43 273 62.50 336.50Q82 400 120.50 450Q159 500 217.50 529.50Q276 559 353 559Q445 559 494.50 517Q544 475 544 408Q544 319 469 265.50Q394 212 237 212L211 212Q210 208 210 204.50Q210 201 210 197Q210 157 233 135Q256 113 299 113Q342 113 378 124Q414 135 460 157L460 36Q416 14 370.50 2Q325-10 260-10M246 320Q321 320 353 345Q385 370 385 401Q385 443 339 443Q314 443 291 426Q268 409 251 381Q234 353 228 320L246 320M139 618Q160 637 187.50 663.50Q215 690 241 717Q267 744 286 766L475 766Q490 732 515.50 689.50Q541 647 562 618L562 606L450 606Q433 621 410.50 645.50Q388 670 372 689Q344 666 315.50 645.50Q287 625 257 606L139 606L139 618Z"  horiz-adv-x="567" vert-adv-y="1000"  />

      
      <glyph glyph-name="unieb" unicode="&#xeb;" d="M260-10Q160-10 101.50 45Q43 100 43 205Q43 273 62.50 336.50Q82 400 120.50 450Q159 500 217.50 529.50Q276 559 353 559Q445 559 494.50 517Q544 475 544 408Q544 319 469 265.50Q394 212 237 212L211 212Q210 208 210 204.50Q210 201 210 197Q210 157 233 135Q256 113 299 113Q342 113 378 124Q414 135 460 157L460 36Q416 14 370.50 2Q325-10 260-10M246 320Q321 320 353 345Q385 370 385 401Q385 443 339 443Q314 443 291 426Q268 409 251 381Q234 353 228 320L246 320M470 618Q439 618 419 630Q399 642 399 675Q399 718 421 738.50Q443 759 484 759Q511 759 532.50 747.50Q554 736 554 702Q554 664 535 641Q516 618 470 618M260 618Q229 618 208.50 630Q188 642 188 675Q188 718 210.50 738.50Q233 759 273 759Q300 759 322 747.50Q344 736 344 702Q344 664 324.50 641Q305 618 260 618Z"  horiz-adv-x="567" vert-adv-y="1000"  />

      
      <glyph glyph-name="uniec" unicode="&#xec;" d="M15 0L131 549L298 549L181 0L15 0M210 606Q189 626 165.50 652Q142 678 121.50 705Q101 732 90 756L90 766L260 766Q268 733 281 694Q294 655 312 618L312 606L210 606Z"  horiz-adv-x="310" vert-adv-y="1000"  />

      
      <glyph glyph-name="unied" unicode="&#xed;" d="M15 0L131 549L298 549L181 0L15 0M137 618Q166 646 199.50 688Q233 730 258 766L445 766L445 758Q435 745 412 724.50Q389 704 360.50 681.50Q332 659 304.50 639Q277 619 256 606L137 606L137 618Z"  horiz-adv-x="310" vert-adv-y="1000"  />

      
      <glyph glyph-name="uniee" unicode="&#xee;" d="M15 0L131 549L298 549L181 0L15 0M6 618Q27 637 54.50 663.50Q82 690 108 717Q134 744 153 766L342 766Q357 732 382.50 689.50Q408 647 429 618L429 606L317 606Q300 621 277.50 645.50Q255 670 239 689Q211 666 182.50 645.50Q154 625 124 606L6 606L6 618Z"  horiz-adv-x="310" vert-adv-y="1000"  />

      
      <glyph glyph-name="unief" unicode="&#xef;" d="M15 0L131 549L298 549L181 0L15 0M336 618Q305 618 285 630Q265 642 265 675Q265 718 287 738.50Q309 759 350 759Q377 759 398.50 747.50Q420 736 420 702Q420 664 401 641Q382 618 336 618M126 618Q95 618 74.50 630Q54 642 54 675Q54 718 76.50 738.50Q99 759 139 759Q166 759 188 747.50Q210 736 210 702Q210 664 190.50 641Q171 618 126 618Z"  horiz-adv-x="310" vert-adv-y="1000"  />

      
      <glyph glyph-name="unif0" unicode="&#xf0;" d="M252-10Q157-10 97.50 43Q38 96 38 203Q38 281 67 346.50Q96 412 151.50 451Q207 490 286 490Q330 490 357.50 474Q385 458 401 437L406 438Q402 474 390 510Q378 546 355 573L233 510L191 586L293 639Q282 650 268 659Q254 668 239 677L296 766Q362 737 409 699L525 758L564 681L471 633Q509 584 527 515Q545 446 545 370Q545 292 529 223Q513 154 478 101.50Q443 49 387 19.50Q331-10 252-10M264 112Q297 112 320.50 140Q344 168 356.50 208.50Q369 249 369 287Q369 323 355 345.50Q341 368 311 368Q284 368 263.50 351Q243 334 230 307.50Q217 281 211 250Q205 219 205 191Q205 112 264 112Z"  horiz-adv-x="571" vert-adv-y="1000"  />

      
      <glyph glyph-name="unif1" unicode="&#xf1;" d="M15 0L131 549L261 549L253 459L257 459Q287 507 326 533Q365 559 420 559Q493 559 528 514.50Q563 470 563 402Q563 380 560 354.50Q557 329 552 303L488 0L322 0L387 311Q390 326 392.50 343Q395 360 395 374Q395 400 383 413Q371 426 350 426Q310 426 280 376.50Q250 327 233 246L181 0L15 0M183 605Q198 689 235.50 726Q273 763 327 763Q357 763 380.50 750.50Q404 738 424 725.50Q444 713 465 713Q499 713 519 764L607 764Q589 678 551.50 642Q514 606 459 606Q427 606 403.50 618Q380 630 359.50 642.50Q339 655 318 655Q303 655 289.50 641.50Q276 628 271 605L183 605Z"  horiz-adv-x="612" vert-adv-y="1000"  />

      
      <glyph glyph-name="unif2" unicode="&#xf2;" d="M253-10Q157-10 100 46Q43 102 43 201Q43 273 61.50 337.50Q80 402 118 452Q156 502 212 530.50Q268 559 343 559Q441 559 497 503Q553 447 553 345Q553 275 534.50 211Q516 147 478.50 97Q441 47 385 18.50Q329-10 253-10M270 120Q304 120 330 153Q356 186 370 238Q384 290 384 347Q384 384 370.50 406.50Q357 429 327 429Q299 429 277.50 408Q256 387 241.50 352.50Q227 318 219 277.50Q211 237 211 199Q211 120 270 120M346 606Q325 626 301.50 652Q278 678 257.50 705Q237 732 226 756L226 766L396 766Q404 733 417 694Q430 655 448 618L448 606L346 606Z"  horiz-adv-x="595" vert-adv-y="1000"  />

      
      <glyph glyph-name="unif3" unicode="&#xf3;" d="M253-10Q157-10 100 46Q43 102 43 201Q43 273 61.50 337.50Q80 402 118 452Q156 502 212 530.50Q268 559 343 559Q441 559 497 503Q553 447 553 345Q553 275 534.50 211Q516 147 478.50 97Q441 47 385 18.50Q329-10 253-10M270 120Q304 120 330 153Q356 186 370 238Q384 290 384 347Q384 384 370.50 406.50Q357 429 327 429Q299 429 277.50 408Q256 387 241.50 352.50Q227 318 219 277.50Q211 237 211 199Q211 120 270 120M273 618Q302 646 335.50 688Q369 730 394 766L581 766L581 758Q571 745 548 724.50Q525 704 496.50 681.50Q468 659 440.50 639Q413 619 392 606L273 606L273 618Z"  horiz-adv-x="595" vert-adv-y="1000"  />

      
      <glyph glyph-name="unif4" unicode="&#xf4;" d="M253-10Q157-10 100 46Q43 102 43 201Q43 273 61.50 337.50Q80 402 118 452Q156 502 212 530.50Q268 559 343 559Q441 559 497 503Q553 447 553 345Q553 275 534.50 211Q516 147 478.50 97Q441 47 385 18.50Q329-10 253-10M270 120Q304 120 330 153Q356 186 370 238Q384 290 384 347Q384 384 370.50 406.50Q357 429 327 429Q299 429 277.50 408Q256 387 241.50 352.50Q227 318 219 277.50Q211 237 211 199Q211 120 270 120M142 618Q163 637 190.50 663.50Q218 690 244 717Q270 744 289 766L478 766Q493 732 518.50 689.50Q544 647 565 618L565 606L453 606Q436 621 413.50 645.50Q391 670 375 689Q347 666 318.50 645.50Q290 625 260 606L142 606L142 618Z"  horiz-adv-x="595" vert-adv-y="1000"  />

      
      <glyph glyph-name="unif5" unicode="&#xf5;" d="M253-10Q157-10 100 46Q43 102 43 201Q43 273 61.50 337.50Q80 402 118 452Q156 502 212 530.50Q268 559 343 559Q441 559 497 503Q553 447 553 345Q553 275 534.50 211Q516 147 478.50 97Q441 47 385 18.50Q329-10 253-10M270 120Q304 120 330 153Q356 186 370 238Q384 290 384 347Q384 384 370.50 406.50Q357 429 327 429Q299 429 277.50 408Q256 387 241.50 352.50Q227 318 219 277.50Q211 237 211 199Q211 120 270 120M164 605Q179 689 216.50 726Q254 763 308 763Q338 763 361.50 750.50Q385 738 405 725.50Q425 713 446 713Q480 713 500 764L588 764Q570 678 532.50 642Q495 606 440 606Q408 606 384.50 618Q361 630 340.50 642.50Q320 655 299 655Q284 655 270.50 641.50Q257 628 252 605L164 605Z"  horiz-adv-x="595" vert-adv-y="1000"  />

      
      <glyph glyph-name="unif6" unicode="&#xf6;" d="M253-10Q157-10 100 46Q43 102 43 201Q43 273 61.50 337.50Q80 402 118 452Q156 502 212 530.50Q268 559 343 559Q441 559 497 503Q553 447 553 345Q553 275 534.50 211Q516 147 478.50 97Q441 47 385 18.50Q329-10 253-10M270 120Q304 120 330 153Q356 186 370 238Q384 290 384 347Q384 384 370.50 406.50Q357 429 327 429Q299 429 277.50 408Q256 387 241.50 352.50Q227 318 219 277.50Q211 237 211 199Q211 120 270 120M472 618Q441 618 421 630Q401 642 401 675Q401 718 423 738.50Q445 759 486 759Q513 759 534.50 747.50Q556 736 556 702Q556 664 537 641Q518 618 472 618M262 618Q231 618 210.50 630Q190 642 190 675Q190 718 212.50 738.50Q235 759 275 759Q302 759 324 747.50Q346 736 346 702Q346 664 326.50 641Q307 618 262 618Z"  horiz-adv-x="595" vert-adv-y="1000"  />

      
      <glyph glyph-name="unif7" unicode="&#xf7;" d="M294 454Q264 454 243 472.50Q222 491 222 532Q222 576 243 593Q264 610 294 610Q322 610 344 593Q366 576 366 532Q366 491 344 472.50Q322 454 294 454M49 293L49 412L539 412L539 293L49 293M294 95Q264 95 243 113.50Q222 132 222 173Q222 216 243 233.50Q264 251 294 251Q322 251 344 233.50Q366 216 366 173Q366 132 344 113.50Q322 95 294 95Z"  horiz-adv-x="578" vert-adv-y="1000"  />

      
      <glyph glyph-name="unif8" unicode="&#xf8;" d="M92-52L26 1L83 69Q63 96 53 128.50Q43 161 43 201Q43 273 62 337.50Q81 402 119.50 452Q158 502 215 530.50Q272 559 347 559Q381 559 410 552Q439 545 463 532L505 582L572 529L527 473Q544 448 553 416Q562 384 562 345Q562 275 543.50 211Q525 147 487 97Q449 47 392.50 18.50Q336-10 260-10Q227-10 199-3Q171 4 147 15L92-52M374 422Q357 435 332 435Q293 435 265.50 406.50Q238 378 222.50 332.50Q207 287 203 235Q203 230 202.50 224.50Q202 219 202 214L374 422M276 115Q313 115 340 141.50Q367 168 382 211.50Q397 255 402 305Q402 310 402.50 315.50Q403 321 403 326L237 124Q252 115 276 115Z"  horiz-adv-x="605" vert-adv-y="1000"  />

      
      <glyph glyph-name="unif9" unicode="&#xf9;" d="M193-10Q119-10 85 34.50Q51 79 51 147Q51 196 63 255L125 549L291 549L226 239Q223 224 220.50 207Q218 190 218 175Q218 149 230 136.50Q242 124 263 124Q302 124 332 173Q362 222 380 303L432 549L598 549L482 0L352 0L360 90L355 90Q326 42 287 16Q248-10 193-10M358 606Q337 626 313.50 652Q290 678 269.50 705Q249 732 238 756L238 766L408 766Q416 733 429 694Q442 655 460 618L460 606L358 606Z"  horiz-adv-x="612" vert-adv-y="1000"  />

      
      <glyph glyph-name="unifa" unicode="&#xfa;" d="M193-10Q119-10 85 34.50Q51 79 51 147Q51 196 63 255L125 549L291 549L226 239Q223 224 220.50 207Q218 190 218 175Q218 149 230 136.50Q242 124 263 124Q302 124 332 173Q362 222 380 303L432 549L598 549L482 0L352 0L360 90L355 90Q326 42 287 16Q248-10 193-10M285 618Q314 646 347.50 688Q381 730 406 766L593 766L593 758Q583 745 560 724.50Q537 704 508.50 681.50Q480 659 452.50 639Q425 619 404 606L285 606L285 618Z"  horiz-adv-x="612" vert-adv-y="1000"  />

      
      <glyph glyph-name="unifb" unicode="&#xfb;" d="M193-10Q119-10 85 34.50Q51 79 51 147Q51 196 63 255L125 549L291 549L226 239Q223 224 220.50 207Q218 190 218 175Q218 149 230 136.50Q242 124 263 124Q302 124 332 173Q362 222 380 303L432 549L598 549L482 0L352 0L360 90L355 90Q326 42 287 16Q248-10 193-10M154 618Q175 637 202.50 663.50Q230 690 256 717Q282 744 301 766L490 766Q505 732 530.50 689.50Q556 647 577 618L577 606L465 606Q448 621 425.50 645.50Q403 670 387 689Q359 666 330.50 645.50Q302 625 272 606L154 606L154 618Z"  horiz-adv-x="612" vert-adv-y="1000"  />

      
      <glyph glyph-name="unifc" unicode="&#xfc;" d="M193-10Q119-10 85 34.50Q51 79 51 147Q51 196 63 255L125 549L291 549L226 239Q223 224 220.50 207Q218 190 218 175Q218 149 230 136.50Q242 124 263 124Q302 124 332 173Q362 222 380 303L432 549L598 549L482 0L352 0L360 90L355 90Q326 42 287 16Q248-10 193-10M484 618Q453 618 433 630Q413 642 413 675Q413 718 435 738.50Q457 759 498 759Q525 759 546.50 747.50Q568 736 568 702Q568 664 549 641Q530 618 484 618M274 618Q243 618 222.50 630Q202 642 202 675Q202 718 224.50 738.50Q247 759 287 759Q314 759 336 747.50Q358 736 358 702Q358 664 338.50 641Q319 618 274 618Z"  horiz-adv-x="612" vert-adv-y="1000"  />

      
      <glyph glyph-name="unifd" unicode="&#xfd;" d="M7-240Q-20-240-37.50-237.50Q-55-235-66-231L-66-99Q-55-101-41.50-103Q-28-105-11-105Q34-105 62.50-82Q91-59 113-19L125 3L45 549L211 549L234 296Q237 266 237.50 234Q238 202 238 176L242 176Q250 200 261 230.50Q272 261 286 291L405 549L584 549L255-74Q210-159 150-199.50Q90-240 7-240M229 618Q258 646 291.50 688Q325 730 350 766L537 766L537 758Q527 745 504 724.50Q481 704 452.50 681.50Q424 659 396.50 639Q369 619 348 606L229 606L229 618Z"  horiz-adv-x="531" vert-adv-y="1000"  />

      
      <glyph glyph-name="unife" unicode="&#xfe;" d="M-36-240L176 760L342 760L314 627Q306 589 294 550Q282 511 273 485L277 485Q303 521 334 540Q365 559 402 559Q472 559 515 508Q558 457 558 358Q558 294 542 229Q526 164 494.50 110Q463 56 417 23Q371-10 312-10Q267-10 237.50 11.50Q208 33 188 66L184 66Q181 26 176-9.50Q171-45 161-95L130-240L-36-240M276 124Q301 124 321.50 143.50Q342 163 357 195.50Q372 228 380.50 267.50Q389 307 389 346Q389 425 332 425Q305 425 284 403.50Q263 382 248 347.50Q233 313 226 273Q220 238 220 203Q220 167 234 145.50Q248 124 276 124Z"  horiz-adv-x="601" vert-adv-y="1000"  />

      
      <glyph glyph-name="uniff" unicode="&#xff;" d="M7-240Q-20-240-37.50-237.50Q-55-235-66-231L-66-99Q-55-101-41.50-103Q-28-105-11-105Q34-105 62.50-82Q91-59 113-19L125 3L45 549L211 549L234 296Q237 266 237.50 234Q238 202 238 176L242 176Q250 200 261 230.50Q272 261 286 291L405 549L584 549L255-74Q210-159 150-199.50Q90-240 7-240M428 618Q397 618 377 630Q357 642 357 675Q357 718 379 738.50Q401 759 442 759Q469 759 490.50 747.50Q512 736 512 702Q512 664 493 641Q474 618 428 618M218 618Q187 618 166.50 630Q146 642 146 675Q146 718 168.50 738.50Q191 759 231 759Q258 759 280 747.50Q302 736 302 702Q302 664 282.50 641Q263 618 218 618Z"  horiz-adv-x="531" vert-adv-y="1000"  />

      
      <glyph glyph-name="uni0100" unicode="&#x0100;" d="M-60 0L309 714L521 714L587 0L423 0L415 153L189 153L116 0L-60 0M254 292L408 292L398 486Q396 512 395 539Q394 566 395 593L392 593Q384 568 373.50 543.50Q363 519 350 492L254 292M269 771L292 880L605 880L582 771L269 771Z"  horiz-adv-x="650" vert-adv-y="1000"  />

      
      <glyph glyph-name="uni0101" unicode="&#x0101;" d="M198-10Q157-10 121.50 10Q86 30 64.50 74.50Q43 119 43 194Q43 253 59 317Q75 381 107 436Q139 491 185.50 525Q232 559 292 559Q342 559 373.50 537.50Q405 516 424 480L428 480L455 549L586 549L469 0L340 0L346 66L342 66Q317 32 282.50 11Q248-10 198-10M265 124Q291 124 313.50 146Q336 168 352 203Q368 238 375 277Q378 295 379.50 312.50Q381 330 381 350Q381 383 366.50 404Q352 425 326 425Q303 425 282 405.50Q261 386 245.50 353.50Q230 321 221 282Q212 243 212 203Q212 124 265 124M208 606L231 715L544 715L521 606L208 606Z"  horiz-adv-x="600" vert-adv-y="1000"  />

      
      <glyph glyph-name="uni0102" unicode="&#x0102;" d="M-60 0L309 714L521 714L587 0L423 0L415 153L189 153L116 0L-60 0M254 292L408 292L398 486Q396 512 395 539Q394 566 395 593L392 593Q384 568 373.50 543.50Q363 519 350 492L254 292M426 771Q340 771 300.50 813Q261 855 261 914Q261 924 262 931Q263 938 264 943L359 943Q359 881 436 881Q472 881 497 894Q522 907 533 943L632 943Q618 860 568.50 815.50Q519 771 426 771Z"  horiz-adv-x="650" vert-adv-y="1000"  />

      
      <glyph glyph-name="uni0103" unicode="&#x0103;" d="M198-10Q157-10 121.50 10Q86 30 64.50 74.50Q43 119 43 194Q43 253 59 317Q75 381 107 436Q139 491 185.50 525Q232 559 292 559Q342 559 373.50 537.50Q405 516 424 480L428 480L455 549L586 549L469 0L340 0L346 66L342 66Q317 32 282.50 11Q248-10 198-10M265 124Q291 124 313.50 146Q336 168 352 203Q368 238 375 277Q378 295 379.50 312.50Q381 330 381 350Q381 383 366.50 404Q352 425 326 425Q303 425 282 405.50Q261 386 245.50 353.50Q230 321 221 282Q212 243 212 203Q212 124 265 124M366 606Q280 606 240.50 648Q201 690 201 749Q201 759 202 766Q203 773 204 778L299 778Q299 716 376 716Q412 716 437 729Q462 742 473 778L572 778Q558 695 508.50 650.50Q459 606 366 606Z"  horiz-adv-x="600" vert-adv-y="1000"  />

      
      <glyph glyph-name="uni0104" unicode="&#x0104;" d="M-60 0L309 714L521 714L587 0L423 0L415 153L189 153L116 0L-60 0M254 292L408 292L398 486Q396 512 395 539Q394 566 395 593L392 593Q384 568 373.50 543.50Q363 519 350 492L254 292M432-247Q377-247 347-219Q317-191 317-148Q317-98 346.50-64Q376-30 423 0L532 0Q495-30 467-58.50Q439-87 439-121Q439-133 446-140.50Q453-148 466-148Q481-148 493.50-145Q506-142 519-138L519-234Q500-240 479.50-243.50Q459-247 432-247Z"  horiz-adv-x="650" vert-adv-y="1000"  />

      
      <glyph glyph-name="uni0105" unicode="&#x0105;" d="M198-10Q157-10 121.50 10Q86 30 64.50 74.50Q43 119 43 194Q43 253 59 317Q75 381 107 436Q139 491 185.50 525Q232 559 292 559Q342 559 373.50 537.50Q405 516 424 480L428 480L455 549L586 549L469 0L340 0L346 66L342 66Q317 32 282.50 11Q248-10 198-10M265 124Q291 124 313.50 146Q336 168 352 203Q368 238 375 277Q378 295 379.50 312.50Q381 330 381 350Q381 383 366.50 404Q352 425 326 425Q303 425 282 405.50Q261 386 245.50 353.50Q230 321 221 282Q212 243 212 203Q212 124 265 124M350-247Q295-247 265-219Q235-191 235-148Q235-98 264.50-64Q294-30 341 0L450 0Q413-30 385-58.50Q357-87 357-121Q357-133 364-140.50Q371-148 384-148Q399-148 411.50-145Q424-142 437-138L437-234Q418-240 397.50-243.50Q377-247 350-247Z"  horiz-adv-x="600" vert-adv-y="1000"  />

      
      <glyph glyph-name="uni0106" unicode="&#x0106;" d="M319-10Q187-10 121.50 66.50Q56 143 56 269Q56 332 70 397Q84 462 113 520.50Q142 579 187.50 625.50Q233 672 295 698.50Q357 725 436 725Q506 725 557.50 710.50Q609 696 658 668L594 534Q554 557 517 570.50Q480 584 436 584Q384 584 344.50 556.50Q305 529 279 484.50Q253 440 240 386Q227 332 227 278Q227 131 351 131Q393 131 434.50 142Q476 153 523 172L523 31Q483 14 431.50 2Q380-10 319-10M356 783Q385 811 418.50 853Q452 895 477 931L664 931L664 923Q654 910 631 889.50Q608 869 579.50 846.50Q551 824 523.50 804Q496 784 475 771L356 771L356 783Z"  horiz-adv-x="620" vert-adv-y="1000"  />

      
      <glyph glyph-name="uni0107" unicode="&#x0107;" d="M247-10Q191-10 144.50 11.50Q98 33 70.50 80Q43 127 43 203Q43 276 62.50 340.50Q82 405 120 454Q158 503 212 531Q266 559 335 559Q385 559 425.50 549.50Q466 540 504 522L452 397Q426 409 399 417.50Q372 426 342 426Q310 426 285.50 406.50Q261 387 244 355.50Q227 324 219 287Q211 250 211 215Q211 167 230 145.50Q249 124 284 124Q320 124 352.50 135.50Q385 147 420 165L420 31Q383 12 342 1Q301-10 247-10M248 618Q277 646 310.50 688Q344 730 369 766L556 766L556 758Q546 745 523 724.50Q500 704 471.50 681.50Q443 659 415.50 639Q388 619 367 606L248 606L248 618Z"  horiz-adv-x="493" vert-adv-y="1000"  />

      
      <glyph glyph-name="uni0108" unicode="&#x0108;" d="M319-10Q187-10 121.50 66.50Q56 143 56 269Q56 332 70 397Q84 462 113 520.50Q142 579 187.50 625.50Q233 672 295 698.50Q357 725 436 725Q506 725 557.50 710.50Q609 696 658 668L594 534Q554 557 517 570.50Q480 584 436 584Q384 584 344.50 556.50Q305 529 279 484.50Q253 440 240 386Q227 332 227 278Q227 131 351 131Q393 131 434.50 142Q476 153 523 172L523 31Q483 14 431.50 2Q380-10 319-10M225 783Q246 802 273.50 828.50Q301 855 327 882Q353 909 372 931L561 931Q576 897 601.50 854.50Q627 812 648 783L648 771L536 771Q519 786 496.50 810.50Q474 835 458 854Q430 831 401.50 810.50Q373 790 343 771L225 771L225 783Z"  horiz-adv-x="620" vert-adv-y="1000"  />

      
      <glyph glyph-name="uni0109" unicode="&#x0109;" d="M247-10Q191-10 144.50 11.50Q98 33 70.50 80Q43 127 43 203Q43 276 62.50 340.50Q82 405 120 454Q158 503 212 531Q266 559 335 559Q385 559 425.50 549.50Q466 540 504 522L452 397Q426 409 399 417.50Q372 426 342 426Q310 426 285.50 406.50Q261 387 244 355.50Q227 324 219 287Q211 250 211 215Q211 167 230 145.50Q249 124 284 124Q320 124 352.50 135.50Q385 147 420 165L420 31Q383 12 342 1Q301-10 247-10M117 618Q138 637 165.50 663.50Q193 690 219 717Q245 744 264 766L453 766Q468 732 493.50 689.50Q519 647 540 618L540 606L428 606Q411 621 388.50 645.50Q366 670 350 689Q322 666 293.50 645.50Q265 625 235 606L117 606L117 618Z"  horiz-adv-x="493" vert-adv-y="1000"  />

      
      <glyph glyph-name="uni010A" unicode="&#x010A;" d="M319-10Q187-10 121.50 66.50Q56 143 56 269Q56 332 70 397Q84 462 113 520.50Q142 579 187.50 625.50Q233 672 295 698.50Q357 725 436 725Q506 725 557.50 710.50Q609 696 658 668L594 534Q554 557 517 570.50Q480 584 436 584Q384 584 344.50 556.50Q305 529 279 484.50Q253 440 240 386Q227 332 227 278Q227 131 351 131Q393 131 434.50 142Q476 153 523 172L523 31Q483 14 431.50 2Q380-10 319-10M450 775Q414 775 390.50 789Q367 803 367 839Q367 887 393 910Q419 933 466 933Q497 933 522.50 919.50Q548 906 548 869Q548 827 525.50 801Q503 775 450 775Z"  horiz-adv-x="620" vert-adv-y="1000"  />

      
      <glyph glyph-name="uni010B" unicode="&#x010B;" d="M247-10Q191-10 144.50 11.50Q98 33 70.50 80Q43 127 43 203Q43 276 62.50 340.50Q82 405 120 454Q158 503 212 531Q266 559 335 559Q385 559 425.50 549.50Q466 540 504 522L452 397Q426 409 399 417.50Q372 426 342 426Q310 426 285.50 406.50Q261 387 244 355.50Q227 324 219 287Q211 250 211 215Q211 167 230 145.50Q249 124 284 124Q320 124 352.50 135.50Q385 147 420 165L420 31Q383 12 342 1Q301-10 247-10M342 610Q306 610 282.50 624Q259 638 259 674Q259 722 285 745Q311 768 358 768Q389 768 414.50 754.50Q440 741 440 704Q440 662 417.50 636Q395 610 342 610Z"  horiz-adv-x="493" vert-adv-y="1000"  />

      
      <glyph glyph-name="uni010C" unicode="&#x010C;" d="M319-10Q187-10 121.50 66.50Q56 143 56 269Q56 332 70 397Q84 462 113 520.50Q142 579 187.50 625.50Q233 672 295 698.50Q357 725 436 725Q506 725 557.50 710.50Q609 696 658 668L594 534Q554 557 517 570.50Q480 584 436 584Q384 584 344.50 556.50Q305 529 279 484.50Q253 440 240 386Q227 332 227 278Q227 131 351 131Q393 131 434.50 142Q476 153 523 172L523 31Q483 14 431.50 2Q380-10 319-10M349 771Q334 805 309 847.50Q284 890 263 919L263 931L375 931Q392 916 414.50 891.50Q437 867 452 848Q481 871 509 891.50Q537 912 567 931L686 931L686 919Q664 900 636.50 873.50Q609 847 583 820Q557 793 539 771L349 771Z"  horiz-adv-x="620" vert-adv-y="1000"  />

      
      <glyph glyph-name="uni010D" unicode="&#x010D;" d="M247-10Q191-10 144.50 11.50Q98 33 70.50 80Q43 127 43 203Q43 276 62.50 340.50Q82 405 120 454Q158 503 212 531Q266 559 335 559Q385 559 425.50 549.50Q466 540 504 522L452 397Q426 409 399 417.50Q372 426 342 426Q310 426 285.50 406.50Q261 387 244 355.50Q227 324 219 287Q211 250 211 215Q211 167 230 145.50Q249 124 284 124Q320 124 352.50 135.50Q385 147 420 165L420 31Q383 12 342 1Q301-10 247-10M241 606Q226 640 201 682.50Q176 725 155 754L155 766L267 766Q284 751 306.50 726.50Q329 702 344 683Q373 706 401 726.50Q429 747 459 766L578 766L578 754Q556 735 528.50 708.50Q501 682 475 655Q449 628 431 606L241 606Z"  horiz-adv-x="493" vert-adv-y="1000"  />

      
      <glyph glyph-name="uni010E" unicode="&#x010E;" d="M21 0L172 714L370 714Q501 714 575 645Q649 576 649 444Q649 307 601.50 207.50Q554 108 464 54Q374 0 246 0L21 0M263 140Q333 140 380.50 179.50Q428 219 453 286Q478 353 478 435Q478 506 446 540.50Q414 575 358 575L312 575L219 140L263 140M343 771Q328 805 303 847.50Q278 890 257 919L257 931L369 931Q386 916 408.50 891.50Q431 867 446 848Q475 871 503 891.50Q531 912 561 931L680 931L680 919Q658 900 630.50 873.50Q603 847 577 820Q551 793 533 771L343 771Z"  horiz-adv-x="680" vert-adv-y="1000"  />

      
      <glyph glyph-name="uni010F" unicode="&#x010F;" d="M639 613Q652 644 669 686Q686 728 696 760L852 760L852 750Q831 714 802 676Q773 638 740 600L639 600L639 613M198-10Q157-10 121.50 10Q86 30 64.50 74.50Q43 119 43 195Q43 254 59 317.50Q75 381 107 436Q139 491 185.50 525Q232 559 292 559Q339 559 365 537.50Q391 516 412 482L416 482Q416 486 417.50 506Q419 526 422 551Q425 576 429 598L463 760L630 760L469 0L339 0L346 66L342 66Q317 33 284 11.50Q251-10 198-10M267 124Q296 124 317.50 147Q339 170 353 205.50Q367 241 374 279Q381 317 381 346Q381 382 367 403.50Q353 425 327 425Q303 425 282.50 405.50Q262 386 246 353.50Q230 321 221 282Q212 243 212 203Q212 124 267 124Z"  horiz-adv-x="697" vert-adv-y="1000"  />

      
      <glyph glyph-name="uni0110" unicode="&#x0110;" d="M21 0L81 284L12 284L42 422L110 422L172 714L373 714Q505 714 577 644.50Q649 575 649 444Q649 307 603 207.50Q557 108 468 54Q379 0 251 0L21 0M263 140Q333 140 380.50 179.50Q428 219 453 286.50Q478 354 478 438Q478 506 446 540.50Q414 575 358 575L312 575L279 422L382 422L352 284L249 284L219 140L263 140Z"  horiz-adv-x="680" vert-adv-y="1000"  />

      
      <glyph glyph-name="uni0111" unicode="&#x0111;" d="M201-10Q157-10 121 11Q85 32 64 77Q43 122 43 195Q43 251 58.50 308Q74 365 104 413Q134 461 178.50 490.50Q223 520 280 520Q328 520 357 499.50Q386 479 405 447L409 447Q409 458 412 490.50Q415 523 420 551L425 578L293 578L314 684L447 684L463 760L630 760L614 684L690 684L667 578L591 578L469 0L340 0L346 66L342 66Q319 35 287.50 12.50Q256-10 201-10M268 124Q303 124 326.50 153.50Q350 183 363 226.50Q376 270 376 311Q376 345 362 365.50Q348 386 320 386Q287 386 262.50 357.50Q238 329 225 286.50Q212 244 212 203Q212 124 268 124Z"  horiz-adv-x="599" vert-adv-y="1000"  />

      
      <glyph glyph-name="uni0112" unicode="&#x0112;" d="M21 0L172 714L583 714L554 576L312 576L284 439L509 439L479 301L253 301L219 140L461 140L432 0L21 0M225 771L248 880L561 880L538 771L225 771Z"  horiz-adv-x="551" vert-adv-y="1000"  />

      
      <glyph glyph-name="uni0113" unicode="&#x0113;" d="M260-10Q160-10 101.50 45Q43 100 43 205Q43 273 62.50 336.50Q82 400 120.50 450Q159 500 217.50 529.50Q276 559 353 559Q445 559 494.50 517Q544 475 544 408Q544 319 469 265.50Q394 212 237 212L211 212Q210 208 210 204.50Q210 201 210 197Q210 157 233 135Q256 113 299 113Q342 113 378 124Q414 135 460 157L460 36Q416 14 370.50 2Q325-10 260-10M246 320Q321 320 353 345Q385 370 385 401Q385 443 339 443Q314 443 291 426Q268 409 251 381Q234 353 228 320L246 320M197 606L220 715L533 715L510 606L197 606Z"  horiz-adv-x="567" vert-adv-y="1000"  />

      
      <glyph glyph-name="uni0114" unicode="&#x0114;" d="M21 0L172 714L583 714L554 576L312 576L284 439L509 439L479 301L253 301L219 140L461 140L432 0L21 0M383 771Q297 771 257.50 813Q218 855 218 914Q218 924 219 931Q220 938 221 943L316 943Q316 881 393 881Q429 881 454 894Q479 907 490 943L589 943Q575 860 525.50 815.50Q476 771 383 771Z"  horiz-adv-x="551" vert-adv-y="1000"  />

      
      <glyph glyph-name="uni0115" unicode="&#x0115;" d="M260-10Q160-10 101.50 45Q43 100 43 205Q43 273 62.50 336.50Q82 400 120.50 450Q159 500 217.50 529.50Q276 559 353 559Q445 559 494.50 517Q544 475 544 408Q544 319 469 265.50Q394 212 237 212L211 212Q210 208 210 204.50Q210 201 210 197Q210 157 233 135Q256 113 299 113Q342 113 378 124Q414 135 460 157L460 36Q416 14 370.50 2Q325-10 260-10M246 320Q321 320 353 345Q385 370 385 401Q385 443 339 443Q314 443 291 426Q268 409 251 381Q234 353 228 320L246 320M355 606Q269 606 229.50 648Q190 690 190 749Q190 759 191 766Q192 773 193 778L288 778Q288 716 365 716Q401 716 426 729Q451 742 462 778L561 778Q547 695 497.50 650.50Q448 606 355 606Z"  horiz-adv-x="567" vert-adv-y="1000"  />

      
      <glyph glyph-name="uni0116" unicode="&#x0116;" d="M21 0L172 714L583 714L554 576L312 576L284 439L509 439L479 301L253 301L219 140L461 140L432 0L21 0M392 775Q356 775 332.50 789Q309 803 309 839Q309 887 335 910Q361 933 408 933Q439 933 464.50 919.50Q490 906 490 869Q490 827 467.50 801Q445 775 392 775Z"  horiz-adv-x="551" vert-adv-y="1000"  />

      
      <glyph glyph-name="uni0117" unicode="&#x0117;" d="M260-10Q160-10 101.50 45Q43 100 43 205Q43 273 62.50 336.50Q82 400 120.50 450Q159 500 217.50 529.50Q276 559 353 559Q445 559 494.50 517Q544 475 544 408Q544 319 469 265.50Q394 212 237 212L211 212Q210 208 210 204.50Q210 201 210 197Q210 157 233 135Q256 113 299 113Q342 113 378 124Q414 135 460 157L460 36Q416 14 370.50 2Q325-10 260-10M246 320Q321 320 353 345Q385 370 385 401Q385 443 339 443Q314 443 291 426Q268 409 251 381Q234 353 228 320L246 320M364 610Q328 610 304.50 624Q281 638 281 674Q281 722 307 745Q333 768 380 768Q411 768 436.50 754.50Q462 741 462 704Q462 662 439.50 636Q417 610 364 610Z"  horiz-adv-x="567" vert-adv-y="1000"  />

      
      <glyph glyph-name="uni0118" unicode="&#x0118;" d="M21 0L172 714L583 714L554 576L312 576L284 439L509 439L479 301L253 301L219 140L461 140L432 0L21 0M301-247Q246-247 216-219Q186-191 186-148Q186-98 215.50-64Q245-30 292 0L401 0Q364-30 336-58.50Q308-87 308-121Q308-133 315-140.50Q322-148 335-148Q350-148 362.50-145Q375-142 388-138L388-234Q369-240 348.50-243.50Q328-247 301-247Z"  horiz-adv-x="551" vert-adv-y="1000"  />

      
      <glyph glyph-name="uni0119" unicode="&#x0119;" d="M260-10Q160-10 101.50 45Q43 100 43 205Q43 273 62.50 336.50Q82 400 120.50 450Q159 500 217.50 529.50Q276 559 353 559Q445 559 494.50 517Q544 475 544 408Q544 319 469 265.50Q394 212 237 212L211 212Q210 208 210 204.50Q210 201 210 197Q210 157 233 135Q256 113 299 113Q342 113 378 124Q414 135 460 157L460 36Q442 27 426 20Q377-22 347-55Q317-88 317-121Q317-133 324.50-140.50Q332-148 345-148Q359-148 371.50-145Q384-142 398-138L398-234Q378-240 358-243.50Q338-247 310-247Q256-247 226-219Q196-191 196-148Q196-102 221.50-69.50Q247-37 287-9Q274-10 260-10M246 320Q321 320 353 345Q385 370 385 401Q385 443 339 443Q314 443 291 426Q268 409 251 381Q234 353 228 320L246 320Z"  horiz-adv-x="567" vert-adv-y="1000"  />

      
      </font>
</defs>
</svg>
