<?xml version="1.0" standalone="no"?>
  <!DOCTYPE svg PUBLIC "-//W3C//DTD SVG 1.1//EN" "http://www.w3.org/Graphics/SVG/1.1/DTD/svg11.dtd" >
  <svg>
  <metadata>
  Created by font-carrier
  </metadata>
  <defs>
  <font id="NotoSans-ExtraBold" horiz-adv-x="2839" vert-adv-y="2839" >
    <font-face
      
      font-family="Noto Sans ExtraBold"
      
      font-weight="400"
      
      font-stretch="normal"
      
      units-per-em="1000"
      
      ascent="1069"
      
      descent="-293"
      
    />
      <missing-glyph />

      

      
      <glyph glyph-name="uni21" unicode="&#x21;" d="M214 244L75 244L50 714L239 714L214 244M50 75Q50 124 77.50 143.50Q105 163 144 163Q182 163 209 143.50Q236 124 236 75Q236 28 209 7.50Q182-13 144-13Q105-13 77.50 7.50Q50 28 50 75Z"  horiz-adv-x="288" vert-adv-y="1000"  />

      
      <glyph glyph-name="uni22" unicode="&#x22;" d="M216 714L196 456L82 456L62 714L216 714M434 714L414 456L300 456L280 714L434 714Z"  horiz-adv-x="496" vert-adv-y="1000"  />

      
      <glyph glyph-name="uni23" unicode="&#x23;" d="M498 405L478 306L601 306L601 195L458 195L420 0L302 0L339 195L250 195L214 0L98 0L133 195L20 195L20 306L155 306L174 405L54 405L54 519L195 519L231 713L349 713L312 519L402 519L439 713L556 713L519 519L633 519L633 405L498 405M272 306L361 306L380 405L291 405L272 306Z"  horiz-adv-x="653" vert-adv-y="1000"  />

      
      <glyph glyph-name="uni24" unicode="&#x24;" d="M248 32Q183 33 134 44Q85 55 43 73L43 213Q87 193 143 178Q199 163 248 160L248 298Q178 323 130.50 350Q83 377 59 414Q35 451 35 507Q35 590 94 635Q153 680 248 687L248 759L326 759L326 689Q385 686 434.50 674Q484 662 528 643L483 520Q445 536 404.50 545.50Q364 555 326 559L326 425Q388 405 437 381.50Q486 358 514.50 321.50Q543 285 543 226Q543 150 490 97Q437 44 326 34L326-58L248-58L248 32M248 557Q189 550 189 511Q189 491 202.50 478Q216 465 248 452L248 557M326 163Q388 173 388 215Q388 235 373.50 248Q359 261 326 274L326 163Z"  horiz-adv-x="574" vert-adv-y="1000"  />

      
      <glyph glyph-name="uni25" unicode="&#x25;" d="M199 724Q283 724 330 665.50Q377 607 377 501Q377 395 333 335.50Q289 276 199 276Q117 276 71 335.50Q25 395 25 501Q25 607 68.50 665.50Q112 724 199 724M723 714L327 0L197 0L593 714L723 714M201 614Q178 614 168.50 584.50Q159 555 159 500Q159 444 168.50 414Q178 384 201 384Q224 384 233.50 414Q243 444 243 500Q243 555 233.50 584.50Q224 614 201 614M719 439Q803 439 850 380.50Q897 322 897 216Q897 111 853 51Q809-9 719-9Q637-9 591 51Q545 111 545 216Q545 322 588.50 380.50Q632 439 719 439M721 330Q698 330 688.50 300.50Q679 271 679 215Q679 160 688.50 130Q698 100 721 100Q743 100 753 129.50Q763 159 763 215Q763 330 721 330Z"  horiz-adv-x="923" vert-adv-y="1000"  />

      
      <glyph glyph-name="uni26" unicode="&#x26;" d="M319 724Q412 724 470 681.50Q528 639 528 562Q528 496 489 450Q450 404 391 369L511 254Q529 284 543 319Q557 354 566 391L741 391Q726 327 695.50 262Q665 197 624 146L775 0L562 0L510 53Q467 25 419 7.50Q371-10 297-10Q214-10 156.50 16.50Q99 43 68.50 89.50Q38 136 38 195Q38 266 72.50 313Q107 360 170 395Q135 435 118.50 473Q102 511 102 556Q102 631 160 677.50Q218 724 319 724M317 604Q295 604 275.50 591.50Q256 579 256 548Q256 525 268.50 503.50Q281 482 301 462Q336 482 355 504Q374 526 374 553Q374 580 356.50 592Q339 604 317 604M264 298Q239 280 226 258Q213 236 213 209Q213 172 240.50 149.50Q268 127 310 127Q341 127 365.50 135Q390 143 408 155L264 298Z"  horiz-adv-x="773" vert-adv-y="1000"  />

      
      <glyph glyph-name="uni27" unicode="&#x27;" d="M216 714L196 456L82 456L62 714L216 714Z"  horiz-adv-x="278" vert-adv-y="1000"  />

      
      <glyph glyph-name="uni28" unicode="&#x28;" d="M38 279Q38 401 71.50 516.50Q105 632 181 723L320 723Q252 629 219 513.50Q186 398 186 280Q186 163 218.50 48.50Q251-66 319-158L181-158Q105-70 71.50 44Q38 158 38 279Z"  horiz-adv-x="348" vert-adv-y="1000"  />

      
      <glyph glyph-name="uni29" unicode="&#x29;" d="M310 279Q310 158 276.50 44Q243-70 168-158L30-158Q97-66 130 48.50Q163 163 163 280Q163 398 130 513.50Q97 629 29 723L168 723Q243 632 276.50 516.50Q310 401 310 279Z"  horiz-adv-x="348" vert-adv-y="1000"  />

      
      <glyph glyph-name="uni2a" unicode="&#x2a;" d="M339 760L320 584L498 634L515 501L355 490L460 349L342 286L269 433L205 287L82 349L186 490L27 503L47 634L222 584L202 760L339 760Z"  horiz-adv-x="541" vert-adv-y="1000"  />

      
      <glyph glyph-name="uni2b" unicode="&#x2b;" d="M348 412L534 412L534 293L348 293L348 111L230 111L230 293L44 293L44 412L230 412L230 596L348 596L348 412Z"  horiz-adv-x="578" vert-adv-y="1000"  />

      
      <glyph glyph-name="uni2c" unicode="&#x2c;" d="M236 119Q227 83 213 38Q199-7 183-52Q167-97 150-134L30-134Q44-70 57.50 2Q71 74 78 130L229 130L236 119Z"  horiz-adv-x="296" vert-adv-y="1000"  />

      
      <glyph glyph-name="uni2d" unicode="&#x2d;" d="M26 200L26 336L294 336L294 200L26 200Z"  horiz-adv-x="320" vert-adv-y="1000"  />

      
      <glyph glyph-name="uni2e" unicode="&#x2e;" d="M50 75Q50 124 77.50 143.50Q105 163 144 163Q182 163 209 143.50Q236 124 236 75Q236 28 209 7.50Q182-13 144-13Q105-13 77.50 7.50Q50 28 50 75Z"  horiz-adv-x="287" vert-adv-y="1000"  />

      
      <glyph glyph-name="uni2f" unicode="&#x2f;" d="M423 719L157-5L6-5L272 719L423 719Z"  horiz-adv-x="426" vert-adv-y="1000"  />

      
      <glyph glyph-name="uni30" unicode="&#x30;" d="M542 357Q542 242 517.50 160Q493 78 437.50 34Q382-10 289-10Q157-10 96.50 87Q36 184 36 357Q36 472 60 554.50Q84 637 139.50 681Q195 725 289 725Q419 725 480.50 628Q542 531 542 357M205 357Q205 242 222 184.50Q239 127 289 127Q337 127 355 184.50Q373 242 373 357Q373 471 355 529.50Q337 588 289 588Q239 588 222 529.50Q205 471 205 357Z"  horiz-adv-x="578" vert-adv-y="1000"  />

      
      <glyph glyph-name="uni31" unicode="&#x31;" d="M435 0L263 0L263 385Q263 399 263.50 424.50Q264 450 264.50 479Q265 508 266 531Q258 521 244 507.50Q230 494 218 484L136 417L51 523L288 714L435 714L435 0Z"  horiz-adv-x="578" vert-adv-y="1000"  />

      
      <glyph glyph-name="uni32" unicode="&#x32;" d="M543 0L35 0L35 115L212 294Q266 350 298 386Q330 422 343.50 449.50Q357 477 357 508Q357 545 335 563Q313 581 278 581Q241 581 204 562Q167 543 124 507L31 616Q62 644 97 668.50Q132 693 179.50 708.50Q227 724 294 724Q366 724 417.50 698.50Q469 673 497.50 629.50Q526 586 526 530Q526 469 503 420.50Q480 372 435 323.50Q390 275 325 216L251 148L251 142L543 142L543 0Z"  horiz-adv-x="578" vert-adv-y="1000"  />

      
      <glyph glyph-name="uni33" unicode="&#x33;" d="M517 556Q517 481 471.50 436.50Q426 392 361 376L361 373Q447 363 492.50 321Q538 279 538 206Q538 146 507 97Q476 48 411.50 19Q347-10 245-10Q182-10 132 0Q82 10 36 29L36 172Q82 148 132 136.50Q182 125 224 125Q300 125 329.50 149.50Q359 174 359 217Q359 243 345 262.50Q331 282 295.50 292Q260 302 196 302L147 302L147 431L197 431Q258 431 291.50 442Q325 453 338 472.50Q351 492 351 517Q351 587 259 587Q209 587 171 569Q133 551 112 538L37 653Q80 683 137 703.50Q194 724 279 724Q389 724 453 680Q517 636 517 556Z"  horiz-adv-x="578" vert-adv-y="1000"  />

      
      <glyph glyph-name="uni34" unicode="&#x34;" d="M562 143L480 143L480 0L313 0L313 143L17 143L17 265L323 714L480 714L480 273L562 273L562 143M313 376Q313 396 314 425Q315 454 316 478.50Q317 503 318 508L313 508Q304 487 295 470.50Q286 454 273 434L166 273L313 273L313 376Z"  horiz-adv-x="578" vert-adv-y="1000"  />

      
      <glyph glyph-name="uni35" unicode="&#x35;" d="M311 462Q374 462 424 436Q474 410 503 360Q532 310 532 239Q532 121 460.50 55.50Q389-10 245-10Q124-10 48 29L48 172Q85 153 137.50 139.50Q190 126 235 126Q296 126 328.50 151.50Q361 177 361 229Q361 276 328.50 301.50Q296 327 229 327Q202 327 174 321.50Q146 316 126 311L61 344L88 714L484 714L484 571L234 571L223 452Q239 455 257.50 458.50Q276 462 311 462Z"  horiz-adv-x="578" vert-adv-y="1000"  />

      
      <glyph glyph-name="uni36" unicode="&#x36;" d="M35 303Q35 364 43.50 424.50Q52 485 75 539Q98 593 139 634.50Q180 676 244 699.50Q308 723 400 723Q421 723 450 721Q479 719 499 715L499 581Q479 585 455.50 587.50Q432 590 403 590Q322 590 276.50 565Q231 540 212 494Q193 448 190 387L196 387Q215 422 250.50 446Q286 470 344 470Q438 470 492 410Q546 350 546 241Q546 123 479.50 56.50Q413-10 299-10Q225-10 165 23.50Q105 57 70 126.50Q35 196 35 303M296 126Q334 126 357.50 153Q381 180 381 238Q381 284 361 311Q341 338 298 338Q255 338 229.50 310Q204 282 204 249Q204 220 214 191.50Q224 163 244.50 144.50Q265 126 296 126Z"  horiz-adv-x="578" vert-adv-y="1000"  />

      
      <glyph glyph-name="uni37" unicode="&#x37;" d="M107 0L364 572L32 572L32 714L545 714L545 610L284 0L107 0Z"  horiz-adv-x="578" vert-adv-y="1000"  />

      
      <glyph glyph-name="uni38" unicode="&#x38;" d="M290 723Q356 723 408.50 704Q461 685 492 647Q523 609 523 551Q523 486 487 444.50Q451 403 397 377Q433 357 467 331Q501 305 522.50 270Q544 235 544 187Q544 99 477.50 44.50Q411-10 289-10Q162-10 98 43Q34 96 34 184Q34 258 72.50 301.50Q111 345 168 373Q121 403 88.50 445.50Q56 488 56 552Q56 608 87.50 646.50Q119 685 172 704Q225 723 290 723M289 600Q258 600 237 583Q216 566 216 537Q216 506 237.50 485Q259 464 289 449Q317 463 340 483Q363 503 363 537Q363 566 341.50 583Q320 600 289 600M191 193Q191 158 216 136Q241 114 287 114Q338 114 362.50 134.50Q387 155 387 190Q387 215 372.50 234.50Q358 254 337.50 268.50Q317 283 298 294L285 302Q244 282 217.50 256Q191 230 191 193Z"  horiz-adv-x="578" vert-adv-y="1000"  />

      
      <glyph glyph-name="uni39" unicode="&#x39;" d="M543 405Q543 320 525.50 244.50Q508 169 466.50 112Q425 55 354.50 22.50Q284-10 178-10Q157-10 128.50-8.50Q100-7 81-4L81 132Q101 128 122.50 125.50Q144 123 169 123Q254 123 300.50 148.50Q347 174 366 220Q385 266 388 326L382 326Q362 291 328.50 267Q295 243 231 243Q140 243 86 303Q32 363 32 473Q32 590 98.50 656.50Q165 723 279 723Q353 723 413 689Q473 655 508 585Q543 515 543 405M283 587Q244 587 220 560Q196 533 196 475Q196 428 217 401Q238 374 281 374Q322 374 348 402.50Q374 431 374 463Q374 493 364 521.50Q354 550 334 568.50Q314 587 283 587Z"  horiz-adv-x="578" vert-adv-y="1000"  />

      
      <glyph glyph-name="uni3a" unicode="&#x3a;" d="M50 470Q50 518 77.50 538Q105 558 144 558Q182 558 209 538Q236 518 236 470Q236 423 209 402.50Q182 382 144 382Q105 382 77.50 402.50Q50 423 50 470M50 75Q50 124 77.50 143.50Q105 163 144 163Q182 163 209 143.50Q236 124 236 75Q236 28 209 7.50Q182-13 144-13Q105-13 77.50 7.50Q50 28 50 75Z"  horiz-adv-x="287" vert-adv-y="1000"  />

      
      <glyph glyph-name="uni3b" unicode="&#x3b;" d="M51 470Q51 518 78.50 538Q106 558 145 558Q183 558 210.50 538Q238 518 238 470Q238 423 210.50 402.50Q183 382 145 382Q106 382 78.50 402.50Q51 423 51 470M236 119Q227 83 213 38Q199-7 183-52Q167-97 150-134L30-134Q44-70 57.50 2Q71 74 78 130L229 130L236 119Z"  horiz-adv-x="291" vert-adv-y="1000"  />

      
      <glyph glyph-name="uni3c" unicode="&#x3c;" d="M533 93L44 310L44 386L533 631L533 501L213 353L533 223L533 93Z"  horiz-adv-x="578" vert-adv-y="1000"  />

      
      <glyph glyph-name="uni3d" unicode="&#x3d;" d="M44 396L44 513L534 513L534 396L44 396M44 191L44 309L534 309L534 191L44 191Z"  horiz-adv-x="578" vert-adv-y="1000"  />

      
      <glyph glyph-name="uni3e" unicode="&#x3e;" d="M44 223L364 353L44 501L44 631L533 386L533 310L44 93L44 223Z"  horiz-adv-x="578" vert-adv-y="1000"  />

      
      <glyph glyph-name="uni3f" unicode="&#x3f;" d="M139 283Q139 330 159 364Q179 398 230 433Q277 465 293.50 486.50Q310 508 310 535Q310 561 288.50 575.50Q267 590 231 590Q191 590 149 577Q107 564 62 540L2 659Q53 688 113 706Q173 724 243 724Q351 724 410 674.50Q469 625 469 547Q469 487 440.50 446.50Q412 406 352 364Q308 334 293 316Q278 298 278 271L278 244L139 244L139 283M121 75Q121 124 148.50 143.50Q176 163 215 163Q252 163 279.50 143.50Q307 124 307 75Q307 28 279.50 7.50Q252-13 215-13Q176-13 148.50 7.50Q121 28 121 75Z"  horiz-adv-x="490" vert-adv-y="1000"  />

      
      <glyph glyph-name="uni40" unicode="&#x40;" d="M852 363Q852 316 840.50 271Q829 226 806 189.50Q783 153 748.50 131Q714 109 669 109Q632 109 602.50 125.50Q573 142 558 170L550 170Q529 145 496.50 127Q464 109 420 109Q329 109 281.50 163Q234 217 234 305Q234 372 262.50 424Q291 476 345.50 505.50Q400 535 476 535Q524 535 573 526Q622 517 652 507L642 302Q641 282 641 262Q641 229 650 217.50Q659 206 672 206Q692 206 706 227.50Q720 249 727 285Q734 321 734 364Q734 483 665 550.50Q596 618 478 618Q375 618 305.50 576Q236 534 200.50 460Q165 386 165 292Q165 164 234.50 92.50Q304 21 439 21Q496 21 561 34Q626 47 682 67L682-35Q632-56 571.50-68Q511-80 444-80Q319-80 229.50-35.50Q140 9 92.50 92Q45 175 45 291Q45 381 75.50 459Q106 537 162.50 595Q219 653 298.50 685.50Q378 718 476 718Q587 718 671.50 675Q756 632 804 552.50Q852 473 852 363M358 304Q358 252 378.50 229Q399 206 433 206Q479 206 497.50 240.50Q516 275 520 341L526 434Q515 436 504.50 437Q494 438 481 438Q437 438 410 419Q383 400 370.50 369.50Q358 339 358 304Z"  horiz-adv-x="897" vert-adv-y="1000"  />

      
      <glyph glyph-name="uni41" unicode="&#x41;" d="M521 0L477 153L230 153L186 0L0 0L243 717L461 717L707 0L521 0M397 438Q392 456 383.50 486.50Q375 517 366.50 549Q358 581 353 603Q349 581 340.50 548.50Q332 516 324 485.50Q316 455 311 438L269 295L439 295L397 438Z"  horiz-adv-x="707" vert-adv-y="1000"  />

      
      <glyph glyph-name="uni42" unicode="&#x42;" d="M318 714Q467 714 537 671Q607 628 607 534Q607 469 574.50 428.50Q542 388 496 379L496 374Q528 367 557 349.50Q586 332 604.50 298Q623 264 623 208Q623 110 551.50 55Q480 0 356 0L84 0L84 714L318 714M329 435Q386 435 409 455.50Q432 476 432 511Q432 580 322 580L254 580L254 435L329 435M254 305L254 136L339 136Q399 136 422.50 160Q446 184 446 223Q446 258 422 281.50Q398 305 335 305L254 305Z"  horiz-adv-x="673" vert-adv-y="1000"  />

      
      <glyph glyph-name="uni43" unicode="&#x43;" d="M394 583Q316 583 273 522Q230 461 230 355Q230 246 271 188.50Q312 131 399 131Q444 131 488 142.50Q532 154 581 172L581 28Q533 8 485.50-1Q438-10 382-10Q268-10 196 36Q124 82 89.50 164Q55 246 55 356Q55 464 94 547Q133 630 209 677Q285 724 395 724Q447 724 502.50 711.50Q558 699 609 674L556 538Q516 556 476 569.50Q436 583 394 583Z"  horiz-adv-x="643" vert-adv-y="1000"  />

      
      <glyph glyph-name="uni44" unicode="&#x44;" d="M682 368Q682 245 636 163.50Q590 82 504 41Q418 0 299 0L84 0L84 714L319 714Q489 714 585.50 625.50Q682 537 682 368M506 362Q506 471 460 523Q414 575 324 575L254 575L254 140L309 140Q410 140 458 195.50Q506 251 506 362Z"  horiz-adv-x="737" vert-adv-y="1000"  />

      
      <glyph glyph-name="uni45" unicode="&#x45;" d="M501 0L84 0L84 714L501 714L501 576L254 576L254 439L483 439L483 301L254 301L254 140L501 140L501 0Z"  horiz-adv-x="555" vert-adv-y="1000"  />

      
      <glyph glyph-name="uni46" unicode="&#x46;" d="M252 0L84 0L84 714L499 714L499 576L252 576L252 414L481 414L481 276L252 276L252 0Z"  horiz-adv-x="544" vert-adv-y="1000"  />

      
      <glyph glyph-name="uni47" unicode="&#x47;" d="M362 409L657 409L657 32Q601 13 535.50 1.50Q470-10 393-10Q235-10 145 82.50Q55 175 55 358Q55 470 98 552.50Q141 635 224.50 679.50Q308 724 429 724Q490 724 547.50 711.50Q605 699 649 680L594 545Q559 562 517 572.50Q475 583 429 583Q364 583 319.50 553.50Q275 524 253 472.50Q231 421 231 355Q231 252 273.50 191.50Q316 131 406 131Q431 131 454 134Q477 137 494 140L494 272L362 272L362 409Z"  horiz-adv-x="731" vert-adv-y="1000"  />

      
      <glyph glyph-name="uni48" unicode="&#x48;" d="M681 0L511 0L511 300L255 300L255 0L84 0L84 714L255 714L255 441L511 441L511 714L681 714L681 0Z"  horiz-adv-x="765" vert-adv-y="1000"  />

      
      <glyph glyph-name="uni49" unicode="&#x49;" d="M380 0L33 0L33 97L121 134L121 580L33 617L33 714L380 714L380 617L292 580L292 134L380 97L380 0Z"  horiz-adv-x="413" vert-adv-y="1000"  />

      
      <glyph glyph-name="uni4a" unicode="&#x4a;" d="M18-216Q-13-216-36.50-213Q-60-210-76-206L-76-69Q-61-72-43.50-75.50Q-26-79-5-79Q40-79 63-51Q86-23 86 49L86 714L257 714L257 57Q257-42 226.50-102Q196-162 142-189Q88-216 18-216Z"  horiz-adv-x="341" vert-adv-y="1000"  />

      
      <glyph glyph-name="uni4b" unicode="&#x4b;" d="M675 0L481 0L316 288L255 248L255 0L84 0L84 714L255 714L255 395Q268 417 283.50 439Q299 461 314 482L488 714L675 714L437 396L675 0Z"  horiz-adv-x="675" vert-adv-y="1000"  />

      
      <glyph glyph-name="uni4c" unicode="&#x4c;" d="M84 0L84 714L254 714L254 139L537 139L537 0L84 0Z"  horiz-adv-x="573" vert-adv-y="1000"  />

      
      <glyph glyph-name="uni4d" unicode="&#x4d;" d="M390 0L230 539L226 539Q227 519 229.50 481.50Q232 444 234 401Q236 358 236 322L236 0L84 0L84 714L314 714L473 186L477 186L641 714L870 714L870 0L712 0L712 326Q712 360 713.50 401.50Q715 443 716.50 480.50Q718 518 719 538L715 538L550 0L390 0Z"  horiz-adv-x="954" vert-adv-y="1000"  />

      
      <glyph glyph-name="uni4e" unicode="&#x4e;" d="M739 0L519 0L231 523L227 523Q229 480 231.50 427.50Q234 375 236 330L236 0L84 0L84 714L303 714L590 197L593 197Q591 240 589 289.50Q587 339 586 383L586 714L739 714L739 0Z"  horiz-adv-x="823" vert-adv-y="1000"  />

      
      <glyph glyph-name="uni4f" unicode="&#x4f;" d="M741 358Q741 247 705 164.50Q669 82 593 36Q517-10 398-10Q280-10 204 36Q128 82 91.50 165Q55 248 55 359Q55 470 91.50 552Q128 634 204 679.50Q280 725 399 725Q518 725 593.50 679.50Q669 634 705 551.50Q741 469 741 358M234 358Q234 253 272.50 193Q311 133 398 133Q487 133 524.50 193Q562 253 562 358Q562 463 524.50 523.50Q487 584 399 584Q311 584 272.50 523.50Q234 463 234 358Z"  horiz-adv-x="796" vert-adv-y="1000"  />

      
      <glyph glyph-name="uni50" unicode="&#x50;" d="M321 714Q458 714 523.50 654.50Q589 595 589 489Q589 426 563 370.50Q537 315 477 280.50Q417 246 314 246L254 246L254 0L84 0L84 714L321 714M315 575L254 575L254 385L299 385Q350 385 383.50 408Q417 431 417 484Q417 528 392 551.50Q367 575 315 575Z"  horiz-adv-x="630" vert-adv-y="1000"  />

      
      <glyph glyph-name="uni51" unicode="&#x51;" d="M741 358Q741 242 701.50 155.50Q662 69 575 26L748-170L533-170L407-10L398-10Q280-10 204 36Q128 82 91.50 165Q55 248 55 359Q55 470 91.50 552Q128 634 204 679.50Q280 725 399 725Q518 725 593.50 679.50Q669 634 705 551.50Q741 469 741 358M234 358Q234 253 272.50 193Q311 133 398 133Q487 133 524.50 193Q562 253 562 358Q562 463 524.50 523.50Q487 584 399 584Q311 584 272.50 523.50Q234 463 234 358Z"  horiz-adv-x="796" vert-adv-y="1000"  />

      
      <glyph glyph-name="uni52" unicode="&#x52;" d="M304 714Q592 714 592 501Q592 432 555.50 385Q519 338 464 311L673 0L482 0L321 268L254 268L254 0L84 0L84 714L304 714M297 580L254 580L254 401L297 401Q358 401 388.50 423.50Q419 446 419 495Q419 538 390 559Q361 580 297 580Z"  horiz-adv-x="668" vert-adv-y="1000"  />

      
      <glyph glyph-name="uni53" unicode="&#x53;" d="M526 207Q526 146 496 96.50Q466 47 406 18.50Q346-10 255-10Q192-10 142 1Q92 12 45 34L45 189Q99 164 155.50 147Q212 130 264 130Q313 130 335 148.50Q357 167 357 195Q357 229 322 250.50Q287 272 223 302Q181 321 141.50 347.50Q102 374 77 414.50Q52 455 52 518Q52 618 121.50 671Q191 724 306 724Q368 724 421 709.50Q474 695 525 674L471 541Q423 562 381.50 573.50Q340 585 301 585Q260 585 240 568Q220 551 220 525Q220 504 234 488.50Q248 473 278 457Q308 441 357 418Q410 394 448 366Q486 338 506 300.50Q526 263 526 207Z"  horiz-adv-x="563" vert-adv-y="1000"  />

      
      <glyph glyph-name="uni54" unicode="&#x54;" d="M377 0L207 0L207 573L22 573L22 714L562 714L562 573L377 573L377 0Z"  horiz-adv-x="585" vert-adv-y="1000"  />

      
      <glyph glyph-name="uni55" unicode="&#x55;" d="M677 267Q677 185 643.50 123Q610 61 543.50 25.50Q477-10 375-10Q231-10 155 64Q79 138 79 266L79 714L250 714L250 285Q250 203 282.50 168Q315 133 379 133Q446 133 476.50 169.50Q507 206 507 286L507 714L677 714L677 267Z"  horiz-adv-x="756" vert-adv-y="1000"  />

      
      <glyph glyph-name="uni56" unicode="&#x56;" d="M670 714L431 0L238 0L0 714L183 714L299 318Q304 303 311.50 272.50Q319 242 326 209.50Q333 177 335 156Q338 177 344.50 209Q351 241 358 271.50Q365 302 370 317L488 714L670 714Z"  horiz-adv-x="670" vert-adv-y="1000"  />

      
      <glyph glyph-name="uni57" unicode="&#x57;" d="M993 714L814 0L616 0L533 345Q530 355 525.50 377Q521 399 516 425Q511 451 506.50 475.50Q502 500 501 516Q499 500 494.50 475.50Q490 451 485 425Q480 399 475 377Q470 355 468 345L384 0L187 0L7 714L173 714L258 339Q263 318 270 283Q277 248 283.50 211.50Q290 175 293 151Q297 183 305 226.50Q313 270 321.50 310.50Q330 351 336 374L421 714L580 714L665 374Q669 357 675 329Q681 301 687 268.50Q693 236 698.50 205Q704 174 707 151Q710 175 716.50 211.50Q723 248 730 282.50Q737 317 742 338L827 714L993 714Z"  horiz-adv-x="1000" vert-adv-y="1000"  />

      
      <glyph glyph-name="uni58" unicode="&#x58;" d="M691 0L495 0L342 248L189 0L1 0L238 367L15 714L204 714L347 474L485 714L674 714L450 355L691 0Z"  horiz-adv-x="693" vert-adv-y="1000"  />

      
      <glyph glyph-name="uni59" unicode="&#x59;" d="M321 433L458 714L642 714L406 278L406 0L236 0L236 273L0 714L185 714L321 433Z"  horiz-adv-x="642" vert-adv-y="1000"  />

      
      <glyph glyph-name="uni5a" unicode="&#x5a;" d="M569 0L27 0L27 108L354 575L35 575L35 714L561 714L561 606L234 139L569 139L569 0Z"  horiz-adv-x="594" vert-adv-y="1000"  />

      
      <glyph glyph-name="uni5b" unicode="&#x5b;" d="M304-163L64-163L64 723L304 723L304 611L204 611L204-50L304-50L304-163Z"  horiz-adv-x="328" vert-adv-y="1000"  />

      
      <glyph glyph-name="uni5c" unicode="&#x5c;" d="M155 719L421-5L271-5L5 719L155 719Z"  horiz-adv-x="426" vert-adv-y="1000"  />

      
      <glyph glyph-name="uni5d" unicode="&#x5d;" d="M24-50L124-50L124 611L24 611L24 723L264 723L264-163L24-163L24-50Z"  horiz-adv-x="328" vert-adv-y="1000"  />

      
      <glyph glyph-name="uni5e" unicode="&#x5e;" d="M9 250L223 718L299 718L544 250L414 250L265 549L135 250L9 250Z"  horiz-adv-x="550" vert-adv-y="1000"  />

      
      <glyph glyph-name="uni5f" unicode="&#x5f;" d="M454-170L-2-170L-2-78L454-78L454-170Z"  horiz-adv-x="452" vert-adv-y="1000"  />

      
      <glyph glyph-name="uni60" unicode="&#x60;" d="M227 766Q243 744 265 716.50Q287 689 309.50 663.50Q332 638 348 619L348 606L236 606Q216 619 189.50 638.50Q163 658 134.50 680Q106 702 81 722Q56 742 40 756L40 766L227 766Z"  horiz-adv-x="388" vert-adv-y="1000"  />

      
      <glyph glyph-name="uni61" unicode="&#x61;" d="M318 560Q425 560 484 510Q543 460 543 364L543 0L426 0L393 74L389 74Q354 29 315 9.50Q276-10 208-10Q135-10 87 33Q39 76 39 166Q39 253 100.50 295.50Q162 338 281 343L375 346L375 362Q375 402 354.50 420Q334 438 298 438Q262 438 223 426.50Q184 415 144 398L93 510Q138 534 195 547Q252 560 318 560M324 248Q261 246 236 225.50Q211 205 211 170Q211 139 229 125Q247 111 275 111Q317 111 346 136.50Q375 162 375 206L375 250L324 248Z"  horiz-adv-x="613" vert-adv-y="1000"  />

      
      <glyph glyph-name="uni62" unicode="&#x62;" d="M241 585Q241 555 239 526.50Q237 498 234 478L241 478Q262 512 298 535.50Q334 559 392 559Q481 559 537.50 487Q594 415 594 276Q594 135 536.50 62.50Q479-10 387-10Q328-10 295 11Q262 32 241 57L230 57L203 0L72 0L72 760L241 760L241 585M334 426Q284 426 263 393.50Q242 361 241 294L241 273Q241 201 261.50 163.50Q282 126 336 126Q376 126 399 165Q422 204 422 278Q422 426 334 426Z"  horiz-adv-x="638" vert-adv-y="1000"  />

      
      <glyph glyph-name="uni63" unicode="&#x63;" d="M308-10Q184-10 114 57.50Q44 125 44 272Q44 372 79.50 435.50Q115 499 178 529Q241 559 322 559Q376 559 419.50 548Q463 537 497 520L448 393Q413 408 383 416.50Q353 425 322 425Q271 425 243 387Q215 349 215 273Q215 196 244 160.50Q273 125 323 125Q367 125 405.50 137.50Q444 150 479 173L479 35Q445 13 405 1.50Q365-10 308-10Z"  horiz-adv-x="526" vert-adv-y="1000"  />

      
      <glyph glyph-name="uni64" unicode="&#x64;" d="M245-10Q156-10 100 62Q44 134 44 274Q44 415 101 487Q158 559 250 559Q308 559 344 536Q380 513 402 479L406 479Q403 497 399.50 530.50Q396 564 396 597L396 760L565 760L565 0L437 0L403 71L396 71Q375 37 339 13.50Q303-10 245-10M309 124Q363 124 385.50 157Q408 190 409 257L409 272Q409 345 387.50 384Q366 423 307 423Q264 423 239 385Q214 347 214 271Q214 196 239.50 160Q265 124 309 124Z"  horiz-adv-x="638" vert-adv-y="1000"  />

      
      <glyph glyph-name="uni65" unicode="&#x65;" d="M309 559Q425 559 493 495.50Q561 432 561 309L561 231L214 231Q216 177 249 145Q282 113 343 113Q395 113 438.50 123Q482 133 528 155L528 30Q487 9 441.50-0.50Q396-10 329-10Q246-10 181.50 20Q117 50 80.50 112.50Q44 175 44 271Q44 368 77 432Q110 496 169.50 527.50Q229 559 309 559M312 442Q273 442 247.50 417.50Q222 393 217 340L406 340Q405 383 382 412.50Q359 442 312 442Z"  horiz-adv-x="603" vert-adv-y="1000"  />

      
      <glyph glyph-name="uni66" unicode="&#x66;" d="M391 423L267 423L267 0L99 0L99 423L21 423L21 505L101 548L101 574Q101 680 149 722.50Q197 765 291 765Q334 765 369.50 758Q405 751 435 741L395 625Q380 629 361 633Q342 637 319 637Q292 637 279.50 620.50Q267 604 267 574L267 549L391 549L391 423Z"  horiz-adv-x="399" vert-adv-y="1000"  />

      
      <glyph glyph-name="uni67" unicode="&#x67;" d="M249 559Q303 559 341 538Q379 517 404 480L408 480L421 549L565 549L565-1Q565-118 494.50-179Q424-240 282-240Q220-240 170-233Q120-226 72-208L72-71Q123-92 172-102.50Q221-113 282-113Q397-113 397-8L397 3Q397 17 398.50 35.50Q400 54 402 71L397 71Q373 32 335.50 11Q298-10 246-10Q153-10 98.50 64Q44 138 44 274Q44 411 99.50 485Q155 559 249 559M308 426Q215 426 215 271Q215 194 238.50 157.50Q262 121 310 121Q363 121 386 152Q409 183 409 254L409 275Q409 352 386.50 389Q364 426 308 426Z"  horiz-adv-x="638" vert-adv-y="1000"  />

      
      <glyph glyph-name="uni68" unicode="&#x68;" d="M241 627Q241 577 238 537.50Q235 498 233 480L242 480Q268 523 307.50 541Q347 559 397 559Q454 559 498.50 538Q543 517 568 473Q593 429 593 358L593 0L424 0L424 311Q424 426 346 426Q286 426 263.50 380.50Q241 335 241 251L241 0L72 0L72 760L241 760L241 627Z"  horiz-adv-x="663" vert-adv-y="1000"  />

      
      <glyph glyph-name="uni69" unicode="&#x69;" d="M158 767Q194 767 221 751Q248 735 248 689Q248 644 221 627.50Q194 611 158 611Q120 611 93.50 627.50Q67 644 67 689Q67 735 93.50 751Q120 767 158 767M241 549L241 0L73 0L73 549L241 549Z"  horiz-adv-x="314" vert-adv-y="1000"  />

      
      <glyph glyph-name="uni6a" unicode="&#x6a;" d="M67 689Q67 735 93.50 751Q120 767 157 767Q194 767 221 751Q248 735 248 689Q248 644 221 627.50Q194 611 157 611Q120 611 93.50 627.50Q67 644 67 689M42-240Q18-240-10.50-236.50Q-39-233-58-228L-58-96Q-41-101-26.50-103Q-12-105 7-105Q34-105 53-88.50Q72-72 72-22L72 549L241 549L241-53Q241-103 221.50-145.50Q202-188 158.50-214Q115-240 42-240Z"  horiz-adv-x="314" vert-adv-y="1000"  />

      
      <glyph glyph-name="uni6b" unicode="&#x6b;" d="M241 439Q241 407 238.50 371.50Q236 336 232 303L235 303Q248 323 264.50 346Q281 369 297 388L437 549L625 549L420 313L638 0L445 0L304 210L241 161L241 0L72 0L72 760L241 760L241 439Z"  horiz-adv-x="638" vert-adv-y="1000"  />

      
      <glyph glyph-name="uni6c" unicode="&#x6c;" d="M241 0L72 0L72 760L241 760L241 0Z"  horiz-adv-x="313" vert-adv-y="1000"  />

      
      <glyph glyph-name="uni6d" unicode="&#x6d;" d="M729 559Q823 559 871.50 511.50Q920 464 920 358L920 0L752 0L752 311Q752 371 733.50 398.50Q715 426 677 426Q624 426 602 384.50Q580 343 580 267L580 0L412 0L412 311Q412 426 338 426Q282 426 261.50 380.50Q241 335 241 250L241 0L72 0L72 549L200 549L224 480L231 480Q254 518 296.50 538.50Q339 559 393 559Q511 559 558 481L568 481Q594 520 637 539.50Q680 559 729 559Z"  horiz-adv-x="990" vert-adv-y="1000"  />

      
      <glyph glyph-name="uni6e" unicode="&#x6e;" d="M399 559Q486 559 539.50 511.50Q593 464 593 358L593 0L425 0L425 311Q425 368 406 397Q387 426 346 426Q285 426 263 380.50Q241 335 241 250L241 0L72 0L72 549L200 549L223 478L231 478Q257 518 301 538.50Q345 559 399 559Z"  horiz-adv-x="663" vert-adv-y="1000"  />

      
      <glyph glyph-name="uni6f" unicode="&#x6f;" d="M583 276Q583 138 510.50 64Q438-10 312-10Q234-10 173.50 23.50Q113 57 78.50 120.50Q44 184 44 276Q44 412 116.50 485.50Q189 559 315 559Q393 559 453.50 526Q514 493 548.50 430Q583 367 583 276M215 276Q215 199 238 159.50Q261 120 314 120Q366 120 389 159.50Q412 199 412 276Q412 352 389 390.50Q366 429 313 429Q261 429 238 390.50Q215 352 215 276Z"  horiz-adv-x="627" vert-adv-y="1000"  />

      
      <glyph glyph-name="uni70" unicode="&#x70;" d="M392 559Q484 559 539 486.50Q594 414 594 276Q594 182 567 118.50Q540 55 493.50 22.50Q447-10 387-10Q328-10 294.50 11Q261 32 241 57L234 57Q237 38 239 17Q241-4 241-28L241-240L72-240L72 549L209 549L233 479L241 479Q262 511 298 535Q334 559 392 559M333 426Q282 426 262 392.50Q242 359 241 292L241 277Q241 204 261 165Q281 126 335 126Q422 126 422 278Q422 355 400 390.50Q378 426 333 426Z"  horiz-adv-x="638" vert-adv-y="1000"  />

      
      <glyph glyph-name="uni71" unicode="&#x71;" d="M397-11Q397 30 403 71L397 71Q376 37 340.50 13.50Q305-10 246-10Q155-10 99.50 62Q44 134 44 274Q44 414 101 486.50Q158 559 249 559Q308 559 344.50 536.50Q381 514 404 480L408 480L421 549L565 549L565-240L397-240L397-11M310 121Q365 121 386.50 154Q408 187 409 254L409 275Q409 347 388 386.50Q367 426 308 426Q261 426 238 386.50Q215 347 215 271Q215 194 238.50 157.50Q262 121 310 121Z"  horiz-adv-x="638" vert-adv-y="1000"  />

      
      <glyph glyph-name="uni72" unicode="&#x72;" d="M391 559Q404 559 420 557.50Q436 556 445 554L431 396Q422 398 408 399.50Q394 401 377 401Q345 401 313.50 391Q282 381 261.50 353.50Q241 326 241 275L241 0L72 0L72 549L199 549L225 459L232 459Q256 500 298 529.50Q340 559 391 559Z"  horiz-adv-x="461" vert-adv-y="1000"  />

      
      <glyph glyph-name="uni73" unicode="&#x73;" d="M467 166Q467 85 410.50 37.50Q354-10 234-10Q176-10 132.50-3Q89 4 45 22L45 158Q93 136 145 124.50Q197 113 233 113Q271 113 288 123Q305 133 305 151Q305 164 296.50 174Q288 184 262.50 196.50Q237 209 187 230Q138 251 106.50 273Q75 295 59.50 325.50Q44 356 44 402Q44 480 104.50 519.50Q165 559 265 559Q318 559 365 548Q412 537 462 514L414 400Q373 418 334.50 429Q296 440 265 440Q207 440 207 410Q207 399 215.50 389.50Q224 380 248.50 369Q273 358 320 338Q367 319 400 297.50Q433 276 450 245Q467 214 467 166Z"  horiz-adv-x="506" vert-adv-y="1000"  />

      
      <glyph glyph-name="uni74" unicode="&#x74;" d="M321 124Q346 124 368.50 129Q391 134 414 142L414 18Q387 6 352-2Q317-10 269-10Q218-10 178.50 6.50Q139 23 116.50 63Q94 103 94 176L94 423L24 423L24 493L108 547L154 663L262 663L262 549L408 549L408 423L262 423L262 182Q262 153 278 138.50Q294 124 321 124Z"  horiz-adv-x="446" vert-adv-y="1000"  />

      
      <glyph glyph-name="uni75" unicode="&#x75;" d="M591 549L591 0L463 0L441 70L431 70Q405 28 360 9Q315-10 264-10Q179-10 124.50 38Q70 86 70 191L70 549L239 549L239 238Q239 182 257.50 153Q276 124 317 124Q378 124 400 169Q422 214 422 299L422 549L591 549Z"  horiz-adv-x="663" vert-adv-y="1000"  />

      
      <glyph glyph-name="uni76" unicode="&#x76;" d="M209 0L0 549L176 549L276 231Q281 214 285.50 189.50Q290 165 291 145L295 145Q296 166 300.50 189Q305 212 311 230L413 549L588 549L379 0L209 0Z"  horiz-adv-x="588" vert-adv-y="1000"  />

      
      <glyph glyph-name="uni77" unicode="&#x77;" d="M485 215Q480 232 474 261Q468 290 461 322Q454 354 449 380.50Q444 407 441 420L437 420Q435 407 429.50 380.50Q424 354 417 321.50Q410 289 403.50 259.50Q397 230 393 210L343 0L164 0L11 549L177 549L232 321Q238 297 243.50 263Q249 229 253.50 196Q258 163 260 141L263 141Q264 158 267.50 182.50Q271 207 275.50 232.50Q280 258 284 278Q288 298 289 305L349 549L535 549L591 304Q594 288 600 257.50Q606 227 610.50 195Q615 163 617 141L620 141Q622 162 626.50 195.50Q631 229 637 263Q643 297 649 321L706 549L870 549L715 0L534 0L485 215Z"  horiz-adv-x="881" vert-adv-y="1000"  />

      
      <glyph glyph-name="uni78" unicode="&#x78;" d="M187 280L14 549L205 549L301 384L398 549L589 549L414 280L597 0L406 0L301 178L196 0L5 0L187 280Z"  horiz-adv-x="602" vert-adv-y="1000"  />

      
      <glyph glyph-name="uni79" unicode="&#x79;" d="M0 549L180 549L279 238Q284 221 287.50 200.50Q291 180 293 159L296 159Q299 182 303.50 201.50Q308 221 313 237L412 549L588 549L362-54Q328-146 269.50-193Q211-240 118-240Q92-240 73.50-237.50Q55-235 41-232L41-99Q52-101 67.50-103Q83-105 100-105Q147-105 172-77Q197-49 211-11L217 6L0 549Z"  horiz-adv-x="588" vert-adv-y="1000"  />

      
      <glyph glyph-name="uni7a" unicode="&#x7a;" d="M469 0L26 0L26 98L268 420L40 420L40 549L459 549L459 443L226 129L469 129L469 0Z"  horiz-adv-x="497" vert-adv-y="1000"  />

      
      <glyph glyph-name="uni7b" unicode="&#x7b;" d="M376-163Q282-163 232-147Q182-131 163.50-98Q145-65 145-12L145 127Q145 173 110 192.50Q75 212 22 212L22 343Q76 343 110.50 362.50Q145 382 145 428L145 569Q145 621 163.50 654Q182 687 232 703Q282 719 376 719L376 597Q352 596 332 592Q312 588 299.50 575Q287 562 287 535L287 396Q287 343 257 316Q227 289 172 281L172 275Q228 266 257.50 239Q287 212 287 161L287 21Q287-6 299.50-19Q312-32 332.50-36Q353-40 376-41L376-163Z"  horiz-adv-x="412" vert-adv-y="1000"  />

      
      <glyph glyph-name="uni7c" unicode="&#x7c;" d="M207 758L325 758L325-223L207-223L207 758Z"  horiz-adv-x="532" vert-adv-y="1000"  />

      
      <glyph glyph-name="uni7d" unicode="&#x7d;" d="M36-41Q59-40 79.50-36Q100-32 112.50-19Q125-6 125 21L125 161Q125 212 154.50 239Q184 266 240 275L240 281Q185 289 155 316Q125 343 125 396L125 535Q125 562 112.50 575Q100 588 80 592Q60 596 36 597L36 719Q130 719 180 703Q230 687 248.50 654Q267 621 267 569L267 428Q267 382 301.50 362.50Q336 343 390 343L390 212Q337 212 302 192.50Q267 173 267 127L267-12Q267-65 248.50-98Q230-131 180-147Q130-163 36-163L36-41Z"  horiz-adv-x="412" vert-adv-y="1000"  />

      
      <glyph glyph-name="uni7e" unicode="&#x7e;" d="M271 295Q234 311 207.50 316.50Q181 322 158 322Q129 322 99 305Q69 288 44 263L44 388Q95 441 171 441Q200 441 229.50 435Q259 429 307 410Q343 394 370.50 388.50Q398 383 420 383Q448 383 478 400Q508 417 534 442L534 317Q483 264 407 264Q377 264 348 270Q319 276 271 295Z"  horiz-adv-x="578" vert-adv-y="1000"  />

      
      <glyph glyph-name="unia1" unicode="&#xa1;" d="M238 466Q238 418 210.50 398Q183 378 144 378Q106 378 78.50 398Q51 418 51 466Q51 513 78.50 533.50Q106 554 144 554Q183 554 210.50 533.50Q238 513 238 466M74 297L213 297L238-172L49-172L74 297Z"  horiz-adv-x="288" vert-adv-y="1000"  />

      
      <glyph glyph-name="unia2" unicode="&#xa2;" d="M369 648Q414 646 452 635.50Q490 625 520 610L471 483Q436 497 406 506Q376 515 345 515Q294 515 266 477Q238 439 238 363Q238 285 267 250Q296 215 346 215Q390 215 427.50 226.50Q465 238 503 258L503 121Q472 104 440 93.50Q408 83 369 80L369-10L275-10L275 84Q178 98 122.50 165Q67 232 67 362Q67 451 93 509.50Q119 568 166 600Q213 632 275 643L275 724L369 724L369 648Z"  horiz-adv-x="578" vert-adv-y="1000"  />

      
      <glyph glyph-name="unia3" unicode="&#xa3;" d="M347 724Q401 724 450.50 713Q500 702 541 684L492 559Q418 588 363 588Q335 588 315 571.50Q295 555 295 512L295 437L471 437L471 318L295 318L295 258Q295 207 270.50 181Q246 155 219 142L560 142L560 0L45 0L45 136Q72 149 91 163.50Q110 178 119.50 199.50Q129 221 129 257L129 318L45 318L45 437L129 437L129 515Q129 590 157.50 636Q186 682 235.50 703Q285 724 347 724Z"  horiz-adv-x="578" vert-adv-y="1000"  />

      
      <glyph glyph-name="unia4" unicode="&#xa4;" d="M90 353Q90 378 96.50 401Q103 424 113 444L51 505L131 584L192 523Q212 534 236 540.50Q260 547 282 547Q330 547 374 522L434 584L515 507L453 445Q476 405 476 353Q476 303 453 261L513 201L434 123L374 183Q354 173 330.50 166.50Q307 160 282 160Q257 160 234 165.50Q211 171 190 182L131 124L52 202L113 262Q90 304 90 353M202 353Q202 320 225.50 296.50Q249 273 282 273Q316 273 340.50 296.50Q365 320 365 353Q365 387 340.50 410.50Q316 434 282 434Q249 434 225.50 410.50Q202 387 202 353Z"  horiz-adv-x="569" vert-adv-y="1000"  />

      
      <glyph glyph-name="unia5" unicode="&#xa5;" d="M289 442L402 714L574 714L392 357L487 357L487 262L367 262L367 200L487 200L487 106L367 106L367 0L210 0L210 106L89 106L89 200L210 200L210 262L89 262L89 357L182 357L3 714L176 714L289 442Z"  horiz-adv-x="578" vert-adv-y="1000"  />

      
      <glyph glyph-name="unia6" unicode="&#xa6;" d="M207 758L325 758L325 355L207 355L207 758M207 181L325 181L325-223L207-223L207 181Z"  horiz-adv-x="532" vert-adv-y="1000"  />

      
      <glyph glyph-name="unia7" unicode="&#xa7;" d="M56 391Q56 432 78 461.50Q100 491 128 509Q96 531 78.50 559.50Q61 588 61 625Q61 688 114 727.50Q167 767 259 767Q309 767 353.50 755.50Q398 744 438 726L394 626Q361 642 326 654.50Q291 667 257 667Q191 667 191 627Q191 606 212.50 588.50Q234 571 287 549Q364 518 404 479Q444 440 444 386Q444 337 424.50 308Q405 279 378 260Q407 240 423 212.50Q439 185 439 148Q439 78 383 33.50Q327-11 225-11Q173-11 131-0.50Q89 10 54 29L54 139Q95 118 142.50 103Q190 88 226 88Q273 88 290.50 103Q308 118 308 141Q308 156 301.50 167.50Q295 179 275 191Q255 203 216 220Q166 241 130.50 263.50Q95 286 75.50 316Q56 346 56 391M180 404Q180 377 204 355.50Q228 334 280 311L289 306Q300 315 309.50 330Q319 345 319 368Q319 396 298 418.50Q277 441 217 463Q202 457 191 442Q180 427 180 404Z"  horiz-adv-x="492" vert-adv-y="1000"  />

      
      <glyph glyph-name="unia8" unicode="&#xa8;" d="M124 688Q124 725 145.50 742Q167 759 198 759Q229 759 251.50 742Q274 725 274 688Q274 652 251.50 635Q229 618 198 618Q167 618 145.50 635Q124 652 124 688M338 688Q338 725 359.50 742Q381 759 414 759Q444 759 466.50 742Q489 725 489 688Q489 652 466.50 635Q444 618 414 618Q381 618 359.50 635Q338 652 338 688Z"  horiz-adv-x="605" vert-adv-y="1000"  />

      
      <glyph glyph-name="unia9" unicode="&#xa9;" d="M414-10Q334-10 267 17Q200 44 150.50 93.50Q101 143 74 210Q47 277 47 357Q47 435 74.50 501.50Q102 568 151.50 618Q201 668 268 696Q335 724 414 724Q492 724 559 697Q626 670 675.50 620.50Q725 571 753 504Q781 437 781 357Q781 277 754 210Q727 143 677.50 93.50Q628 44 561 17Q494-10 414-10M414 61Q496 61 561 99Q626 137 664 203.50Q702 270 702 357Q702 441 664.50 508Q627 575 562 614Q497 653 414 653Q330 653 264.50 615Q199 577 161.50 510.50Q124 444 124 357Q124 270 161 203.50Q198 137 263.50 99Q329 61 414 61M423 128Q318 128 265.50 191Q213 254 213 358Q213 459 266.50 522.50Q320 586 423 586Q460 586 495 577Q530 568 561 552L525 470Q474 496 427 496Q377 496 349.50 459.50Q322 423 322 357Q322 287 347 252Q372 217 428 217Q486 217 543 245L543 155Q516 142 488 135Q460 128 423 128Z"  horiz-adv-x="828" vert-adv-y="1000"  />

      
      <glyph glyph-name="uniaa" unicode="&#xaa;" d="M206 722Q274 722 311 686.50Q348 651 348 585L348 368L276 368L258 426Q237 395 208 378.50Q179 362 140 362Q89 362 56 389.50Q23 417 23 474Q23 535 67.50 559Q112 583 193 587L239 589L239 595Q239 638 182 638Q158 638 133 630.50Q108 623 78 610L43 682Q78 699 115.50 710.50Q153 722 206 722M194 524Q156 521 145 507Q134 493 134 477Q134 460 144 451.50Q154 443 170 443Q203 443 221 463Q239 483 239 512L239 527L194 524Z"  horiz-adv-x="389" vert-adv-y="1000"  />

      
      <glyph glyph-name="uniab" unicode="&#xab;" d="M38 283L223 512L344 447L210 277L344 107L223 43L38 270L38 283M301 283L486 512L607 447L472 277L607 107L486 43L301 270L301 283Z"  horiz-adv-x="645" vert-adv-y="1000"  />

      
      <glyph glyph-name="uniac" unicode="&#xac;" d="M534 412L534 119L415 119L415 293L44 293L44 412L534 412Z"  horiz-adv-x="578" vert-adv-y="1000"  />

      
      <glyph glyph-name="uniad" unicode="&#xad;" d="M26 200L26 336L294 336L294 200L26 200Z"  horiz-adv-x="320" vert-adv-y="1000"  />

      
      <glyph glyph-name="uniae" unicode="&#xae;" d="M414-10Q334-10 267 17Q200 44 150.50 93.50Q101 143 74 210Q47 277 47 357Q47 435 74.50 501.50Q102 568 151.50 618Q201 668 268 696Q335 724 414 724Q492 724 559 697Q626 670 675.50 620.50Q725 571 753 504Q781 437 781 357Q781 277 754 210Q727 143 677.50 93.50Q628 44 561 17Q494-10 414-10M414 61Q496 61 561 99Q626 137 664 203.50Q702 270 702 357Q702 441 664.50 508Q627 575 562 614Q497 653 414 653Q330 653 264.50 615Q199 577 161.50 510.50Q124 444 124 357Q124 270 161 203.50Q198 137 263.50 99Q329 61 414 61M264 145L264 580L399 580Q491 580 532 545.50Q573 511 573 447Q573 398 551 371Q529 344 499 331L605 145L494 145L410 307L368 307L368 145L264 145M398 383Q468 383 468 444Q468 475 451 487Q434 499 398 499L368 499L368 383L398 383Z"  horiz-adv-x="828" vert-adv-y="1000"  />

      
      <glyph glyph-name="uniaf" unicode="&#xaf;" d="M503 760L-3 760L-3 868L503 868L503 760Z"  horiz-adv-x="500" vert-adv-y="1000"  />

      
      <glyph glyph-name="unib0" unicode="&#xb0;" d="M213 377Q161 377 121 399Q81 421 58 460Q35 499 35 550Q35 600 58 639.50Q81 679 121 701.50Q161 724 213 724Q265 724 304.50 701.50Q344 679 366.50 640Q389 601 389 550Q389 499 366.50 460Q344 421 304.50 399Q265 377 213 377M213 481Q243 481 263 500Q283 519 283 550Q283 583 263 602Q243 621 213 621Q182 621 162 602Q142 583 142 550Q142 519 162 500Q182 481 213 481Z"  horiz-adv-x="425" vert-adv-y="1000"  />

      
      <glyph glyph-name="unib1" unicode="&#xb1;" d="M348 448L534 448L534 329L348 329L348 147L230 147L230 329L44 329L44 448L230 448L230 632L348 632L348 448M44 0L44 118L534 118L534 0L44 0Z"  horiz-adv-x="578" vert-adv-y="1000"  />

      
      <glyph glyph-name="unib2" unicode="&#xb2;" d="M354 416L32 416L32 507L139 612Q182 655 198 678Q214 701 214 722Q214 756 177 756Q158 756 137.50 746.50Q117 737 90 713L26 790Q58 819 98.50 836.50Q139 854 198 854Q266 854 304.50 822.50Q343 791 343 735Q343 684 311.50 644.50Q280 605 225 557L183 520L354 520L354 416Z"  horiz-adv-x="388" vert-adv-y="1000"  />

      
      <glyph glyph-name="unib3" unicode="&#xb3;" d="M190 853Q257 853 297.50 823Q338 793 338 744Q338 708 319 682.50Q300 657 257 642L257 637Q306 626 329 599Q352 572 352 534Q352 474 306.50 441Q261 408 173 408Q92 408 31 442L31 545Q97 503 169 503Q233 503 233 546Q233 563 219 576.50Q205 590 159 590L106 590L106 676L148 676Q195 676 209 690Q223 704 223 722Q223 737 211.50 748.50Q200 760 176 760Q152 760 131 751.50Q110 743 83 723L30 799Q60 821 99.50 837Q139 853 190 853Z"  horiz-adv-x="388" vert-adv-y="1000"  />

      
      <glyph glyph-name="unib4" unicode="&#xb4;" d="M348 756Q332 742 307 722Q282 702 253.50 680Q225 658 198.50 638.50Q172 619 152 606L40 606L40 619Q56 638 79 663.50Q102 689 124 716.50Q146 744 161 766L348 766L348 756Z"  horiz-adv-x="388" vert-adv-y="1000"  />

      
      <glyph glyph-name="unib5" unicode="&#xb5;" d="M593 549L593 0L466 0L443 73L435 73Q399-10 322-10Q293-10 273 1Q253 12 238 33L235 33Q238 14 239.50-21.50Q241-57 241-84L241-240L72-240L72 549L241 549L241 239Q241 182 260 153Q279 124 322 124Q380 124 402 169Q424 214 424 299L424 549L593 549Z"  horiz-adv-x="666" vert-adv-y="1000"  />

      
      <glyph glyph-name="unib6" unicode="&#xb6;" d="M574-127L489-127L489 656L410 656L410-127L324-127L324 273Q309 269 294 266.50Q279 264 258 264Q196 264 150 287Q104 310 78.50 364Q53 418 53 509Q53 605 80.50 659.50Q108 714 157.50 737Q207 760 273 760L574 760L574-127Z"  horiz-adv-x="649" vert-adv-y="1000"  />

      
      <glyph glyph-name="unib7" unicode="&#xb7;" d="M50 352Q50 401 77.50 420.50Q105 440 144 440Q182 440 209 420.50Q236 401 236 352Q236 305 209 284.50Q182 264 144 264Q105 264 77.50 284.50Q50 305 50 352Z"  horiz-adv-x="287" vert-adv-y="1000"  />

      
      <glyph glyph-name="unib8" unicode="&#xb8;" d="M232-122Q232-177 197.50-208.50Q163-240 89-240Q61-240 38.50-236Q16-232 0-227L0-139Q16-144 34-147Q52-150 68-150Q84-150 94.50-143Q105-136 105-121Q105-103 88-91Q71-79 29-72L63 0L158 0L147-30Q177-38 204.50-59.50Q232-81 232-122Z"  horiz-adv-x="243" vert-adv-y="1000"  />

      
      <glyph glyph-name="unib9" unicode="&#xb9;" d="M292 844L292 416L166 416L166 614Q166 626 167 647.50Q168 669 169 689.50Q170 710 171 717Q165 708 155 697.50Q145 687 137 680L98 649L37 720L193 844L292 844Z"  horiz-adv-x="388" vert-adv-y="1000"  />

      
      <glyph glyph-name="uniba" unicode="&#xba;" d="M364 542Q364 456 318 409Q272 362 194 362Q121 362 73.50 409.50Q26 457 26 542Q26 628 71.50 675Q117 722 196 722Q267 722 315.50 675Q364 628 364 542M136 542Q136 451 195 451Q253 451 253 542Q253 634 195 634Q136 634 136 542Z"  horiz-adv-x="390" vert-adv-y="1000"  />

      
      <glyph glyph-name="unibb" unicode="&#xbb;" d="M607 270L423 43L301 107L436 277L301 447L423 512L607 283L607 270M345 270L160 43L39 107L173 277L39 447L160 512L345 283L345 270Z"  horiz-adv-x="645" vert-adv-y="1000"  />

      
      <glyph glyph-name="unibc" unicode="&#xbc;" d="M164 0L547 714L678 714L295 0L164 0M138 484Q138 495 138.50 515Q139 535 140 555Q141 575 143 587Q138 580 128.50 569.50Q119 559 110 551L70 519L9 590L165 714L264 714L264 286L138 286L138 484M662 0L662 71L478 71L478 154L658 431L786 431L786 161L847 161L847 71L786 71L786 0L662 0M574 161L662 161L662 241Q662 280 665 320Q658 301 648 280.50Q638 260 631 249L574 161Z"  horiz-adv-x="856" vert-adv-y="1000"  />

      
      <glyph glyph-name="unibd" unicode="&#xbd;" d="M170 0L553 714L684 714L301 0L170 0M138 484Q138 493 139 516Q140 539 141 560.50Q142 582 143 587Q138 580 127.50 569Q117 558 108 550L70 519L9 590L165 714L264 714L264 286L138 286L138 484M541 0L541 91L649 196Q692 239 708 261.50Q724 284 724 306Q724 340 686 340Q647 340 600 297L536 374Q571 406 612 422Q653 438 708 438Q774 438 813 407Q852 376 852 319Q852 277 830 242.50Q808 208 765 168L693 104L863 104L863 0L541 0Z"  horiz-adv-x="898" vert-adv-y="1000"  />

      
      <glyph glyph-name="unibe" unicode="&#xbe;" d="M185 278Q105 278 44 312L44 415Q75 395 109 384Q143 373 182 373Q246 373 246 416Q246 436 229.50 448Q213 460 172 460L119 460L119 546L161 546Q205 546 220 559Q235 572 235 592Q235 607 224 618.50Q213 630 188 630Q165 630 144 621.50Q123 613 96 593L43 669Q76 694 115 708.50Q154 723 203 723Q269 723 310 693.50Q351 664 351 614Q351 578 332 552.50Q313 527 270 512L270 507Q318 496 341.50 469Q365 442 365 404Q365 344 319.50 311Q274 278 185 278M208 0L591 714L722 714L338 0L208 0M686 0L686 71L502 71L502 154L682 431L811 431L811 161L872 161L872 71L811 71L811 0L686 0M598 161L686 161L686 241Q686 280 689 320Q682 301 672 280.50Q662 260 655 249L598 161Z"  horiz-adv-x="881" vert-adv-y="1000"  />

      
      <glyph glyph-name="unibf" unicode="&#xbf;" d="M353 258Q353 211 333 177Q313 143 262 108Q215 76 198.50 54.50Q182 33 182 6Q182-20 203.50-34.50Q225-49 261-49Q301-49 343-36Q385-23 430 1L490-118Q439-147 379-165Q319-183 249-183Q141-183 82-133.50Q23-84 23-6Q23 54 51.50 94.50Q80 135 140 177Q184 207 199 225Q214 243 214 270L214 297L353 297L353 258M371 466Q371 417 343.50 397.50Q316 378 277 378Q240 378 212.50 397.50Q185 417 185 466Q185 513 212.50 533.50Q240 554 277 554Q316 554 343.50 533.50Q371 513 371 466Z"  horiz-adv-x="490" vert-adv-y="1000"  />

      
      <glyph glyph-name="unic0" unicode="&#xc0;" d="M521 0L477 153L230 153L186 0L0 0L243 717L461 717L707 0L521 0M397 438Q392 456 383.50 486.50Q375 517 366.50 549Q358 581 353 603Q349 581 340.50 548.50Q332 516 324 485.50Q316 455 311 438L269 295L439 295L397 438M340 931Q356 909 378 881.50Q400 854 422.50 828.50Q445 803 461 784L461 771L349 771Q329 784 302.50 803.50Q276 823 247.50 845Q219 867 194 887Q169 907 153 921L153 931L340 931Z"  horiz-adv-x="707" vert-adv-y="1000"  />

      
      <glyph glyph-name="unic1" unicode="&#xc1;" d="M521 0L477 153L230 153L186 0L0 0L243 717L461 717L707 0L521 0M397 438Q392 456 383.50 486.50Q375 517 366.50 549Q358 581 353 603Q349 581 340.50 548.50Q332 516 324 485.50Q316 455 311 438L269 295L439 295L397 438M567 921Q551 907 526 887Q501 867 472.50 845Q444 823 417.50 803.50Q391 784 371 771L259 771L259 784Q275 803 298 828.50Q321 854 343 881.50Q365 909 380 931L567 931L567 921Z"  horiz-adv-x="707" vert-adv-y="1000"  />

      
      <glyph glyph-name="unic2" unicode="&#xc2;" d="M521 0L477 153L230 153L186 0L0 0L243 717L461 717L707 0L521 0M397 438Q392 456 383.50 486.50Q375 517 366.50 549Q358 581 353 603Q349 581 340.50 548.50Q332 516 324 485.50Q316 455 311 438L269 295L439 295L397 438M446 931Q460 908 483 880.50Q506 853 529.50 827.50Q553 802 571 784L571 771L460 771Q434 786 406.50 806Q379 826 354 851Q327 826 301.50 807Q276 788 249 771L138 771L138 784Q157 803 180.50 828.50Q204 854 226.50 881Q249 908 263 931L446 931Z"  horiz-adv-x="707" vert-adv-y="1000"  />

      
      <glyph glyph-name="unic3" unicode="&#xc3;" d="M521 0L477 153L230 153L186 0L0 0L243 717L461 717L707 0L521 0M397 438Q392 456 383.50 486.50Q375 517 366.50 549Q358 581 353 603Q349 581 340.50 548.50Q332 516 324 485.50Q316 455 311 438L269 295L439 295L397 438M148 770Q154 854 189 891Q224 928 276 928Q302 928 329 915.50Q356 903 382.50 891Q409 879 433 879Q445 879 457.50 889.50Q470 900 475 929L556 929Q550 846 514 808.50Q478 771 429 771Q401 771 373.50 783Q346 795 320 807.50Q294 820 270 820Q258 820 246 809.50Q234 799 228 770L148 770Z"  horiz-adv-x="707" vert-adv-y="1000"  />

      
      <glyph glyph-name="unic4" unicode="&#xc4;" d="M521 0L477 153L230 153L186 0L0 0L243 717L461 717L707 0L521 0M397 438Q392 456 383.50 486.50Q375 517 366.50 549Q358 581 353 603Q349 581 340.50 548.50Q332 516 324 485.50Q316 455 311 438L269 295L439 295L397 438M171 853Q171 890 192.50 907Q214 924 245 924Q276 924 298.50 907Q321 890 321 853Q321 817 298.50 800Q276 783 245 783Q214 783 192.50 800Q171 817 171 853M385 853Q385 890 406.50 907Q428 924 461 924Q491 924 513.50 907Q536 890 536 853Q536 817 513.50 800Q491 783 461 783Q428 783 406.50 800Q385 817 385 853Z"  horiz-adv-x="707" vert-adv-y="1000"  />

      
      <glyph glyph-name="unic5" unicode="&#xc5;" d="M521 0L477 153L230 153L186 0L0 0L243 717L461 717L707 0L521 0M397 438Q392 456 383.50 486.50Q375 517 366.50 549Q358 581 353 603Q349 581 340.50 548.50Q332 516 324 485.50Q316 455 311 438L269 295L439 295L397 438M352 643Q296 643 261.50 674.50Q227 706 227 762Q227 818 261.50 849.50Q296 881 352 881Q405 881 442.50 849.50Q480 818 480 763Q480 707 443 675Q406 643 352 643M352 718Q371 718 383.50 730Q396 742 396 762Q396 782 383.50 794Q371 806 352 806Q333 806 320 794Q307 782 307 762Q307 742 318.50 730Q330 718 352 718Z"  horiz-adv-x="707" vert-adv-y="1000"  />

      
      <glyph glyph-name="unic6" unicode="&#xc6;" d="M895 0L470 0L470 153L242 153L180 0L-2 0L312 714L895 714L895 576L641 576L641 439L878 439L878 301L641 301L641 140L895 140L895 0M299 296L470 296L470 569L411 569L299 296Z"  horiz-adv-x="949" vert-adv-y="1000"  />

      
      <glyph glyph-name="unic7" unicode="&#xc7;" d="M394 583Q316 583 273 522Q230 461 230 355Q230 246 271 188.50Q312 131 399 131Q444 131 488 142.50Q532 154 581 172L581 28Q533 8 485.50-1Q438-10 382-10Q268-10 196 36Q124 82 89.50 164Q55 246 55 356Q55 464 94 547Q133 630 209 677Q285 724 395 724Q447 724 502.50 711.50Q558 699 609 674L556 538Q516 556 476 569.50Q436 583 394 583M490-122Q490-177 455.50-208.50Q421-240 347-240Q319-240 296.50-236Q274-232 258-227L258-139Q274-144 292-147Q310-150 326-150Q342-150 352.50-143Q363-136 363-121Q363-103 346-91Q329-79 287-72L321 0L416 0L405-30Q435-38 462.50-59.50Q490-81 490-122Z"  horiz-adv-x="643" vert-adv-y="1000"  />

      
      <glyph glyph-name="unic8" unicode="&#xc8;" d="M501 0L84 0L84 714L501 714L501 576L254 576L254 439L483 439L483 301L254 301L254 140L501 140L501 0M282 931Q298 909 320 881.50Q342 854 364.50 828.50Q387 803 403 784L403 771L291 771Q271 784 244.50 803.50Q218 823 189.50 845Q161 867 136 887Q111 907 95 921L95 931L282 931Z"  horiz-adv-x="555" vert-adv-y="1000"  />

      
      <glyph glyph-name="unic9" unicode="&#xc9;" d="M501 0L84 0L84 714L501 714L501 576L254 576L254 439L483 439L483 301L254 301L254 140L501 140L501 0M509 921Q493 907 468 887Q443 867 414.50 845Q386 823 359.50 803.50Q333 784 313 771L201 771L201 784Q217 803 240 828.50Q263 854 285 881.50Q307 909 322 931L509 931L509 921Z"  horiz-adv-x="555" vert-adv-y="1000"  />

      
      <glyph glyph-name="unica" unicode="&#xca;" d="M501 0L84 0L84 714L501 714L501 576L254 576L254 439L483 439L483 301L254 301L254 140L501 140L501 0M388 931Q402 908 425 880.50Q448 853 471.50 827.50Q495 802 513 784L513 771L402 771Q376 786 348.50 806Q321 826 296 851Q269 826 243.50 807Q218 788 191 771L80 771L80 784Q99 803 122.50 828.50Q146 854 168.50 881Q191 908 205 931L388 931Z"  horiz-adv-x="555" vert-adv-y="1000"  />

      
      <glyph glyph-name="unicb" unicode="&#xcb;" d="M501 0L84 0L84 714L501 714L501 576L254 576L254 439L483 439L483 301L254 301L254 140L501 140L501 0M113 853Q113 890 134.50 907Q156 924 187 924Q218 924 240.50 907Q263 890 263 853Q263 817 240.50 800Q218 783 187 783Q156 783 134.50 800Q113 817 113 853M327 853Q327 890 348.50 907Q370 924 403 924Q433 924 455.50 907Q478 890 478 853Q478 817 455.50 800Q433 783 403 783Q370 783 348.50 800Q327 817 327 853Z"  horiz-adv-x="555" vert-adv-y="1000"  />

      
      <glyph glyph-name="unicc" unicode="&#xcc;" d="M380 0L33 0L33 97L121 134L121 580L33 617L33 714L380 714L380 617L292 580L292 134L380 97L380 0M193 931Q209 909 231 881.50Q253 854 275.50 828.50Q298 803 314 784L314 771L202 771Q182 784 155.50 803.50Q129 823 100.50 845Q72 867 47 887Q22 907 6 921L6 931L193 931Z"  horiz-adv-x="413" vert-adv-y="1000"  />

      
      <glyph glyph-name="unicd" unicode="&#xcd;" d="M380 0L33 0L33 97L121 134L121 580L33 617L33 714L380 714L380 617L292 580L292 134L380 97L380 0M420 921Q404 907 379 887Q354 867 325.50 845Q297 823 270.50 803.50Q244 784 224 771L112 771L112 784Q128 803 151 828.50Q174 854 196 881.50Q218 909 233 931L420 931L420 921Z"  horiz-adv-x="413" vert-adv-y="1000"  />

      
      <glyph glyph-name="unice" unicode="&#xce;" d="M380 0L33 0L33 97L121 134L121 580L33 617L33 714L380 714L380 617L292 580L292 134L380 97L380 0M299 931Q313 908 336 880.50Q359 853 382.50 827.50Q406 802 424 784L424 771L313 771Q287 786 259.50 806Q232 826 207 851Q180 826 154.50 807Q129 788 102 771L-9 771L-9 784Q10 803 33.50 828.50Q57 854 79.50 881Q102 908 116 931L299 931Z"  horiz-adv-x="413" vert-adv-y="1000"  />

      
      <glyph glyph-name="unicf" unicode="&#xcf;" d="M380 0L33 0L33 97L121 134L121 580L33 617L33 714L380 714L380 617L292 580L292 134L380 97L380 0M24 853Q24 890 45.50 907Q67 924 98 924Q129 924 151.50 907Q174 890 174 853Q174 817 151.50 800Q129 783 98 783Q67 783 45.50 800Q24 817 24 853M238 853Q238 890 259.50 907Q281 924 314 924Q344 924 366.50 907Q389 890 389 853Q389 817 366.50 800Q344 783 314 783Q281 783 259.50 800Q238 817 238 853Z"  horiz-adv-x="413" vert-adv-y="1000"  />

      
      <glyph glyph-name="unid0" unicode="&#xd0;" d="M319 714Q489 714 585.50 625.50Q682 537 682 368Q682 245 636 163.50Q590 82 504 41Q418 0 299 0L84 0L84 284L19 284L19 422L84 422L84 714L319 714M323 575L254 575L254 422L364 422L364 284L254 284L254 140L309 140Q506 140 506 362Q506 471 459 523Q412 575 323 575Z"  horiz-adv-x="737" vert-adv-y="1000"  />

      
      <glyph glyph-name="unid1" unicode="&#xd1;" d="M739 0L519 0L231 523L227 523Q229 480 231.50 427.50Q234 375 236 330L236 0L84 0L84 714L303 714L590 197L593 197Q591 240 589 289.50Q587 339 586 383L586 714L739 714L739 0M207 770Q213 854 248 891Q283 928 335 928Q361 928 388 915.50Q415 903 441.50 891Q468 879 492 879Q504 879 516.50 889.50Q529 900 534 929L615 929Q609 846 573 808.50Q537 771 488 771Q460 771 432.50 783Q405 795 379 807.50Q353 820 329 820Q317 820 305 809.50Q293 799 287 770L207 770Z"  horiz-adv-x="823" vert-adv-y="1000"  />

      
      <glyph glyph-name="unid2" unicode="&#xd2;" d="M741 358Q741 247 705 164.50Q669 82 593 36Q517-10 398-10Q280-10 204 36Q128 82 91.50 165Q55 248 55 359Q55 470 91.50 552Q128 634 204 679.50Q280 725 399 725Q518 725 593.50 679.50Q669 634 705 551.50Q741 469 741 358M234 358Q234 253 272.50 193Q311 133 398 133Q487 133 524.50 193Q562 253 562 358Q562 463 524.50 523.50Q487 584 399 584Q311 584 272.50 523.50Q234 463 234 358M385 931Q401 909 423 881.50Q445 854 467.50 828.50Q490 803 506 784L506 771L394 771Q374 784 347.50 803.50Q321 823 292.50 845Q264 867 239 887Q214 907 198 921L198 931L385 931Z"  horiz-adv-x="796" vert-adv-y="1000"  />

      
      <glyph glyph-name="unid3" unicode="&#xd3;" d="M741 358Q741 247 705 164.50Q669 82 593 36Q517-10 398-10Q280-10 204 36Q128 82 91.50 165Q55 248 55 359Q55 470 91.50 552Q128 634 204 679.50Q280 725 399 725Q518 725 593.50 679.50Q669 634 705 551.50Q741 469 741 358M234 358Q234 253 272.50 193Q311 133 398 133Q487 133 524.50 193Q562 253 562 358Q562 463 524.50 523.50Q487 584 399 584Q311 584 272.50 523.50Q234 463 234 358M612 921Q596 907 571 887Q546 867 517.50 845Q489 823 462.50 803.50Q436 784 416 771L304 771L304 784Q320 803 343 828.50Q366 854 388 881.50Q410 909 425 931L612 931L612 921Z"  horiz-adv-x="796" vert-adv-y="1000"  />

      
      <glyph glyph-name="unid4" unicode="&#xd4;" d="M741 358Q741 247 705 164.50Q669 82 593 36Q517-10 398-10Q280-10 204 36Q128 82 91.50 165Q55 248 55 359Q55 470 91.50 552Q128 634 204 679.50Q280 725 399 725Q518 725 593.50 679.50Q669 634 705 551.50Q741 469 741 358M234 358Q234 253 272.50 193Q311 133 398 133Q487 133 524.50 193Q562 253 562 358Q562 463 524.50 523.50Q487 584 399 584Q311 584 272.50 523.50Q234 463 234 358M491 931Q505 908 528 880.50Q551 853 574.50 827.50Q598 802 616 784L616 771L505 771Q479 786 451.50 806Q424 826 399 851Q372 826 346.50 807Q321 788 294 771L183 771L183 784Q202 803 225.50 828.50Q249 854 271.50 881Q294 908 308 931L491 931Z"  horiz-adv-x="796" vert-adv-y="1000"  />

      
      <glyph glyph-name="unid5" unicode="&#xd5;" d="M741 358Q741 247 705 164.50Q669 82 593 36Q517-10 398-10Q280-10 204 36Q128 82 91.50 165Q55 248 55 359Q55 470 91.50 552Q128 634 204 679.50Q280 725 399 725Q518 725 593.50 679.50Q669 634 705 551.50Q741 469 741 358M234 358Q234 253 272.50 193Q311 133 398 133Q487 133 524.50 193Q562 253 562 358Q562 463 524.50 523.50Q487 584 399 584Q311 584 272.50 523.50Q234 463 234 358M194 770Q200 854 235 891Q270 928 322 928Q348 928 375 915.50Q402 903 428.50 891Q455 879 479 879Q491 879 503.50 889.50Q516 900 521 929L602 929Q596 846 560 808.50Q524 771 475 771Q447 771 419.50 783Q392 795 366 807.50Q340 820 316 820Q304 820 292 809.50Q280 799 274 770L194 770Z"  horiz-adv-x="796" vert-adv-y="1000"  />

      
      <glyph glyph-name="unid6" unicode="&#xd6;" d="M741 358Q741 247 705 164.50Q669 82 593 36Q517-10 398-10Q280-10 204 36Q128 82 91.50 165Q55 248 55 359Q55 470 91.50 552Q128 634 204 679.50Q280 725 399 725Q518 725 593.50 679.50Q669 634 705 551.50Q741 469 741 358M234 358Q234 253 272.50 193Q311 133 398 133Q487 133 524.50 193Q562 253 562 358Q562 463 524.50 523.50Q487 584 399 584Q311 584 272.50 523.50Q234 463 234 358M216 853Q216 890 237.50 907Q259 924 290 924Q321 924 343.50 907Q366 890 366 853Q366 817 343.50 800Q321 783 290 783Q259 783 237.50 800Q216 817 216 853M430 853Q430 890 451.50 907Q473 924 506 924Q536 924 558.50 907Q581 890 581 853Q581 817 558.50 800Q536 783 506 783Q473 783 451.50 800Q430 817 430 853Z"  horiz-adv-x="796" vert-adv-y="1000"  />

      
      <glyph glyph-name="unid7" unicode="&#xd7;" d="M429 575L512 495L370 353L510 212L429 131L287 271L147 132L67 213L204 353L66 493L147 575L287 437L429 575Z"  horiz-adv-x="578" vert-adv-y="1000"  />

      
      <glyph glyph-name="unid8" unicode="&#xd8;" d="M741 358Q741 247 705 164.50Q669 82 593 36Q517-10 398-10Q307-10 240 17L198-48L112 9L155 72Q103 121 79 194Q55 267 55 359Q55 470 91.50 552Q128 634 204 679.50Q280 725 399 725Q495 725 564 694L603 754L688 701L646 638Q695 590 718 518.50Q741 447 741 358M234 358Q234 318 239 284Q244 250 255 223L479 566Q462 574 442 579Q422 584 399 584Q311 584 272.50 523.50Q234 463 234 358M562 358Q562 434 544 484L324 146Q340 140 358.50 136.50Q377 133 398 133Q487 133 524.50 193Q562 253 562 358Z"  horiz-adv-x="796" vert-adv-y="1000"  />

      
      <glyph glyph-name="unid9" unicode="&#xd9;" d="M677 267Q677 185 643.50 123Q610 61 543.50 25.50Q477-10 375-10Q231-10 155 64Q79 138 79 266L79 714L250 714L250 285Q250 203 282.50 168Q315 133 379 133Q446 133 476.50 169.50Q507 206 507 286L507 714L677 714L677 267M365 931Q381 909 403 881.50Q425 854 447.50 828.50Q470 803 486 784L486 771L374 771Q354 784 327.50 803.50Q301 823 272.50 845Q244 867 219 887Q194 907 178 921L178 931L365 931Z"  horiz-adv-x="756" vert-adv-y="1000"  />

      
      <glyph glyph-name="unida" unicode="&#xda;" d="M677 267Q677 185 643.50 123Q610 61 543.50 25.50Q477-10 375-10Q231-10 155 64Q79 138 79 266L79 714L250 714L250 285Q250 203 282.50 168Q315 133 379 133Q446 133 476.50 169.50Q507 206 507 286L507 714L677 714L677 267M592 921Q576 907 551 887Q526 867 497.50 845Q469 823 442.50 803.50Q416 784 396 771L284 771L284 784Q300 803 323 828.50Q346 854 368 881.50Q390 909 405 931L592 931L592 921Z"  horiz-adv-x="756" vert-adv-y="1000"  />

      
      <glyph glyph-name="unidb" unicode="&#xdb;" d="M677 267Q677 185 643.50 123Q610 61 543.50 25.50Q477-10 375-10Q231-10 155 64Q79 138 79 266L79 714L250 714L250 285Q250 203 282.50 168Q315 133 379 133Q446 133 476.50 169.50Q507 206 507 286L507 714L677 714L677 267M471 931Q485 908 508 880.50Q531 853 554.50 827.50Q578 802 596 784L596 771L485 771Q459 786 431.50 806Q404 826 379 851Q352 826 326.50 807Q301 788 274 771L163 771L163 784Q182 803 205.50 828.50Q229 854 251.50 881Q274 908 288 931L471 931Z"  horiz-adv-x="756" vert-adv-y="1000"  />

      
      <glyph glyph-name="unidc" unicode="&#xdc;" d="M677 267Q677 185 643.50 123Q610 61 543.50 25.50Q477-10 375-10Q231-10 155 64Q79 138 79 266L79 714L250 714L250 285Q250 203 282.50 168Q315 133 379 133Q446 133 476.50 169.50Q507 206 507 286L507 714L677 714L677 267M196 853Q196 890 217.50 907Q239 924 270 924Q301 924 323.50 907Q346 890 346 853Q346 817 323.50 800Q301 783 270 783Q239 783 217.50 800Q196 817 196 853M410 853Q410 890 431.50 907Q453 924 486 924Q516 924 538.50 907Q561 890 561 853Q561 817 538.50 800Q516 783 486 783Q453 783 431.50 800Q410 817 410 853Z"  horiz-adv-x="756" vert-adv-y="1000"  />

      
      <glyph glyph-name="unidd" unicode="&#xdd;" d="M321 433L458 714L642 714L406 278L406 0L236 0L236 273L0 714L185 714L321 433M535 921Q519 907 494 887Q469 867 440.50 845Q412 823 385.50 803.50Q359 784 339 771L227 771L227 784Q243 803 266 828.50Q289 854 311 881.50Q333 909 348 931L535 931L535 921Z"  horiz-adv-x="642" vert-adv-y="1000"  />

      
      <glyph glyph-name="unide" unicode="&#xde;" d="M589 379Q589 316 563.50 261Q538 206 479 172Q420 138 320 138L254 138L254 0L84 0L84 714L254 714L254 606L326 606Q460 606 524.50 545.50Q589 485 589 379M297 277Q352 277 384 300.50Q416 324 416 379Q416 423 390.50 445Q365 467 310 467L254 467L254 277L297 277Z"  horiz-adv-x="628" vert-adv-y="1000"  />

      
      <glyph glyph-name="unidf" unicode="&#xdf;" d="M630 594Q630 559 616.50 532.50Q603 506 582.50 486Q562 466 542 451Q522 436 508 424.50Q494 413 494 402Q494 383 518.50 368.50Q543 354 596 321Q645 289 671 254Q697 219 697 161Q697 77 640 33.50Q583-10 474-10Q417-10 379-3Q341 4 310 20L310 149Q334 134 374.50 121.50Q415 109 447 109Q481 109 502 122Q523 135 523 160Q523 175 516.50 186Q510 197 490.50 211Q471 225 431 247Q370 281 346 309.50Q322 338 322 378Q322 409 335.50 430.50Q349 452 369.50 468.50Q390 485 410.50 499.50Q431 514 444.50 531Q458 548 458 571Q458 599 429.50 617Q401 635 355 635Q301 635 271 610Q241 585 241 535L241 0L72 0L72 547Q72 619 109 667.50Q146 716 210 740.50Q274 765 355 765Q434 765 496.50 745.50Q559 726 594.50 688Q630 650 630 594Z"  horiz-adv-x="729" vert-adv-y="1000"  />

      
      <glyph glyph-name="unie0" unicode="&#xe0;" d="M318 560Q425 560 484 510Q543 460 543 364L543 0L426 0L393 74L389 74Q354 29 315 9.50Q276-10 208-10Q135-10 87 33Q39 76 39 166Q39 253 100.50 295.50Q162 338 281 343L375 346L375 362Q375 402 354.50 420Q334 438 298 438Q262 438 223 426.50Q184 415 144 398L93 510Q138 534 195 547Q252 560 318 560M324 248Q261 246 236 225.50Q211 205 211 170Q211 139 229 125Q247 111 275 111Q317 111 346 136.50Q375 162 375 206L375 250L324 248M293 766Q309 744 331 716.50Q353 689 375.50 663.50Q398 638 414 619L414 606L302 606Q282 619 255.50 638.50Q229 658 200.50 680Q172 702 147 722Q122 742 106 756L106 766L293 766Z"  horiz-adv-x="613" vert-adv-y="1000"  />

      
      <glyph glyph-name="unie1" unicode="&#xe1;" d="M318 560Q425 560 484 510Q543 460 543 364L543 0L426 0L393 74L389 74Q354 29 315 9.50Q276-10 208-10Q135-10 87 33Q39 76 39 166Q39 253 100.50 295.50Q162 338 281 343L375 346L375 362Q375 402 354.50 420Q334 438 298 438Q262 438 223 426.50Q184 415 144 398L93 510Q138 534 195 547Q252 560 318 560M324 248Q261 246 236 225.50Q211 205 211 170Q211 139 229 125Q247 111 275 111Q317 111 346 136.50Q375 162 375 206L375 250L324 248M520 756Q504 742 479 722Q454 702 425.50 680Q397 658 370.50 638.50Q344 619 324 606L212 606L212 619Q228 638 251 663.50Q274 689 296 716.50Q318 744 333 766L520 766L520 756Z"  horiz-adv-x="613" vert-adv-y="1000"  />

      
      <glyph glyph-name="unie2" unicode="&#xe2;" d="M318 560Q425 560 484 510Q543 460 543 364L543 0L426 0L393 74L389 74Q354 29 315 9.50Q276-10 208-10Q135-10 87 33Q39 76 39 166Q39 253 100.50 295.50Q162 338 281 343L375 346L375 362Q375 402 354.50 420Q334 438 298 438Q262 438 223 426.50Q184 415 144 398L93 510Q138 534 195 547Q252 560 318 560M324 248Q261 246 236 225.50Q211 205 211 170Q211 139 229 125Q247 111 275 111Q317 111 346 136.50Q375 162 375 206L375 250L324 248M399 766Q413 743 436 715.50Q459 688 482.50 662.50Q506 637 524 619L524 606L413 606Q387 621 359.50 641Q332 661 307 686Q280 661 254.50 642Q229 623 202 606L91 606L91 619Q110 638 133.50 663.50Q157 689 179.50 716Q202 743 216 766L399 766Z"  horiz-adv-x="613" vert-adv-y="1000"  />

      
      <glyph glyph-name="unie3" unicode="&#xe3;" d="M318 560Q425 560 484 510Q543 460 543 364L543 0L426 0L393 74L389 74Q354 29 315 9.50Q276-10 208-10Q135-10 87 33Q39 76 39 166Q39 253 100.50 295.50Q162 338 281 343L375 346L375 362Q375 402 354.50 420Q334 438 298 438Q262 438 223 426.50Q184 415 144 398L93 510Q138 534 195 547Q252 560 318 560M324 248Q261 246 236 225.50Q211 205 211 170Q211 139 229 125Q247 111 275 111Q317 111 346 136.50Q375 162 375 206L375 250L324 248M102 605Q108 689 143 726Q178 763 230 763Q256 763 283 750.50Q310 738 336.50 726Q363 714 387 714Q399 714 411.50 724.50Q424 735 429 764L510 764Q504 681 468 643.50Q432 606 383 606Q355 606 327.50 618Q300 630 274 642.50Q248 655 224 655Q212 655 200 644.50Q188 634 182 605L102 605Z"  horiz-adv-x="613" vert-adv-y="1000"  />

      
      <glyph glyph-name="unie4" unicode="&#xe4;" d="M318 560Q425 560 484 510Q543 460 543 364L543 0L426 0L393 74L389 74Q354 29 315 9.50Q276-10 208-10Q135-10 87 33Q39 76 39 166Q39 253 100.50 295.50Q162 338 281 343L375 346L375 362Q375 402 354.50 420Q334 438 298 438Q262 438 223 426.50Q184 415 144 398L93 510Q138 534 195 547Q252 560 318 560M324 248Q261 246 236 225.50Q211 205 211 170Q211 139 229 125Q247 111 275 111Q317 111 346 136.50Q375 162 375 206L375 250L324 248M124 688Q124 725 145.50 742Q167 759 198 759Q229 759 251.50 742Q274 725 274 688Q274 652 251.50 635Q229 618 198 618Q167 618 145.50 635Q124 652 124 688M338 688Q338 725 359.50 742Q381 759 414 759Q444 759 466.50 742Q489 725 489 688Q489 652 466.50 635Q444 618 414 618Q381 618 359.50 635Q338 652 338 688Z"  horiz-adv-x="613" vert-adv-y="1000"  />

      
      <glyph glyph-name="unie5" unicode="&#xe5;" d="M318 560Q425 560 484 510Q543 460 543 364L543 0L426 0L393 74L389 74Q354 29 315 9.50Q276-10 208-10Q135-10 87 33Q39 76 39 166Q39 253 100.50 295.50Q162 338 281 343L375 346L375 362Q375 402 354.50 420Q334 438 298 438Q262 438 223 426.50Q184 415 144 398L93 510Q138 534 195 547Q252 560 318 560M324 248Q261 246 236 225.50Q211 205 211 170Q211 139 229 125Q247 111 275 111Q317 111 346 136.50Q375 162 375 206L375 250L324 248M307 605Q251 605 216.50 636.50Q182 668 182 724Q182 780 216.50 811.50Q251 843 307 843Q360 843 397.50 811.50Q435 780 435 725Q435 669 398 637Q361 605 307 605M307 680Q326 680 338.50 692Q351 704 351 724Q351 744 338.50 756Q326 768 307 768Q288 768 275 756Q262 744 262 724Q262 704 273.50 692Q285 680 307 680Z"  horiz-adv-x="613" vert-adv-y="1000"  />

      
      <glyph glyph-name="unie6" unicode="&#xe6;" d="M647 559Q716 559 769.50 530.50Q823 502 853 446.50Q883 391 883 308L883 231L536 231Q538 178 571.50 145.50Q605 113 668 113Q712 113 757.50 122.50Q803 132 850 155L850 30Q809 9 764-0.50Q719-10 652-10Q587-10 532 14Q477 38 441 87Q409 52 379.50 30.50Q350 9 311-0.50Q272-10 214-10Q168-10 128 9Q88 28 63.50 67.50Q39 107 39 167Q39 257 102 297.50Q165 338 278 343L370 346L370 372Q370 408 349 423Q328 438 296 438Q259 438 220.50 427.50Q182 417 145 400L94 511Q187 560 307 560Q412 560 473 504Q506 532 547.50 545.50Q589 559 647 559M640 442Q597 442 570 418Q543 394 539 340L728 340Q728 383 705.50 412.50Q683 442 640 442M322 248Q259 246 235.50 224.50Q212 203 212 168Q212 137 229 124Q246 111 274 111Q314 111 342 136.50Q370 162 370 206L370 250L322 248Z"  horiz-adv-x="925" vert-adv-y="1000"  />

      
      <glyph glyph-name="unie7" unicode="&#xe7;" d="M308-10Q184-10 114 57.50Q44 125 44 272Q44 372 79.50 435.50Q115 499 178 529Q241 559 322 559Q376 559 419.50 548Q463 537 497 520L448 393Q413 408 383 416.50Q353 425 322 425Q271 425 243 387Q215 349 215 273Q215 196 244 160.50Q273 125 323 125Q367 125 405.50 137.50Q444 150 479 173L479 35Q445 13 405 1.50Q365-10 308-10M418-122Q418-177 383.50-208.50Q349-240 275-240Q247-240 224.50-236Q202-232 186-227L186-139Q202-144 220-147Q238-150 254-150Q270-150 280.50-143Q291-136 291-121Q291-103 274-91Q257-79 215-72L249 0L344 0L333-30Q363-38 390.50-59.50Q418-81 418-122Z"  horiz-adv-x="526" vert-adv-y="1000"  />

      
      <glyph glyph-name="unie8" unicode="&#xe8;" d="M309 559Q425 559 493 495.50Q561 432 561 309L561 231L214 231Q216 177 249 145Q282 113 343 113Q395 113 438.50 123Q482 133 528 155L528 30Q487 9 441.50-0.50Q396-10 329-10Q246-10 181.50 20Q117 50 80.50 112.50Q44 175 44 271Q44 368 77 432Q110 496 169.50 527.50Q229 559 309 559M312 442Q273 442 247.50 417.50Q222 393 217 340L406 340Q405 383 382 412.50Q359 442 312 442M289 766Q305 744 327 716.50Q349 689 371.50 663.50Q394 638 410 619L410 606L298 606Q278 619 251.50 638.50Q225 658 196.50 680Q168 702 143 722Q118 742 102 756L102 766L289 766Z"  horiz-adv-x="603" vert-adv-y="1000"  />

      
      <glyph glyph-name="unie9" unicode="&#xe9;" d="M309 559Q425 559 493 495.50Q561 432 561 309L561 231L214 231Q216 177 249 145Q282 113 343 113Q395 113 438.50 123Q482 133 528 155L528 30Q487 9 441.50-0.50Q396-10 329-10Q246-10 181.50 20Q117 50 80.50 112.50Q44 175 44 271Q44 368 77 432Q110 496 169.50 527.50Q229 559 309 559M312 442Q273 442 247.50 417.50Q222 393 217 340L406 340Q405 383 382 412.50Q359 442 312 442M515 756Q499 742 474 722Q449 702 420.50 680Q392 658 365.50 638.50Q339 619 319 606L207 606L207 619Q223 638 246 663.50Q269 689 291 716.50Q313 744 328 766L515 766L515 756Z"  horiz-adv-x="603" vert-adv-y="1000"  />

      
      <glyph glyph-name="uniea" unicode="&#xea;" d="M309 559Q425 559 493 495.50Q561 432 561 309L561 231L214 231Q216 177 249 145Q282 113 343 113Q395 113 438.50 123Q482 133 528 155L528 30Q487 9 441.50-0.50Q396-10 329-10Q246-10 181.50 20Q117 50 80.50 112.50Q44 175 44 271Q44 368 77 432Q110 496 169.50 527.50Q229 559 309 559M312 442Q273 442 247.50 417.50Q222 393 217 340L406 340Q405 383 382 412.50Q359 442 312 442M395 766Q409 743 432 715.50Q455 688 478.50 662.50Q502 637 520 619L520 606L409 606Q383 621 355.50 641Q328 661 303 686Q276 661 250.50 642Q225 623 198 606L87 606L87 619Q106 638 129.50 663.50Q153 689 175.50 716Q198 743 212 766L395 766Z"  horiz-adv-x="603" vert-adv-y="1000"  />

      
      <glyph glyph-name="unieb" unicode="&#xeb;" d="M309 559Q425 559 493 495.50Q561 432 561 309L561 231L214 231Q216 177 249 145Q282 113 343 113Q395 113 438.50 123Q482 133 528 155L528 30Q487 9 441.50-0.50Q396-10 329-10Q246-10 181.50 20Q117 50 80.50 112.50Q44 175 44 271Q44 368 77 432Q110 496 169.50 527.50Q229 559 309 559M312 442Q273 442 247.50 417.50Q222 393 217 340L406 340Q405 383 382 412.50Q359 442 312 442M119 688Q119 725 140.50 742Q162 759 193 759Q224 759 246.50 742Q269 725 269 688Q269 652 246.50 635Q224 618 193 618Q162 618 140.50 635Q119 652 119 688M333 688Q333 725 354.50 742Q376 759 409 759Q439 759 461.50 742Q484 725 484 688Q484 652 461.50 635Q439 618 409 618Q376 618 354.50 635Q333 652 333 688Z"  horiz-adv-x="603" vert-adv-y="1000"  />

      
      <glyph glyph-name="uniec" unicode="&#xec;" d="M241 0L73 0L73 549L241 549L241 0M144 766Q160 744 182 716.50Q204 689 226.50 663.50Q249 638 265 619L265 606L153 606Q133 619 106.50 638.50Q80 658 51.50 680Q23 702-2 722Q-27 742-43 756L-43 766L144 766Z"  horiz-adv-x="314" vert-adv-y="1000"  />

      
      <glyph glyph-name="unied" unicode="&#xed;" d="M241 0L73 0L73 549L241 549L241 0M371 756Q355 742 330 722Q305 702 276.50 680Q248 658 221.50 638.50Q195 619 175 606L63 606L63 619Q79 638 102 663.50Q125 689 147 716.50Q169 744 184 766L371 766L371 756Z"  horiz-adv-x="314" vert-adv-y="1000"  />

      
      <glyph glyph-name="uniee" unicode="&#xee;" d="M241 0L73 0L73 549L241 549L241 0M250 766Q264 743 287 715.50Q310 688 333.50 662.50Q357 637 375 619L375 606L264 606Q238 621 210.50 641Q183 661 158 686Q131 661 105.50 642Q80 623 53 606L-58 606L-58 619Q-39 638-15.50 663.50Q8 689 30.50 716Q53 743 67 766L250 766Z"  horiz-adv-x="314" vert-adv-y="1000"  />

      
      <glyph glyph-name="unief" unicode="&#xef;" d="M241 0L73 0L73 549L241 549L241 0M-25 688Q-25 725-3.50 742Q18 759 49 759Q80 759 102.50 742Q125 725 125 688Q125 652 102.50 635Q80 618 49 618Q18 618-3.50 635Q-25 652-25 688M189 688Q189 725 210.50 742Q232 759 265 759Q295 759 317.50 742Q340 725 340 688Q340 652 317.50 635Q295 618 265 618Q232 618 210.50 635Q189 652 189 688Z"  horiz-adv-x="314" vert-adv-y="1000"  />

      
      <glyph glyph-name="unif0" unicode="&#xf0;" d="M229 766Q265 750 297 733.50Q329 717 356 699L463 766L515 685L438 636Q509 568 546 483.50Q583 399 583 281Q583 190 550 124.50Q517 59 456 24.50Q395-10 312-10Q234-10 173.50 19Q113 48 78.50 104Q44 160 44 241Q44 321 74.50 377Q105 433 158 461.50Q211 490 279 490Q375 490 406 445L410 447Q394 481 374.50 510Q355 539 327 567L225 503L173 585L251 634Q235 645 216 656.50Q197 668 178 679L229 766M314 368Q261 368 238.50 336.50Q216 305 216 241Q216 183 238.50 147.50Q261 112 314 112Q367 112 389 149.50Q411 187 411 263Q411 303 387.50 335.50Q364 368 314 368Z"  horiz-adv-x="629" vert-adv-y="1000"  />

      
      <glyph glyph-name="unif1" unicode="&#xf1;" d="M399 559Q486 559 539.50 511.50Q593 464 593 358L593 0L425 0L425 311Q425 368 406 397Q387 426 346 426Q285 426 263 380.50Q241 335 241 250L241 0L72 0L72 549L200 549L223 478L231 478Q257 518 301 538.50Q345 559 399 559M127 605Q133 689 168 726Q203 763 255 763Q281 763 308 750.50Q335 738 361.50 726Q388 714 412 714Q424 714 436.50 724.50Q449 735 454 764L535 764Q529 681 493 643.50Q457 606 408 606Q380 606 352.50 618Q325 630 299 642.50Q273 655 249 655Q237 655 225 644.50Q213 634 207 605L127 605Z"  horiz-adv-x="663" vert-adv-y="1000"  />

      
      <glyph glyph-name="unif2" unicode="&#xf2;" d="M583 276Q583 138 510.50 64Q438-10 312-10Q234-10 173.50 23.50Q113 57 78.50 120.50Q44 184 44 276Q44 412 116.50 485.50Q189 559 315 559Q393 559 453.50 526Q514 493 548.50 430Q583 367 583 276M215 276Q215 199 238 159.50Q261 120 314 120Q366 120 389 159.50Q412 199 412 276Q412 352 389 390.50Q366 429 313 429Q261 429 238 390.50Q215 352 215 276M301 766Q317 744 339 716.50Q361 689 383.50 663.50Q406 638 422 619L422 606L310 606Q290 619 263.50 638.50Q237 658 208.50 680Q180 702 155 722Q130 742 114 756L114 766L301 766Z"  horiz-adv-x="627" vert-adv-y="1000"  />

      
      <glyph glyph-name="unif3" unicode="&#xf3;" d="M583 276Q583 138 510.50 64Q438-10 312-10Q234-10 173.50 23.50Q113 57 78.50 120.50Q44 184 44 276Q44 412 116.50 485.50Q189 559 315 559Q393 559 453.50 526Q514 493 548.50 430Q583 367 583 276M215 276Q215 199 238 159.50Q261 120 314 120Q366 120 389 159.50Q412 199 412 276Q412 352 389 390.50Q366 429 313 429Q261 429 238 390.50Q215 352 215 276M528 756Q512 742 487 722Q462 702 433.50 680Q405 658 378.50 638.50Q352 619 332 606L220 606L220 619Q236 638 259 663.50Q282 689 304 716.50Q326 744 341 766L528 766L528 756Z"  horiz-adv-x="627" vert-adv-y="1000"  />

      
      <glyph glyph-name="unif4" unicode="&#xf4;" d="M583 276Q583 138 510.50 64Q438-10 312-10Q234-10 173.50 23.50Q113 57 78.50 120.50Q44 184 44 276Q44 412 116.50 485.50Q189 559 315 559Q393 559 453.50 526Q514 493 548.50 430Q583 367 583 276M215 276Q215 199 238 159.50Q261 120 314 120Q366 120 389 159.50Q412 199 412 276Q412 352 389 390.50Q366 429 313 429Q261 429 238 390.50Q215 352 215 276M407 766Q421 743 444 715.50Q467 688 490.50 662.50Q514 637 532 619L532 606L421 606Q395 621 367.50 641Q340 661 315 686Q288 661 262.50 642Q237 623 210 606L99 606L99 619Q118 638 141.50 663.50Q165 689 187.50 716Q210 743 224 766L407 766Z"  horiz-adv-x="627" vert-adv-y="1000"  />

      
      <glyph glyph-name="unif5" unicode="&#xf5;" d="M583 276Q583 138 510.50 64Q438-10 312-10Q234-10 173.50 23.50Q113 57 78.50 120.50Q44 184 44 276Q44 412 116.50 485.50Q189 559 315 559Q393 559 453.50 526Q514 493 548.50 430Q583 367 583 276M215 276Q215 199 238 159.50Q261 120 314 120Q366 120 389 159.50Q412 199 412 276Q412 352 389 390.50Q366 429 313 429Q261 429 238 390.50Q215 352 215 276M109 605Q115 689 150 726Q185 763 237 763Q263 763 290 750.50Q317 738 343.50 726Q370 714 394 714Q406 714 418.50 724.50Q431 735 436 764L517 764Q511 681 475 643.50Q439 606 390 606Q362 606 334.50 618Q307 630 281 642.50Q255 655 231 655Q219 655 207 644.50Q195 634 189 605L109 605Z"  horiz-adv-x="627" vert-adv-y="1000"  />

      
      <glyph glyph-name="unif6" unicode="&#xf6;" d="M583 276Q583 138 510.50 64Q438-10 312-10Q234-10 173.50 23.50Q113 57 78.50 120.50Q44 184 44 276Q44 412 116.50 485.50Q189 559 315 559Q393 559 453.50 526Q514 493 548.50 430Q583 367 583 276M215 276Q215 199 238 159.50Q261 120 314 120Q366 120 389 159.50Q412 199 412 276Q412 352 389 390.50Q366 429 313 429Q261 429 238 390.50Q215 352 215 276M131 688Q131 725 152.50 742Q174 759 205 759Q236 759 258.50 742Q281 725 281 688Q281 652 258.50 635Q236 618 205 618Q174 618 152.50 635Q131 652 131 688M345 688Q345 725 366.50 742Q388 759 421 759Q451 759 473.50 742Q496 725 496 688Q496 652 473.50 635Q451 618 421 618Q388 618 366.50 635Q345 652 345 688Z"  horiz-adv-x="627" vert-adv-y="1000"  />

      
      <glyph glyph-name="unif7" unicode="&#xf7;" d="M288 454Q259 454 238 472.50Q217 491 217 532Q217 576 238 593Q259 610 288 610Q317 610 338.50 593Q360 576 360 532Q360 491 338.50 472.50Q317 454 288 454M44 293L44 412L534 412L534 293L44 293M288 95Q259 95 238 113.50Q217 132 217 173Q217 216 238 233.50Q259 251 288 251Q317 251 338.50 233.50Q360 216 360 173Q360 132 338.50 113.50Q317 95 288 95Z"  horiz-adv-x="578" vert-adv-y="1000"  />

      
      <glyph glyph-name="unif8" unicode="&#xf8;" d="M596 276Q596 138 522 64Q448-10 319-10Q259-10 206 10L169-46L90 5L126 59Q87 96 65.50 150Q44 204 44 276Q44 412 118 485.50Q192 559 322 559Q384 559 439 537L470 583L548 531L517 486Q555 450 575.50 397Q596 344 596 276M210 276Q210 253 211.50 234Q213 215 218 199L366 425Q346 434 320 434Q260 434 235 394Q210 354 210 276M430 276Q430 295 428.50 311.50Q427 328 424 343L279 121Q296 116 321 116Q381 116 405.50 156.50Q430 197 430 276Z"  horiz-adv-x="640" vert-adv-y="1000"  />

      
      <glyph glyph-name="unif9" unicode="&#xf9;" d="M591 549L591 0L463 0L441 70L431 70Q405 28 360 9Q315-10 264-10Q179-10 124.50 38Q70 86 70 191L70 549L239 549L239 238Q239 182 257.50 153Q276 124 317 124Q378 124 400 169Q422 214 422 299L422 549L591 549M319 766Q335 744 357 716.50Q379 689 401.50 663.50Q424 638 440 619L440 606L328 606Q308 619 281.50 638.50Q255 658 226.50 680Q198 702 173 722Q148 742 132 756L132 766L319 766Z"  horiz-adv-x="663" vert-adv-y="1000"  />

      
      <glyph glyph-name="unifa" unicode="&#xfa;" d="M591 549L591 0L463 0L441 70L431 70Q405 28 360 9Q315-10 264-10Q179-10 124.50 38Q70 86 70 191L70 549L239 549L239 238Q239 182 257.50 153Q276 124 317 124Q378 124 400 169Q422 214 422 299L422 549L591 549M545 756Q529 742 504 722Q479 702 450.50 680Q422 658 395.50 638.50Q369 619 349 606L237 606L237 619Q253 638 276 663.50Q299 689 321 716.50Q343 744 358 766L545 766L545 756Z"  horiz-adv-x="663" vert-adv-y="1000"  />

      
      <glyph glyph-name="unifb" unicode="&#xfb;" d="M591 549L591 0L463 0L441 70L431 70Q405 28 360 9Q315-10 264-10Q179-10 124.50 38Q70 86 70 191L70 549L239 549L239 238Q239 182 257.50 153Q276 124 317 124Q378 124 400 169Q422 214 422 299L422 549L591 549M425 766Q439 743 462 715.50Q485 688 508.50 662.50Q532 637 550 619L550 606L439 606Q413 621 385.50 641Q358 661 333 686Q306 661 280.50 642Q255 623 228 606L117 606L117 619Q136 638 159.50 663.50Q183 689 205.50 716Q228 743 242 766L425 766Z"  horiz-adv-x="663" vert-adv-y="1000"  />

      
      <glyph glyph-name="unifc" unicode="&#xfc;" d="M591 549L591 0L463 0L441 70L431 70Q405 28 360 9Q315-10 264-10Q179-10 124.50 38Q70 86 70 191L70 549L239 549L239 238Q239 182 257.50 153Q276 124 317 124Q378 124 400 169Q422 214 422 299L422 549L591 549M149 688Q149 725 170.50 742Q192 759 223 759Q254 759 276.50 742Q299 725 299 688Q299 652 276.50 635Q254 618 223 618Q192 618 170.50 635Q149 652 149 688M363 688Q363 725 384.50 742Q406 759 439 759Q469 759 491.50 742Q514 725 514 688Q514 652 491.50 635Q469 618 439 618Q406 618 384.50 635Q363 652 363 688Z"  horiz-adv-x="663" vert-adv-y="1000"  />

      
      <glyph glyph-name="unifd" unicode="&#xfd;" d="M0 549L180 549L279 238Q284 221 287.50 200.50Q291 180 293 159L296 159Q299 182 303.50 201.50Q308 221 313 237L412 549L588 549L362-54Q328-146 269.50-193Q211-240 118-240Q92-240 73.50-237.50Q55-235 41-232L41-99Q52-101 67.50-103Q83-105 100-105Q147-105 172-77Q197-49 211-11L217 6L0 549M508 756Q492 742 467 722Q442 702 413.50 680Q385 658 358.50 638.50Q332 619 312 606L200 606L200 619Q216 638 239 663.50Q262 689 284 716.50Q306 744 321 766L508 766L508 756Z"  horiz-adv-x="588" vert-adv-y="1000"  />

      
      <glyph glyph-name="unife" unicode="&#xfe;" d="M594 276Q594 135 536.50 62.50Q479-10 389-10Q333-10 297.50 9.50Q262 29 241 55L234 55Q237 40 239 18Q241-4 241-20L241-240L72-240L72 760L241 760L241 580Q241 548 238.50 520.50Q236 493 233 478L241 478Q261 512 298 535.50Q335 559 392 559Q481 559 537.50 487Q594 415 594 276M422 278Q422 351 401 388.50Q380 426 334 426Q283 426 262.50 392.50Q242 359 241 292L241 277Q241 204 261.50 165Q282 126 336 126Q381 126 401.50 165Q422 204 422 278Z"  horiz-adv-x="638" vert-adv-y="1000"  />

      
      <glyph glyph-name="uniff" unicode="&#xff;" d="M0 549L180 549L279 238Q284 221 287.50 200.50Q291 180 293 159L296 159Q299 182 303.50 201.50Q308 221 313 237L412 549L588 549L362-54Q328-146 269.50-193Q211-240 118-240Q92-240 73.50-237.50Q55-235 41-232L41-99Q52-101 67.50-103Q83-105 100-105Q147-105 172-77Q197-49 211-11L217 6L0 549M111 688Q111 725 132.50 742Q154 759 185 759Q216 759 238.50 742Q261 725 261 688Q261 652 238.50 635Q216 618 185 618Q154 618 132.50 635Q111 652 111 688M325 688Q325 725 346.50 742Q368 759 401 759Q431 759 453.50 742Q476 725 476 688Q476 652 453.50 635Q431 618 401 618Q368 618 346.50 635Q325 652 325 688Z"  horiz-adv-x="588" vert-adv-y="1000"  />

      
      <glyph glyph-name="uni0100" unicode="&#x0100;" d="M521 0L477 153L230 153L186 0L0 0L243 717L461 717L707 0L521 0M397 438Q392 456 383.50 486.50Q375 517 366.50 549Q358 581 353 603Q349 581 340.50 548.50Q332 516 324 485.50Q316 455 311 438L269 295L439 295L397 438M526 880L526 771L184 771L184 880L526 880Z"  horiz-adv-x="707" vert-adv-y="1000"  />

      
      <glyph glyph-name="uni0101" unicode="&#x0101;" d="M318 560Q425 560 484 510Q543 460 543 364L543 0L426 0L393 74L389 74Q354 29 315 9.50Q276-10 208-10Q135-10 87 33Q39 76 39 166Q39 253 100.50 295.50Q162 338 281 343L375 346L375 362Q375 402 354.50 420Q334 438 298 438Q262 438 223 426.50Q184 415 144 398L93 510Q138 534 195 547Q252 560 318 560M324 248Q261 246 236 225.50Q211 205 211 170Q211 139 229 125Q247 111 275 111Q317 111 346 136.50Q375 162 375 206L375 250L324 248M479 715L479 606L137 606L137 715L479 715Z"  horiz-adv-x="613" vert-adv-y="1000"  />

      
      <glyph glyph-name="uni0102" unicode="&#x0102;" d="M521 0L477 153L230 153L186 0L0 0L243 717L461 717L707 0L521 0M397 438Q392 456 383.50 486.50Q375 517 366.50 549Q358 581 353 603Q349 581 340.50 548.50Q332 516 324 485.50Q316 455 311 438L269 295L439 295L397 438M551 943Q546 866 493.50 818.50Q441 771 355 771Q264 771 215 817.50Q166 864 162 943L254 943Q261 901 287 891Q313 881 355 881Q389 881 419 892.50Q449 904 456 943L551 943Z"  horiz-adv-x="707" vert-adv-y="1000"  />

      
      <glyph glyph-name="uni0103" unicode="&#x0103;" d="M318 560Q425 560 484 510Q543 460 543 364L543 0L426 0L393 74L389 74Q354 29 315 9.50Q276-10 208-10Q135-10 87 33Q39 76 39 166Q39 253 100.50 295.50Q162 338 281 343L375 346L375 362Q375 402 354.50 420Q334 438 298 438Q262 438 223 426.50Q184 415 144 398L93 510Q138 534 195 547Q252 560 318 560M324 248Q261 246 236 225.50Q211 205 211 170Q211 139 229 125Q247 111 275 111Q317 111 346 136.50Q375 162 375 206L375 250L324 248M504 778Q499 701 446.50 653.50Q394 606 308 606Q217 606 168 652.50Q119 699 115 778L207 778Q214 736 240 726Q266 716 308 716Q342 716 372 727.50Q402 739 409 778L504 778Z"  horiz-adv-x="613" vert-adv-y="1000"  />

      
      <glyph glyph-name="uni0104" unicode="&#x0104;" d="M521 0L477 153L230 153L186 0L0 0L243 717L461 717L707 0L521 0M397 438Q392 456 383.50 486.50Q375 517 366.50 549Q358 581 353 603Q349 581 340.50 548.50Q332 516 324 485.50Q316 455 311 438L269 295L439 295L397 438M593-105Q593-124 603.50-132.50Q614-141 631-141Q646-141 662-138Q678-135 688-131L688-228Q672-233 652.50-236.50Q633-240 608-240Q551-240 515.50-209Q480-178 480-128Q480-49 592 21L661 0Q628-32 610.50-56Q593-80 593-105Z"  horiz-adv-x="707" vert-adv-y="1000"  />

      
      <glyph glyph-name="uni0105" unicode="&#x0105;" d="M318 560Q425 560 484 510Q543 460 543 364L543 0L426 0L393 74L389 74Q354 29 315 9.50Q276-10 208-10Q135-10 87 33Q39 76 39 166Q39 253 100.50 295.50Q162 338 281 343L375 346L375 362Q375 402 354.50 420Q334 438 298 438Q262 438 223 426.50Q184 415 144 398L93 510Q138 534 195 547Q252 560 318 560M324 248Q261 246 236 225.50Q211 205 211 170Q211 139 229 125Q247 111 275 111Q317 111 346 136.50Q375 162 375 206L375 250L324 248M455-105Q455-124 465.50-132.50Q476-141 493-141Q508-141 524-138Q540-135 550-131L550-228Q534-233 514.50-236.50Q495-240 470-240Q413-240 377.50-209Q342-178 342-128Q342-49 454 21L523 0Q490-32 472.50-56Q455-80 455-105Z"  horiz-adv-x="613" vert-adv-y="1000"  />

      
      <glyph glyph-name="uni0106" unicode="&#x0106;" d="M394 583Q316 583 273 522Q230 461 230 355Q230 246 271 188.50Q312 131 399 131Q444 131 488 142.50Q532 154 581 172L581 28Q533 8 485.50-1Q438-10 382-10Q268-10 196 36Q124 82 89.50 164Q55 246 55 356Q55 464 94 547Q133 630 209 677Q285 724 395 724Q447 724 502.50 711.50Q558 699 609 674L556 538Q516 556 476 569.50Q436 583 394 583M585 921Q569 907 544 887Q519 867 490.50 845Q462 823 435.50 803.50Q409 784 389 771L277 771L277 784Q293 803 316 828.50Q339 854 361 881.50Q383 909 398 931L585 931L585 921Z"  horiz-adv-x="643" vert-adv-y="1000"  />

      
      <glyph glyph-name="uni0107" unicode="&#x0107;" d="M308-10Q184-10 114 57.50Q44 125 44 272Q44 372 79.50 435.50Q115 499 178 529Q241 559 322 559Q376 559 419.50 548Q463 537 497 520L448 393Q413 408 383 416.50Q353 425 322 425Q271 425 243 387Q215 349 215 273Q215 196 244 160.50Q273 125 323 125Q367 125 405.50 137.50Q444 150 479 173L479 35Q445 13 405 1.50Q365-10 308-10M503 756Q487 742 462 722Q437 702 408.50 680Q380 658 353.50 638.50Q327 619 307 606L195 606L195 619Q211 638 234 663.50Q257 689 279 716.50Q301 744 316 766L503 766L503 756Z"  horiz-adv-x="526" vert-adv-y="1000"  />

      
      <glyph glyph-name="uni0108" unicode="&#x0108;" d="M394 583Q316 583 273 522Q230 461 230 355Q230 246 271 188.50Q312 131 399 131Q444 131 488 142.50Q532 154 581 172L581 28Q533 8 485.50-1Q438-10 382-10Q268-10 196 36Q124 82 89.50 164Q55 246 55 356Q55 464 94 547Q133 630 209 677Q285 724 395 724Q447 724 502.50 711.50Q558 699 609 674L556 538Q516 556 476 569.50Q436 583 394 583M464 931Q478 908 501 880.50Q524 853 547.50 827.50Q571 802 589 784L589 771L478 771Q452 786 424.50 806Q397 826 372 851Q345 826 319.50 807Q294 788 267 771L156 771L156 784Q175 803 198.50 828.50Q222 854 244.50 881Q267 908 281 931L464 931Z"  horiz-adv-x="643" vert-adv-y="1000"  />

      
      <glyph glyph-name="uni0109" unicode="&#x0109;" d="M308-10Q184-10 114 57.50Q44 125 44 272Q44 372 79.50 435.50Q115 499 178 529Q241 559 322 559Q376 559 419.50 548Q463 537 497 520L448 393Q413 408 383 416.50Q353 425 322 425Q271 425 243 387Q215 349 215 273Q215 196 244 160.50Q273 125 323 125Q367 125 405.50 137.50Q444 150 479 173L479 35Q445 13 405 1.50Q365-10 308-10M383 766Q397 743 420 715.50Q443 688 466.50 662.50Q490 637 508 619L508 606L397 606Q371 621 343.50 641Q316 661 291 686Q264 661 238.50 642Q213 623 186 606L75 606L75 619Q94 638 117.50 663.50Q141 689 163.50 716Q186 743 200 766L383 766Z"  horiz-adv-x="526" vert-adv-y="1000"  />

      
      <glyph glyph-name="uni010A" unicode="&#x010A;" d="M394 583Q316 583 273 522Q230 461 230 355Q230 246 271 188.50Q312 131 399 131Q444 131 488 142.50Q532 154 581 172L581 28Q533 8 485.50-1Q438-10 382-10Q268-10 196 36Q124 82 89.50 164Q55 246 55 356Q55 464 94 547Q133 630 209 677Q285 724 395 724Q447 724 502.50 711.50Q558 699 609 674L556 538Q516 556 476 569.50Q436 583 394 583M373 932Q410 932 437 916Q464 900 464 854Q464 809 437 792.50Q410 776 373 776Q336 776 309.50 792.50Q283 809 283 854Q283 900 309.50 916Q336 932 373 932Z"  horiz-adv-x="643" vert-adv-y="1000"  />

      
      <glyph glyph-name="uni010B" unicode="&#x010B;" d="M308-10Q184-10 114 57.50Q44 125 44 272Q44 372 79.50 435.50Q115 499 178 529Q241 559 322 559Q376 559 419.50 548Q463 537 497 520L448 393Q413 408 383 416.50Q353 425 322 425Q271 425 243 387Q215 349 215 273Q215 196 244 160.50Q273 125 323 125Q367 125 405.50 137.50Q444 150 479 173L479 35Q445 13 405 1.50Q365-10 308-10M291 767Q328 767 355 751Q382 735 382 689Q382 644 355 627.50Q328 611 291 611Q254 611 227.50 627.50Q201 644 201 689Q201 735 227.50 751Q254 767 291 767Z"  horiz-adv-x="526" vert-adv-y="1000"  />

      
      <glyph glyph-name="uni010C" unicode="&#x010C;" d="M394 583Q316 583 273 522Q230 461 230 355Q230 246 271 188.50Q312 131 399 131Q444 131 488 142.50Q532 154 581 172L581 28Q533 8 485.50-1Q438-10 382-10Q268-10 196 36Q124 82 89.50 164Q55 246 55 356Q55 464 94 547Q133 630 209 677Q285 724 395 724Q447 724 502.50 711.50Q558 699 609 674L556 538Q516 556 476 569.50Q436 583 394 583M282 771Q268 794 245.50 821Q223 848 199.50 873.50Q176 899 157 918L157 931L268 931Q295 915 320.50 895.50Q346 876 373 851Q398 876 425.50 896Q453 916 479 931L590 931L590 918Q572 900 548.50 874.50Q525 849 502 821.50Q479 794 465 771L282 771Z"  horiz-adv-x="643" vert-adv-y="1000"  />

      
      <glyph glyph-name="uni010D" unicode="&#x010D;" d="M308-10Q184-10 114 57.50Q44 125 44 272Q44 372 79.50 435.50Q115 499 178 529Q241 559 322 559Q376 559 419.50 548Q463 537 497 520L448 393Q413 408 383 416.50Q353 425 322 425Q271 425 243 387Q215 349 215 273Q215 196 244 160.50Q273 125 323 125Q367 125 405.50 137.50Q444 150 479 173L479 35Q445 13 405 1.50Q365-10 308-10M200 606Q186 629 163.50 656Q141 683 117.50 708.50Q94 734 75 753L75 766L186 766Q213 750 238.50 730.50Q264 711 291 686Q316 711 343.50 731Q371 751 397 766L508 766L508 753Q490 735 466.50 709.50Q443 684 420 656.50Q397 629 383 606L200 606Z"  horiz-adv-x="526" vert-adv-y="1000"  />

      
      <glyph glyph-name="uni010E" unicode="&#x010E;" d="M682 368Q682 245 636 163.50Q590 82 504 41Q418 0 299 0L84 0L84 714L319 714Q489 714 585.50 625.50Q682 537 682 368M506 362Q506 471 460 523Q414 575 324 575L254 575L254 140L309 140Q410 140 458 195.50Q506 251 506 362M279 771Q265 794 242.50 821Q220 848 196.50 873.50Q173 899 154 918L154 931L265 931Q292 915 317.50 895.50Q343 876 370 851Q395 876 422.50 896Q450 916 476 931L587 931L587 918Q569 900 545.50 874.50Q522 849 499 821.50Q476 794 462 771L279 771Z"  horiz-adv-x="737" vert-adv-y="1000"  />

      
      <glyph glyph-name="uni010F" unicode="&#x010F;" d="M783 750Q766 715 746 678.50Q726 642 700 600L600 600L600 613Q608 643 616.50 685.50Q625 728 629 760L783 760L783 750M245-10Q156-10 100 62Q44 134 44 274Q44 415 101 487Q158 559 250 559Q308 559 344 536Q380 513 402 479L406 479Q403 497 399.50 530.50Q396 564 396 597L396 760L565 760L565 0L437 0L403 71L396 71Q375 37 339 13.50Q303-10 245-10M309 124Q363 124 385.50 157Q408 190 409 257L409 272Q409 345 387.50 384Q366 423 307 423Q264 423 239 385Q214 347 214 271Q214 196 239.50 160Q265 124 309 124Z"  horiz-adv-x="638" vert-adv-y="1000"  />

      
      <glyph glyph-name="uni0110" unicode="&#x0110;" d="M319 714Q489 714 585.50 625.50Q682 537 682 368Q682 245 636 163.50Q590 82 504 41Q418 0 299 0L84 0L84 284L19 284L19 422L84 422L84 714L319 714M323 575L254 575L254 422L364 422L364 284L254 284L254 140L309 140Q506 140 506 362Q506 471 459 523Q412 575 323 575Z"  horiz-adv-x="737" vert-adv-y="1000"  />

      
      <glyph glyph-name="uni0111" unicode="&#x0111;" d="M241-10Q154-10 99 57.50Q44 125 44 254Q44 388 102 454Q160 520 252 520Q309 520 345.50 497Q382 474 405 440L409 440Q406 457 401 492Q396 527 396 562L396 578L261 578L261 684L396 684L396 760L565 760L565 684L641 684L641 578L565 578L565 0L432 0L396 71L390 71Q368 37 333 13.50Q298-10 241-10M314 124Q366 124 387 153Q408 182 409 240L409 253Q409 317 386 350.50Q363 384 311 384Q271 384 246.50 352Q222 320 222 252Q222 194 245.50 159Q269 124 314 124Z"  horiz-adv-x="655" vert-adv-y="1000"  />

      
      <glyph glyph-name="uni0112" unicode="&#x0112;" d="M501 0L84 0L84 714L501 714L501 576L254 576L254 439L483 439L483 301L254 301L254 140L501 140L501 0M468 880L468 771L126 771L126 880L468 880Z"  horiz-adv-x="555" vert-adv-y="1000"  />

      
      <glyph glyph-name="uni0113" unicode="&#x0113;" d="M309 559Q425 559 493 495.50Q561 432 561 309L561 231L214 231Q216 177 249 145Q282 113 343 113Q395 113 438.50 123Q482 133 528 155L528 30Q487 9 441.50-0.50Q396-10 329-10Q246-10 181.50 20Q117 50 80.50 112.50Q44 175 44 271Q44 368 77 432Q110 496 169.50 527.50Q229 559 309 559M312 442Q273 442 247.50 417.50Q222 393 217 340L406 340Q405 383 382 412.50Q359 442 312 442M475 715L475 606L133 606L133 715L475 715Z"  horiz-adv-x="603" vert-adv-y="1000"  />

      
      <glyph glyph-name="uni0114" unicode="&#x0114;" d="M501 0L84 0L84 714L501 714L501 576L254 576L254 439L483 439L483 301L254 301L254 140L501 140L501 0M493 943Q488 866 435.50 818.50Q383 771 297 771Q206 771 157 817.50Q108 864 104 943L196 943Q203 901 229 891Q255 881 297 881Q331 881 361 892.50Q391 904 398 943L493 943Z"  horiz-adv-x="555" vert-adv-y="1000"  />

      
      <glyph glyph-name="uni0115" unicode="&#x0115;" d="M309 559Q425 559 493 495.50Q561 432 561 309L561 231L214 231Q216 177 249 145Q282 113 343 113Q395 113 438.50 123Q482 133 528 155L528 30Q487 9 441.50-0.50Q396-10 329-10Q246-10 181.50 20Q117 50 80.50 112.50Q44 175 44 271Q44 368 77 432Q110 496 169.50 527.50Q229 559 309 559M312 442Q273 442 247.50 417.50Q222 393 217 340L406 340Q405 383 382 412.50Q359 442 312 442M499 778Q494 701 441.50 653.50Q389 606 303 606Q212 606 163 652.50Q114 699 110 778L202 778Q209 736 235 726Q261 716 303 716Q337 716 367 727.50Q397 739 404 778L499 778Z"  horiz-adv-x="603" vert-adv-y="1000"  />

      
      <glyph glyph-name="uni0116" unicode="&#x0116;" d="M501 0L84 0L84 714L501 714L501 576L254 576L254 439L483 439L483 301L254 301L254 140L501 140L501 0M297 932Q334 932 361 916Q388 900 388 854Q388 809 361 792.50Q334 776 297 776Q260 776 233.50 792.50Q207 809 207 854Q207 900 233.50 916Q260 932 297 932Z"  horiz-adv-x="555" vert-adv-y="1000"  />

      
      <glyph glyph-name="uni0117" unicode="&#x0117;" d="M309 559Q425 559 493 495.50Q561 432 561 309L561 231L214 231Q216 177 249 145Q282 113 343 113Q395 113 438.50 123Q482 133 528 155L528 30Q487 9 441.50-0.50Q396-10 329-10Q246-10 181.50 20Q117 50 80.50 112.50Q44 175 44 271Q44 368 77 432Q110 496 169.50 527.50Q229 559 309 559M312 442Q273 442 247.50 417.50Q222 393 217 340L406 340Q405 383 382 412.50Q359 442 312 442M303 767Q340 767 367 751Q394 735 394 689Q394 644 367 627.50Q340 611 303 611Q266 611 239.50 627.50Q213 644 213 689Q213 735 239.50 751Q266 767 303 767Z"  horiz-adv-x="603" vert-adv-y="1000"  />

      
      <glyph glyph-name="uni0118" unicode="&#x0118;" d="M501 0L84 0L84 714L501 714L501 576L254 576L254 439L483 439L483 301L254 301L254 140L501 140L501 0M407-105Q407-124 417.50-132.50Q428-141 445-141Q460-141 476-138Q492-135 502-131L502-228Q486-233 466.50-236.50Q447-240 422-240Q365-240 329.50-209Q294-178 294-128Q294-49 406 21L475 0Q442-32 424.50-56Q407-80 407-105Z"  horiz-adv-x="555" vert-adv-y="1000"  />

      
      <glyph glyph-name="uni0119" unicode="&#x0119;" d="M429-102Q429-121 440-131Q451-141 469-141Q484-141 499-138Q514-135 524-131L524-228Q508-233 488.50-236.50Q469-240 444-240Q387-240 351.50-209Q316-178 316-128Q316-65 387-8Q361-10 329-10Q246-10 181.50 20Q117 50 80.50 112.50Q44 175 44 271Q44 368 77 432Q110 496 169.50 527.50Q229 559 309 559Q425 559 493 495.50Q561 432 561 309L561 231L214 231Q216 177 249 145Q282 113 343 113Q395 113 438.50 123Q482 133 528 155L528 30Q487-5 466-28.50Q445-52 437-69Q429-86 429-102M312 442Q273 442 247.50 417.50Q222 393 217 340L406 340Q405 383 382 412.50Q359 442 312 442Z"  horiz-adv-x="603" vert-adv-y="1000"  />

      
      <glyph glyph-name="uni011A" unicode="&#x011A;" d="M501 0L84 0L84 714L501 714L501 576L254 576L254 439L483 439L483 301L254 301L254 140L501 140L501 0M206 771Q192 794 169.50 821Q147 848 123.50 873.50Q100 899 81 918L81 931L192 931Q219 915 244.50 895.50Q270 876 297 851Q322 876 349.50 896Q377 916 403 931L514 931L514 918Q496 900 472.50 874.50Q449 849 426 821.50Q403 794 389 771L206 771Z"  horiz-adv-x="555" vert-adv-y="1000"  />

      
      <glyph glyph-name="uni011B" unicode="&#x011B;" d="M309 559Q425 559 493 495.50Q561 432 561 309L561 231L214 231Q216 177 249 145Q282 113 343 113Q395 113 438.50 123Q482 133 528 155L528 30Q487 9 441.50-0.50Q396-10 329-10Q246-10 181.50 20Q117 50 80.50 112.50Q44 175 44 271Q44 368 77 432Q110 496 169.50 527.50Q229 559 309 559M312 442Q273 442 247.50 417.50Q222 393 217 340L406 340Q405 383 382 412.50Q359 442 312 442M212 606Q198 629 175.50 656Q153 683 129.50 708.50Q106 734 87 753L87 766L198 766Q225 750 250.50 730.50Q276 711 303 686Q328 711 355.50 731Q383 751 409 766L520 766L520 753Q502 735 478.50 709.50Q455 684 432 656.50Q409 629 395 606L212 606Z"  horiz-adv-x="603" vert-adv-y="1000"  />

      
      <glyph glyph-name="uni011C" unicode="&#x011C;" d="M362 409L657 409L657 32Q601 13 535.50 1.50Q470-10 393-10Q235-10 145 82.50Q55 175 55 358Q55 470 98 552.50Q141 635 224.50 679.50Q308 724 429 724Q490 724 547.50 711.50Q605 699 649 680L594 545Q559 562 517 572.50Q475 583 429 583Q364 583 319.50 553.50Q275 524 253 472.50Q231 421 231 355Q231 252 273.50 191.50Q316 131 406 131Q431 131 454 134Q477 137 494 140L494 272L362 272L362 409M493 931Q507 908 530 880.50Q553 853 576.50 827.50Q600 802 618 784L618 771L507 771Q481 786 453.50 806Q426 826 401 851Q374 826 348.50 807Q323 788 296 771L185 771L185 784Q204 803 227.50 828.50Q251 854 273.50 881Q296 908 310 931L493 931Z"  horiz-adv-x="731" vert-adv-y="1000"  />

      
      <glyph glyph-name="uni011D" unicode="&#x011D;" d="M249 559Q303 559 341 538Q379 517 404 480L408 480L421 549L565 549L565-1Q565-118 494.50-179Q424-240 282-240Q220-240 170-233Q120-226 72-208L72-71Q123-92 172-102.50Q221-113 282-113Q397-113 397-8L397 3Q397 17 398.50 35.50Q400 54 402 71L397 71Q373 32 335.50 11Q298-10 246-10Q153-10 98.50 64Q44 138 44 274Q44 411 99.50 485Q155 559 249 559M308 426Q215 426 215 271Q215 194 238.50 157.50Q262 121 310 121Q363 121 386 152Q409 183 409 254L409 275Q409 352 386.50 389Q364 426 308 426M407 766Q421 743 444 715.50Q467 688 490.50 662.50Q514 637 532 619L532 606L421 606Q395 621 367.50 641Q340 661 315 686Q288 661 262.50 642Q237 623 210 606L99 606L99 619Q118 638 141.50 663.50Q165 689 187.50 716Q210 743 224 766L407 766Z"  horiz-adv-x="638" vert-adv-y="1000"  />

      
      <glyph glyph-name="uni011E" unicode="&#x011E;" d="M362 409L657 409L657 32Q601 13 535.50 1.50Q470-10 393-10Q235-10 145 82.50Q55 175 55 358Q55 470 98 552.50Q141 635 224.50 679.50Q308 724 429 724Q490 724 547.50 711.50Q605 699 649 680L594 545Q559 562 517 572.50Q475 583 429 583Q364 583 319.50 553.50Q275 524 253 472.50Q231 421 231 355Q231 252 273.50 191.50Q316 131 406 131Q431 131 454 134Q477 137 494 140L494 272L362 272L362 409M598 943Q593 866 540.50 818.50Q488 771 402 771Q311 771 262 817.50Q213 864 209 943L301 943Q308 901 334 891Q360 881 402 881Q436 881 466 892.50Q496 904 503 943L598 943Z"  horiz-adv-x="731" vert-adv-y="1000"  />

      
      <glyph glyph-name="uni011F" unicode="&#x011F;" d="M249 559Q303 559 341 538Q379 517 404 480L408 480L421 549L565 549L565-1Q565-118 494.50-179Q424-240 282-240Q220-240 170-233Q120-226 72-208L72-71Q123-92 172-102.50Q221-113 282-113Q397-113 397-8L397 3Q397 17 398.50 35.50Q400 54 402 71L397 71Q373 32 335.50 11Q298-10 246-10Q153-10 98.50 64Q44 138 44 274Q44 411 99.50 485Q155 559 249 559M308 426Q215 426 215 271Q215 194 238.50 157.50Q262 121 310 121Q363 121 386 152Q409 183 409 254L409 275Q409 352 386.50 389Q364 426 308 426M511 778Q506 701 453.50 653.50Q401 606 315 606Q224 606 175 652.50Q126 699 122 778L214 778Q221 736 247 726Q273 716 315 716Q349 716 379 727.50Q409 739 416 778L511 778Z"  horiz-adv-x="638" vert-adv-y="1000"  />

      
      </font>
</defs>
</svg>
