<?xml version="1.0" standalone="no"?>
  <!DOCTYPE svg PUBLIC "-//W3C//DTD SVG 1.1//EN" "http://www.w3.org/Graphics/SVG/1.1/DTD/svg11.dtd" >
  <svg>
  <metadata>
  Created by font-carrier
  </metadata>
  <defs>
  <font id="NotoSans-BlackItalic" horiz-adv-x="2880" vert-adv-y="2880" >
    <font-face
      
      font-family="Noto Sans Black"
      
      font-weight="400"
      
      font-stretch="normal"
      
      units-per-em="1000"
      
      ascent="1069"
      
      descent="-293"
      
    />
      <missing-glyph />

      

      
      <glyph glyph-name="uni21" unicode="&#x21;" d="M61 252L137 714L345 714L221 252L61 252M97-12Q45-12 25.50 11Q6 34 6 62Q6 110 35.50 143Q65 176 125 176Q167 176 190 156Q213 136 213 100Q213 44 180.50 16Q148-12 97-12Z"  horiz-adv-x="304" vert-adv-y="1000"  />

      
      <glyph glyph-name="uni22" unicode="&#x22;" d="M304 456L340 714L507 714L430 456L304 456M89 456L124 714L291 714L214 456L89 456Z"  horiz-adv-x="454" vert-adv-y="1000"  />

      
      <glyph glyph-name="uni23" unicode="&#x23;" d="M59 0L114 192L7 192L17 308L147 308L175 406L60 406L70 524L209 524L263 714L395 714L341 524L423 524L477 714L609 714L555 524L663 524L653 406L521 406L493 308L612 308L602 192L459 192L405 0L273 0L328 192L246 192L191 0L59 0M279 308L361 308L389 406L307 406L279 308Z"  horiz-adv-x="646" vert-adv-y="1000"  />

      
      <glyph glyph-name="uni24" unicode="&#x24;" d="M199 34Q138 39 97 51Q56 63 30 79L27 228Q79 204 131.50 190Q184 176 229 172L258 308Q182 337 137 380Q92 423 92 492Q92 585 159 636.50Q226 688 340 695L354 760L436 760L421 693Q501 686 574 650L525 519Q498 533 462 542.50Q426 552 392 556L363 421Q450 382 487.50 341.50Q525 301 525 240Q525 178 493 132.50Q461 87 405.50 61.50Q350 36 280 32L261-59L179-59L199 34M311 554Q283 548 273 533.50Q263 519 263 499Q263 483 269.50 473Q276 463 289 455L311 554M310 175Q340 182 352.50 195.50Q365 209 365 227Q365 245 356 257Q347 269 332 278L310 175Z"  horiz-adv-x="580" vert-adv-y="1000"  />

      
      <glyph glyph-name="uni25" unicode="&#x25;" d="M214 276Q138 276 97 318.50Q56 361 56 444Q56 488 67.50 536.50Q79 585 104 627.50Q129 670 170 697Q211 724 271 724Q349 724 388 680Q427 636 427 556Q427 513 416.50 464.50Q406 416 381.50 373Q357 330 316 303Q275 276 214 276M143 0L675 714L816 714L288 0L143 0M223 394Q238 394 250 411Q262 428 270.50 455Q279 482 283.50 511.50Q288 541 288 565Q288 606 262 606Q249 606 237 589.50Q225 573 216 547Q207 521 202 491.50Q197 462 197 435Q197 394 223 394M694-10Q618-10 577 32.50Q536 75 536 158Q536 202 547.50 250.50Q559 299 584 341.50Q609 384 650 411Q691 438 751 438Q829 438 868 394Q907 350 907 270Q907 227 896.50 178.50Q886 130 861.50 87Q837 44 796 17Q755-10 694-10M703 108Q718 108 730 125Q742 142 750.50 169Q759 196 763.50 225.50Q768 255 768 279Q768 320 742 320Q729 320 717 303.50Q705 287 696 261Q687 235 682 205.50Q677 176 677 149Q677 108 703 108Z"  horiz-adv-x="930" vert-adv-y="1000"  />

      
      <glyph glyph-name="uni26" unicode="&#x26;" d="M258-10Q142-10 73 41Q4 92 4 188Q4 270 49.50 320.50Q95 371 179 398Q159 424 148.50 460.50Q138 497 138 520Q138 618 200.50 671.50Q263 725 373 725Q431 725 476.50 707Q522 689 549 654Q576 619 576 567Q576 497 532 447.50Q488 398 409 357L472 266Q492 287 511 325.50Q530 364 540 401L727 401Q703 316 661 246Q619 176 572 128L665 0L449 0L428 30Q396 13 352 1.50Q308-10 258-10M335 463Q363 474 383.50 497Q404 520 404 554Q404 571 393 583.50Q382 596 364 596Q340 596 325 579Q310 562 310 533Q310 523 315 503Q320 483 335 463M279 140Q299 140 316 144Q333 148 346 153L252 289Q219 275 207 253Q195 231 195 207Q195 182 215 161Q235 140 279 140Z"  horiz-adv-x="733" vert-adv-y="1000"  />

      
      <glyph glyph-name="uni27" unicode="&#x27;" d="M89 456L124 714L291 714L214 456L89 456Z"  horiz-adv-x="238" vert-adv-y="1000"  />

      
      <glyph glyph-name="uni28" unicode="&#x28;" d="M107-158Q84-117 67-62.50Q50-8 41.50 49.50Q33 107 33 159Q33 329 97.50 469Q162 609 283 734L441 734Q370 657 314 568.50Q258 480 225.50 376.50Q193 273 193 151Q193 105 200 50.50Q207-4 219.50-58Q232-112 250-158L107-158Z"  horiz-adv-x="374" vert-adv-y="1000"  />

      
      <glyph glyph-name="uni29" unicode="&#x29;" d="M-65-158Q6-81 61 7.50Q116 96 147.50 200Q179 304 179 425Q179 472 172 526Q165 580 152 634Q139 688 121 734L265 734Q291 690 307 636Q323 582 331 525.50Q339 469 339 417Q339 247 277.50 107Q216-33 94-158L-65-158Z"  horiz-adv-x="374" vert-adv-y="1000"  />

      
      <glyph glyph-name="uni2a" unicode="&#x2a;" d="M338 269L299 417L218 298L96 388L220 500L74 541L123 677L279 596L294 767L444 737L387 575L567 590L556 443L405 463L477 311L338 269Z"  horiz-adv-x="542" vert-adv-y="1000"  />

      
      <glyph glyph-name="uni2b" unicode="&#x2b;" d="M358 418L540 418L540 287L358 287L358 111L227 111L227 287L45 287L45 418L227 418L227 597L358 597L358 418Z"  horiz-adv-x="586" vert-adv-y="1000"  />

      
      <glyph glyph-name="uni2c" unicode="&#x2c;" d="M-51-129Q-25-70-1.50-3Q22 64 41 116L211 116L215 105Q192 52 158.50-11Q125-74 90-129L-51-129Z"  horiz-adv-x="306" vert-adv-y="1000"  />

      
      <glyph glyph-name="uni2d" unicode="&#x2d;" d="M11 192L42 344L312 344L281 192L11 192Z"  horiz-adv-x="329" vert-adv-y="1000"  />

      
      <glyph glyph-name="uni2e" unicode="&#x2e;" d="M85-12Q47-12 23.50 6Q0 24 0 62Q0 121 35.50 148.50Q71 176 119 176Q158 176 182.50 157.50Q207 139 207 100Q207 36 174 12Q141-12 85-12Z"  horiz-adv-x="306" vert-adv-y="1000"  />

      
      <glyph glyph-name="uni2f" unicode="&#x2f;" d="M-44-10L365 724L533 724L124-10L-44-10Z"  horiz-adv-x="467" vert-adv-y="1000"  />

      
      <glyph glyph-name="uni30" unicode="&#x30;" d="M239-10Q141-10 86 49.50Q31 109 31 227Q31 300 43 371.50Q55 443 80 506.50Q105 570 143.50 619.50Q182 669 235 697Q288 725 357 725Q414 725 454 704Q494 683 518.50 648Q543 613 554 569.50Q565 526 565 480Q565 383 545 295Q525 207 484.50 138Q444 69 383 29.50Q322-10 239-10M258 144Q283 144 304.50 177Q326 210 341.50 262Q357 314 366 373Q375 432 375 484Q375 525 366 548Q357 571 335 571Q313 571 292.50 537.50Q272 504 256 451Q240 398 230.50 337.50Q221 277 221 223Q221 183 228.50 163.50Q236 144 258 144Z"  horiz-adv-x="580" vert-adv-y="1000"  />

      
      <glyph glyph-name="uni31" unicode="&#x31;" d="M273 390Q279 418 289.50 454Q300 490 310 515Q296 502 277 487.50Q258 473 246 465L147 404L73 527L376 714L528 714L378 0L188 0L273 390Z"  horiz-adv-x="580" vert-adv-y="1000"  />

      
      <glyph glyph-name="uni32" unicode="&#x32;" d="M-28 0L-2 125L234 338Q305 402 330 444.50Q355 487 355 514Q355 538 342.50 550Q330 562 310 562Q279 562 245 543.50Q211 525 173 490L82 616Q135 666 200 695Q265 724 346 724Q435 724 490 676Q545 628 545 544Q545 498 528.50 454.50Q512 411 471 362.50Q430 314 357 251L257 165L257 159L496 159L463 0L-28 0Z"  horiz-adv-x="580" vert-adv-y="1000"  />

      
      <glyph glyph-name="uni33" unicode="&#x33;" d="M195-10Q142-10 90.50 0Q39 10 7 29L7 191Q51 165 97.50 153.50Q144 142 191 142Q249 142 287 162Q325 182 325 230Q325 251 315 265.50Q305 280 275.50 287.50Q246 295 189 295L148 295L174 437L212 437Q282 437 323 459.50Q364 482 364 522Q364 539 349.50 555.50Q335 572 298 572Q265 572 232.50 560.50Q200 549 166 531L89 652Q141 685 196.50 704.50Q252 724 334 724Q430 724 490 679.50Q550 635 550 555Q550 476 503 431.50Q456 387 383 372L383 368Q449 355 483 312Q517 269 517 210Q517 133 473 84Q429 35 356 12.50Q283-10 195-10Z"  horiz-adv-x="580" vert-adv-y="1000"  />

      
      <glyph glyph-name="uni34" unicode="&#x34;" d="M234 0L263 138L-5 138L20 263L392 714L568 714L477 282L550 282L520 138L447 138L418 0L234 0M191 282L293 282L317 377Q322 394 328 415.50Q334 437 339 455.50Q344 474 346 480L342 480Q333 464 317 438.50Q301 413 286 396L191 282Z"  horiz-adv-x="580" vert-adv-y="1000"  />

      
      <glyph glyph-name="uni35" unicode="&#x35;" d="M212-10Q176-10 136-5.50Q96-1 62.50 8Q29 17 10 31L10 189Q46 168 96 155Q146 142 188 142Q253 142 288 164.50Q323 187 323 236Q323 270 300.50 294.50Q278 319 232 319Q207 319 179 314.50Q151 310 133 303L73 348L178 714L575 714L542 556L312 556L283 466Q296 468 305 468Q314 468 320 468Q375 468 420 443.50Q465 419 491.50 372Q518 325 518 256Q518 166 480.50 107Q443 48 374 19Q305-10 212-10Z"  horiz-adv-x="580" vert-adv-y="1000"  />

      
      <glyph glyph-name="uni36" unicode="&#x36;" d="M272-10Q191-10 139.50 22.50Q88 55 63.50 113.50Q39 172 39 249Q39 318 55 390Q71 462 101.50 525Q132 588 176 628Q219 668 262 688.50Q305 709 356.50 716.50Q408 724 474 724Q502 724 531 720Q560 716 588 709L557 561Q538 566 513 569.50Q488 573 468 573Q391 573 345 554Q299 535 272.50 495.50Q246 456 226 394L230 394Q250 426 284.50 451.50Q319 477 380 477Q454 477 497 429.50Q540 382 540 281Q540 198 508.50 132Q477 66 417.50 28Q358-10 272-10M274 140Q299 140 315 158.50Q331 177 339.50 206Q348 235 348 266Q348 295 337 312Q326 329 303 329Q280 329 262 311Q244 293 234 263Q226 236 226 205Q226 173 239 156.50Q252 140 274 140Z"  horiz-adv-x="580" vert-adv-y="1000"  />

      
      <glyph glyph-name="uni37" unicode="&#x37;" d="M17 0L367 554L87 554L121 714L624 714L599 601L236 0L17 0Z"  horiz-adv-x="580" vert-adv-y="1000"  />

      
      <glyph glyph-name="uni38" unicode="&#x38;" d="M262-10Q184-10 131 14Q78 38 51 77.50Q24 117 24 165Q24 239 65.50 290Q107 341 186 369Q156 393 133 427.50Q110 462 110 520Q110 575 137.50 621.50Q165 668 219.50 696.50Q274 725 354 725Q456 725 510.50 678.50Q565 632 565 562Q565 505 530 454.50Q495 404 428 382Q473 348 496.50 305Q520 262 520 205Q520 104 451 47Q382-10 262-10M329 454Q361 466 376 491Q391 516 391 539Q391 563 377 575Q363 587 345 587Q322 587 304.50 568Q287 549 287 520Q287 501 298.50 482Q310 463 329 454M267 128Q299 128 321 147.50Q343 167 343 202Q343 231 327.50 255Q312 279 285 297Q250 278 226 251Q202 224 202 188Q202 158 222.50 143Q243 128 267 128Z"  horiz-adv-x="580" vert-adv-y="1000"  />

      
      <glyph glyph-name="uni39" unicode="&#x39;" d="M155-10Q124-10 99-6Q74-2 52 5L52 158Q76 148 99.50 143.50Q123 139 151 140Q243 145 294 188Q345 231 364 320L360 320Q341 289 308 262Q275 235 213 235Q138 235 95.50 289Q53 343 53 433Q53 510 81.50 576.50Q110 643 170 683.50Q230 724 323 724Q405 724 456 690.50Q507 657 531 599Q555 541 555 465Q555 397 541.50 327.50Q528 258 498 195.50Q468 133 418 86Q372 42 306.50 16Q241-10 155-10M290 385Q313 385 330.50 402Q348 419 358 446Q363 459 365.50 473Q368 487 368 503Q368 533 355.50 553.50Q343 574 320 574Q288 574 266.50 538.50Q245 503 245 455Q245 385 290 385Z"  horiz-adv-x="580" vert-adv-y="1000"  />

      
      <glyph glyph-name="uni3a" unicode="&#x3a;" d="M180 372Q142 372 118.50 390.50Q95 409 95 447Q95 506 130 533Q165 560 213 560Q253 560 277.50 541.50Q302 523 302 485Q302 420 269 396Q236 372 180 372M85-12Q47-12 23.50 6Q0 24 0 62Q0 121 35.50 148.50Q71 176 119 176Q158 176 182.50 157.50Q207 139 207 100Q207 36 174 12Q141-12 85-12Z"  horiz-adv-x="306" vert-adv-y="1000"  />

      
      <glyph glyph-name="uni3b" unicode="&#x3b;" d="M180 372Q142 372 118.50 390.50Q95 409 95 447Q95 506 130 533Q165 560 213 560Q253 560 277.50 541.50Q302 523 302 485Q302 420 269 396Q236 372 180 372M-57-129Q-31-70-7.50-3Q16 64 35 116L205 116L209 105Q186 52 152.50-11Q119-74 84-129L-57-129Z"  horiz-adv-x="306" vert-adv-y="1000"  />

      
      <glyph glyph-name="uni3c" unicode="&#x3c;" d="M539 87L45 306L45 390L539 637L539 492L236 354L539 231L539 87Z"  horiz-adv-x="586" vert-adv-y="1000"  />

      
      <glyph glyph-name="uni3d" unicode="&#x3d;" d="M45 398L45 529L541 529L541 398L45 398M45 175L45 307L541 307L541 175L45 175Z"  horiz-adv-x="586" vert-adv-y="1000"  />

      
      <glyph glyph-name="uni3e" unicode="&#x3e;" d="M45 231L348 354L45 492L45 637L539 390L539 306L45 87L45 231Z"  horiz-adv-x="586" vert-adv-y="1000"  />

      
      <glyph glyph-name="uni3f" unicode="&#x3f;" d="M122 252Q132 307 146.50 341Q161 375 187 400.50Q213 426 255 455Q304 487 319 504.50Q334 522 334 539Q334 554 325 563.50Q316 573 290 573Q263 573 223.50 560Q184 547 137 520L79 658Q126 686 183.50 705Q241 724 304 724Q403 724 460.50 680Q518 636 518 559Q518 504 498.50 468.50Q479 433 448.50 408.50Q418 384 383 363Q345 340 326.50 325Q308 310 299.50 294Q291 278 282 252L122 252M163-12Q111-12 91.50 11Q72 34 72 62Q72 110 101.50 143Q131 176 191 176Q233 176 256 156Q279 136 279 100Q279 44 246.50 16Q214-12 163-12Z"  horiz-adv-x="488" vert-adv-y="1000"  />

      
      <glyph glyph-name="uni40" unicode="&#x40;" d="M381-91Q280-91 203-51Q126-11 83 64Q40 139 40 244Q40 361 77 450.50Q114 540 178 601Q242 662 324.50 693Q407 724 498 724Q612 724 694.50 686.50Q777 649 821.50 577.50Q866 506 866 404Q866 320 832.50 251Q799 182 741 141.50Q683 101 609 101Q570 101 542.50 116Q515 131 502 164L497 164Q474 133 443 117Q412 101 366 101Q309 101 273 142Q237 183 237 250Q237 297 253 346.50Q269 396 302 438Q335 480 385.50 506Q436 532 504 532Q545 532 587 522.50Q629 513 668 498L619 296Q614 274 611 258.50Q608 243 608 229Q608 209 627 209Q654 209 679.50 229.50Q705 250 721.50 292.50Q738 335 738 401Q738 498 677 555Q616 612 486 612Q395 612 323 568Q251 524 209.50 444.50Q168 365 168 256Q168 177 198 125Q228 73 276 47Q324 21 379 21Q427 21 491 32.50Q555 44 613 67L613-43Q572-62 509-76.50Q446-91 381-91M411 209Q440 209 459.50 234Q479 259 496 326L519 419Q507 424 494 424Q463 424 440 407.50Q417 391 402 365.50Q387 340 380 312Q373 284 373 260Q373 209 411 209Z"  horiz-adv-x="897" vert-adv-y="1000"  />

      
      <glyph glyph-name="uni41" unicode="&#x41;" d="M-59 0L304 714L550 714L610 0L424 0L419 134L200 134L139 0L-59 0M270 286L413 286L406 491Q405 515 404.50 538.50Q404 562 405 583L402 583Q387 538 367 495L270 286Z"  horiz-adv-x="676" vert-adv-y="1000"  />

      
      <glyph glyph-name="uni42" unicode="&#x42;" d="M16 0L167 714L405 714Q520 714 570 670Q620 626 620 558Q620 485 582.50 440Q545 395 475 374L475 370Q518 356 543.50 320.50Q569 285 569 234Q569 151 530.50 99Q492 47 427.50 23.50Q363 0 283 0L16 0M335 440Q385 440 403.50 462Q422 484 422 518Q422 568 360 568L329 568L300 440L335 440M279 149Q323 149 350 173.50Q377 198 377 232Q377 266 361 282.50Q345 299 304 299L271 299L239 149L279 149Z"  horiz-adv-x="634" vert-adv-y="1000"  />

      
      <glyph glyph-name="uni43" unicode="&#x43;" d="M315-10Q226-10 167 25Q108 60 79.50 122.50Q51 185 51 268Q51 332 65 397Q79 462 107.50 521Q136 580 181 626Q226 672 288 698.50Q350 725 430 725Q501 725 558 708Q615 691 665 661L593 512Q547 539 509 552.50Q471 566 430 566Q387 566 352.50 542Q318 518 293.50 477Q269 436 256.50 384.50Q244 333 244 278Q244 213 271.50 180.50Q299 148 350 148Q394 148 435.50 159Q477 170 530 192L530 34Q478 11 424.50 0.50Q371-10 315-10Z"  horiz-adv-x="630" vert-adv-y="1000"  />

      
      <glyph glyph-name="uni44" unicode="&#x44;" d="M16 0L167 714L370 714Q501 714 577 645Q653 576 653 444Q653 306 604.50 206.50Q556 107 465 53.50Q374 0 246 0L16 0M275 158Q330 158 371.50 192.50Q413 227 436.50 289.50Q460 352 460 434Q460 495 433.50 526.50Q407 558 360 558L325 558L241 158L275 158Z"  horiz-adv-x="684" vert-adv-y="1000"  />

      
      <glyph glyph-name="uni45" unicode="&#x45;" d="M16 0L167 714L591 714L559 559L326 559L303 447L520 447L485 292L268 292L240 157L473 157L440 0L16 0Z"  horiz-adv-x="562" vert-adv-y="1000"  />

      
      <glyph glyph-name="uni46" unicode="&#x46;" d="M16 0L167 714L588 714L555 559L325 559L297 423L510 423L476 267L262 267L207 0L16 0Z"  horiz-adv-x="569" vert-adv-y="1000"  />

      
      <glyph glyph-name="uni47" unicode="&#x47;" d="M319-10Q198-10 124.50 61.50Q51 133 51 275Q51 361 76.50 441.50Q102 522 153.50 586Q205 650 284 687.50Q363 725 469 725Q531 725 588 712Q645 699 688 673L616 522Q585 540 547.50 553Q510 566 467 566Q404 566 361.50 537Q319 508 293 463.50Q267 419 255.50 369.50Q244 320 244 278Q244 211 270.50 180Q297 149 346 149Q366 149 379 150.50Q392 152 411 156L436 269L324 269L357 418L655 418L573 30Q522 14 460.50 2Q399-10 319-10Z"  horiz-adv-x="698" vert-adv-y="1000"  />

      
      <glyph glyph-name="uni48" unicode="&#x48;" d="M16 0L167 714L358 714L303 449L473 449L528 714L719 714L568 0L377 0L438 291L269 291L207 0L16 0Z"  horiz-adv-x="714" vert-adv-y="1000"  />

      
      <glyph glyph-name="uni49" unicode="&#x49;" d="M-36 0L-13 109L81 148L169 562L91 604L114 714L481 714L458 604L360 562L272 148L351 109L328 0L-36 0Z"  horiz-adv-x="426" vert-adv-y="1000"  />

      
      <glyph glyph-name="uni4a" unicode="&#x4a;" d="M-56-225Q-81-225-109-221Q-137-217-160-211L-160-55Q-142-59-121.50-63Q-101-67-75-67Q-29-67 0-42Q29-17 45 57L186 714L377 714L231 33Q211-61 177-117.50Q143-174 86.50-199.50Q30-225-56-225Z"  horiz-adv-x="373" vert-adv-y="1000"  />

      
      <glyph glyph-name="uni4b" unicode="&#x4b;" d="M16 0L167 714L358 714L292 409L363 509L519 714L743 714L474 385L606 0L392 0L307 282L260 255L207 0L16 0Z"  horiz-adv-x="669" vert-adv-y="1000"  />

      
      <glyph glyph-name="uni4c" unicode="&#x4c;" d="M16 0L167 714L358 714L240 156L473 156L440 0L16 0Z"  horiz-adv-x="527" vert-adv-y="1000"  />

      
      <glyph glyph-name="uni4d" unicode="&#x4d;" d="M16 0L167 714L420 714L420 207L424 207L657 714L914 714L761 0L590 0L647 268Q663 343 675 390.50Q687 438 695.50 467Q704 496 707 512L703 512L468 0L287 0L287 512L283 512Q271 436 261 373Q251 310 241 262L186 0L16 0Z"  horiz-adv-x="909" vert-adv-y="1000"  />

      
      <glyph glyph-name="uni4e" unicode="&#x4e;" d="M16 0L167 714L389 714L529 234L533 234Q536 256 540.50 289Q545 322 550.50 356Q556 390 561 415L625 714L795 714L644 0L422 0L281 502L277 502Q276 492 273.50 468.50Q271 445 267.50 414.50Q264 384 259 353Q254 322 249 298L186 0L16 0Z"  horiz-adv-x="790" vert-adv-y="1000"  />

      
      <glyph glyph-name="uni4f" unicode="&#x4f;" d="M325-10Q189-10 120 65.50Q51 141 51 265Q51 348 74.50 429.50Q98 511 145.50 578Q193 645 266 685Q339 725 438 725Q570 725 638 650Q706 575 706 450Q706 367 683.50 285.50Q661 204 614 137Q567 70 495.50 30Q424-10 325-10M342 148Q390 148 429 189Q468 230 490.50 298Q513 366 513 448Q513 504 489.50 535.50Q466 567 422 567Q382 567 349 540.50Q316 514 292.50 470.50Q269 427 256.50 373.50Q244 320 244 266Q244 148 342 148Z"  horiz-adv-x="737" vert-adv-y="1000"  />

      
      <glyph glyph-name="uni50" unicode="&#x50;" d="M16 0L167 714L349 714Q444 714 501.50 685.50Q559 657 585 608.50Q611 560 611 500Q611 415 571.50 356Q532 297 461.50 267Q391 237 298 237L256 237L207 0L16 0M321 393Q366 393 393 422Q420 451 420 494Q420 519 404.50 538.50Q389 558 354 558L325 558L290 393L321 393Z"  horiz-adv-x="623" vert-adv-y="1000"  />

      
      <glyph glyph-name="uni51" unicode="&#x51;" d="M322-10L311-10Q227-10 169 24Q111 58 81 120Q51 182 51 265Q51 348 74.50 429.50Q98 511 145.50 578Q193 645 267 685Q341 725 441 725Q571 725 638.50 650Q706 575 706 450Q706 369 683.50 288.50Q661 208 615.50 142Q570 76 499 36L615-170L401-170L322-10M333 151Q386 151 426.50 192Q467 233 490 301Q513 369 513 449Q513 507 490 536Q467 565 425 565Q373 565 332 523.50Q291 482 267.50 413.50Q244 345 244 263Q244 208 267.50 179.50Q291 151 333 151Z"  horiz-adv-x="737" vert-adv-y="1000"  />

      
      <glyph glyph-name="uni52" unicode="&#x52;" d="M16 0L167 714L356 714Q479 714 544.50 665Q610 616 610 518Q610 453 588.50 409Q567 365 535 339Q503 313 472 299L601 0L393 0L298 260L262 260L207 0L16 0M318 405Q356 405 387.50 428Q419 451 419 506Q419 532 404.50 550Q390 568 353 568L327 568L293 405L318 405Z"  horiz-adv-x="650" vert-adv-y="1000"  />

      
      <glyph glyph-name="uni53" unicode="&#x53;" d="M205-10Q152-10 104 2.50Q56 15 21 37L21 208Q60 184 113 165.50Q166 147 211 147Q284 147 284 205Q284 232 260.50 254Q237 276 204 303Q155 344 125 390.50Q95 437 95 502Q95 567 127 617Q159 667 216 695.50Q273 724 348 724Q406 724 460 710.50Q514 697 558 672L492 527Q458 544 420.50 557Q383 570 350 570Q310 570 297.50 551.50Q285 533 285 516Q285 494 301 472.50Q317 451 364 416Q423 372 450 325.50Q477 279 477 219Q477 113 406.50 51.50Q336-10 205-10Z"  horiz-adv-x="548" vert-adv-y="1000"  />

      
      <glyph glyph-name="uni54" unicode="&#x54;" d="M115 0L231 556L76 556L110 714L612 714L577 556L422 556L306 0L115 0Z"  horiz-adv-x="552" vert-adv-y="1000"  />

      
      <glyph glyph-name="uni55" unicode="&#x55;" d="M298-10Q224-10 170.50 17Q117 44 89 90.50Q61 137 61 197Q61 212 62.50 229.50Q64 247 67 263L164 714L355 714L260 268Q257 254 255 239.50Q253 225 253 212Q253 183 269 166.50Q285 150 316 150Q359 150 384 179Q409 208 424 278L517 714L708 714L611 259Q593 172 556 112Q519 52 456.50 21Q394-10 298-10Z"  horiz-adv-x="701" vert-adv-y="1000"  />

      
      <glyph glyph-name="uni56" unicode="&#x56;" d="M124 0L73 714L260 714L272 354Q273 328 272.50 293.50Q272 259 270.50 226Q269 193 265 173L269 173Q278 212 293 255.50Q308 299 318 321L489 714L691 714L337 0L124 0Z"  horiz-adv-x="617" vert-adv-y="1000"  />

      
      <glyph glyph-name="uni57" unicode="&#x57;" d="M98 0L74 714L255 714L250 356Q249 313 247 267Q245 221 241 188L245 188Q256 221 271.50 261Q287 301 303 337L467 714L631 714L631 327Q631 311 630.50 285Q630 259 629 231.50Q628 204 626 180L630 180Q638 206 649 240Q660 274 672.50 309Q685 344 696 372L831 714L1020 714L710 0L485 0L485 274Q485 312 486.50 354.50Q488 397 491 437L487 437Q472 391 455.50 347Q439 303 420 259L310 0L98 0Z"  horiz-adv-x="935" vert-adv-y="1000"  />

      
      <glyph glyph-name="uni58" unicode="&#x58;" d="M-61 0L214 379L105 714L308 714L368 485L519 714L738 714L475 360L603 0L392 0L321 243L156 0L-61 0Z"  horiz-adv-x="663" vert-adv-y="1000"  />

      
      <glyph glyph-name="uni59" unicode="&#x59;" d="M137 0L196 277L80 714L277 714L321 449L473 714L686 714L387 277L328 0L137 0Z"  horiz-adv-x="604" vert-adv-y="1000"  />

      
      <glyph glyph-name="uni5a" unicode="&#x5a;" d="M-45 0L-22 118L315 558L81 558L114 714L595 714L570 594L228 156L493 156L460 0L-45 0Z"  horiz-adv-x="539" vert-adv-y="1000"  />

      
      <glyph glyph-name="uni5b" unicode="&#x5b;" d="M-26-168L166 734L425 734L398 610L293 610L154-44L259-44L233-168L-26-168Z"  horiz-adv-x="360" vert-adv-y="1000"  />

      
      <glyph glyph-name="uni5c" unicode="&#x5c;" d="M224-10L108 724L259 724L380-10L224-10Z"  horiz-adv-x="467" vert-adv-y="1000"  />

      
      <glyph glyph-name="uni5d" unicode="&#x5d;" d="M-65-168L-39-44L65-44L204 610L99 610L126 734L384 734L192-168L-65-168Z"  horiz-adv-x="360" vert-adv-y="1000"  />

      
      <glyph glyph-name="uni5e" unicode="&#x5e;" d="M-3 245L305 714L389 714L528 245L394 245L318 523L142 245L-3 245Z"  horiz-adv-x="535" vert-adv-y="1000"  />

      
      <glyph glyph-name="uni5f" unicode="&#x5f;" d="M-90-185L-62-65L392-65L364-185L-90-185Z"  horiz-adv-x="450" vert-adv-y="1000"  />

      
      <glyph glyph-name="uni60" unicode="&#x60;" d="M268 606Q235 637 198.50 678Q162 719 144 756L144 766L337 766Q343 734 354.50 695Q366 656 383 618L383 606L268 606Z"  horiz-adv-x="353" vert-adv-y="1000"  />

      
      <glyph glyph-name="uni61" unicode="&#x61;" d="M198-10Q156-10 120 10Q84 30 62.50 76Q41 122 41 201Q41 241 50.50 290Q60 339 79 387Q98 435 127.50 475Q157 515 197 539Q237 563 287 563Q334 563 364.50 541.50Q395 520 415 485L419 485L445 553L596 553L479 0L328 0L333 60L329 60Q307 29 277 9.50Q247-10 198-10M276 142Q298 142 315.50 161.50Q333 181 346 212.50Q359 244 365 280Q367 295 369 310.50Q371 326 371 341Q371 373 361 392Q351 411 331 411Q305 411 283 381Q261 351 247.50 305.50Q234 260 234 212Q234 142 276 142Z"  horiz-adv-x="607" vert-adv-y="1000"  />

      
      <glyph glyph-name="uni62" unicode="&#x62;" d="M321-10Q279-10 248.50 6.50Q218 23 189 61L185 61L161 0L11 0L172 760L361 760L337 647Q328 601 315 561Q302 521 293 500L297 500Q317 524 340 543.50Q363 563 409 563Q452 563 487.50 543Q523 523 544.50 477Q566 431 566 352Q566 312 556.50 263Q547 214 528 166Q509 118 480 78Q451 38 411 14Q371-10 321-10M275 142Q301 142 323.50 172Q346 202 359.50 248Q373 294 373 341Q373 411 331 411Q309 411 291.50 392Q274 373 262 342.50Q250 312 243.50 277.50Q237 243 237 212Q237 181 246.50 161.50Q256 142 275 142Z"  horiz-adv-x="607" vert-adv-y="1000"  />

      
      <glyph glyph-name="uni63" unicode="&#x63;" d="M247-10Q191-10 144 13Q97 36 69 86Q41 136 41 216Q41 314 77.50 392.50Q114 471 180.50 517Q247 563 337 563Q389 563 431.50 553.50Q474 544 516 524L456 384Q431 395 402 404Q373 413 346 413Q317 413 295 394.50Q273 376 259 347.50Q245 319 238 287Q231 255 231 228Q231 179 247.50 160.50Q264 142 292 142Q327 142 360 153.50Q393 165 430 184L430 34Q391 13 348 1.50Q305-10 247-10Z"  horiz-adv-x="504" vert-adv-y="1000"  />

      
      <glyph glyph-name="uni64" unicode="&#x64;" d="M198-10Q156-10 120 10Q84 30 62.50 76Q41 122 41 201Q41 241 50.50 290Q60 339 79 387Q98 435 127 475Q156 515 196 539Q236 563 286 563Q331 563 355.50 543Q380 523 402 489L406 489Q406 495 407 516Q408 537 411 563.50Q414 590 419 613L449 760L640 760L479 0L328 0L333 60L329 60Q309 32 280 11Q251-10 198-10M276 142Q298 142 315.50 161.50Q333 181 345.50 211.50Q358 242 364.50 276.50Q371 311 371 341Q371 373 361.50 392Q352 411 332 411Q306 411 283.50 381Q261 351 247.50 305.50Q234 260 234 212Q234 142 276 142Z"  horiz-adv-x="604" vert-adv-y="1000"  />

      
      <glyph glyph-name="uni65" unicode="&#x65;" d="M260-10Q155-10 98 48.50Q41 107 41 209Q41 277 60.50 340.50Q80 404 119 454Q158 504 217.50 533.50Q277 563 358 563Q451 563 504 521Q557 479 557 409Q557 318 486 262Q415 206 260 206L231 206L231 198Q231 126 311 126Q353 126 390.50 139Q428 152 471 174L471 40Q427 18 379.50 4Q332-10 260-10M264 324Q328 324 353 348.50Q378 373 378 398Q378 414 368 424.50Q358 435 337 435Q315 435 296.50 418Q278 401 266 375.50Q254 350 250 324L264 324Z"  horiz-adv-x="579" vert-adv-y="1000"  />

      
      <glyph glyph-name="uni66" unicode="&#x66;" d="M-1-240Q-27-240-56-236Q-85-232-102-227L-102-79Q-88-83-73-85.50Q-58-88-45-88Q-9-88 9.50-73Q28-58 35-27L128 411L47 411L68 504L160 551L168 587Q189 681 239.50 723Q290 765 374 765Q413 765 450 757.50Q487 750 512 737L464 608Q450 615 433.50 619Q417 623 401 623Q364 623 356 588L348 553L451 553L419 411L317 411L217-57Q206-110 180.50-151.50Q155-193 111-216.50Q67-240-1-240Z"  horiz-adv-x="410" vert-adv-y="1000"  />

      
      <glyph glyph-name="uni67" unicode="&#x67;" d="M191-240Q130-240 89-231Q48-222 13-209L13-54Q51-74 95-85Q139-96 186-96Q232-96 258.50-74Q285-52 294-18L299 4Q304 27 312 54L308 54Q289 29 261.50 12Q234-5 187-5Q146-5 112.50 14.50Q79 34 60 78.50Q41 123 41 199Q41 240 50.50 289Q60 338 79 386Q98 434 127 474.50Q156 515 196 539Q236 563 286 563Q333 563 360.50 544.50Q388 526 415 485L419 485L445 553L596 553L476-13Q458-99 416-148.50Q374-198 316.50-219Q259-240 191-240M276 142Q298 142 315.50 161.50Q333 181 345.50 211.50Q358 242 364.50 276.50Q371 311 371 341Q371 373 361.50 392Q352 411 332 411Q306 411 283.50 381Q261 351 247.50 305.50Q234 260 234 212Q234 142 276 142Z"  horiz-adv-x="607" vert-adv-y="1000"  />

      
      <glyph glyph-name="uni68" unicode="&#x68;" d="M11 0L172 760L361 760L335 638Q328 603 315.50 564.50Q303 526 292 500L296 500Q322 533 355 548Q388 563 429 563Q481 563 513 541.50Q545 520 560 484.50Q575 449 575 406Q575 378 571.50 349Q568 320 563 294L501 0L312 0L375 302Q378 315 381 334.50Q384 354 384 371Q384 392 373 402.50Q362 413 347 413Q319 413 296 380Q273 347 257 270L200 0L11 0Z"  horiz-adv-x="622" vert-adv-y="1000"  />

      
      <glyph glyph-name="uni69" unicode="&#x69;" d="M244 606Q204 606 177.50 621.50Q151 637 151 675Q151 725 180 751Q209 777 261 777Q299 777 326.50 761.50Q354 746 354 708Q354 662 327 634Q300 606 244 606M11 0L128 553L318 553L200 0L11 0Z"  horiz-adv-x="325" vert-adv-y="1000"  />

      
      <glyph glyph-name="uni6a" unicode="&#x6a;" d="M248 606Q208 606 181.50 621.50Q155 637 155 675Q155 725 184 751Q213 777 265 777Q303 777 330.50 761.50Q358 746 358 708Q358 662 331 634Q304 606 248 606M-28-240Q-54-240-83-236Q-112-232-129-227L-129-79Q-111-85-99-86.50Q-87-88-74-88Q-44-88-20.50-71.50Q3-55 11-16L132 553L321 553L194-46Q184-96 158.50-140.50Q133-185 87.50-212.50Q42-240-28-240Z"  horiz-adv-x="325" vert-adv-y="1000"  />

      
      <glyph glyph-name="uni6b" unicode="&#x6b;" d="M11 0L170 760L359 760L291 436Q285 409 275.50 376Q266 343 260 326L264 326L455 553L671 553L431 303L565 0L351 0L283 191L234 165L200 0L11 0Z"  horiz-adv-x="617" vert-adv-y="1000"  />

      
      <glyph glyph-name="uni6c" unicode="&#x6c;" d="M11 0L172 760L361 760L200 0L11 0Z"  horiz-adv-x="325" vert-adv-y="1000"  />

      
      <glyph glyph-name="uni6d" unicode="&#x6d;" d="M11 0L128 553L279 553L271 462L275 462Q304 517 341 540Q378 563 435 563Q492 563 523 537Q554 511 567 462L571 462Q632 563 739 563Q807 563 843 521.50Q879 480 879 400Q879 355 868 300L807 0L618 0L681 308Q683 318 685.50 335Q688 352 688 373Q688 413 654 413Q618 413 595.50 376Q573 339 558 265L504 0L315 0L379 308Q381 319 383.50 337Q386 355 386 367Q386 392 376 402.50Q366 413 351 413Q323 413 300 384Q277 355 258 269L200 0L11 0Z"  horiz-adv-x="926" vert-adv-y="1000"  />

      
      <glyph glyph-name="uni6e" unicode="&#x6e;" d="M11 0L128 553L279 553L273 476L277 476Q304 523 340.50 543Q377 563 429 563Q481 563 513 541.50Q545 520 560 484.50Q575 449 575 406Q575 378 571.50 349Q568 320 563 294L501 0L312 0L375 302Q378 315 381 334.50Q384 354 384 371Q384 392 373 402.50Q362 413 347 413Q319 413 295.50 378.50Q272 344 257 270L200 0L11 0Z"  horiz-adv-x="622" vert-adv-y="1000"  />

      
      <glyph glyph-name="uni6f" unicode="&#x6f;" d="M254-10Q152-10 96.50 45.50Q41 101 41 203Q41 274 61 338.50Q81 403 120 453.50Q159 504 217.50 533.50Q276 563 353 563Q455 563 510.50 507.50Q566 452 566 350Q566 279 546 214.50Q526 150 487 99.50Q448 49 389.50 19.50Q331-10 254-10M275 132Q303 132 325 165.50Q347 199 360 250.50Q373 302 373 356Q373 421 331 421Q303 421 281 387.50Q259 354 246.50 303Q234 252 234 197Q234 132 275 132Z"  horiz-adv-x="607" vert-adv-y="1000"  />

      
      <glyph glyph-name="uni70" unicode="&#x70;" d="M-40-240L128 553L279 553L273 491L277 491Q300 526 330.50 544.50Q361 563 403 563Q477 563 521.50 510Q566 457 566 359Q566 290 548.50 224.50Q531 159 499 106Q467 53 421 21.50Q375-10 318-10Q281-10 253 9.50Q225 29 205 61L201 61Q198 22 193-16.50Q188-55 174-120L149-240L-40-240M280 142Q306 142 327 172Q348 202 360.50 248Q373 294 373 341Q373 411 331 411Q309 411 292 392Q275 373 262.50 343Q250 313 243.50 278.50Q237 244 237 212Q237 181 248.50 161.50Q260 142 280 142Z"  horiz-adv-x="607" vert-adv-y="1000"  />

      
      <glyph glyph-name="uni71" unicode="&#x71;" d="M270-97Q281-51 293.50-9.50Q306 32 314 54L310 54Q291 28 263.50 9Q236-10 189-10Q153-10 119 11Q85 32 63 77.50Q41 123 41 199Q41 240 50.50 289Q60 338 79 386Q98 434 127 474.50Q156 515 196 539Q236 563 286 563Q333 563 360.50 544.50Q388 526 415 485L419 485L445 553L596 553L428-240L237-240L270-97M276 142Q298 142 315.50 161.50Q333 181 345.50 211.50Q358 242 364.50 276.50Q371 311 371 341Q371 373 361.50 392Q352 411 332 411Q306 411 283.50 381Q261 351 247.50 305.50Q234 260 234 212Q234 142 276 142Z"  horiz-adv-x="607" vert-adv-y="1000"  />

      
      <glyph glyph-name="uni72" unicode="&#x72;" d="M11 0L128 553L279 553L270 461L274 461Q309 520 346.50 541.50Q384 563 440 563Q451 563 463 562Q475 561 479 559L438 372Q428 377 412 380Q396 383 378 383Q334 383 301.50 353Q269 323 252 243L200 0L11 0Z"  horiz-adv-x="437" vert-adv-y="1000"  />

      
      <glyph glyph-name="uni73" unicode="&#x73;" d="M189-10Q134-10 90.50-2Q47 6 15 21L15 173Q60 148 98.50 138.50Q137 129 177 129Q189 129 204.50 131.50Q220 134 231.50 141Q243 148 243 163Q243 174 238 183Q233 192 217 204Q201 216 167 234Q115 263 91.50 299.50Q68 336 68 388Q68 466 123.50 514.50Q179 563 295 563Q349 563 394.50 550Q440 537 482 511L423 388Q395 406 360.50 420Q326 434 297 434Q260 434 260 401Q260 387 275.50 376Q291 365 325 348Q435 294 435 192Q435 89 368.50 39.50Q302-10 189-10Z"  horiz-adv-x="502" vert-adv-y="1000"  />

      
      <glyph glyph-name="uni74" unicode="&#x74;" d="M200-10Q128-10 90.50 21.50Q53 53 53 123Q53 143 57 169Q61 195 65 215L106 411L31 411L51 504L157 547L224 664L350 664L326 553L467 553L436 411L295 411L254 224Q251 210 248.50 195.50Q246 181 246 173Q246 157 255 149.50Q264 142 277 142Q296 142 319 148.50Q342 155 366 165L366 23Q335 8 294.50-1Q254-10 200-10Z"  horiz-adv-x="457" vert-adv-y="1000"  />

      
      <glyph glyph-name="uni75" unicode="&#x75;" d="M193-10Q142-10 109.50 11.50Q77 33 62 69Q47 105 47 147Q47 175 50.50 204Q54 233 59 259L121 553L310 553L247 252Q244 239 241 219.50Q238 200 238 183Q238 162 249 151.50Q260 141 275 141Q300 141 324.50 175.50Q349 210 365 284L422 553L611 553L494 0L343 0L349 77L345 77Q318 31 282 10.50Q246-10 193-10Z"  horiz-adv-x="622" vert-adv-y="1000"  />

      
      <glyph glyph-name="uni76" unicode="&#x76;" d="M114 0L43 553L231 553L241 275Q242 256 242 236.50Q242 217 240 201L244 201Q248 215 255.50 234.50Q263 254 269 267L400 553L602 553L303 0L114 0Z"  horiz-adv-x="544" vert-adv-y="1000"  />

      
      <glyph glyph-name="uni77" unicode="&#x77;" d="M82 0L50 553L228 553L228 283Q228 256 226 228Q224 200 222 177L226 177Q232 201 240 225.50Q248 250 255 271L361 553L560 553L546 281Q545 266 544 238Q543 210 539 177L543 177Q552 207 560.50 231.50Q569 256 580 284L691 553L879 553L616 0L410 0L417 219Q419 257 422 308.50Q425 360 429 400L425 400Q415 359 399 313Q383 267 372 237L281 0L82 0Z"  horiz-adv-x="823" vert-adv-y="1000"  />

      
      <glyph glyph-name="uni78" unicode="&#x78;" d="M-58 0L173 282L72 553L278 553L315 400L406 553L630 553L403 272L514 0L305 0L266 160L163 0L-58 0Z"  horiz-adv-x="566" vert-adv-y="1000"  />

      
      <glyph glyph-name="uni79" unicode="&#x79;" d="M12-240Q-16-240-34-237.50Q-52-235-63-232L-63-82Q-54-84-40-86Q-26-88-10-88Q34-88 60.50-69.50Q87-51 108-14L119 6L40 553L230 553L249 299Q251 274 251 251Q251 228 250 206L254 206Q261 229 271 256Q281 283 288 301L397 553L600 553L273-70Q228-156 167.50-198Q107-240 12-240Z"  horiz-adv-x="544" vert-adv-y="1000"  />

      
      <glyph glyph-name="uni7a" unicode="&#x7a;" d="M-20 0L1 108L246 407L76 407L109 553L505 553L479 435L237 146L424 146L392 0L-20 0Z"  horiz-adv-x="485" vert-adv-y="1000"  />

      
      <glyph glyph-name="uni7b" unicode="&#x7b;" d="M226-158Q130-158 90-122Q50-86 50-23Q50 8 57 39L75 124Q78 136 78 145Q78 177 60 194.50Q42 212-8 212L18 352Q78 352 104.50 371.50Q131 391 141 436L168 556Q179 605 200.50 640.50Q222 676 262 695Q302 714 368 714L431 714L401 577Q365 576 344 564Q323 552 315 514L289 388Q277 332 240 308.50Q203 285 153 280L153 276Q197 262 216.50 233.50Q236 205 236 162Q236 153 234.50 143.50Q233 134 231 126L214 46Q211 31 211 22Q211-1 225.50-11Q240-21 266-21L266-158L226-158Z"  horiz-adv-x="359" vert-adv-y="1000"  />

      
      <glyph glyph-name="uni7c" unicode="&#x7c;" d="M216-227L216 756L348 756L348-227L216-227Z"  horiz-adv-x="566" vert-adv-y="1000"  />

      
      <glyph glyph-name="uni7d" unicode="&#x7d;" d="M-60-21Q-24-19-6-14Q12-9 20.50 4.50Q29 18 34 42L60 168Q72 224 108.50 247.50Q145 271 196 276L196 280Q153 294 133 322.50Q113 351 113 394Q113 403 115 412.50Q117 422 118 430L135 510Q138 525 138 534Q138 577 72 577L98 714L128 714Q192 714 229 695.50Q266 677 282.50 647Q299 617 299 580Q299 548 292 517L274 432Q271 420 271 411Q271 379 293 362Q315 345 365 345L337 205Q277 205 247.50 185Q218 165 208 120L181 0Q171-49 148-84.50Q125-120 84-139Q43-158-24-158L-60-158L-60-21Z"  horiz-adv-x="359" vert-adv-y="1000"  />

      
      <glyph glyph-name="uni7e" unicode="&#x7e;" d="M274 289Q237 305 209.50 310.50Q182 316 159 316Q130 316 100.50 299Q71 282 45 257L45 394Q71 420 102.50 433.50Q134 447 174 447Q203 447 232.50 441.50Q262 436 311 416Q348 400 376.50 394.50Q405 389 427 389Q455 389 485 406Q515 423 540 448L540 311Q489 258 411 258Q382 258 352.50 264Q323 270 274 289Z"  horiz-adv-x="586" vert-adv-y="1000"  />

      
      <glyph glyph-name="unia1" unicode="&#xa1;" d="M167 375Q125 375 102 395Q79 415 79 451Q79 507 111.50 535Q144 563 195 563Q247 563 266.50 540.50Q286 518 286 489Q286 441 256.50 408Q227 375 167 375M-53-165L71 297L231 297L155-165L-53-165Z"  horiz-adv-x="304" vert-adv-y="1000"  />

      
      <glyph glyph-name="unia2" unicode="&#xa2;" d="M207 92Q151 108 113 153Q75 198 75 286Q75 385 106 463.50Q137 542 193 591Q249 640 325 652L341 724L453 724L437 651Q471 646 497.50 637Q524 628 550 614L490 474Q459 489 434 496Q409 503 380 503Q351 503 329.50 484.50Q308 466 294 436.50Q280 407 273.50 372.50Q267 338 267 306Q267 268 282.50 251Q298 234 326 234Q361 234 394.50 246.50Q428 259 464 278L464 126Q430 108 394.50 97Q359 86 314 82L294-10L182-10L207 92Z"  horiz-adv-x="580" vert-adv-y="1000"  />

      
      <glyph glyph-name="unia3" unicode="&#xa3;" d="M22 153Q60 164 82 178Q104 192 116 214.50Q128 237 135 271L145 318L53 318L81 454L173 454L184 517Q199 601 231.50 645.50Q264 690 311 707Q358 724 415 724Q471 724 514 711.50Q557 699 597 682L527 536Q495 551 471.50 559Q448 567 423 567Q406 567 395.50 555Q385 543 378 510L366 454L489 454L461 318L338 318L328 272Q318 227 288 200.50Q258 174 229 161L524 161L489 0L-9 0L22 153Z"  horiz-adv-x="580" vert-adv-y="1000"  />

      
      <glyph glyph-name="unia4" unicode="&#xa4;" d="M383 173Q364 165 340.50 159Q317 153 293 153Q268 153 245 157.50Q222 162 202 172L142 114L53 203L115 263Q93 306 93 353Q93 378 99 401Q105 424 115 443L52 504L142 594L204 533Q224 542 248 548Q272 554 293 554Q340 554 383 531L444 594L536 507L473 444Q494 404 494 353Q494 328 489 306Q484 284 473 262L533 202L444 113L383 173M293 279Q325 279 347 300.50Q369 322 369 353Q369 385 347 406Q325 427 293 427Q262 427 241 406Q220 385 220 353Q220 322 241 300.50Q262 279 293 279Z"  horiz-adv-x="580" vert-adv-y="1000"  />

      
      <glyph glyph-name="unia5" unicode="&#xa5;" d="M128 0L148 93L37 93L58 193L169 193L181 256L71 256L93 356L180 356L89 714L277 714L312 476L455 714L647 714L408 356L498 356L476 256L367 256L354 193L463 193L442 93L333 93L313 0L128 0Z"  horiz-adv-x="580" vert-adv-y="1000"  />

      
      <glyph glyph-name="unia6" unicode="&#xa6;" d="M217 344L217 755L349 755L349 344L217 344M217-217L217 193L349 193L349-217L217-217Z"  horiz-adv-x="566" vert-adv-y="1000"  />

      
      <glyph glyph-name="unia7" unicode="&#xa7;" d="M184-12Q131-12 88 0.50Q45 13 18 34L18 156Q59 131 102.50 114Q146 97 193 97Q235 97 250.50 114.50Q266 132 266 148Q266 167 251 183Q236 199 200 218Q145 249 111 287Q77 325 77 379Q77 414 97 451Q117 488 164 516Q145 535 135 560Q125 585 125 610Q125 694 186 732Q247 770 347 770Q397 770 440 756.50Q483 743 523 720L474 611Q447 629 411.50 644.50Q376 660 331 660Q302 660 289.50 649Q277 638 277 624Q277 607 289 591.50Q301 576 350 553Q418 522 443.50 483.50Q469 445 469 401Q469 340 445 308Q421 276 387 257Q421 217 421 159Q421 79 360.50 33.50Q300-12 184-12M295 314Q309 324 320 339Q331 354 331 376Q331 427 256 459Q238 450 227 433Q216 416 216 399Q216 373 240 352.50Q264 332 295 314Z"  horiz-adv-x="506" vert-adv-y="1000"  />

      
      <glyph glyph-name="unia8" unicode="&#xa8;" d="M485 614Q449 614 425.50 626.50Q402 639 402 676Q402 724 428 745.50Q454 767 500 767Q530 767 556 755.50Q582 744 582 706Q582 665 561 639.50Q540 614 485 614M247 614Q211 614 187.50 626.50Q164 639 164 676Q164 724 190 745.50Q216 767 262 767Q282 767 301 762.50Q320 758 332.50 745Q345 732 345 706Q345 665 323.50 639.50Q302 614 247 614Z"  horiz-adv-x="554" vert-adv-y="1000"  />

      
      <glyph glyph-name="unia9" unicode="&#xa9;" d="M412-10Q332-10 265 17Q198 44 148.50 93.50Q99 143 72 210Q45 277 45 357Q45 437 72 504Q99 571 148.50 620.50Q198 670 265 697Q332 724 412 724Q492 724 559 697Q626 670 675.50 620.50Q725 571 752 504Q779 437 779 357Q779 277 752 210Q725 143 675.50 93.50Q626 44 559 17Q492-10 412-10M412 70Q494 70 556 106.50Q618 143 653.50 208Q689 273 689 357Q689 442 653.50 506.50Q618 571 556 607.50Q494 644 412 644Q330 644 267 607.50Q204 571 168.50 506.50Q133 442 133 357Q133 273 168.50 208Q204 143 267 106.50Q330 70 412 70M413 128Q305 128 250.50 191Q196 254 196 359Q196 461 249 523Q302 585 408 585Q453 585 491 575Q529 565 565 547L520 447Q495 461 470.50 467.50Q446 474 417 474Q378 474 355.50 444Q333 414 333 357Q333 295 354.50 267Q376 239 420 239Q452 239 484 247Q516 255 546 272L546 159Q515 143 483.50 135.50Q452 128 413 128Z"  horiz-adv-x="824" vert-adv-y="1000"  />

      
      <glyph glyph-name="uniaa" unicode="&#xaa;" d="M172 356Q151 356 126.50 368Q102 380 85 409Q68 438 68 489Q68 528 79 568.50Q90 609 111 643.50Q132 678 163.50 699Q195 720 236 720Q275 720 298 707Q321 694 340 672L344 672L362 714L459 714L376 362L281 362L285 404L281 404Q262 384 235.50 370Q209 356 172 356M235 445Q256 445 269.50 459Q283 473 291.50 494Q300 515 303.50 537Q307 559 307 575Q307 597 299 614Q291 631 272 631Q250 631 234 608.50Q218 586 209.50 554.50Q201 523 201 494Q201 471 210.50 458Q220 445 235 445Z"  horiz-adv-x="404" vert-adv-y="1000"  />

      
      <glyph glyph-name="uniab" unicode="&#xab;" d="M392 37L297 284L297 289L504 531L631 428L495 279L555 104L392 37M119 37L30 270L30 275L229 528L358 428L228 265L282 104L119 37Z"  horiz-adv-x="623" vert-adv-y="1000"  />

      
      <glyph glyph-name="uniac" unicode="&#xac;" d="M540 418L540 116L408 116L408 287L45 287L45 418L540 418Z"  horiz-adv-x="586" vert-adv-y="1000"  />

      
      <glyph glyph-name="uniad" unicode="&#xad;" d="M11 192L42 344L312 344L281 192L11 192Z"  horiz-adv-x="329" vert-adv-y="1000"  />

      
      <glyph glyph-name="uniae" unicode="&#xae;" d="M412-10Q332-10 265 17Q198 44 148.50 93.50Q99 143 72 210Q45 277 45 357Q45 437 72 504Q99 571 148.50 620.50Q198 670 265 697Q332 724 412 724Q492 724 559 697Q626 670 675.50 620.50Q725 571 752 504Q779 437 779 357Q779 277 752 210Q725 143 675.50 93.50Q626 44 559 17Q492-10 412-10M412 70Q494 70 556 106.50Q618 143 653.50 208Q689 273 689 357Q689 442 653.50 506.50Q618 571 556 607.50Q494 644 412 644Q330 644 267 607.50Q204 571 168.50 506.50Q133 442 133 357Q133 273 168.50 208Q204 143 267 106.50Q330 70 412 70M253 153L253 580L389 580Q493 580 537.50 545.50Q582 511 582 448Q582 397 562 370.50Q542 344 513 330L608 153L472 153L401 309L384 309L384 153L253 153M389 395Q418 395 434 405.50Q450 416 450 443Q450 469 434 477Q418 485 390 485L384 485L384 395L389 395Z"  horiz-adv-x="824" vert-adv-y="1000"  />

      
      <glyph glyph-name="uniaf" unicode="&#xaf;" d="M101 759L129 879L583 879L555 759L101 759Z"  horiz-adv-x="450" vert-adv-y="1000"  />

      
      <glyph glyph-name="unib0" unicode="&#xb0;" d="M211 366Q159 366 118 388.50Q77 411 54 451.50Q31 492 31 544Q31 596 54 636.50Q77 677 118 700.50Q159 724 211 724Q264 724 304.50 700.50Q345 677 368 636.50Q391 596 391 544Q391 492 368 451.50Q345 411 304.50 388.50Q264 366 211 366M211 482Q240 482 257.50 499Q275 516 275 544Q275 573 257.50 591Q240 609 211 609Q182 609 164.50 591Q147 573 147 544Q147 516 164.50 499Q182 482 211 482Z"  horiz-adv-x="422" vert-adv-y="1000"  />

      
      <glyph glyph-name="unib1" unicode="&#xb1;" d="M358 461L540 461L540 330L358 330L358 154L227 154L227 330L45 330L45 461L227 461L227 640L358 640L358 461M45 0L45 131L540 131L540 0L45 0Z"  horiz-adv-x="586" vert-adv-y="1000"  />

      
      <glyph glyph-name="unib2" unicode="&#xb2;" d="M61 415L82 515L217 618Q267 656 286 677Q305 698 305 715Q305 729 296 734.50Q287 740 274 740Q257 740 232.50 731Q208 722 182 701L124 794Q164 824 206.50 839Q249 854 314 854Q376 854 419 825.50Q462 797 462 748Q462 694 425 653.50Q388 613 312 564L274 540L430 540L405 415L61 415Z"  horiz-adv-x="414" vert-adv-y="1000"  />

      
      <glyph glyph-name="unib3" unicode="&#xb3;" d="M236 409Q184 409 149 417Q114 425 84 443L84 553Q115 532 148.50 522.50Q182 513 209 513Q283 513 283 552Q283 564 272 574.50Q261 585 228 585L169 585L190 680L237 680Q272 680 293 690.50Q314 701 314 723Q314 737 303.50 744Q293 751 277 751Q258 751 238.50 745Q219 739 187 719L138 808Q177 832 215 843Q253 854 305 854Q366 854 409.50 828.50Q453 803 453 752Q453 701 421.50 676.50Q390 652 340 640L340 636Q385 625 403 602Q421 579 421 547Q421 491 373.50 450Q326 409 236 409Z"  horiz-adv-x="414" vert-adv-y="1000"  />

      
      <glyph glyph-name="unib4" unicode="&#xb4;" d="M112 617Q147 646 184.50 688Q222 730 250 766L464 766L464 759Q453 746 427.50 725Q402 704 370 681.50Q338 659 306 638.50Q274 618 251 606L112 606L112 617Z"  horiz-adv-x="401" vert-adv-y="1000"  />

      
      <glyph glyph-name="uni03BC" unicode="&#x03BC;" d="M-40-240L128 553L317 553L254 252Q251 239 248 219.50Q245 200 245 183Q245 162 256 151.50Q267 141 282 141Q306 141 321.50 153.50Q337 166 349 197.50Q361 229 372 284L429 553L618 553L501 0L360 0L363 60L359 60Q326-10 266-10Q217-10 202 28L198 28Q195-11 189-46Q183-81 175-120L149-240L-40-240Z"  horiz-adv-x="629" vert-adv-y="1000"  />

      
      <glyph glyph-name="unib6" unicode="&#xb6;" d="M316 273Q301 269 288.50 266.50Q276 264 255 264Q193 264 147 287Q101 310 75.50 364Q50 418 50 509Q50 605 77.50 659.50Q105 714 155 737Q205 760 270 760L579 760L579-127L486-127L486 648L409 648L409-127L316-127L316 273Z"  horiz-adv-x="643" vert-adv-y="1000"  />

      
      <glyph glyph-name="unib7" unicode="&#xb7;" d="M141 260Q103 260 79.50 278Q56 296 56 334Q56 393 91.50 420.50Q127 448 175 448Q214 448 238.50 429.50Q263 411 263 372Q263 308 230 284Q197 260 141 260Z"  horiz-adv-x="306" vert-adv-y="1000"  />

      
      <glyph glyph-name="unib8" unicode="&#xb8;" d="M-14-240Q-44-240-67-236.50Q-90-233-108-226L-108-126Q-91-131-67-135Q-43-139-34-139Q-1-139-1-115Q-1-101-14-88Q-27-75-72-66L-35 0L65 0L53-20Q91-28 115.50-49.50Q140-71 140-115Q140-174 100-207Q60-240-14-240Z"  horiz-adv-x="187" vert-adv-y="1000"  />

      
      <glyph glyph-name="unib9" unicode="&#xb9;" d="M218 593Q226 628 233.50 654.50Q241 681 245 694Q235 686 223.50 676.50Q212 667 209 665L151 627L93 717L301 844L424 844L333 415L178 415L218 593Z"  horiz-adv-x="414" vert-adv-y="1000"  />

      
      <glyph glyph-name="uniba" unicode="&#xba;" d="M227 355Q157 355 116.50 393Q76 431 76 500Q76 558 98.50 608.50Q121 659 167.50 690.50Q214 722 285 722Q353 722 394 683.50Q435 645 435 571Q435 516 413 466.50Q391 417 345.50 386Q300 355 227 355M239 455Q261 455 275 474Q289 493 296 520.50Q303 548 303 574Q303 596 296 609Q289 622 273 622Q251 622 237 601Q223 580 216 552Q209 524 209 502Q209 477 217 466Q225 455 239 455Z"  horiz-adv-x="399" vert-adv-y="1000"  />

      
      <glyph glyph-name="unibb" unicode="&#xbb;" d="M394 21L265 121L395 284L341 445L504 512L593 279L593 274L394 21M119 17L-7 121L128 270L69 445L231 512L326 265L326 260L119 17Z"  horiz-adv-x="623" vert-adv-y="1000"  />

      
      <glyph glyph-name="unibc" unicode="&#xbc;" d="M150 0L682 714L824 714L295 0L150 0M209 463Q217 498 224.50 524.50Q232 551 236 564Q226 556 214.50 546.50Q203 537 200 535L142 497L84 587L292 714L415 714L324 285L169 285L209 463M665 0L678 60L484 60L499 147L738 429L897 429L839 157L894 157L874 60L819 60L806 0L665 0M619 157L698 157L718 234Q723 254 730 278.50Q737 303 741 312Q733 299 716.50 278Q700 257 689 244L619 157Z"  horiz-adv-x="932" vert-adv-y="1000"  />

      
      <glyph glyph-name="unibd" unicode="&#xbd;" d="M143 0L675 714L817 714L288 0L143 0M209 464Q217 499 224.50 525.50Q232 552 236 565Q226 557 214.50 547.50Q203 538 200 536L142 498L84 588L292 715L415 715L324 286L169 286L209 464M536 0L557 100L692 203Q742 241 761 262Q780 283 780 300Q780 314 771 319.50Q762 325 749 325Q732 325 707.50 316Q683 307 657 286L599 379Q639 409 681.50 424Q724 439 789 439Q851 439 894 410.50Q937 382 937 333Q937 279 900 238.50Q863 198 787 149L749 125L905 125L880 0L536 0Z"  horiz-adv-x="977" vert-adv-y="1000"  />

      
      <glyph glyph-name="unibe" unicode="&#xbe;" d="M211 279Q159 279 124 287Q89 295 59 313L59 423Q90 402 123.50 392.50Q157 383 184 383Q258 383 258 422Q258 434 247 444.50Q236 455 203 455L144 455L165 550L212 550Q247 550 268 560.50Q289 571 289 593Q289 607 278.50 614Q268 621 252 621Q233 621 213.50 615Q194 609 162 589L113 678Q152 702 190 713Q228 724 280 724Q341 724 384.50 698.50Q428 673 428 622Q428 571 396.50 546.50Q365 522 315 510L315 506Q360 495 378 472Q396 449 396 417Q396 361 348.50 320Q301 279 211 279M176 0L708 714L850 714L321 0L176 0M687 0L700 60L506 60L521 147L760 429L919 429L861 157L916 157L896 60L841 60L828 0L687 0M641 157L720 157L740 234Q745 254 752 278.50Q759 303 763 312Q755 299 738.50 278Q722 257 711 244L641 157Z"  horiz-adv-x="954" vert-adv-y="1000"  />

      
      <glyph glyph-name="unibf" unicode="&#xbf;" d="M363 301Q353 246 338.50 212Q324 178 298 152.50Q272 127 230 98Q181 66 166 48.50Q151 31 151 14Q151-1 160-10.50Q169-20 195-20Q222-20 261.50-7Q301 6 348 33L406-105Q359-133 301.50-152Q244-171 181-171Q82-171 24.50-127Q-33-83-33-6Q-33 49-13.50 84.50Q6 120 36.50 144.50Q67 169 102 190Q140 213 158.50 228Q177 243 185.50 259Q194 275 203 301L363 301M322 565Q374 565 393.50 542Q413 519 413 491Q413 443 383.50 410Q354 377 294 377Q252 377 229 397Q206 417 206 453Q206 509 238.50 537Q271 565 322 565Z"  horiz-adv-x="488" vert-adv-y="1000"  />

      
      <glyph glyph-name="unic0" unicode="&#xc0;" d="M-59 0L304 714L550 714L610 0L424 0L419 134L200 134L139 0L-59 0M270 286L413 286L406 491Q405 515 404.50 538.50Q404 562 405 583L402 583Q387 538 367 495L270 286M417 767Q384 798 347.50 839Q311 880 293 917L293 927L486 927Q492 895 503.50 856Q515 817 532 779L532 767L417 767Z"  horiz-adv-x="676" vert-adv-y="1000"  />

      
      <glyph glyph-name="unic1" unicode="&#xc1;" d="M-59 0L304 714L550 714L610 0L424 0L419 134L200 134L139 0L-59 0M270 286L413 286L406 491Q405 515 404.50 538.50Q404 562 405 583L402 583Q387 538 367 495L270 286M343 778Q378 807 415.50 849Q453 891 481 927L695 927L695 920Q684 907 658.50 886Q633 865 601 842.50Q569 820 537 799.50Q505 779 482 767L343 767L343 778Z"  horiz-adv-x="676" vert-adv-y="1000"  />

      
      <glyph glyph-name="unic2" unicode="&#xc2;" d="M-59 0L304 714L550 714L610 0L424 0L419 134L200 134L139 0L-59 0M270 286L413 286L406 491Q405 515 404.50 538.50Q404 562 405 583L402 583Q387 538 367 495L270 286M205 778Q228 799 255.50 825.50Q283 852 310 879Q337 906 356 927L574 927Q584 905 599 877.50Q614 850 630.50 824Q647 798 662 778L662 767L532 767Q521 777 506.50 792.50Q492 808 478.50 824.50Q465 841 456 852Q428 830 399 808.50Q370 787 339 767L205 767L205 778Z"  horiz-adv-x="676" vert-adv-y="1000"  />

      
      <glyph glyph-name="unic3" unicode="&#xc3;" d="M-59 0L304 714L550 714L610 0L424 0L419 134L200 134L139 0L-59 0M270 286L413 286L406 491Q405 515 404.50 538.50Q404 562 405 583L402 583Q387 538 367 495L270 286M239 765Q256 856 295.50 894Q335 932 392 932Q421 932 444 920Q467 908 488.50 896Q510 884 532 884Q549 884 564 896Q579 908 588 933L681 933Q662 841 622.50 803.50Q583 766 524 766Q493 766 468 778Q443 790 421.50 802Q400 814 378 814Q363 814 348.50 801Q334 788 331 765L239 765Z"  horiz-adv-x="676" vert-adv-y="1000"  />

      
      <glyph glyph-name="unic4" unicode="&#xc4;" d="M-59 0L304 714L550 714L610 0L424 0L419 134L200 134L139 0L-59 0M270 286L413 286L406 491Q405 515 404.50 538.50Q404 562 405 583L402 583Q387 538 367 495L270 286M566 775Q530 775 506.50 787.50Q483 800 483 837Q483 885 509 906.50Q535 928 581 928Q611 928 637 916.50Q663 905 663 867Q663 826 642 800.50Q621 775 566 775M328 775Q292 775 268.50 787.50Q245 800 245 837Q245 885 271 906.50Q297 928 343 928Q363 928 382 923.50Q401 919 413.50 906Q426 893 426 867Q426 826 404.50 800.50Q383 775 328 775Z"  horiz-adv-x="676" vert-adv-y="1000"  />

      
      <glyph glyph-name="unic5" unicode="&#xc5;" d="M-59 0L304 714L550 714L610 0L424 0L419 134L200 134L139 0L-59 0M270 286L413 286L406 491Q405 515 404.50 538.50Q404 562 405 583L402 583Q387 538 367 495L270 286M449 765Q391 765 354.50 798Q318 831 318 888Q318 946 354.50 979Q391 1012 449 1012Q504 1012 542 979Q580 946 580 889Q580 831 542.50 798Q505 765 449 765M449 847Q466 847 479 858.50Q492 870 492 888Q492 907 479 918.50Q466 930 449 930Q432 930 419 918.50Q406 907 406 888Q406 870 417.50 858.50Q429 847 449 847Z"  horiz-adv-x="676" vert-adv-y="1000"  />

      
      <glyph glyph-name="unic6" unicode="&#xc6;" d="M-61 0L383 714L975 714L943 559L710 559L687 447L904 447L869 292L652 292L624 157L857 157L824 0L400 0L428 134L224 134L141 0L-61 0M323 294L463 294L518 559L485 559L323 294Z"  horiz-adv-x="946" vert-adv-y="1000"  />

      
      <glyph glyph-name="unic7" unicode="&#xc7;" d="M315-10Q226-10 167 25Q108 60 79.50 122.50Q51 185 51 268Q51 332 65 397Q79 462 107.50 521Q136 580 181 626Q226 672 288 698.50Q350 725 430 725Q501 725 558 708Q615 691 665 661L593 512Q547 539 509 552.50Q471 566 430 566Q387 566 352.50 542Q318 518 293.50 477Q269 436 256.50 384.50Q244 333 244 278Q244 213 271.50 180.50Q299 148 350 148Q394 148 435.50 159Q477 170 530 192L530 34Q478 11 424.50 0.50Q371-10 315-10M286-240Q256-240 233-236.50Q210-233 192-226L192-126Q209-131 233-135Q257-139 266-139Q299-139 299-115Q299-101 286-88Q273-75 228-66L265 0L365 0L353-20Q391-28 415.50-49.50Q440-71 440-115Q440-174 400-207Q360-240 286-240Z"  horiz-adv-x="630" vert-adv-y="1000"  />

      
      <glyph glyph-name="unic8" unicode="&#xc8;" d="M16 0L167 714L591 714L559 559L326 559L303 447L520 447L485 292L268 292L240 157L473 157L440 0L16 0M370 767Q337 798 300.50 839Q264 880 246 917L246 927L439 927Q445 895 456.50 856Q468 817 485 779L485 767L370 767Z"  horiz-adv-x="562" vert-adv-y="1000"  />

      
      <glyph glyph-name="unic9" unicode="&#xc9;" d="M16 0L167 714L591 714L559 559L326 559L303 447L520 447L485 292L268 292L240 157L473 157L440 0L16 0M296 778Q331 807 368.50 849Q406 891 434 927L648 927L648 920Q637 907 611.50 886Q586 865 554 842.50Q522 820 490 799.50Q458 779 435 767L296 767L296 778Z"  horiz-adv-x="562" vert-adv-y="1000"  />

      
      <glyph glyph-name="unica" unicode="&#xca;" d="M16 0L167 714L591 714L559 559L326 559L303 447L520 447L485 292L268 292L240 157L473 157L440 0L16 0M158 778Q181 799 208.50 825.50Q236 852 263 879Q290 906 309 927L527 927Q537 905 552 877.50Q567 850 583.50 824Q600 798 615 778L615 767L485 767Q474 777 459.50 792.50Q445 808 431.50 824.50Q418 841 409 852Q381 830 352 808.50Q323 787 292 767L158 767L158 778Z"  horiz-adv-x="562" vert-adv-y="1000"  />

      
      <glyph glyph-name="unicb" unicode="&#xcb;" d="M16 0L167 714L591 714L559 559L326 559L303 447L520 447L485 292L268 292L240 157L473 157L440 0L16 0M519 775Q483 775 459.50 787.50Q436 800 436 837Q436 885 462 906.50Q488 928 534 928Q564 928 590 916.50Q616 905 616 867Q616 826 595 800.50Q574 775 519 775M281 775Q245 775 221.50 787.50Q198 800 198 837Q198 885 224 906.50Q250 928 296 928Q316 928 335 923.50Q354 919 366.50 906Q379 893 379 867Q379 826 357.50 800.50Q336 775 281 775Z"  horiz-adv-x="562" vert-adv-y="1000"  />

      
      <glyph glyph-name="unicc" unicode="&#xcc;" d="M-36 0L-13 109L81 148L169 562L91 604L114 714L481 714L458 604L360 562L272 148L351 109L328 0L-36 0M283 767Q250 798 213.50 839Q177 880 159 917L159 927L352 927Q358 895 369.50 856Q381 817 398 779L398 767L283 767Z"  horiz-adv-x="426" vert-adv-y="1000"  />

      
      <glyph glyph-name="unicd" unicode="&#xcd;" d="M-36 0L-13 109L81 148L169 562L91 604L114 714L481 714L458 604L360 562L272 148L351 109L328 0L-36 0M209 778Q244 807 281.50 849Q319 891 347 927L561 927L561 920Q550 907 524.50 886Q499 865 467 842.50Q435 820 403 799.50Q371 779 348 767L209 767L209 778Z"  horiz-adv-x="426" vert-adv-y="1000"  />

      
      <glyph glyph-name="unice" unicode="&#xce;" d="M-36 0L-13 109L81 148L169 562L91 604L114 714L481 714L458 604L360 562L272 148L351 109L328 0L-36 0M71 778Q94 799 121.50 825.50Q149 852 176 879Q203 906 222 927L440 927Q450 905 465 877.50Q480 850 496.50 824Q513 798 528 778L528 767L398 767Q387 777 372.50 792.50Q358 808 344.50 824.50Q331 841 322 852Q294 830 265 808.50Q236 787 205 767L71 767L71 778Z"  horiz-adv-x="426" vert-adv-y="1000"  />

      
      <glyph glyph-name="unicf" unicode="&#xcf;" d="M-36 0L-13 109L81 148L169 562L91 604L114 714L481 714L458 604L360 562L272 148L351 109L328 0L-36 0M432 775Q396 775 372.50 787.50Q349 800 349 837Q349 885 375 906.50Q401 928 447 928Q477 928 503 916.50Q529 905 529 867Q529 826 508 800.50Q487 775 432 775M194 775Q158 775 134.50 787.50Q111 800 111 837Q111 885 137 906.50Q163 928 209 928Q229 928 248 923.50Q267 919 279.50 906Q292 893 292 867Q292 826 270.50 800.50Q249 775 194 775Z"  horiz-adv-x="426" vert-adv-y="1000"  />

      
      <glyph glyph-name="unid0" unicode="&#xd0;" d="M16 0L74 275L5 275L39 431L107 431L167 714L377 714Q509 714 581 644Q653 574 653 444Q653 306 607 206.50Q561 107 473 53.50Q385 0 257 0L16 0M275 158Q330 158 371.50 193Q413 228 436.50 291.50Q460 355 460 440Q460 496 433.50 527Q407 558 360 558L325 558L298 431L385 431L351 275L265 275L241 158L275 158Z"  horiz-adv-x="684" vert-adv-y="1000"  />

      
      <glyph glyph-name="unid1" unicode="&#xd1;" d="M16 0L167 714L389 714L529 234L533 234Q536 256 540.50 289Q545 322 550.50 356Q556 390 561 415L625 714L795 714L644 0L422 0L281 502L277 502Q276 492 273.50 468.50Q271 445 267.50 414.50Q264 384 259 353Q254 322 249 298L186 0L16 0M301 765Q318 856 357.50 894Q397 932 454 932Q483 932 506 920Q529 908 550.50 896Q572 884 594 884Q611 884 626 896Q641 908 650 933L743 933Q724 841 684.50 803.50Q645 766 586 766Q555 766 530 778Q505 790 483.50 802Q462 814 440 814Q425 814 410.50 801Q396 788 393 765L301 765Z"  horiz-adv-x="790" vert-adv-y="1000"  />

      
      <glyph glyph-name="unid2" unicode="&#xd2;" d="M325-10Q189-10 120 65.50Q51 141 51 265Q51 348 74.50 429.50Q98 511 145.50 578Q193 645 266 685Q339 725 438 725Q570 725 638 650Q706 575 706 450Q706 367 683.50 285.50Q661 204 614 137Q567 70 495.50 30Q424-10 325-10M342 148Q390 148 429 189Q468 230 490.50 298Q513 366 513 448Q513 504 489.50 535.50Q466 567 422 567Q382 567 349 540.50Q316 514 292.50 470.50Q269 427 256.50 373.50Q244 320 244 266Q244 148 342 148M441 767Q408 798 371.50 839Q335 880 317 917L317 927L510 927Q516 895 527.50 856Q539 817 556 779L556 767L441 767Z"  horiz-adv-x="737" vert-adv-y="1000"  />

      
      <glyph glyph-name="unid3" unicode="&#xd3;" d="M325-10Q189-10 120 65.50Q51 141 51 265Q51 348 74.50 429.50Q98 511 145.50 578Q193 645 266 685Q339 725 438 725Q570 725 638 650Q706 575 706 450Q706 367 683.50 285.50Q661 204 614 137Q567 70 495.50 30Q424-10 325-10M342 148Q390 148 429 189Q468 230 490.50 298Q513 366 513 448Q513 504 489.50 535.50Q466 567 422 567Q382 567 349 540.50Q316 514 292.50 470.50Q269 427 256.50 373.50Q244 320 244 266Q244 148 342 148M367 778Q402 807 439.50 849Q477 891 505 927L719 927L719 920Q708 907 682.50 886Q657 865 625 842.50Q593 820 561 799.50Q529 779 506 767L367 767L367 778Z"  horiz-adv-x="737" vert-adv-y="1000"  />

      
      <glyph glyph-name="unid4" unicode="&#xd4;" d="M325-10Q189-10 120 65.50Q51 141 51 265Q51 348 74.50 429.50Q98 511 145.50 578Q193 645 266 685Q339 725 438 725Q570 725 638 650Q706 575 706 450Q706 367 683.50 285.50Q661 204 614 137Q567 70 495.50 30Q424-10 325-10M342 148Q390 148 429 189Q468 230 490.50 298Q513 366 513 448Q513 504 489.50 535.50Q466 567 422 567Q382 567 349 540.50Q316 514 292.50 470.50Q269 427 256.50 373.50Q244 320 244 266Q244 148 342 148M229 778Q252 799 279.50 825.50Q307 852 334 879Q361 906 380 927L598 927Q608 905 623 877.50Q638 850 654.50 824Q671 798 686 778L686 767L556 767Q545 777 530.50 792.50Q516 808 502.50 824.50Q489 841 480 852Q452 830 423 808.50Q394 787 363 767L229 767L229 778Z"  horiz-adv-x="737" vert-adv-y="1000"  />

      
      <glyph glyph-name="unid5" unicode="&#xd5;" d="M325-10Q189-10 120 65.50Q51 141 51 265Q51 348 74.50 429.50Q98 511 145.50 578Q193 645 266 685Q339 725 438 725Q570 725 638 650Q706 575 706 450Q706 367 683.50 285.50Q661 204 614 137Q567 70 495.50 30Q424-10 325-10M342 148Q390 148 429 189Q468 230 490.50 298Q513 366 513 448Q513 504 489.50 535.50Q466 567 422 567Q382 567 349 540.50Q316 514 292.50 470.50Q269 427 256.50 373.50Q244 320 244 266Q244 148 342 148M263 765Q280 856 319.50 894Q359 932 416 932Q445 932 468 920Q491 908 512.50 896Q534 884 556 884Q573 884 588 896Q603 908 612 933L705 933Q686 841 646.50 803.50Q607 766 548 766Q517 766 492 778Q467 790 445.50 802Q424 814 402 814Q387 814 372.50 801Q358 788 355 765L263 765Z"  horiz-adv-x="737" vert-adv-y="1000"  />

      
      <glyph glyph-name="unid6" unicode="&#xd6;" d="M325-10Q189-10 120 65.50Q51 141 51 265Q51 348 74.50 429.50Q98 511 145.50 578Q193 645 266 685Q339 725 438 725Q570 725 638 650Q706 575 706 450Q706 367 683.50 285.50Q661 204 614 137Q567 70 495.50 30Q424-10 325-10M342 148Q390 148 429 189Q468 230 490.50 298Q513 366 513 448Q513 504 489.50 535.50Q466 567 422 567Q382 567 349 540.50Q316 514 292.50 470.50Q269 427 256.50 373.50Q244 320 244 266Q244 148 342 148M590 775Q554 775 530.50 787.50Q507 800 507 837Q507 885 533 906.50Q559 928 605 928Q635 928 661 916.50Q687 905 687 867Q687 826 666 800.50Q645 775 590 775M352 775Q316 775 292.50 787.50Q269 800 269 837Q269 885 295 906.50Q321 928 367 928Q387 928 406 923.50Q425 919 437.50 906Q450 893 450 867Q450 826 428.50 800.50Q407 775 352 775Z"  horiz-adv-x="737" vert-adv-y="1000"  />

      
      <glyph glyph-name="unid7" unicode="&#xd7;" d="M424 576L516 487L382 353L514 220L424 130L290 262L158 131L70 222L199 353L69 484L158 576L290 446L424 576Z"  horiz-adv-x="586" vert-adv-y="1000"  />

      
      <glyph glyph-name="unid8" unicode="&#xd8;" d="M124-42L46 15L103 86Q51 154 51 265Q51 348 74 429.50Q97 511 144 578Q191 645 262 685Q333 725 429 725Q476 725 514 716Q552 707 583 690L628 746L704 688L656 627Q706 557 706 450Q706 367 683 285.50Q660 204 613.50 137Q567 70 497.50 30Q428-10 334-10Q286-10 247-1Q208 8 176 24L124-42M472 551Q450 567 416 567Q367 567 328 528Q289 489 267 425Q245 361 245 287L245 263L472 551M342 148Q392 148 430 185.50Q468 223 490 286Q512 349 512 425L512 447L286 162Q309 148 342 148Z"  horiz-adv-x="737" vert-adv-y="1000"  />

      
      <glyph glyph-name="unid9" unicode="&#xd9;" d="M298-10Q224-10 170.50 17Q117 44 89 90.50Q61 137 61 197Q61 212 62.50 229.50Q64 247 67 263L164 714L355 714L260 268Q257 254 255 239.50Q253 225 253 212Q253 183 269 166.50Q285 150 316 150Q359 150 384 179Q409 208 424 278L517 714L708 714L611 259Q593 172 556 112Q519 52 456.50 21Q394-10 298-10M418 767Q385 798 348.50 839Q312 880 294 917L294 927L487 927Q493 895 504.50 856Q516 817 533 779L533 767L418 767Z"  horiz-adv-x="701" vert-adv-y="1000"  />

      
      <glyph glyph-name="unida" unicode="&#xda;" d="M298-10Q224-10 170.50 17Q117 44 89 90.50Q61 137 61 197Q61 212 62.50 229.50Q64 247 67 263L164 714L355 714L260 268Q257 254 255 239.50Q253 225 253 212Q253 183 269 166.50Q285 150 316 150Q359 150 384 179Q409 208 424 278L517 714L708 714L611 259Q593 172 556 112Q519 52 456.50 21Q394-10 298-10M344 778Q379 807 416.50 849Q454 891 482 927L696 927L696 920Q685 907 659.50 886Q634 865 602 842.50Q570 820 538 799.50Q506 779 483 767L344 767L344 778Z"  horiz-adv-x="701" vert-adv-y="1000"  />

      
      <glyph glyph-name="unidb" unicode="&#xdb;" d="M298-10Q224-10 170.50 17Q117 44 89 90.50Q61 137 61 197Q61 212 62.50 229.50Q64 247 67 263L164 714L355 714L260 268Q257 254 255 239.50Q253 225 253 212Q253 183 269 166.50Q285 150 316 150Q359 150 384 179Q409 208 424 278L517 714L708 714L611 259Q593 172 556 112Q519 52 456.50 21Q394-10 298-10M206 778Q229 799 256.50 825.50Q284 852 311 879Q338 906 357 927L575 927Q585 905 600 877.50Q615 850 631.50 824Q648 798 663 778L663 767L533 767Q522 777 507.50 792.50Q493 808 479.50 824.50Q466 841 457 852Q429 830 400 808.50Q371 787 340 767L206 767L206 778Z"  horiz-adv-x="701" vert-adv-y="1000"  />

      
      <glyph glyph-name="unidc" unicode="&#xdc;" d="M298-10Q224-10 170.50 17Q117 44 89 90.50Q61 137 61 197Q61 212 62.50 229.50Q64 247 67 263L164 714L355 714L260 268Q257 254 255 239.50Q253 225 253 212Q253 183 269 166.50Q285 150 316 150Q359 150 384 179Q409 208 424 278L517 714L708 714L611 259Q593 172 556 112Q519 52 456.50 21Q394-10 298-10M567 775Q531 775 507.50 787.50Q484 800 484 837Q484 885 510 906.50Q536 928 582 928Q612 928 638 916.50Q664 905 664 867Q664 826 643 800.50Q622 775 567 775M329 775Q293 775 269.50 787.50Q246 800 246 837Q246 885 272 906.50Q298 928 344 928Q364 928 383 923.50Q402 919 414.50 906Q427 893 427 867Q427 826 405.50 800.50Q384 775 329 775Z"  horiz-adv-x="701" vert-adv-y="1000"  />

      
      <glyph glyph-name="unidd" unicode="&#xdd;" d="M137 0L196 277L80 714L277 714L321 449L473 714L686 714L387 277L328 0L137 0M283 778Q318 807 355.50 849Q393 891 421 927L635 927L635 920Q624 907 598.50 886Q573 865 541 842.50Q509 820 477 799.50Q445 779 422 767L283 767L283 778Z"  horiz-adv-x="604" vert-adv-y="1000"  />

      
      <glyph glyph-name="unide" unicode="&#xde;" d="M16 0L167 714L358 714L337 610L349 610Q437 610 490 581Q543 552 566.50 503.50Q590 455 590 396Q590 311 550.50 252.50Q511 194 440.50 164Q370 134 277 134L235 134L207 0L16 0M300 290Q346 290 372.50 314Q399 338 399 390Q399 416 380 435.50Q361 455 326 455L304 455L269 290L300 290Z"  horiz-adv-x="623" vert-adv-y="1000"  />

      
      <glyph glyph-name="unidf" unicode="&#xdf;" d="M-26-240Q-52-240-81-236Q-110-232-127-227L-127-79Q-113-83-98-85.50Q-83-88-70-88Q-34-88-15.50-73Q3-58 10-27L129 535Q145 609 179 660Q213 711 274 738Q335 765 431 765Q559 765 621 713.50Q683 662 683 583Q683 522 657 484.50Q631 447 579 422Q539 403 530.50 390.50Q522 378 522 372Q522 355 534 345Q546 335 565.50 325.50Q585 316 606 300Q635 280 650 251.50Q665 223 665 182Q665 135 641.50 90.50Q618 46 564.50 18Q511-10 421-10Q375-10 343.50-4Q312 2 287 12L287 158Q313 145 351 136.50Q389 128 419 128Q448 128 461.50 139Q475 150 475 163Q475 174 471 182Q467 190 453 201Q439 212 410 230Q360 262 344.50 290.50Q329 319 329 348Q329 400 354 427.50Q379 455 430 483Q465 503 479 520.50Q493 538 493 559Q493 579 478 598Q463 617 416 617Q378 617 351.50 592.50Q325 568 315 521L192-57Q181-110 155.50-151.50Q130-193 86-216.50Q42-240-26-240Z"  horiz-adv-x="713" vert-adv-y="1000"  />

      
      <glyph glyph-name="unie0" unicode="&#xe0;" d="M198-10Q156-10 120 10Q84 30 62.50 76Q41 122 41 201Q41 241 50.50 290Q60 339 79 387Q98 435 127.50 475Q157 515 197 539Q237 563 287 563Q334 563 364.50 541.50Q395 520 415 485L419 485L445 553L596 553L479 0L328 0L333 60L329 60Q307 29 277 9.50Q247-10 198-10M276 142Q298 142 315.50 161.50Q333 181 346 212.50Q359 244 365 280Q367 295 369 310.50Q371 326 371 341Q371 373 361 392Q351 411 331 411Q305 411 283 381Q261 351 247.50 305.50Q234 260 234 212Q234 142 276 142M347 606Q314 637 277.50 678Q241 719 223 756L223 766L416 766Q422 734 433.50 695Q445 656 462 618L462 606L347 606Z"  horiz-adv-x="607" vert-adv-y="1000"  />

      
      <glyph glyph-name="unie1" unicode="&#xe1;" d="M198-10Q156-10 120 10Q84 30 62.50 76Q41 122 41 201Q41 241 50.50 290Q60 339 79 387Q98 435 127.50 475Q157 515 197 539Q237 563 287 563Q334 563 364.50 541.50Q395 520 415 485L419 485L445 553L596 553L479 0L328 0L333 60L329 60Q307 29 277 9.50Q247-10 198-10M276 142Q298 142 315.50 161.50Q333 181 346 212.50Q359 244 365 280Q367 295 369 310.50Q371 326 371 341Q371 373 361 392Q351 411 331 411Q305 411 283 381Q261 351 247.50 305.50Q234 260 234 212Q234 142 276 142M273 617Q308 646 345.50 688Q383 730 411 766L625 766L625 759Q614 746 588.50 725Q563 704 531 681.50Q499 659 467 638.50Q435 618 412 606L273 606L273 617Z"  horiz-adv-x="607" vert-adv-y="1000"  />

      
      <glyph glyph-name="unie2" unicode="&#xe2;" d="M198-10Q156-10 120 10Q84 30 62.50 76Q41 122 41 201Q41 241 50.50 290Q60 339 79 387Q98 435 127.50 475Q157 515 197 539Q237 563 287 563Q334 563 364.50 541.50Q395 520 415 485L419 485L445 553L596 553L479 0L328 0L333 60L329 60Q307 29 277 9.50Q247-10 198-10M276 142Q298 142 315.50 161.50Q333 181 346 212.50Q359 244 365 280Q367 295 369 310.50Q371 326 371 341Q371 373 361 392Q351 411 331 411Q305 411 283 381Q261 351 247.50 305.50Q234 260 234 212Q234 142 276 142M135 617Q158 638 185.50 664.50Q213 691 240 718Q267 745 286 766L504 766Q514 744 529 716.50Q544 689 560.50 663Q577 637 592 617L592 606L462 606Q451 616 436.50 631.50Q422 647 408.50 663.50Q395 680 386 691Q358 669 329 647.50Q300 626 269 606L135 606L135 617Z"  horiz-adv-x="607" vert-adv-y="1000"  />

      
      <glyph glyph-name="unie3" unicode="&#xe3;" d="M198-10Q156-10 120 10Q84 30 62.50 76Q41 122 41 201Q41 241 50.50 290Q60 339 79 387Q98 435 127.50 475Q157 515 197 539Q237 563 287 563Q334 563 364.50 541.50Q395 520 415 485L419 485L445 553L596 553L479 0L328 0L333 60L329 60Q307 29 277 9.50Q247-10 198-10M276 142Q298 142 315.50 161.50Q333 181 346 212.50Q359 244 365 280Q367 295 369 310.50Q371 326 371 341Q371 373 361 392Q351 411 331 411Q305 411 283 381Q261 351 247.50 305.50Q234 260 234 212Q234 142 276 142M169 604Q186 695 225.50 733Q265 771 322 771Q351 771 374 759Q397 747 418.50 735Q440 723 462 723Q479 723 494 735Q509 747 518 772L611 772Q592 680 552.50 642.50Q513 605 454 605Q423 605 398 617Q373 629 351.50 641Q330 653 308 653Q293 653 278.50 640Q264 627 261 604L169 604Z"  horiz-adv-x="607" vert-adv-y="1000"  />

      
      <glyph glyph-name="unie4" unicode="&#xe4;" d="M198-10Q156-10 120 10Q84 30 62.50 76Q41 122 41 201Q41 241 50.50 290Q60 339 79 387Q98 435 127.50 475Q157 515 197 539Q237 563 287 563Q334 563 364.50 541.50Q395 520 415 485L419 485L445 553L596 553L479 0L328 0L333 60L329 60Q307 29 277 9.50Q247-10 198-10M276 142Q298 142 315.50 161.50Q333 181 346 212.50Q359 244 365 280Q367 295 369 310.50Q371 326 371 341Q371 373 361 392Q351 411 331 411Q305 411 283 381Q261 351 247.50 305.50Q234 260 234 212Q234 142 276 142M496 614Q460 614 436.50 626.50Q413 639 413 676Q413 724 439 745.50Q465 767 511 767Q541 767 567 755.50Q593 744 593 706Q593 665 572 639.50Q551 614 496 614M258 614Q222 614 198.50 626.50Q175 639 175 676Q175 724 201 745.50Q227 767 273 767Q293 767 312 762.50Q331 758 343.50 745Q356 732 356 706Q356 665 334.50 639.50Q313 614 258 614Z"  horiz-adv-x="607" vert-adv-y="1000"  />

      
      <glyph glyph-name="unie5" unicode="&#xe5;" d="M198-10Q156-10 120 10Q84 30 62.50 76Q41 122 41 201Q41 241 50.50 290Q60 339 79 387Q98 435 127.50 475Q157 515 197 539Q237 563 287 563Q334 563 364.50 541.50Q395 520 415 485L419 485L445 553L596 553L479 0L328 0L333 60L329 60Q307 29 277 9.50Q247-10 198-10M276 142Q298 142 315.50 161.50Q333 181 346 212.50Q359 244 365 280Q367 295 369 310.50Q371 326 371 341Q371 373 361 392Q351 411 331 411Q305 411 283 381Q261 351 247.50 305.50Q234 260 234 212Q234 142 276 142M379 604Q321 604 284.50 637Q248 670 248 727Q248 785 284.50 818Q321 851 379 851Q434 851 472 818Q510 785 510 728Q510 670 472.50 637Q435 604 379 604M379 686Q396 686 409 697.50Q422 709 422 727Q422 746 409 757.50Q396 769 379 769Q362 769 349 757.50Q336 746 336 727Q336 709 347.50 697.50Q359 686 379 686Z"  horiz-adv-x="607" vert-adv-y="1000"  />

      
      <glyph glyph-name="unie6" unicode="&#xe6;" d="M198-10Q156-10 120 10Q84 30 62.50 76Q41 122 41 201Q41 241 50.50 290Q60 339 79 387Q98 435 127.50 475Q157 515 197 539Q237 563 287 563Q334 563 363.50 543Q393 523 415 485L419 485L445 553L546 553L546 507Q569 530 605 546.50Q641 563 682 563Q759 563 805 521Q851 479 851 409Q851 318 780 262Q709 206 554 206L525 206L525 198Q525 126 605 126Q647 126 684.50 139Q722 152 765 174L765 40Q727 18 686 4Q645-10 582-10Q495-10 454 45L439 0L328 0L333 60L329 60Q307 29 277 9.50Q247-10 198-10M558 324Q622 324 647 348.50Q672 373 672 398Q672 414 662 424.50Q652 435 631 435Q609 435 590.50 418Q572 401 560 375.50Q548 350 544 324L558 324M276 142Q298 142 315.50 161.50Q333 181 346 212.50Q359 244 365 280Q368 295 369 310.50Q370 326 370 341Q370 373 358.50 392Q347 411 327 411Q301 411 280 381Q259 351 246.50 305.50Q234 260 234 212Q234 142 276 142Z"  horiz-adv-x="873" vert-adv-y="1000"  />

      
      <glyph glyph-name="unie7" unicode="&#xe7;" d="M247-10Q191-10 144 13Q97 36 69 86Q41 136 41 216Q41 314 77.50 392.50Q114 471 180.50 517Q247 563 337 563Q389 563 431.50 553.50Q474 544 516 524L456 384Q431 395 402 404Q373 413 346 413Q317 413 295 394.50Q273 376 259 347.50Q245 319 238 287Q231 255 231 228Q231 179 247.50 160.50Q264 142 292 142Q327 142 360 153.50Q393 165 430 184L430 34Q391 13 348 1.50Q305-10 247-10M188-240Q158-240 135-236.50Q112-233 94-226L94-126Q111-131 135-135Q159-139 168-139Q201-139 201-115Q201-101 188-88Q175-75 130-66L167 0L267 0L255-20Q293-28 317.50-49.50Q342-71 342-115Q342-174 302-207Q262-240 188-240Z"  horiz-adv-x="504" vert-adv-y="1000"  />

      
      <glyph glyph-name="unie8" unicode="&#xe8;" d="M260-10Q155-10 98 48.50Q41 107 41 209Q41 277 60.50 340.50Q80 404 119 454Q158 504 217.50 533.50Q277 563 358 563Q451 563 504 521Q557 479 557 409Q557 318 486 262Q415 206 260 206L231 206L231 198Q231 126 311 126Q353 126 390.50 139Q428 152 471 174L471 40Q427 18 379.50 4Q332-10 260-10M264 324Q328 324 353 348.50Q378 373 378 398Q378 414 368 424.50Q358 435 337 435Q315 435 296.50 418Q278 401 266 375.50Q254 350 250 324L264 324M338 606Q305 637 268.50 678Q232 719 214 756L214 766L407 766Q413 734 424.50 695Q436 656 453 618L453 606L338 606Z"  horiz-adv-x="579" vert-adv-y="1000"  />

      
      <glyph glyph-name="unie9" unicode="&#xe9;" d="M260-10Q155-10 98 48.50Q41 107 41 209Q41 277 60.50 340.50Q80 404 119 454Q158 504 217.50 533.50Q277 563 358 563Q451 563 504 521Q557 479 557 409Q557 318 486 262Q415 206 260 206L231 206L231 198Q231 126 311 126Q353 126 390.50 139Q428 152 471 174L471 40Q427 18 379.50 4Q332-10 260-10M264 324Q328 324 353 348.50Q378 373 378 398Q378 414 368 424.50Q358 435 337 435Q315 435 296.50 418Q278 401 266 375.50Q254 350 250 324L264 324M264 617Q299 646 336.50 688Q374 730 402 766L616 766L616 759Q605 746 579.50 725Q554 704 522 681.50Q490 659 458 638.50Q426 618 403 606L264 606L264 617Z"  horiz-adv-x="579" vert-adv-y="1000"  />

      
      <glyph glyph-name="uniea" unicode="&#xea;" d="M260-10Q155-10 98 48.50Q41 107 41 209Q41 277 60.50 340.50Q80 404 119 454Q158 504 217.50 533.50Q277 563 358 563Q451 563 504 521Q557 479 557 409Q557 318 486 262Q415 206 260 206L231 206L231 198Q231 126 311 126Q353 126 390.50 139Q428 152 471 174L471 40Q427 18 379.50 4Q332-10 260-10M264 324Q328 324 353 348.50Q378 373 378 398Q378 414 368 424.50Q358 435 337 435Q315 435 296.50 418Q278 401 266 375.50Q254 350 250 324L264 324M126 617Q149 638 176.50 664.50Q204 691 231 718Q258 745 277 766L495 766Q505 744 520 716.50Q535 689 551.50 663Q568 637 583 617L583 606L453 606Q442 616 427.50 631.50Q413 647 399.50 663.50Q386 680 377 691Q349 669 320 647.50Q291 626 260 606L126 606L126 617Z"  horiz-adv-x="579" vert-adv-y="1000"  />

      
      <glyph glyph-name="unieb" unicode="&#xeb;" d="M260-10Q155-10 98 48.50Q41 107 41 209Q41 277 60.50 340.50Q80 404 119 454Q158 504 217.50 533.50Q277 563 358 563Q451 563 504 521Q557 479 557 409Q557 318 486 262Q415 206 260 206L231 206L231 198Q231 126 311 126Q353 126 390.50 139Q428 152 471 174L471 40Q427 18 379.50 4Q332-10 260-10M264 324Q328 324 353 348.50Q378 373 378 398Q378 414 368 424.50Q358 435 337 435Q315 435 296.50 418Q278 401 266 375.50Q254 350 250 324L264 324M487 614Q451 614 427.50 626.50Q404 639 404 676Q404 724 430 745.50Q456 767 502 767Q532 767 558 755.50Q584 744 584 706Q584 665 563 639.50Q542 614 487 614M249 614Q213 614 189.50 626.50Q166 639 166 676Q166 724 192 745.50Q218 767 264 767Q284 767 303 762.50Q322 758 334.50 745Q347 732 347 706Q347 665 325.50 639.50Q304 614 249 614Z"  horiz-adv-x="579" vert-adv-y="1000"  />

      
      <glyph glyph-name="uniec" unicode="&#xec;" d="M11 0L128 553L318 553L200 0L11 0M208 606Q175 637 138.50 678Q102 719 84 756L84 766L277 766Q283 734 294.50 695Q306 656 323 618L323 606L208 606Z"  horiz-adv-x="325" vert-adv-y="1000"  />

      
      <glyph glyph-name="unied" unicode="&#xed;" d="M11 0L128 553L318 553L200 0L11 0M134 617Q169 646 206.50 688Q244 730 272 766L486 766L486 759Q475 746 449.50 725Q424 704 392 681.50Q360 659 328 638.50Q296 618 273 606L134 606L134 617Z"  horiz-adv-x="325" vert-adv-y="1000"  />

      
      <glyph glyph-name="uniee" unicode="&#xee;" d="M11 0L128 553L318 553L200 0L11 0M-4 617Q19 638 46.50 664.50Q74 691 101 718Q128 745 147 766L365 766Q375 744 390 716.50Q405 689 421.50 663Q438 637 453 617L453 606L323 606Q312 616 297.50 631.50Q283 647 269.50 663.50Q256 680 247 691Q219 669 190 647.50Q161 626 130 606L-4 606L-4 617Z"  horiz-adv-x="325" vert-adv-y="1000"  />

      
      <glyph glyph-name="unief" unicode="&#xef;" d="M11 0L128 553L318 553L200 0L11 0M357 614Q321 614 297.50 626.50Q274 639 274 676Q274 724 300 745.50Q326 767 372 767Q402 767 428 755.50Q454 744 454 706Q454 665 433 639.50Q412 614 357 614M119 614Q83 614 59.50 626.50Q36 639 36 676Q36 724 62 745.50Q88 767 134 767Q154 767 173 762.50Q192 758 204.50 745Q217 732 217 706Q217 665 195.50 639.50Q174 614 119 614Z"  horiz-adv-x="325" vert-adv-y="1000"  />

      
      <glyph glyph-name="unif0" unicode="&#xf0;" d="M254-10Q157-10 99 48Q41 106 41 208Q41 288 70 353Q99 418 154.50 456.50Q210 495 289 495Q327 495 350.50 482Q374 469 388 452L393 454Q389 483 378 515.50Q367 548 349 574L216 512L176 594L283 644Q272 654 260 663Q248 672 237 680L293 768Q324 755 352.50 738Q381 721 406 701L522 755L562 674L472 630Q496 600 513.50 554Q531 508 540 455Q549 402 549 350Q549 274 533.50 208.50Q518 143 483 94Q448 45 391.50 17.50Q335-10 254-10M271 127Q294 127 311 142.50Q328 158 338.50 182Q349 206 354 232Q359 258 359 279Q359 316 350 337Q341 358 318 358Q294 358 277 341.50Q260 325 250 299.50Q240 274 235 247Q230 220 230 199Q230 127 271 127Z"  horiz-adv-x="564" vert-adv-y="1000"  />

      
      <glyph glyph-name="unif1" unicode="&#xf1;" d="M11 0L128 553L279 553L273 476L277 476Q304 523 340.50 543Q377 563 429 563Q481 563 513 541.50Q545 520 560 484.50Q575 449 575 406Q575 378 571.50 349Q568 320 563 294L501 0L312 0L375 302Q378 315 381 334.50Q384 354 384 371Q384 392 373 402.50Q362 413 347 413Q319 413 295.50 378.50Q272 344 257 270L200 0L11 0M184 604Q201 695 240.50 733Q280 771 337 771Q366 771 389 759Q412 747 433.50 735Q455 723 477 723Q494 723 509 735Q524 747 533 772L626 772Q607 680 567.50 642.50Q528 605 469 605Q438 605 413 617Q388 629 366.50 641Q345 653 323 653Q308 653 293.50 640Q279 627 276 604L184 604Z"  horiz-adv-x="622" vert-adv-y="1000"  />

      
      <glyph glyph-name="unif2" unicode="&#xf2;" d="M254-10Q152-10 96.50 45.50Q41 101 41 203Q41 274 61 338.50Q81 403 120 453.50Q159 504 217.50 533.50Q276 563 353 563Q455 563 510.50 507.50Q566 452 566 350Q566 279 546 214.50Q526 150 487 99.50Q448 49 389.50 19.50Q331-10 254-10M275 132Q303 132 325 165.50Q347 199 360 250.50Q373 302 373 356Q373 421 331 421Q303 421 281 387.50Q259 354 246.50 303Q234 252 234 197Q234 132 275 132M344 606Q311 637 274.50 678Q238 719 220 756L220 766L413 766Q419 734 430.50 695Q442 656 459 618L459 606L344 606Z"  horiz-adv-x="607" vert-adv-y="1000"  />

      
      <glyph glyph-name="unif3" unicode="&#xf3;" d="M254-10Q152-10 96.50 45.50Q41 101 41 203Q41 274 61 338.50Q81 403 120 453.50Q159 504 217.50 533.50Q276 563 353 563Q455 563 510.50 507.50Q566 452 566 350Q566 279 546 214.50Q526 150 487 99.50Q448 49 389.50 19.50Q331-10 254-10M275 132Q303 132 325 165.50Q347 199 360 250.50Q373 302 373 356Q373 421 331 421Q303 421 281 387.50Q259 354 246.50 303Q234 252 234 197Q234 132 275 132M270 617Q305 646 342.50 688Q380 730 408 766L622 766L622 759Q611 746 585.50 725Q560 704 528 681.50Q496 659 464 638.50Q432 618 409 606L270 606L270 617Z"  horiz-adv-x="607" vert-adv-y="1000"  />

      
      <glyph glyph-name="unif4" unicode="&#xf4;" d="M254-10Q152-10 96.50 45.50Q41 101 41 203Q41 274 61 338.50Q81 403 120 453.50Q159 504 217.50 533.50Q276 563 353 563Q455 563 510.50 507.50Q566 452 566 350Q566 279 546 214.50Q526 150 487 99.50Q448 49 389.50 19.50Q331-10 254-10M275 132Q303 132 325 165.50Q347 199 360 250.50Q373 302 373 356Q373 421 331 421Q303 421 281 387.50Q259 354 246.50 303Q234 252 234 197Q234 132 275 132M132 617Q155 638 182.50 664.50Q210 691 237 718Q264 745 283 766L501 766Q511 744 526 716.50Q541 689 557.50 663Q574 637 589 617L589 606L459 606Q448 616 433.50 631.50Q419 647 405.50 663.50Q392 680 383 691Q355 669 326 647.50Q297 626 266 606L132 606L132 617Z"  horiz-adv-x="607" vert-adv-y="1000"  />

      
      <glyph glyph-name="unif5" unicode="&#xf5;" d="M254-10Q152-10 96.50 45.50Q41 101 41 203Q41 274 61 338.50Q81 403 120 453.50Q159 504 217.50 533.50Q276 563 353 563Q455 563 510.50 507.50Q566 452 566 350Q566 279 546 214.50Q526 150 487 99.50Q448 49 389.50 19.50Q331-10 254-10M275 132Q303 132 325 165.50Q347 199 360 250.50Q373 302 373 356Q373 421 331 421Q303 421 281 387.50Q259 354 246.50 303Q234 252 234 197Q234 132 275 132M166 604Q183 695 222.50 733Q262 771 319 771Q348 771 371 759Q394 747 415.50 735Q437 723 459 723Q476 723 491 735Q506 747 515 772L608 772Q589 680 549.50 642.50Q510 605 451 605Q420 605 395 617Q370 629 348.50 641Q327 653 305 653Q290 653 275.50 640Q261 627 258 604L166 604Z"  horiz-adv-x="607" vert-adv-y="1000"  />

      
      <glyph glyph-name="unif6" unicode="&#xf6;" d="M254-10Q152-10 96.50 45.50Q41 101 41 203Q41 274 61 338.50Q81 403 120 453.50Q159 504 217.50 533.50Q276 563 353 563Q455 563 510.50 507.50Q566 452 566 350Q566 279 546 214.50Q526 150 487 99.50Q448 49 389.50 19.50Q331-10 254-10M275 132Q303 132 325 165.50Q347 199 360 250.50Q373 302 373 356Q373 421 331 421Q303 421 281 387.50Q259 354 246.50 303Q234 252 234 197Q234 132 275 132M493 614Q457 614 433.50 626.50Q410 639 410 676Q410 724 436 745.50Q462 767 508 767Q538 767 564 755.50Q590 744 590 706Q590 665 569 639.50Q548 614 493 614M255 614Q219 614 195.50 626.50Q172 639 172 676Q172 724 198 745.50Q224 767 270 767Q290 767 309 762.50Q328 758 340.50 745Q353 732 353 706Q353 665 331.50 639.50Q310 614 255 614Z"  horiz-adv-x="607" vert-adv-y="1000"  />

      
      <glyph glyph-name="unif7" unicode="&#xf7;" d="M292 460Q261 460 238.50 480Q216 500 216 543Q216 590 238.50 608Q261 626 292 626Q322 626 345.50 608Q369 590 369 543Q369 500 345.50 480Q322 460 292 460M45 287L45 418L540 418L540 287L45 287M292 79Q261 79 238.50 99Q216 119 216 162Q216 209 238.50 227Q261 245 292 245Q322 245 345.50 227Q369 209 369 162Q369 119 345.50 99Q322 79 292 79Z"  horiz-adv-x="586" vert-adv-y="1000"  />

      
      <glyph glyph-name="unif8" unicode="&#xf8;" d="M94-54L32-1L87 63Q65 90 53 124.50Q41 159 41 203Q41 274 61.50 338.50Q82 403 123 453.50Q164 504 224 533.50Q284 563 363 563Q400 563 430 555.50Q460 548 485 535L536 594L598 541L547 481Q566 456 576.50 423.50Q587 391 587 350Q587 279 566.50 214.50Q546 150 505.50 99.50Q465 49 405.50 19.50Q346-10 268-10Q234-10 205-3Q176 4 152 14L94-54M383 414Q366 428 343 428Q299 428 262.50 378Q226 328 220 239Q219 235 219 230Q219 225 219 220L383 414M288 127Q331 127 365 166.50Q399 206 407 296Q407 301 407.50 306.50Q408 312 408 317L253 134Q267 127 288 127Z"  horiz-adv-x="628" vert-adv-y="1000"  />

      
      <glyph glyph-name="unif9" unicode="&#xf9;" d="M193-10Q142-10 109.50 11.50Q77 33 62 69Q47 105 47 147Q47 175 50.50 204Q54 233 59 259L121 553L310 553L247 252Q244 239 241 219.50Q238 200 238 183Q238 162 249 151.50Q260 141 275 141Q300 141 324.50 175.50Q349 210 365 284L422 553L611 553L494 0L343 0L349 77L345 77Q318 31 282 10.50Q246-10 193-10M349 606Q316 637 279.50 678Q243 719 225 756L225 766L418 766Q424 734 435.50 695Q447 656 464 618L464 606L349 606Z"  horiz-adv-x="622" vert-adv-y="1000"  />

      
      <glyph glyph-name="unifa" unicode="&#xfa;" d="M193-10Q142-10 109.50 11.50Q77 33 62 69Q47 105 47 147Q47 175 50.50 204Q54 233 59 259L121 553L310 553L247 252Q244 239 241 219.50Q238 200 238 183Q238 162 249 151.50Q260 141 275 141Q300 141 324.50 175.50Q349 210 365 284L422 553L611 553L494 0L343 0L349 77L345 77Q318 31 282 10.50Q246-10 193-10M275 617Q310 646 347.50 688Q385 730 413 766L627 766L627 759Q616 746 590.50 725Q565 704 533 681.50Q501 659 469 638.50Q437 618 414 606L275 606L275 617Z"  horiz-adv-x="622" vert-adv-y="1000"  />

      
      <glyph glyph-name="unifb" unicode="&#xfb;" d="M193-10Q142-10 109.50 11.50Q77 33 62 69Q47 105 47 147Q47 175 50.50 204Q54 233 59 259L121 553L310 553L247 252Q244 239 241 219.50Q238 200 238 183Q238 162 249 151.50Q260 141 275 141Q300 141 324.50 175.50Q349 210 365 284L422 553L611 553L494 0L343 0L349 77L345 77Q318 31 282 10.50Q246-10 193-10M137 617Q160 638 187.50 664.50Q215 691 242 718Q269 745 288 766L506 766Q516 744 531 716.50Q546 689 562.50 663Q579 637 594 617L594 606L464 606Q453 616 438.50 631.50Q424 647 410.50 663.50Q397 680 388 691Q360 669 331 647.50Q302 626 271 606L137 606L137 617Z"  horiz-adv-x="622" vert-adv-y="1000"  />

      
      <glyph glyph-name="unifc" unicode="&#xfc;" d="M193-10Q142-10 109.50 11.50Q77 33 62 69Q47 105 47 147Q47 175 50.50 204Q54 233 59 259L121 553L310 553L247 252Q244 239 241 219.50Q238 200 238 183Q238 162 249 151.50Q260 141 275 141Q300 141 324.50 175.50Q349 210 365 284L422 553L611 553L494 0L343 0L349 77L345 77Q318 31 282 10.50Q246-10 193-10M498 614Q462 614 438.50 626.50Q415 639 415 676Q415 724 441 745.50Q467 767 513 767Q543 767 569 755.50Q595 744 595 706Q595 665 574 639.50Q553 614 498 614M260 614Q224 614 200.50 626.50Q177 639 177 676Q177 724 203 745.50Q229 767 275 767Q295 767 314 762.50Q333 758 345.50 745Q358 732 358 706Q358 665 336.50 639.50Q315 614 260 614Z"  horiz-adv-x="622" vert-adv-y="1000"  />

      
      <glyph glyph-name="unifd" unicode="&#xfd;" d="M12-240Q-16-240-34-237.50Q-52-235-63-232L-63-82Q-54-84-40-86Q-26-88-10-88Q34-88 60.50-69.50Q87-51 108-14L119 6L40 553L230 553L249 299Q251 274 251 251Q251 228 250 206L254 206Q261 229 271 256Q281 283 288 301L397 553L600 553L273-70Q228-156 167.50-198Q107-240 12-240M226 617Q261 646 298.50 688Q336 730 364 766L578 766L578 759Q567 746 541.50 725Q516 704 484 681.50Q452 659 420 638.50Q388 618 365 606L226 606L226 617Z"  horiz-adv-x="544" vert-adv-y="1000"  />

      
      <glyph glyph-name="unife" unicode="&#xfe;" d="M-40-240L172 760L361 760L337 647Q328 601 315 561Q302 521 293 500L297 500Q318 529 344 546Q370 563 408 563Q480 563 523 510Q566 457 566 359Q566 290 548.50 224.50Q531 159 499 106Q467 53 421 21.50Q375-10 318-10Q281-10 253 9.50Q225 29 205 61L201 61Q198 22 193-16.50Q188-55 174-120L149-240L-40-240M280 142Q306 142 327 172Q348 202 360.50 248Q373 294 373 341Q373 411 331 411Q310 411 292 391.50Q274 372 261 340.50Q248 309 242 273Q239 258 238 242.50Q237 227 237 212Q237 181 248.50 161.50Q260 142 280 142Z"  horiz-adv-x="607" vert-adv-y="1000"  />

      
      <glyph glyph-name="uniff" unicode="&#xff;" d="M12-240Q-16-240-34-237.50Q-52-235-63-232L-63-82Q-54-84-40-86Q-26-88-10-88Q34-88 60.50-69.50Q87-51 108-14L119 6L40 553L230 553L249 299Q251 274 251 251Q251 228 250 206L254 206Q261 229 271 256Q281 283 288 301L397 553L600 553L273-70Q228-156 167.50-198Q107-240 12-240M449 614Q413 614 389.50 626.50Q366 639 366 676Q366 724 392 745.50Q418 767 464 767Q494 767 520 755.50Q546 744 546 706Q546 665 525 639.50Q504 614 449 614M211 614Q175 614 151.50 626.50Q128 639 128 676Q128 724 154 745.50Q180 767 226 767Q246 767 265 762.50Q284 758 296.50 745Q309 732 309 706Q309 665 287.50 639.50Q266 614 211 614Z"  horiz-adv-x="544" vert-adv-y="1000"  />

      
      <glyph glyph-name="uni0100" unicode="&#x0100;" d="M-59 0L304 714L550 714L610 0L424 0L419 134L200 134L139 0L-59 0M270 286L413 286L406 491Q405 515 404.50 538.50Q404 562 405 583L402 583Q387 538 367 495L270 286M272 767L297 882L622 882L598 767L272 767Z"  horiz-adv-x="676" vert-adv-y="1000"  />

      
      <glyph glyph-name="uni0101" unicode="&#x0101;" d="M198-10Q156-10 120 10Q84 30 62.50 76Q41 122 41 201Q41 241 50.50 290Q60 339 79 387Q98 435 127.50 475Q157 515 197 539Q237 563 287 563Q334 563 364.50 541.50Q395 520 415 485L419 485L445 553L596 553L479 0L328 0L333 60L329 60Q307 29 277 9.50Q247-10 198-10M276 142Q298 142 315.50 161.50Q333 181 346 212.50Q359 244 365 280Q367 295 369 310.50Q371 326 371 341Q371 373 361 392Q351 411 331 411Q305 411 283 381Q261 351 247.50 305.50Q234 260 234 212Q234 142 276 142M202 606L227 721L552 721L528 606L202 606Z"  horiz-adv-x="607" vert-adv-y="1000"  />

      
      <glyph glyph-name="uni0102" unicode="&#x0102;" d="M-59 0L304 714L550 714L610 0L424 0L419 134L200 134L139 0L-59 0M270 286L413 286L406 491Q405 515 404.50 538.50Q404 562 405 583L402 583Q387 538 367 495L270 286M438 767Q354 767 309 809Q264 851 264 921Q264 938 268 948L374 948Q374 917 396 901Q418 885 454 885Q486 885 512.50 897Q539 909 552 948L660 948Q645 860 592 813.50Q539 767 438 767Z"  horiz-adv-x="676" vert-adv-y="1000"  />

      
      <glyph glyph-name="uni0103" unicode="&#x0103;" d="M198-10Q156-10 120 10Q84 30 62.50 76Q41 122 41 201Q41 241 50.50 290Q60 339 79 387Q98 435 127.50 475Q157 515 197 539Q237 563 287 563Q334 563 364.50 541.50Q395 520 415 485L419 485L445 553L596 553L479 0L328 0L333 60L329 60Q307 29 277 9.50Q247-10 198-10M276 142Q298 142 315.50 161.50Q333 181 346 212.50Q359 244 365 280Q367 295 369 310.50Q371 326 371 341Q371 373 361 392Q351 411 331 411Q305 411 283 381Q261 351 247.50 305.50Q234 260 234 212Q234 142 276 142M368 606Q284 606 239 648Q194 690 194 760Q194 777 198 787L304 787Q304 756 326 740Q348 724 384 724Q416 724 442.50 736Q469 748 482 787L590 787Q575 699 522 652.50Q469 606 368 606Z"  horiz-adv-x="607" vert-adv-y="1000"  />

      
      <glyph glyph-name="uni0104" unicode="&#x0104;" d="M-59 0L304 714L550 714L610 0L424 0L419 134L200 134L139 0L-59 0M270 286L413 286L406 491Q405 515 404.50 538.50Q404 562 405 583L402 583Q387 538 367 495L270 286M441-256Q382-256 350.50-225Q319-194 319-151Q319-101 349-65.50Q379-30 425 0L548 0Q509-32 482-59.50Q455-87 455-120Q455-130 461.50-137.50Q468-145 481-145Q497-145 510-141.50Q523-138 538-133L538-241Q516-248 494.50-252Q473-256 441-256Z"  horiz-adv-x="676" vert-adv-y="1000"  />

      
      <glyph glyph-name="uni0105" unicode="&#x0105;" d="M198-10Q156-10 120 10Q84 30 62.50 76Q41 122 41 201Q41 241 50.50 290Q60 339 79 387Q98 435 127.50 475Q157 515 197 539Q237 563 287 563Q334 563 364.50 541.50Q395 520 415 485L419 485L445 553L596 553L479 0L328 0L333 60L329 60Q307 29 277 9.50Q247-10 198-10M276 142Q298 142 315.50 161.50Q333 181 346 212.50Q359 244 365 280Q367 295 369 310.50Q371 326 371 341Q371 373 361 392Q351 411 331 411Q305 411 283 381Q261 351 247.50 305.50Q234 260 234 212Q234 142 276 142M344-256Q285-256 253.50-225Q222-194 222-151Q222-101 252-65.50Q282-30 328 0L451 0Q412-32 385-59.50Q358-87 358-120Q358-130 364.50-137.50Q371-145 384-145Q400-145 413-141.50Q426-138 441-133L441-241Q419-248 397.50-252Q376-256 344-256Z"  horiz-adv-x="607" vert-adv-y="1000"  />

      
      <glyph glyph-name="uni0106" unicode="&#x0106;" d="M315-10Q226-10 167 25Q108 60 79.50 122.50Q51 185 51 268Q51 332 65 397Q79 462 107.50 521Q136 580 181 626Q226 672 288 698.50Q350 725 430 725Q501 725 558 708Q615 691 665 661L593 512Q547 539 509 552.50Q471 566 430 566Q387 566 352.50 542Q318 518 293.50 477Q269 436 256.50 384.50Q244 333 244 278Q244 213 271.50 180.50Q299 148 350 148Q394 148 435.50 159Q477 170 530 192L530 34Q478 11 424.50 0.50Q371-10 315-10M342 778Q377 807 414.50 849Q452 891 480 927L694 927L694 920Q683 907 657.50 886Q632 865 600 842.50Q568 820 536 799.50Q504 779 481 767L342 767L342 778Z"  horiz-adv-x="630" vert-adv-y="1000"  />

      
      <glyph glyph-name="uni0107" unicode="&#x0107;" d="M247-10Q191-10 144 13Q97 36 69 86Q41 136 41 216Q41 314 77.50 392.50Q114 471 180.50 517Q247 563 337 563Q389 563 431.50 553.50Q474 544 516 524L456 384Q431 395 402 404Q373 413 346 413Q317 413 295 394.50Q273 376 259 347.50Q245 319 238 287Q231 255 231 228Q231 179 247.50 160.50Q264 142 292 142Q327 142 360 153.50Q393 165 430 184L430 34Q391 13 348 1.50Q305-10 247-10M234 617Q269 646 306.50 688Q344 730 372 766L586 766L586 759Q575 746 549.50 725Q524 704 492 681.50Q460 659 428 638.50Q396 618 373 606L234 606L234 617Z"  horiz-adv-x="504" vert-adv-y="1000"  />

      
      <glyph glyph-name="uni0108" unicode="&#x0108;" d="M315-10Q226-10 167 25Q108 60 79.50 122.50Q51 185 51 268Q51 332 65 397Q79 462 107.50 521Q136 580 181 626Q226 672 288 698.50Q350 725 430 725Q501 725 558 708Q615 691 665 661L593 512Q547 539 509 552.50Q471 566 430 566Q387 566 352.50 542Q318 518 293.50 477Q269 436 256.50 384.50Q244 333 244 278Q244 213 271.50 180.50Q299 148 350 148Q394 148 435.50 159Q477 170 530 192L530 34Q478 11 424.50 0.50Q371-10 315-10M204 778Q227 799 254.50 825.50Q282 852 309 879Q336 906 355 927L573 927Q583 905 598 877.50Q613 850 629.50 824Q646 798 661 778L661 767L531 767Q520 777 505.50 792.50Q491 808 477.50 824.50Q464 841 455 852Q427 830 398 808.50Q369 787 338 767L204 767L204 778Z"  horiz-adv-x="630" vert-adv-y="1000"  />

      
      <glyph glyph-name="uni0109" unicode="&#x0109;" d="M247-10Q191-10 144 13Q97 36 69 86Q41 136 41 216Q41 314 77.50 392.50Q114 471 180.50 517Q247 563 337 563Q389 563 431.50 553.50Q474 544 516 524L456 384Q431 395 402 404Q373 413 346 413Q317 413 295 394.50Q273 376 259 347.50Q245 319 238 287Q231 255 231 228Q231 179 247.50 160.50Q264 142 292 142Q327 142 360 153.50Q393 165 430 184L430 34Q391 13 348 1.50Q305-10 247-10M96 617Q119 638 146.50 664.50Q174 691 201 718Q228 745 247 766L465 766Q475 744 490 716.50Q505 689 521.50 663Q538 637 553 617L553 606L423 606Q412 616 397.50 631.50Q383 647 369.50 663.50Q356 680 347 691Q319 669 290 647.50Q261 626 230 606L96 606L96 617Z"  horiz-adv-x="504" vert-adv-y="1000"  />

      
      <glyph glyph-name="uni010A" unicode="&#x010A;" d="M315-10Q226-10 167 25Q108 60 79.50 122.50Q51 185 51 268Q51 332 65 397Q79 462 107.50 521Q136 580 181 626Q226 672 288 698.50Q350 725 430 725Q501 725 558 708Q615 691 665 661L593 512Q547 539 509 552.50Q471 566 430 566Q387 566 352.50 542Q318 518 293.50 477Q269 436 256.50 384.50Q244 333 244 278Q244 213 271.50 180.50Q299 148 350 148Q394 148 435.50 159Q477 170 530 192L530 34Q478 11 424.50 0.50Q371-10 315-10M444 767Q404 767 377.50 781.50Q351 796 351 836Q351 890 380.50 914Q410 938 462 938Q485 938 506 932.50Q527 927 541 912Q555 897 555 869Q555 824 530.50 795.50Q506 767 444 767Z"  horiz-adv-x="630" vert-adv-y="1000"  />

      
      <glyph glyph-name="uni010B" unicode="&#x010B;" d="M247-10Q191-10 144 13Q97 36 69 86Q41 136 41 216Q41 314 77.50 392.50Q114 471 180.50 517Q247 563 337 563Q389 563 431.50 553.50Q474 544 516 524L456 384Q431 395 402 404Q373 413 346 413Q317 413 295 394.50Q273 376 259 347.50Q245 319 238 287Q231 255 231 228Q231 179 247.50 160.50Q264 142 292 142Q327 142 360 153.50Q393 165 430 184L430 34Q391 13 348 1.50Q305-10 247-10M336 606Q296 606 269.50 620.50Q243 635 243 675Q243 729 272.50 753Q302 777 354 777Q377 777 398 771.50Q419 766 433 751Q447 736 447 708Q447 663 422.50 634.50Q398 606 336 606Z"  horiz-adv-x="504" vert-adv-y="1000"  />

      
      <glyph glyph-name="uni010C" unicode="&#x010C;" d="M315-10Q226-10 167 25Q108 60 79.50 122.50Q51 185 51 268Q51 332 65 397Q79 462 107.50 521Q136 580 181 626Q226 672 288 698.50Q350 725 430 725Q501 725 558 708Q615 691 665 661L593 512Q547 539 509 552.50Q471 566 430 566Q387 566 352.50 542Q318 518 293.50 477Q269 436 256.50 384.50Q244 333 244 278Q244 213 271.50 180.50Q299 148 350 148Q394 148 435.50 159Q477 170 530 192L530 34Q478 11 424.50 0.50Q371-10 315-10M330 767Q320 789 305 816.50Q290 844 273.50 870.50Q257 897 242 916L242 927L372 927Q383 918 397.50 902Q412 886 425.50 869.50Q439 853 448 842Q476 864 505 886Q534 908 565 927L699 927L699 916Q674 895 646.50 868.50Q619 842 593.50 815.50Q568 789 548 767L330 767Z"  horiz-adv-x="630" vert-adv-y="1000"  />

      
      <glyph glyph-name="uni010D" unicode="&#x010D;" d="M247-10Q191-10 144 13Q97 36 69 86Q41 136 41 216Q41 314 77.50 392.50Q114 471 180.50 517Q247 563 337 563Q389 563 431.50 553.50Q474 544 516 524L456 384Q431 395 402 404Q373 413 346 413Q317 413 295 394.50Q273 376 259 347.50Q245 319 238 287Q231 255 231 228Q231 179 247.50 160.50Q264 142 292 142Q327 142 360 153.50Q393 165 430 184L430 34Q391 13 348 1.50Q305-10 247-10M222 606Q212 628 197 655.50Q182 683 165.50 709.50Q149 736 134 755L134 766L264 766Q275 757 289.50 741Q304 725 317.50 708.50Q331 692 340 681Q368 703 397 725Q426 747 457 766L591 766L591 755Q566 734 538.50 707.50Q511 681 485.50 654.50Q460 628 440 606L222 606Z"  horiz-adv-x="504" vert-adv-y="1000"  />

      
      <glyph glyph-name="uni010E" unicode="&#x010E;" d="M16 0L167 714L370 714Q501 714 577 645Q653 576 653 444Q653 306 604.50 206.50Q556 107 465 53.50Q374 0 246 0L16 0M275 158Q330 158 371.50 192.50Q413 227 436.50 289.50Q460 352 460 434Q460 495 433.50 526.50Q407 558 360 558L325 558L241 158L275 158M325 767Q315 789 300 816.50Q285 844 268.50 870.50Q252 897 237 916L237 927L367 927Q378 918 392.50 902Q407 886 420.50 869.50Q434 853 443 842Q471 864 500 886Q529 908 560 927L694 927L694 916Q669 895 641.50 868.50Q614 842 588.50 815.50Q563 789 543 767L325 767Z"  horiz-adv-x="684" vert-adv-y="1000"  />

      
      <glyph glyph-name="uni010F" unicode="&#x010F;" d="M650 613Q663 645 678.50 686.50Q694 728 704 760L881 760L881 750Q856 710 828 675Q800 640 766 600L650 600L650 613M198-10Q156-10 120 10Q84 30 62.50 76Q41 122 41 201Q41 241 50.50 290Q60 339 79 387Q98 435 127 475Q156 515 196 539Q236 563 286 563Q331 563 355.50 543Q380 523 402 489L406 489Q406 495 407 516Q408 537 411 563.50Q414 590 419 613L449 760L640 760L479 0L328 0L333 60L329 60Q309 32 280 11Q251-10 198-10M276 142Q298 142 315.50 161.50Q333 181 345.50 211.50Q358 242 364.50 276.50Q371 311 371 341Q371 373 361.50 392Q352 411 332 411Q306 411 283.50 381Q261 351 247.50 305.50Q234 260 234 212Q234 142 276 142Z"  horiz-adv-x="722" vert-adv-y="1000"  />

      
      <glyph glyph-name="uni0110" unicode="&#x0110;" d="M16 0L74 275L5 275L39 431L107 431L167 714L377 714Q509 714 581 644Q653 574 653 444Q653 306 607 206.50Q561 107 473 53.50Q385 0 257 0L16 0M275 158Q330 158 371.50 193Q413 228 436.50 291.50Q460 355 460 440Q460 496 433.50 527Q407 558 360 558L325 558L298 431L385 431L351 275L265 275L241 158L275 158Z"  horiz-adv-x="684" vert-adv-y="1000"  />

      
      <glyph glyph-name="uni0111" unicode="&#x0111;" d="M198-10Q156-10 120 10Q84 30 62.50 76Q41 122 41 201Q41 258 56.50 313.50Q72 369 102 414Q132 459 174 486Q216 513 268 513Q313 513 341.50 493Q370 473 392 439L396 439Q396 445 397 466Q398 487 401 513.50Q404 540 409 563L410 570L291 570L315 688L434 688L449 760L640 760L624 688L701 688L676 570L599 570L479 0L328 0L333 60L329 60Q316 41 300.50 25Q285 9 261-0.50Q237-10 198-10M276 142Q302 142 321 162.50Q340 183 350 217Q360 251 360 291Q360 323 348.50 342Q337 361 317 361Q290 361 271.50 336.50Q253 312 243.50 277.50Q234 243 234 212Q234 142 276 142Z"  horiz-adv-x="604" vert-adv-y="1000"  />

      
      <glyph glyph-name="uni0112" unicode="&#x0112;" d="M16 0L167 714L591 714L559 559L326 559L303 447L520 447L485 292L268 292L240 157L473 157L440 0L16 0M225 767L250 882L575 882L551 767L225 767Z"  horiz-adv-x="562" vert-adv-y="1000"  />

      
      <glyph glyph-name="uni0113" unicode="&#x0113;" d="M260-10Q155-10 98 48.50Q41 107 41 209Q41 277 60.50 340.50Q80 404 119 454Q158 504 217.50 533.50Q277 563 358 563Q451 563 504 521Q557 479 557 409Q557 318 486 262Q415 206 260 206L231 206L231 198Q231 126 311 126Q353 126 390.50 139Q428 152 471 174L471 40Q427 18 379.50 4Q332-10 260-10M264 324Q328 324 353 348.50Q378 373 378 398Q378 414 368 424.50Q358 435 337 435Q315 435 296.50 418Q278 401 266 375.50Q254 350 250 324L264 324M193 606L218 721L543 721L519 606L193 606Z"  horiz-adv-x="579" vert-adv-y="1000"  />

      
      <glyph glyph-name="uni0114" unicode="&#x0114;" d="M16 0L167 714L591 714L559 559L326 559L303 447L520 447L485 292L268 292L240 157L473 157L440 0L16 0M391 767Q307 767 262 809Q217 851 217 921Q217 938 221 948L327 948Q327 917 349 901Q371 885 407 885Q439 885 465.50 897Q492 909 505 948L613 948Q598 860 545 813.50Q492 767 391 767Z"  horiz-adv-x="562" vert-adv-y="1000"  />

      
      <glyph glyph-name="uni0115" unicode="&#x0115;" d="M260-10Q155-10 98 48.50Q41 107 41 209Q41 277 60.50 340.50Q80 404 119 454Q158 504 217.50 533.50Q277 563 358 563Q451 563 504 521Q557 479 557 409Q557 318 486 262Q415 206 260 206L231 206L231 198Q231 126 311 126Q353 126 390.50 139Q428 152 471 174L471 40Q427 18 379.50 4Q332-10 260-10M264 324Q328 324 353 348.50Q378 373 378 398Q378 414 368 424.50Q358 435 337 435Q315 435 296.50 418Q278 401 266 375.50Q254 350 250 324L264 324M359 606Q275 606 230 648Q185 690 185 760Q185 777 189 787L295 787Q295 756 317 740Q339 724 375 724Q407 724 433.50 736Q460 748 473 787L581 787Q566 699 513 652.50Q460 606 359 606Z"  horiz-adv-x="579" vert-adv-y="1000"  />

      
      <glyph glyph-name="uni0116" unicode="&#x0116;" d="M16 0L167 714L591 714L559 559L326 559L303 447L520 447L485 292L268 292L240 157L473 157L440 0L16 0M398 767Q358 767 331.50 781.50Q305 796 305 836Q305 890 334.50 914Q364 938 416 938Q439 938 460 932.50Q481 927 495 912Q509 897 509 869Q509 824 484.50 795.50Q460 767 398 767Z"  horiz-adv-x="562" vert-adv-y="1000"  />

      
      <glyph glyph-name="uni0117" unicode="&#x0117;" d="M260-10Q155-10 98 48.50Q41 107 41 209Q41 277 60.50 340.50Q80 404 119 454Q158 504 217.50 533.50Q277 563 358 563Q451 563 504 521Q557 479 557 409Q557 318 486 262Q415 206 260 206L231 206L231 198Q231 126 311 126Q353 126 390.50 139Q428 152 471 174L471 40Q427 18 379.50 4Q332-10 260-10M264 324Q328 324 353 348.50Q378 373 378 398Q378 414 368 424.50Q358 435 337 435Q315 435 296.50 418Q278 401 266 375.50Q254 350 250 324L264 324M366 606Q326 606 299.50 620.50Q273 635 273 675Q273 729 302.50 753Q332 777 384 777Q407 777 428 771.50Q449 766 463 751Q477 736 477 708Q477 663 452.50 634.50Q428 606 366 606Z"  horiz-adv-x="579" vert-adv-y="1000"  />

      
      </font>
</defs>
</svg>
