<?xml version="1.0" standalone="no"?>
<!DOCTYPE svg PUBLIC "-//W3C//DTD SVG 1.1//EN" "http://www.w3.org/Graphics/SVG/1.1/DTD/svg11.dtd" >
<svg xmlns="http://www.w3.org/2000/svg">
<metadata>
<json>
<![CDATA[
{
	"fontFamily": "agorafonts",
	"majorVersion": 5,
	"minorVersion": 2,
	"designer": "Amal Das S.K",
	"copyright": "Datafloat Technologies",
	"version": "Version 5.2",
	"fontId": "agorafonts",
	"psName": "agorafonts",
	"subFamily": "Regular",
	"fullName": "agorafonts",
	"description": "Font generated by IcoMoon."
}
]]>
</json>
</metadata>
<defs>
<font id="agorafonts" horiz-adv-x="1024">
<font-face units-per-em="1024" ascent="960" descent="-64" />
<missing-glyph horiz-adv-x="1024" />
<glyph unicode="&#x20;" horiz-adv-x="512" d="" />
<glyph unicode="&#xe004;" glyph-name="enterprise-network" data-tags="enterprise-network" d="M730.112 30.208c-29.696 27.648-59.392 55.296-88.064 83.968-24.576 25.6-49.152 52.224-71.68 79.872-13.312 17.408-23.552 33.792-32.768 53.248-25.6 56.32-25.6 105.472-8.192 149.504 26.624-59.392 63.488-113.664 102.4-165.888 8.192-68.608 57.344-149.504 144.384-241.664-16.384 15.36-29.696 26.624-46.080 40.96zM698.368 392.704c-6.144 60.416 1.024 117.76 21.504 167.936-23.552-10.24-47.104-21.504-68.608-34.816-8.192-53.248-3.072-111.616 13.312-169.984 9.216 13.312 20.48 25.6 33.792 36.864M655.36 343.552c-19.456 56.32-29.696 113.664-26.624 167.936-15.36-11.264-30.72-23.552-44.032-35.84 6.144-56.32 26.624-112.64 53.248-168.96 4.096 12.288 10.24 24.576 17.408 36.864M644.096 592.384c18.432 58.368 52.224 110.592 90.112 157.696-28.672-10.24-56.32-22.528-82.944-34.816-33.792-51.2-60.416-108.544-66.56-171.008 17.408 13.312 36.864 26.624 56.32 37.888M560.128 523.776c0 60.416 17.408 116.736 45.056 167.936-21.504-11.264-43.008-24.576-64.512-37.888-21.504-54.272-27.648-111.616-17.408-168.96 11.264 13.312 23.552 26.624 36.864 38.912M567.296 457.216c-10.24-11.264-19.456-24.576-26.624-37.888 21.504-59.392 54.272-114.688 90.112-166.912-1.024 13.312 0 25.6 3.072 37.888-29.696 52.224-54.272 107.52-66.56 166.912M505.856 460.288c-16.384 56.32-17.408 112.64-3.072 166.912-53.248-38.912-104.448-87.040-130.048-148.48-25.6-64.512-10.24-130.048 25.6-186.368 40.96-65.536 99.328-116.736 161.792-160.768 56.32-38.912 120.832-78.848 175.104-118.784-67.584 53.248-140.288 113.664-193.536 181.248-31.744 39.936-59.392 84.992-66.56 137.216-6.144 45.056 6.144 90.112 30.72 129.024M744.448 921.088c-25.6-26.624-51.2-53.248-75.776-80.896-26.624-28.672-55.296-58.368-75.776-92.16 26.624 15.36 53.248 28.672 77.824 39.936 58.368 71.68 116.736 131.072 146.432 172.032-8.192-4.096-56.32-30.72-72.704-38.912M223.232 363.008c52.224-83.968 137.216-146.432 221.184-197.632 80.896-48.128 172.032-91.136 253.952-139.264-8.192 5.12-16.384 9.216-23.552 14.336-71.68 46.080-148.48 90.112-214.016 145.408-61.44 52.224-124.928 113.664-150.528 192.512-50.176 159.744 115.712 271.36 232.448 340.992 38.912 64.512 90.112 118.784 143.36 172.032-125.952-63.488-253.952-125.952-363.52-214.016-47.104-37.888-92.16-82.944-116.736-138.24-26.624-60.416-15.36-120.832 17.408-176.128M706.56 342.528c-34.816-35.84-52.224-83.968-45.056-135.168 20.48-107.52 99.328-193.536 172.032-271.36-10.24 26.624-14.336 54.272-11.264 79.872-29.696 111.616-92.16 212.992-115.712 326.656z" />
<glyph unicode="&#xe005;" glyph-name="equal-housing" data-tags="equal-housing" d="M513.024 960l-501.76-237.568v-108.544l47.104 22.528v-412.672h908.288v409.6l46.080-21.504v110.592l-499.712 237.568zM871.424 318.976h-717.824v362.496l359.424 169.984 358.4-172.032v-360.448zM702.464 402.944h-381.952v100.352h381.952v-100.352zM702.464 563.712h-381.952v102.4h381.952v-102.4zM101.376-64c24.576 0 41.984 18.432 41.984 39.936s-17.408 39.936-41.984 39.936c-24.576 0-40.96-18.432-40.96-39.936s16.384-39.936 40.96-39.936v0 0zM101.376 1.536c14.336 0 24.576-12.288 24.576-24.576 0-11.264-10.24-26.624-24.576-26.624-13.312 0-24.576 15.36-24.576 26.624 0 12.288 10.24 24.576 24.576 24.576v0 0zM188.416-33.28h8.192c16.384 0 26.624 7.168 26.624 23.552 0 17.408-11.264 23.552-29.696 23.552h-21.504v-75.776h16.384v28.672zM188.416 1.536h2.048c9.216 0 15.36-1.024 15.36-11.264 0-9.216-5.12-11.264-14.336-11.264h-3.072v22.528zM267.264-33.28h8.192c17.408 0 26.624 7.168 26.624 23.552 0 17.408-11.264 23.552-28.672 23.552h-22.528v-75.776h16.384v28.672zM267.264 1.536h3.072c9.216 0 15.36-1.024 15.36-11.264 0-9.216-5.12-11.264-15.36-11.264h-3.072v22.528zM367.616-64c24.576 0 41.984 18.432 41.984 39.936s-17.408 39.936-41.984 39.936c-24.576 0-40.96-18.432-40.96-39.936s16.384-39.936 40.96-39.936v0 0zM367.616 1.536c14.336 0 24.576-12.288 24.576-24.576 0-11.264-10.24-26.624-24.576-26.624-13.312 0-24.576 15.36-24.576 26.624 0 12.288 10.24 24.576 24.576 24.576v0 0zM471.040-30.208c11.264 2.048 17.408 11.264 17.408 21.504 0 16.384-12.288 22.528-28.672 22.528h-21.504v-75.776h16.384v30.72l20.48-30.72h19.456l-23.552 31.744zM454.656 2.56h2.048c8.192 0 15.36-2.048 15.36-11.264s-7.168-12.288-15.36-12.288h-2.048v23.552zM200.704 53.76l-11.264 13.312c6.144 7.168 10.24 16.384 10.24 27.648 0 20.48-17.408 39.936-41.984 39.936s-40.96-19.456-40.96-39.936c0-22.528 16.384-40.96 40.96-40.96 8.192 0 15.36 2.048 20.48 5.12l6.144-6.144 16.384 1.024zM169.984 86.528l-17.408-1.024 14.336-14.336c-3.072-2.048-6.144-3.072-9.216-3.072-16.384 0-24.576 12.288-24.576 25.6 0 12.288 9.216 26.624 24.576 26.624 14.336 0 24.576-13.312 24.576-25.6 0-5.12-1.024-12.288-5.12-16.384l-7.168 8.192zM586.752 53.76c24.576 0 41.984 18.432 41.984 40.96 0 20.48-17.408 39.936-41.984 39.936s-40.96-19.456-40.96-39.936c0-22.528 16.384-40.96 40.96-40.96v0 0zM586.752 119.296c14.336 0 24.576-12.288 24.576-24.576 0-11.264-10.24-26.624-24.576-26.624-13.312 0-24.576 15.36-24.576 26.624 0 12.288 10.24 24.576 24.576 24.576v0 0zM545.792 1.536v0-63.488h-16.384v63.488h-17.408v12.288h50.176v-12.288h-16.384zM588.8-31.232v0 45.056h16.384v-41.984c0-10.24 1.024-22.528 14.336-22.528 14.336 0 15.36 12.288 15.36 22.528v41.984h16.384v-45.056c0-18.432-9.216-32.768-31.744-32.768s-30.72 14.336-30.72 32.768v0zM683.008-61.952v0 77.824h12.288l44.032-53.248v51.2h16.384v-76.8h-12.288l-44.032 53.248v-52.224h-16.384zM804.864 13.824v0-75.776h-16.384v75.776h16.384zM864.256 1.536v0-63.488h-16.384v63.488h-17.408v12.288h50.176v-12.288h-16.384zM925.696-27.136v0l-25.6 40.96h18.432l15.36-25.6 15.36 25.6h19.456l-26.624-40.96v-34.816h-16.384v34.816zM107.52 119.296v0h-26.624v-16.384h25.6v-13.312h-25.6v-20.48h26.624v-13.312h-43.008v76.8h43.008v-13.312zM208.896 86.528v0 46.080h16.384v-43.008c0-9.216 1.024-22.528 14.336-22.528 14.336 0 15.36 13.312 15.36 22.528v43.008h16.384v-46.080c0-18.432-9.216-32.768-31.744-32.768s-30.72 14.336-30.72 32.768v0zM330.752 72.192l6.144-16.384h17.408l-31.744 78.848h-12.288l-32.768-78.848h17.408l7.168 16.384h28.672zM326.656 84.48h-20.48l9.216 27.648 11.264-27.648zM377.856 132.608v0-63.488h23.552v-13.312h-39.936v76.8h16.384zM489.472 101.888v0h29.696v30.72h16.384v-76.8h-16.384v34.816h-29.696v-34.816h-16.384v76.8h16.384v-30.72zM637.952 86.528v0 46.080h16.384v-43.008c0-9.216 1.024-22.528 15.36-22.528 13.312 0 14.336 13.312 14.336 22.528v43.008h16.384v-46.080c0-18.432-8.192-32.768-30.72-32.768s-31.744 14.336-31.744 32.768v0zM760.832 125.44v0l-7.168-10.24c-3.072 4.096-7.168 6.144-13.312 6.144-5.12 0-10.24-3.072-10.24-8.192 0-12.288 33.792-7.168 33.792-32.768 0-15.36-10.24-26.624-27.648-26.624-11.264 0-20.48 6.144-25.6 15.36l10.24 9.216c2.048-6.144 8.192-11.264 15.36-11.264 6.144 0 10.24 5.12 10.24 11.264 0 7.168-8.192 10.24-14.336 12.288-10.24 4.096-18.432 9.216-18.432 20.48 0 13.312 10.24 23.552 24.576 23.552 7.168 0 17.408-4.096 22.528-9.216v0zM790.528 132.608v0-76.8h-16.384v76.8h16.384zM804.864 55.808v0 78.848h11.264l44.032-53.248v51.2h16.384v-77.824h-11.264l-44.032 53.248v-52.224h-16.384zM928.768 96.768v0h35.84v-2.048c0-21.504-12.288-40.96-37.888-40.96-24.576 0-39.936 19.456-39.936 39.936 0 21.504 15.36 40.96 40.96 40.96 14.336 0 26.624-7.168 32.768-18.432l-14.336-7.168c-3.072 7.168-10.24 12.288-18.432 12.288-16.384 0-23.552-14.336-23.552-27.648 0-12.288 7.168-26.624 23.552-26.624 10.24 0 18.432 8.192 18.432 17.408h-17.408v12.288z" />
<glyph unicode="&#xe006;" glyph-name="realtor" data-tags="realtor" d="M91.136 960v-841.728h834.56v841.728h-834.56zM858.112 224.768h-328.704v315.392l328.704-315.392zM529.408 542.208v317.44h94.208c86.016-9.216 148.48-75.776 147.456-159.744 0-82.944-62.464-148.48-147.456-157.696h-94.208zM440.32 862.72v-638.976h-240.64v638.976h240.64zM947.2 94.72c-6.144 0-12.288-2.048-16.384-6.144-4.096-5.12-7.168-11.264-7.168-17.408s3.072-12.288 7.168-17.408c4.096-4.096 10.24-6.144 16.384-6.144s12.288 2.048 17.408 7.168c4.096 4.096 7.168 10.24 7.168 16.384s-3.072 12.288-7.168 16.384c-4.096 5.12-10.24 7.168-17.408 7.168v0 0zM968.704 71.168c0-6.144-2.048-11.264-6.144-15.36s-9.216-6.144-15.36-6.144c-5.12 0-10.24 2.048-14.336 6.144s-6.144 9.216-6.144 15.36c0 5.12 2.048 11.264 6.144 15.36s9.216 6.144 14.336 6.144c6.144 0 11.264-2.048 15.36-6.144s6.144-10.24 6.144-15.36v0 0zM948.224 85.504h-10.24v-27.648h4.096v12.288h7.168l5.12-12.288h5.12l-6.144 12.288c4.096 1.024 6.144 4.096 6.144 7.168 0 5.12-3.072 8.192-11.264 8.192v0 0zM947.2 82.432c6.144 0 8.192-1.024 8.192-5.12s-2.048-5.12-8.192-5.12h-5.12v10.24h5.12zM415.744-7.68h-50.176l24.576 65.536 25.6-65.536zM346.112-61.952l15.36 41.984h58.368l16.384-41.984h13.312l-51.2 132.096h-15.36l-51.2-132.096h14.336zM107.52 57.856v0-119.808h-12.288v132.096h34.816c13.312 0 22.528-1.024 31.744-7.168 11.264-7.168 17.408-20.48 17.408-34.816 0-19.456-13.312-36.864-31.744-37.888l31.744-51.2h-15.36l-38.912 63.488h12.288c17.408 0 28.672 11.264 28.672 25.6 0 9.216-4.096 17.408-10.24 22.528-7.168 7.168-16.384 7.168-28.672 7.168h-19.456zM240.64 11.776v0h55.296v-13.312h-55.296v-47.104h55.296v-12.288h-68.608v132.096h68.608v-13.312h-55.296v-46.080zM546.816-61.952v0h-59.392v132.096h13.312v-118.784h46.080v-13.312zM612.352-61.952v0h-13.312v119.808h-26.624v12.288h66.56v-12.288h-26.624v-119.808zM858.112 57.856v0-119.808h-13.312v132.096h35.84c12.288 0 22.528-1.024 31.744-7.168 10.24-7.168 16.384-20.48 16.384-34.816 0-19.456-13.312-36.864-31.744-37.888l31.744-51.2h-15.36l-38.912 63.488h12.288c17.408 0 28.672 11.264 28.672 25.6 0 9.216-3.072 17.408-10.24 22.528-7.168 7.168-16.384 7.168-28.672 7.168h-18.432zM666.624 5.632c0-39.936 28.672-69.632 66.56-69.632 19.456 0 36.864 7.168 50.176 22.528 12.288 12.288 17.408 27.648 17.408 47.104s-7.168 34.816-20.48 48.128c-12.288 13.312-28.672 19.456-47.104 19.456s-33.792-6.144-46.080-19.456c-13.312-13.312-20.48-29.696-20.48-48.128v0 0zM679.936 5.632c0 15.36 7.168 31.744 20.48 43.008 9.216 7.168 20.48 12.288 32.768 12.288 30.72 0 54.272-25.6 54.272-55.296 0-32.768-23.552-57.344-53.248-57.344-30.72 0-54.272 24.576-54.272 57.344v0 0z" />
<glyph unicode="&#xe900;" glyph-name="help" data-tags="help" d="M642 458.667q40 40 40 96 0 70-50 120t-120 50-120-50-50-120h84q0 34 26 60t60 26 60-26 26-60-26-60l-52-54q-50-54-50-120v-22h84q0 66 50 120zM554 128.667v84h-84v-84h84zM512 852.667q176 0 301-125t125-301-125-301-301-125-301 125-125 301 125 301 301 125z" />
<glyph unicode="&#xe901;" glyph-name="acres" data-tags="acres" d="M614.4 144.896h-493.568v528.384h131.072v98.304h493.568v-528.384h-131.072v-98.304zM133.12 157.184h468.992v98.304h131.072v503.808h-468.992v-98.304h-131.072v-503.808zM617.472 141.824h-499.712v534.528h131.072v98.304h499.712v-534.528h-131.072v-98.304zM123.904 147.968h487.424v98.304h131.072v522.24h-487.424v-98.304h-131.072v-522.24zM605.184 154.112h-475.136v509.952h131.072v98.304h475.136v-509.952h-131.072v-98.304zM136.192 160.256h462.848v98.304h131.072v497.664h-462.848v-98.304h-131.072v-497.664zM624.64 134.656h-514.048v548.864h131.072v98.304h514.048v-548.864h-131.072v-98.304zM143.36 167.424h448.512v98.304h131.072v483.328h-448.512v-98.304h-131.072v-483.328zM627.712 131.584h-520.192v555.008h131.072v98.304h520.192v-555.008h-131.072v-98.304zM113.664 137.728h507.904v98.304h131.072v542.72h-507.904v-98.304h-131.072v-542.72zM594.944 164.352h-454.656v489.472h131.072v98.304h454.656v-489.472h-131.072v-98.304zM146.432 170.496h442.368v98.304h131.072v477.184h-442.368v-98.304h-131.072v-477.184z" />
<glyph unicode="&#xe902;" glyph-name="bathtub" data-tags="bathtub" horiz-adv-x="959" d="M801.187 56.351c-0.471 0-0.941 0-1.412 0h-651.18c-26.047 1.883-45.661 10.67-58.214 26.047-15.063 18.515-14.122 40.483-13.651 45.504v186.253h-45.347v77.043h897.844v-77.043h-50.996v-188.293l-0.314-1.255c-11.611-54.134-54.448-68.256-76.729-68.256zM800.402 81.456c0.157 0 11.141-0.157 23.066 5.963 15.063 7.532 25.106 21.497 29.499 41.268v185.469h-750.975v-187.822l-0.157-0.785c0 0-1.726-15.534 8.316-27.616 7.846-9.572 21.34-15.063 39.855-16.476h650.395zM878.073 339.261h25.89v26.832h-847.475v-26.832h821.585zM800.245-21.634h-59.626c-6.904 0-12.553 5.649-12.553 12.553v78.455c0 6.904 5.649 12.553 12.553 12.553h59.626c6.904 0 12.553-5.649 12.553-12.553v-78.455c0-7.061-5.649-12.553-12.553-12.553zM753.172 3.472h34.52v53.35h-34.52v-53.35zM213.399-23.203h-59.626c-6.904 0-12.553 5.649-12.553 12.553v78.455c0 6.904 5.649 12.553 12.553 12.553h59.626c6.904 0 12.553-5.649 12.553-12.553v-78.455c0-7.061-5.649-12.553-12.553-12.553zM166.325 1.903h34.52v53.35h-34.52v-53.35zM698.253 227.854h-105.13c-6.904 0-12.553 5.649-12.553 12.553s5.649 12.553 12.553 12.553h105.13c6.904 0 12.553-5.649 12.553-12.553s-5.649-12.553-12.553-12.553zM800.245 227.854h-54.919c-6.904 0-12.553 5.649-12.553 12.553s5.649 12.553 12.553 12.553h54.919c6.904 0 12.553-5.649 12.553-12.553s-5.649-12.553-12.553-12.553zM524.239 708.629h-302.21l-1.255 11.141c-0.471 3.452-3.452 34.834 13.965 54.291 8.316 9.415 20.241 14.279 34.050 14.279h198.178c2.354 0 24.164-0.471 40.64-17.417 11.768-12.082 17.417-28.872 16.789-50.055l-0.157-12.239zM245.722 733.735h253.097c-1.255 8.159-4.237 14.75-8.787 19.614-9.258 9.728-22.752 10.042-22.909 10.042h-198.178c-6.904 0-11.768-1.883-15.377-5.963-5.335-5.963-7.375-15.691-7.846-23.694zM131.177 378.645h-25.106v439.036c0 0.941 1.098 24.792 19.771 41.738 13.024 11.925 31.068 17.417 53.35 16.162h150.007c18.672-1.412 53.507-16.319 51.624-62.137l-25.106 0.941c0.628 14.122-3.609 24.007-12.867 30.284-6.59 4.394-13.651 5.649-15.377 5.806h-149.379c-15.377 0.785-27.146-2.354-35.148-9.415-10.199-9.101-11.611-22.438-11.768-24.164v-438.252zM355.56 814.073h25.106v-39.228h-25.106v39.228zM355.56 690.27h25.106v-94.774h-25.106v94.774zM448.137 690.27h25.106v-76.572h-25.106v76.572zM263.61 690.27h25.106v-60.097h-25.106v60.097zM448.137 595.496h25.106v-16.476h-25.106v16.476zM355.56 579.021h25.106v-34.677h-25.106v34.677zM263.61 613.698h25.106v-25.576h-25.106v25.576z" />
<glyph unicode="&#xe903;" glyph-name="bed" data-tags="bed" d="M180.019 624.128l-111.411 1.229v290.611h888.832v-286.515l-119.603-1.229-0.41 32.768 87.245 0.819v221.389h-823.296v-225.485l79.053-0.819zM459.776 571.904h-253.952c-20.275 0-36.864 18.637-36.864 41.574v85.606c0 22.938 16.384 41.574 36.659 41.779v0l253.952 2.048c0 0 0.205 0 0.205 0 9.83 0 18.842-4.301 25.805-12.083s10.854-18.227 10.854-29.491v-87.859c0.205-22.938-16.384-41.574-36.659-41.574zM206.029 704c-2.253 0-4.301-2.253-4.301-4.71v-85.606c0-2.458 1.843-4.71 4.096-4.71h253.952c2.253 0 4.096 2.048 4.096 4.71v87.859c0 1.434-0.614 2.458-1.229 3.072s-1.434 1.229-2.867 1.229l-253.747-1.843zM807.936 571.904h-253.952c-20.275 0-36.864 18.637-36.864 41.574v85.606c0 22.938 16.384 41.574 36.659 41.779l253.952 2.048c0 0 0.205 0 0.205 0 9.83 0 18.842-4.301 25.805-12.083s10.854-18.227 10.854-29.491v-87.859c0.205-22.938-16.384-41.574-36.659-41.574zM554.189 704c-2.253 0-4.301-2.253-4.301-4.71v-85.606c0-2.458 1.843-4.71 4.096-4.71h253.952c2.253 0 4.096 2.048 4.096 4.71v87.859c0 1.434-0.614 2.458-1.229 3.072s-1.434 1.229-2.867 1.229c0 0 0 0 0 0l-253.747-1.843zM1009.664-5.632h-177.971l-32.563 57.139c-0.819 1.229-8.602 9.83-33.178 8.397l-535.347 0.205c-0.614 0-19.251 2.253-34.816-10.65l-31.334-55.091h-143.974v323.584l989.184-4.301v-319.283zM850.739 27.136h126.157v253.952l-923.648 3.891v-258.048h92.16l24.576 43.008 1.843 1.638c24.576 22.938 55.091 21.504 62.054 20.685h530.842c45.261 2.253 60.416-20.685 62.669-24.576l23.347-40.55zM798.72 52.122c0 0 0.205-0.205 0.205-0.614l-0.205 0.614zM957.645 281.293c0 0-0.205 0-0.205 0l-888.832 5.12c-10.035 0-19.456 4.301-26.010 11.469s-9.626 17.203-8.397 27.034l6.758 59.392c2.253 19.661 19.251 34.816 39.117 34.816h860.16c19.251 0 36.864-14.95 39.936-33.997l10.65-65.126c1.638-10.035-1.024-20.070-7.373-27.443-6.349-7.168-15.77-11.264-25.805-11.264zM68.608 318.976l888.832-5.12c0.614 0 0.819 0 1.024 0.205 0 0 0 0.41 0 0.819l-10.65 65.126c-0.614 3.277-4.301 6.554-7.578 6.554h-860.365c-2.867 0-6.144-2.867-6.554-5.734l-6.758-59.392c0-0.614 0-1.229 0.41-1.638 0.41-0.614 1.229-0.819 1.638-0.819v0zM55.212 408.367l84.979 237.578 30.854-11.036-84.979-237.578-30.854 11.036zM843.615 638.31l31.021 10.555 83.975-246.815-31.021-10.555-83.975 246.815z" />
<glyph unicode="&#xe904;" glyph-name="lot-square" data-tags="lot-square" horiz-adv-x="1087" d="M886.072 403.526h-23.98v498.649h-808.009v-162.928l662.938-1.19v-23.98l-686.918 1.19v210.889h855.969zM894.576 395.023h-40.987v498.649h-790.832v-146.091l662.938-1.19v-40.987l-703.756 1.19v227.896h872.636v-539.467zM870.596 412.030h6.973v505.622h-838.962v-193.881l669.741-1.19v6.973l-662.938 1.19v179.936h824.846v-498.649zM639.128-42.401h-618.55v436.233l340.313 2.381-4.762 328.408 23.98 0.34 5.102-352.558-340.653-2.381v-388.443h570.59v196.603h429.090v350.007h-170.241v23.98h194.222v-397.967h-429.090zM647.632-50.905h-635.557v453.24l340.143 2.381-4.592 328.238 40.987 0.51 5.272-369.565-340.653-2.381v-371.436h553.582v196.603h428.92v333h-170.241v40.987h211.229v-414.974h-429.090v-196.603zM29.082-33.897h601.543v196.603h429.090v380.96h-177.214v-6.973h170.241v-367.014h-429.090v-196.603h-587.597v405.45l340.483 2.381-4.762 335.381-6.973-0.17 4.592-328.408-340.313-2.381v-419.226zM433.852 394.002h58.675v-23.98h-58.675v23.98zM501.030 361.519h-75.682v40.987h75.682v-40.987zM442.356 378.526h41.667v6.973h-41.667v-6.973zM528.582 394.002h53.913v-23.98h-53.913v23.98zM590.998 361.519h-70.92v40.987h70.92v-40.987zM537.086 378.526h36.905v6.973h-36.905v-6.973zM612.767 347.573h23.98v-45.919h-23.98v45.919zM645.251 293.15h-40.987v62.926h40.987v-62.926zM621.271 310.157h6.973v28.912h-6.973v-28.912zM612.767 262.197h23.98v-45.579h-23.98v45.579zM645.251 208.114h-40.987v62.586h40.987v-62.586zM621.271 225.121h6.973v28.572h-6.973v-28.572z" />
<glyph unicode="&#xe905;" glyph-name="scale" data-tags="scale" d="M925.082-14.848h-794.214c-24.576 0-44.851 20.070-44.851 44.851v794.214c0 20.48 11.264 27.238 15.974 29.286 4.915 2.048 17.613 5.12 31.949-9.421l810.803-810.803c14.541-14.541 11.469-27.238 9.421-31.949-1.843-4.915-8.602-16.179-29.082-16.179zM118.784 812.954v-783.155c0-6.554 5.325-12.083 12.083-12.083h783.155l-795.238 795.238zM150.528-14.848c-9.011 0-16.384 7.373-16.384 16.384v79.462c0 9.011 7.373 16.384 16.384 16.384s16.384-7.373 16.384-16.384v-79.462c0-9.011-7.168-16.384-16.384-16.384zM232.858-3.584c-9.011 0-16.384 7.373-16.384 16.384v42.598c0 9.011 7.373 16.384 16.384 16.384s16.384-7.373 16.384-16.384v-42.598c0-9.011-7.373-16.384-16.384-16.384zM315.187-3.584c-9.011 0-16.384 7.373-16.384 16.384v67.994c0 9.011 7.373 16.384 16.384 16.384s16.384-7.373 16.384-16.384v-67.994c0-9.011-7.373-16.384-16.384-16.384zM397.517-3.584c-9.011 0-16.384 7.373-16.384 16.384v42.598c0 9.011 7.373 16.384 16.384 16.384s16.384-7.373 16.384-16.384v-42.598c0-9.011-7.373-16.384-16.384-16.384zM479.642-3.584c-9.011 0-16.384 7.373-16.384 16.384v67.994c0 9.011 7.373 16.384 16.384 16.384s16.384-7.373 16.384-16.384v-67.994c0-9.011-7.373-16.384-16.384-16.384zM561.971-3.584c-9.011 0-16.384 7.373-16.384 16.384v42.598c0 9.011 7.373 16.384 16.384 16.384s16.384-7.373 16.384-16.384v-42.598c0-9.011-7.373-16.384-16.384-16.384zM644.301-3.584c-9.011 0-16.384 7.373-16.384 16.384v67.994c0 9.011 7.373 16.384 16.384 16.384s16.384-7.373 16.384-16.384v-67.994c0-9.011-7.373-16.384-16.384-16.384zM726.426-3.584c-9.011 0-16.384 7.373-16.384 16.384v42.598c0 9.011 7.373 16.384 16.384 16.384s16.384-7.373 16.384-16.384v-42.598c0-9.011-7.373-16.384-16.384-16.384zM808.755-11.981c-9.011 0-16.384 7.373-16.384 16.384v76.595c0 9.011 7.373 16.384 16.384 16.384s16.384-7.373 16.384-16.384v-76.595c0-9.011-7.373-16.384-16.384-16.384zM615.834 144.077h-382.976c-24.576 0-44.851 20.070-44.851 44.851v382.976c0 20.48 11.264 27.238 15.974 29.286 4.915 2.048 17.613 5.12 31.949-9.421l399.77-399.77c14.541-14.541 11.469-27.238 9.421-31.949-2.048-4.915-8.806-15.974-29.286-15.974zM220.979 560.435v-371.712c0-6.554 5.325-12.083 12.083-12.083h371.712l-383.795 383.795z" />
<glyph unicode="&#xe906;" glyph-name="error-outline" data-tags="error-outline" d="M512 84.667q140 0 241 101t101 241-101 241-241 101-241-101-101-241 101-241 241-101zM512 852.667q176 0 301-125t125-301-125-301-301-125-301 125-125 301 125 301 301 125zM470 640.667h84v-256h-84v256zM470 298.667h84v-86h-84v86z" />
<glyph unicode="&#xe907;" glyph-name="play-circle-outline" data-tags="play-circle-outline" d="M512 84.667q140 0 241 101t101 241-101 241-241 101-241-101-101-241 101-241 241-101zM512 852.667q176 0 301-125t125-301-125-301-301-125-301 125-125 301 125 301 301 125zM426 234.667v384l256-192z" />
<glyph unicode="&#xe908;" glyph-name="business" data-tags="business" d="M768 298.667v-86h-86v86h86zM768 468.667v-84h-86v84h86zM854 128.667v426h-342v-86h86v-84h-86v-86h86v-86h-86v-84h342zM426 640.667v84h-84v-84h84zM426 468.667v86h-84v-86h84zM426 298.667v86h-84v-86h84zM426 128.667v84h-84v-84h84zM256 640.667v84h-86v-84h86zM256 468.667v86h-86v-86h86zM256 298.667v86h-86v-86h86zM256 128.667v84h-86v-84h86zM512 640.667h426v-598h-852v768h426v-170z" />
<glyph unicode="&#xe909;" glyph-name="phone" data-tags="phone" d="M854 282.667q18 0 30-12t12-30v-148q0-50-42-50-298 0-512 214t-214 512q0 42 50 42h148q18 0 30-12t12-30q0-78 24-150 8-26-10-44l-82-72q92-192 294-290l66 84q12 12 30 12 10 0 14-2 72-24 150-24z" />
<glyph unicode="&#xe90a;" glyph-name="clear-all" data-tags="clear-all" d="M298 640.667h598v-86h-598v86zM128 212.667v86h598v-86h-598zM214 384.667v84h596v-84h-596z" />
<glyph unicode="&#xe90b;" glyph-name="email" data-tags="email" d="M854 596.667v86l-342-214-342 214v-86l342-212zM854 768.667q34 0 59-26t25-60v-512q0-34-25-60t-59-26h-684q-34 0-59 26t-25 60v512q0 34 25 60t59 26h684z" />
<glyph unicode="&#xe90c;" glyph-name="location" data-tags="location" d="M512 448.667q44 0 75 31t31 75-31 75-75 31-75-31-31-75 31-75 75-31zM512 852.667q124 0 211-87t87-211q0-62-31-142t-75-150-87-131-73-97l-32-34q-12 14-32 37t-72 92-91 134-71 147-32 144q0 124 87 211t211 87z" />
<glyph unicode="&#xe90d;" glyph-name="phone-ring" data-tags="phone-ring" d="M598 84.667v684h-428v-684h428zM598 896.667q34 0 59-26t25-60v-768q0-34-25-60t-59-26h-428q-34 0-59 26t-25 60v768q0 34 25 60t59 26h428zM768 520.667q40-42 40-94t-40-90l-42 44q36 50 0 98zM858 610.667q80-76 80-183t-80-181l-44 44q58 62 58 141t-58 135z" />
<glyph unicode="&#xe90e;" glyph-name="add" data-tags="add" d="M810 384.667h-256v-256h-84v256h-256v84h256v256h84v-256h256v-84z" />
<glyph unicode="&#xe90f;" glyph-name="close" data-tags="close" d="M810 664.667l-238-238 238-238-60-60-238 238-238-238-60 60 238 238-238 238 60 60 238-238 238 238z" />
<glyph unicode="&#xe910;" glyph-name="edit" data-tags="edit" d="M884 638.667l-78-78-160 160 78 78q12 12 30 12t30-12l100-100q12-12 12-30t-12-30zM128 202.667l472 472 160-160-472-472h-160v160z" />
<glyph unicode="&#xe911;" glyph-name="remove" data-tags="remove" d="M810 384.667h-596v84h596v-84z" />
<glyph unicode="&#xe912;" glyph-name="save" data-tags="save" d="M640 554.667v170h-426v-170h426zM512 128.667q52 0 90 38t38 90-38 90-90 38-90-38-38-90 38-90 90-38zM726 810.667l170-170v-512q0-34-26-60t-60-26h-596q-36 0-61 25t-25 61v596q0 36 25 61t61 25h512z" />
<glyph unicode="&#xe913;" glyph-name="gps" data-tags="gps" d="M512 128.667q124 0 211 87t87 211-87 211-211 87-211-87-87-211 87-211 211-87zM894 468.667h88v-84h-88q-14-126-114-226t-226-114v-88h-84v88q-126 14-226 114t-114 226h-88v84h88q14 126 114 226t226 114v88h84v-88q126-14 226-114t114-226zM512 596.667q70 0 120-50t50-120-50-120-120-50-120 50-50 120 50 120 120 50z" />
<glyph unicode="&#xe914;" glyph-name="keyboard-arrow-down" data-tags="keyboard-arrow-down" d="M316 572.667l196-196 196 196 60-60-256-256-256 256z" />
<glyph unicode="&#xe915;" glyph-name="keyboard-arrow-left" data-tags="keyboard-arrow-left" d="M658 230.667l-60-60-256 256 256 256 60-60-196-196z" />
<glyph unicode="&#xe916;" glyph-name="keyboard-arrow-right" data-tags="keyboard-arrow-right" d="M366 230.667l196 196-196 196 60 60 256-256-256-256z" />
<glyph unicode="&#xe917;" glyph-name="keyboard-arrow-up" data-tags="keyboard-arrow-up" d="M316 280.667l-60 60 256 256 256-256-60-60-196 196z" />
<glyph unicode="&#xe918;" glyph-name="phone-iphone" data-tags="phone-iphone" d="M682 170.667v598h-384v-598h384zM490 0.667q26 0 45 19t19 45-19 45-45 19-45-19-19-45 19-45 45-19zM662 896.667q44 0 75-32t31-76v-724q0-44-31-76t-75-32h-342q-44 0-75 32t-31 76v724q0 44 31 76t75 32h342z" />
<glyph unicode="&#xe919;" glyph-name="directions" data-tags="directions" d="M598 320.667l148 148-148 150v-106h-214q-18 0-30-13t-12-31v-170h84v128h172v-106zM926 456.667q12-12 12-30t-12-30l-384-384q-12-12-30-12t-30 12l-384 384q-12 12-12 30t12 30l384 384q12 12 30 12t30-12z" />
<glyph unicode="&#xe91a;" glyph-name="map" data-tags="map" d="M640 128.667v506l-256 90v-506zM874 810.667q22 0 22-22v-644q0-16-16-20l-240-82-256 90-228-88-6-2q-22 0-22 22v644q0 16 16 20l240 82 256-90 228 88z" />
<glyph unicode="&#xe91b;" glyph-name="satellite1" data-tags="satellite" d="M214 170.667h596l-192 256-148-192-108 128zM214 426.667q124 0 211 88t87 212h-86q0-88-62-151t-150-63v-86zM214 726.667v-130q52 0 90 39t38 91h-128zM810 810.667q34 0 60-26t26-60v-596q0-34-26-60t-60-26h-596q-34 0-60 26t-26 60v596q0 34 26 60t60 26h596z" />
<glyph unicode="&#xe91c;" glyph-name="fullscreen" data-tags="fullscreen" d="M598 724.667h212v-212h-84v128h-128v84zM726 212.667v128h84v-212h-212v84h128zM214 512.667v212h212v-84h-128v-128h-84zM298 340.667v-128h128v-84h-212v212h84z" />
<glyph unicode="&#xe91d;" glyph-name="fullscreen-exit" data-tags="fullscreen-exit" d="M682 596.667h128v-84h-212v212h84v-128zM598 128.667v212h212v-84h-128v-128h-84zM342 596.667v128h84v-212h-212v84h128zM214 256.667v84h212v-212h-84v128h-128z" />
<glyph unicode="&#xe91e;" glyph-name="menu" data-tags="menu" d="M128 682.667h768v-86h-768v86zM128 384.667v84h768v-84h-768zM128 170.667v86h768v-86h-768z" />
<glyph unicode="&#xe91f;" glyph-name="person" data-tags="person" d="M512 340.667q108 0 225-47t117-123v-86h-684v86q0 76 117 123t225 47zM512 426.667q-70 0-120 50t-50 120 50 121 120 51 120-51 50-121-50-120-120-50z" />
<glyph unicode="&#xe920;" glyph-name="public" data-tags="public" d="M764 196.667q90 96 90 230 0 106-59 192t-155 124v-18q0-34-26-59t-60-25h-84v-86q0-18-13-30t-31-12h-84v-86h256q18 0 30-12t12-30v-128h42q60 0 82-60zM470 88.667v82q-34 0-60 26t-26 60v42l-204 204q-10-40-10-76 0-130 87-226t213-112zM512 852.667q176 0 301-125t125-301-125-301-301-125-301 125-125 301 125 301 301 125z" />
<glyph unicode="&#xe921;" glyph-name="account-box" data-tags="account-box" d="M256 212.667v-42h512v42q0 58-88 95t-168 37-168-37-88-95zM640 554.667q0 52-38 90t-90 38-90-38-38-90 38-90 90-38 90 38 38 90zM128 724.667q0 36 25 61t61 25h596q34 0 60-26t26-60v-596q0-34-26-60t-60-26h-596q-36 0-61 25t-25 61v596z" />
<glyph unicode="&#xe922;" glyph-name="favorite" data-tags="favorite" d="M512 28.667l-62 56q-106 96-154 142t-107 114-81 123-22 113q0 98 67 166t167 68q116 0 192-90 76 90 192 90 100 0 167-68t67-166q0-78-52-162t-113-146-199-186z" />
<glyph unicode="&#xe923;" glyph-name="favorite-outline" data-tags="favorite-outline" d="M516 146.667q96 86 142 130t100 104 75 106 21 90q0 64-43 106t-107 42q-50 0-93-28t-59-72h-80q-16 44-59 72t-93 28q-64 0-107-42t-43-106q0-44 21-90t75-106 100-104 142-130l4-4zM704 810.667q100 0 167-68t67-166q0-58-22-113t-81-123-107-114-154-142l-62-56-62 54q-138 124-199 186t-113 146-52 162q0 98 67 166t167 68q116 0 192-90 76 90 192 90z" />
<glyph unicode="&#xe924;" glyph-name="search" data-tags="search" d="M406 340.667q80 0 136 56t56 136-56 136-136 56-136-56-56-136 56-136 136-56zM662 340.667l212-212-64-64-212 212v34l-12 12q-76-66-180-66-116 0-197 80t-81 196 81 197 197 81 196-81 80-197q0-42-20-95t-46-85l12-12h34z" />
<glyph unicode="&#xe925;" glyph-name="grid" data-tags="grid" d="M682 724.667h214v-256h-214v256zM426 468.667v256h214v-256h-214zM682 170.667v256h214v-256h-214zM426 170.667v256h214v-256h-214zM170 170.667v256h214v-256h-214zM170 468.667v256h214v-256h-214z" />
<glyph unicode="&#xe926;" glyph-name="radio-button-unchecked" data-tags="radio-button-unchecked" d="M512 84.667q140 0 241 101t101 241-101 241-241 101-241-101-101-241 101-241 241-101zM512 852.667q176 0 301-125t125-301-125-301-301-125-301 125-125 301 125 301 301 125z" />
<glyph unicode="&#xe927;" glyph-name="print" data-tags="print" d="M768 810.667v-170h-512v170h512zM810 426.667q18 0 31 12t13 30-13 31-31 13-30-13-12-31 12-30 30-12zM682 128.667v212h-340v-212h340zM810 596.667q52 0 90-38t38-90v-256h-170v-170h-512v170h-170v256q0 52 38 90t90 38h596z" />
<glyph unicode="&#xe928;" glyph-name="share" data-tags="share" d="M768 252.667q52 0 88-37t36-87q0-52-37-89t-87-37-87 37-37 89q0 20 2 28l-302 176q-38-34-88-34-52 0-90 38t-38 90 38 90 90 38q50 0 88-34l300 174q-4 20-4 30 0 52 38 90t90 38 90-38 38-90-38-90-90-38q-48 0-88 36l-300-176q4-20 4-30t-4-30l304-176q36 32 84 32z" />
<glyph unicode="&#xe929;" glyph-name="border-bottom" data-tags="border-bottom" d="M214 298.667v-86h-86v86h86zM128 42.667v86h768v-86h-768zM214 468.667v-84h-86v84h86zM810 554.667v86h86v-86h-86zM810 810.667h86v-86h-86v86zM214 640.667v-86h-86v86h86zM810 212.667v86h86v-86h-86zM810 384.667v84h86v-84h-86zM726 810.667v-86h-86v86h86zM554 810.667v-86h-84v86h84zM726 468.667v-84h-86v84h86zM554 640.667v-86h-84v86h84zM214 810.667v-86h-86v86h86zM554 468.667v-84h-84v84h84zM384 810.667v-86h-86v86h86zM554 298.667v-86h-84v86h84zM384 468.667v-84h-86v84h86z" />
<glyph unicode="&#xe92a;" glyph-name="collectionsphoto-library" data-tags="collectionsphoto-library" d="M86 682.667h84v-598h598v-84h-598q-34 0-59 25t-25 59v598zM470 426.667l-128-170h512l-172 212-126-158zM938 256.667q0-34-25-60t-59-26h-512q-34 0-60 26t-26 60v512q0 34 26 59t60 25h512q34 0 59-25t25-59v-512z" />
<glyph unicode="&#xe92b;" glyph-name="color-lenspalette" data-tags="color-lenspalette" d="M746 426.667q26 0 45 18t19 46-19 46-45 18-45-18-19-46 19-46 45-18zM618 596.667q26 0 45 19t19 45-19 45-45 19-45-19-19-45 19-45 45-19zM406 596.667q26 0 45 19t19 45-19 45-45 19-45-19-19-45 19-45 45-19zM278 426.667q26 0 45 18t19 46-19 46-45 18-45-18-19-46 19-46 45-18zM512 810.667q158 0 271-100t113-242q0-88-63-150t-151-62h-74q-28 0-46-19t-18-45q0-22 16-42t16-44q0-28-18-46t-46-18q-160 0-272 112t-112 272 112 272 272 112z" />
<glyph unicode="&#xe92c;" glyph-name="more-vert" data-tags="more-vert" d="M512 256.667q34 0 60-26t26-60-26-60-60-26-60 26-26 60 26 60 60 26zM512 512.667q34 0 60-26t26-60-26-60-60-26-60 26-26 60 26 60 60 26zM512 596.667q-34 0-60 26t-26 60 26 60 60 26 60-26 26-60-26-60-60-26z" />
<glyph unicode="&#xe92d;" glyph-name="notifications" data-tags="notifications" d="M768 256.667l86-86v-42h-684v42l86 86v212q0 100 51 174t141 96v30q0 26 18 45t46 19 46-19 18-45v-30q90-22 141-96t51-174v-212zM512 0.667q-36 0-61 24t-25 60h172q0-34-26-59t-60-25z" />
<glyph unicode="&#xe92e;" glyph-name="account-circle" data-tags="account-circle" d="M512 118.667q68 0 143 40t113 98q-2 56-90 94t-166 38-166-37-90-95q38-58 113-98t143-40zM512 724.667q-52 0-90-38t-38-90 38-90 90-38 90 38 38 90-38 90-90 38zM512 852.667q176 0 301-125t125-301-125-301-301-125-301 125-125 301 125 301 301 125z" />
<glyph unicode="&#xe92f;" glyph-name="done" data-tags="done" d="M384 246.667l452 454 60-60-512-512-238 238 58 60z" />
<glyph unicode="&#xe930;" glyph-name="done-all" data-tags="done-all" d="M18 366.667l60 60 238-238-60-60zM948 700.667l62-60-512-512-240 238 62 60 178-178zM768 640.667l-270-272-60 60 270 272z" />
<glyph unicode="&#xe931;" glyph-name="exit" data-tags="exit" d="M810 810.667q34 0 60-26t26-60v-596q0-34-26-60t-60-26h-596q-36 0-61 25t-25 61v170h86v-170h596v596h-596v-170h-86v170q0 36 25 61t61 25h596zM430 272.667l110 112h-412v84h412l-110 112 60 60 214-214-214-214z" />
<glyph unicode="&#xe932;" glyph-name="list" data-tags="list" d="M298 640.667h598v-86h-598v86zM298 212.667v86h598v-86h-598zM298 384.667v84h598v-84h-598zM128 554.667v86h86v-86h-86zM128 212.667v86h86v-86h-86zM128 384.667v84h86v-84h-86z" />
<glyph unicode="&#xe933;" glyph-name="loyalty" data-tags="loyalty" d="M736 286.667q32 32 32 76t-31 75-75 31q-46 0-76-30l-32-32-30 32q-30 30-76 30-44 0-75-31t-31-75q0-46 30-76l182-182zM234 640.667q26 0 45 19t19 45-19 45-45 19-45-19-19-45 19-45 45-19zM914 444.667q24-24 24-60t-24-60l-300-300q-24-24-60-24t-60 24l-384 384q-24 24-24 60v300q0 34 25 59t59 25h300q36 0 60-24z" />
<glyph unicode="&#xe934;" glyph-name="settings" data-tags="settings" d="M512 276.667q62 0 106 44t44 106-44 106-106 44-106-44-44-106 44-106 106-44zM830 384.667l90-70q14-10 4-28l-86-148q-8-14-26-8l-106 42q-42-30-72-42l-16-112q-4-18-20-18h-172q-16 0-20 18l-16 112q-38 16-72 42l-106-42q-18-6-26 8l-86 148q-10 18 4 28l90 70q-2 14-2 42t2 42l-90 70q-14 10-4 28l86 148q8 14 26 8l106-42q42 30 72 42l16 112q4 18 20 18h172q16 0 20-18l16-112q38-16 72-42l106 42q18 6 26-8l86-148q10-18-4-28l-90-70q2-14 2-42t-2-42z" />
<glyph unicode="&#xe935;" glyph-name="settings-input" data-tags="settings-input" d="M726 256.667v84h256v-84q0-42-24-74t-62-46v-180h-86v180q-84 30-84 120zM554 852.667v-170h86v-256h-256v256h86v170q0 18 12 31t30 13 30-13 12-31zM896 682.667h86v-256h-256v256h84v170q0 18 13 31t31 13 30-13 12-31v-170zM42 256.667v84h256v-84q0-90-84-120v-180h-86v180q-38 14-62 46t-24 74zM384 256.667v84h256v-84q0-42-24-74t-62-46v-180h-84v180q-38 14-62 46t-24 74zM214 852.667v-170h84v-256h-256v256h86v170q0 18 12 31t30 13 31-13 13-31z" />
<glyph unicode="&#xe936;" glyph-name="supervisor" data-tags="supervisor" d="M384 384.667q44 0 102-12-102-56-102-148v-96h-298v106q0 46 55 82t121 52 122 16zM704 340.667q74 0 154-32t80-84v-96h-468v96q0 52 80 84t154 32zM384 468.667q-52 0-90 38t-38 90 38 90 90 38 90-38 38-90-38-90-90-38zM704 426.667q-44 0-75 31t-31 75 31 76 75 32 75-32 31-76-31-75-75-31z" />
<glyph unicode="&#xe937;" glyph-name="home" data-tags="home" d="M1013.287 473.88l-475.411 475.411c-14.281 14.278-37.433 14.278-51.714 0l-475.45-475.45c-14.032-14.529-13.631-37.682 0.898-51.714 14.173-13.689 36.642-13.689 50.816 0l10.678 10.753v-460.308c0-20.199 16.374-36.574 36.574-36.574h804.607c20.199 0 36.574 16.374 36.574 36.574v460.308l10.715-10.717c14.529-14.032 37.682-13.629 51.714 0.898 13.689 14.173 13.689 36.644 0 50.818zM621.702 9.145h-219.438v292.586h219.438v-292.586zM877.712 9.145h-182.864v329.157c0 20.199-16.374 36.574-36.574 36.574h-292.583c-20.199 0-36.574-16.374-36.574-36.574v-329.157h-182.864v496.881l365.729 365.731 365.731-365.731v-496.881z" />
<glyph unicode="&#xe938;" glyph-name="attach-money" data-tags="attach-money" d="M504 472.667q44-12 73-24t61-33 49-53 17-76q0-62-41-101t-109-51v-92h-128v92q-66 14-109 56t-47 108h94q8-90 126-90 62 0 89 23t27 53q0 72-128 104-200 46-200 176 0 58 42 99t106 55v92h128v-94q66-16 101-60t37-102h-94q-4 90-108 90-52 0-83-22t-31-58q0-58 128-92z" />
<glyph unicode="&#xe939;" glyph-name="local-shipping" data-tags="local-shipping" d="M768 148.667q28 0 46 19t18 45-18 45-46 19-46-19-18-45 18-45 46-19zM832 532.667h-106v-106h190zM256 148.667q28 0 46 19t18 45-18 45-46 19-46-19-18-45 18-45 46-19zM854 596.667l128-170v-214h-86q0-52-38-90t-90-38-90 38-38 90h-256q0-52-38-90t-90-38-90 38-38 90h-86v470q0 34 26 60t60 26h598v-172h128z" />
<glyph unicode="&#xe93a;" glyph-name="location-city" data-tags="location-city" d="M810 298.667v86h-84v-86h84zM810 128.667v84h-84v-84h84zM554 640.667v84h-84v-84h84zM554 468.667v86h-84v-86h84zM554 298.667v86h-84v-86h84zM554 128.667v84h-84v-84h84zM298 468.667v86h-84v-86h84zM298 298.667v86h-84v-86h84zM298 128.667v84h-84v-84h84zM640 468.667h256v-426h-768v598h256v84l128 128 128-128v-256z" />
<glyph unicode="&#xe93b;" glyph-name="thumb-up-alt" data-tags="thumb-up-alt" d="M932 388.667l-114-262q-26-42-74-42h-346q-40 0-70 30t-30 70v334q0 36 26 62l274 272 18-20q24-24 38-52 6-14 4-28l-40-198h236q34 0 59-26t25-60v-46q0-18-6-34zM86 84.667v470h84q18 0 31-12t13-30v-384q0-18-13-31t-31-13h-84z" />
<glyph unicode="&#xe93c;" glyph-name="account-balance" data-tags="account-balance" d="M490 896.667l406-214v-86h-810v86zM682 512.667h128v-300h-128v300zM86 0.667v128h810v-128h-810zM426 512.667h128v-300h-128v300zM170 512.667h128v-300h-128v300z" />
<glyph unicode="&#xe93d;" glyph-name="home-filled" data-tags="home-filled" d="M426 84.667h-212v342h-128l426 384 426-384h-128v-342h-212v256h-172v-256z" />
<glyph unicode="&#xe93e;" glyph-name="supervisor-account" data-tags="supervisor-account" d="M384 384.667q44 0 102-12-102-56-102-148v-96h-298v106q0 46 55 82t121 52 122 16zM704 340.667q74 0 154-32t80-84v-96h-468v96q0 52 80 84t154 32zM384 468.667q-52 0-90 38t-38 90 38 90 90 38 90-38 38-90-38-90-90-38zM704 426.667q-44 0-75 31t-31 75 31 76 75 32 75-32 31-76-31-75-75-31z" />
<glyph unicode="&#xe93f;" glyph-name="camera1" data-tags="camera_alt, photo_camera, local_see" d="M512 212.667q88 0 151 63t63 151-63 151-151 63-151-63-63-151 63-151 151-63zM384 852.667h256l78-84h136q34 0 59-26t25-60v-512q0-34-25-60t-59-26h-684q-34 0-59 26t-25 60v512q0 34 25 60t59 26h136zM376 426.667q0 56 40 96t96 40 96-40 40-96-40-96-96-40-96 40-40 96z" />
<glyph unicode="&#xe940;" glyph-name="3d_rotation" data-tags="3d_rotation" d="M512 938.667q200 0 347-135t163-333h-64q-10 118-79 214t-175 146l-58-56-162 162zM706 434.667q0 114-94 114h-40v-246h38q72 0 92 68 4 14 4 48v16zM612 596.667q106 0 144-94 10-24 10-68v-16q0-76-42-118-44-44-114-44h-98v340h100zM414 430.667q56-22 56-78 0-20-10-40-12-24-22-32-30-24-80-24-48 0-78 24t-30 70h54q0-22 15-36t39-14q56 0 56 54t-62 54h-32v44h32q58 0 58 50t-52 50q-50 0-50-46h-56q0 34 30 64 32 26 76 26 48 0 77-24t29-70q0-50-50-72zM320 22.667l58 56 162-162-28-2q-200 0-347 136t-163 334h64q10-106 84-212t170-150z" />
<glyph unicode="&#xe941;" glyph-name="language-globe" data-tags="language" d="M698 340.667h144q12 56 12 86t-12 86h-144q6-42 6-86t-6-86zM622 104.667q50 16 104 61t82 91h-126q-20-80-60-152zM612 340.667q6 42 6 86t-6 86h-200q-6-42-6-86t6-86h200zM512 86.667q56 82 82 170h-164q26-88 82-170zM342 596.667q24 86 60 152-50-16-105-61t-81-91h126zM216 256.667q26-46 81-91t105-61q-40 72-60 152h-126zM182 340.667h144q-6 42-6 86t6 86h-144q-12-56-12-86t12-86zM512 766.667q-56-82-82-170h164q-26 88-82 170zM808 596.667q-28 46-82 91t-104 61q36-66 60-152h126zM512 852.667q176 0 301-125t125-301-125-301-301-125-301 125-125 301 125 301 301 125z" />
<glyph unicode="&#xe942;" glyph-name="visibility" data-tags="remove_red_eye, visibility" d="M512 554.667q52 0 90-38t38-90-38-90-90-38-90 38-38 90 38 90 90 38zM512 212.667q88 0 151 63t63 151-63 151-151 63-151-63-63-151 63-151 151-63zM512 746.667q158 0 286-88t184-232q-56-144-184-232t-286-88-286 88-184 232q56 144 184 232t286 88z" />
<glyph unicode="&#xe943;" glyph-name="visibility-off" data-tags="visibility_off" d="M506 554.667h6q52 0 90-38t38-90v-8zM322 520.667q-24-48-24-94 0-88 63-151t151-63q46 0 94 24l-66 66q-16-4-28-4-52 0-90 38t-38 90q0 12 4 28zM86 756.667l54 54 756-756-54-54q-10 10-63 62t-81 80q-86-36-186-36-158 0-286 88t-184 232q22 52 69 115t91 97q-24 24-67 68t-49 50zM512 640.667q-40 0-78-16l-92 92q78 30 170 30 158 0 285-88t183-232q-48-118-146-202l-124 124q16 38 16 78 0 88-63 151t-151 63z" />
<glyph unicode="&#xe944;" glyph-name="dns" data-tags="dns" d="M298 554.667q34 0 60 26t26 60-26 59-60 25-59-25-25-59 25-60 59-26zM854 810.667q18 0 30-12t12-30v-256q0-18-12-31t-30-13h-684q-18 0-30 13t-12 31v256q0 18 12 30t30 12h684zM298 128.667q34 0 60 25t26 59-26 60-60 26-59-26-25-60 25-59 59-25zM854 384.667q18 0 30-13t12-31v-256q0-18-12-30t-30-12h-684q-18 0-30 12t-12 30v256q0 18 12 31t30 13h684z" />
<glyph unicode="&#xe945;" glyph-name="chrome-reader-mode" data-tags="chrome_reader_mode" d="M896 128.667v554h-384v-554h384zM896 768.667q34 0 60-26t26-60v-554q0-34-26-60t-60-26h-768q-34 0-60 26t-26 60v554q0 34 26 60t60 26h768zM554 320.667h300v-64h-300v64zM554 532.667h300v-64h-300v64zM554 426.667h300v-64h-300v64z" />
<glyph unicode="&#xe946;" glyph-name="info_outline" data-tags="info_outline" d="M470 554.667v86h84v-86h-84zM512 84.667q140 0 241 101t101 241-101 241-241 101-241-101-101-241 101-241 241-101zM512 852.667q176 0 301-125t125-301-125-301-301-125-301 125-125 301 125 301 301 125zM470 212.667v256h84v-256h-84z" />
<glyph unicode="&#xe947;" glyph-name="cloud_download" data-tags="cloud_download" d="M726 384.667h-128v170h-172v-170h-128l214-214zM826 510.667q82-6 140-67t58-145q0-88-63-151t-151-63h-554q-106 0-181 75t-75 181q0 94 67 169t161 85q42 78 118 126t166 48q108 0 201-76t113-182z" />
<glyph unicode="&#xe948;" glyph-name="backspace" data-tags="backspace" d="M810 272.667l-152 154 152 154-60 60-152-154-154 154-60-60 154-154-154-154 60-60 154 154 152-154zM938 810.667q34 0 60-26t26-60v-596q0-34-26-60t-60-26h-640q-40 0-68 38l-230 346 230 346q28 38 68 38h640z" />
<glyph unicode="&#xe949;" glyph-name="delete" data-tags="delete" d="M810 768.667v-86h-596v86h148l44 42h212l44-42h148zM256 128.667v512h512v-512q0-34-26-60t-60-26h-340q-34 0-60 26t-26 60z" />
<glyph unicode="&#xe94a;" glyph-name="times-circle" data-tags="times-circle" horiz-adv-x="878" d="M656.571 309.714c0 9.714-4 18.857-10.857 25.714l-103.429 103.429 103.429 103.429c6.857 6.857 10.857 16 10.857 25.714s-4 19.429-10.857 26.286l-51.429 51.429c-6.857 6.857-16.571 10.857-26.286 10.857s-18.857-4-25.714-10.857l-103.429-103.429-103.429 103.429c-6.857 6.857-16 10.857-25.714 10.857s-19.429-4-26.286-10.857l-51.429-51.429c-6.857-6.857-10.857-16.571-10.857-26.286s4-18.857 10.857-25.714l103.429-103.429-103.429-103.429c-6.857-6.857-10.857-16-10.857-25.714s4-19.429 10.857-26.286l51.429-51.429c6.857-6.857 16.571-10.857 26.286-10.857s18.857 4 25.714 10.857l103.429 103.429 103.429-103.429c6.857-6.857 16-10.857 25.714-10.857s19.429 4 26.286 10.857l51.429 51.429c6.857 6.857 10.857 16.571 10.857 26.286zM877.714 438.857c0-242.286-196.571-438.857-438.857-438.857s-438.857 196.571-438.857 438.857 196.571 438.857 438.857 438.857 438.857-196.571 438.857-438.857z" />
<glyph unicode="&#xe94b;" glyph-name="wi-strong-wind" data-tags="wi-strong-wind" d="M105.813 380.757c0-8.192 3.072-15.36 9.557-21.163 5.461-6.485 12.629-9.557 21.504-9.557h501.419c9.899 0 18.091-3.413 24.917-10.24s10.24-15.36 10.24-25.259c0-9.899-3.413-18.091-10.24-24.576s-15.019-9.899-25.259-9.899c-9.899 0-18.432 3.413-24.917 9.899-5.461 6.144-12.288 8.875-20.48 8.875-8.533 0-15.701-3.072-21.845-8.875s-9.216-12.971-9.216-20.821c0-8.533 3.072-15.701 9.557-21.504 19.115-18.773 41.643-28.331 66.901-28.331 26.624 0 49.493 9.216 68.608 27.648s28.331 40.619 28.331 67.243-9.557 49.152-28.672 68.267c-19.115 19.115-41.984 28.672-68.267 28.672h-501.077c-8.533 0-15.701-3.072-21.845-8.875s-9.216-12.971-9.216-21.504zM105.813 492.715c0-7.851 3.072-14.677 9.557-20.821 5.803-6.144 12.971-8.875 21.504-8.875h684.032c26.624 0 49.493 9.216 68.608 27.989 19.115 18.432 28.672 40.96 28.672 67.243s-9.557 49.152-28.672 67.925-41.984 28.331-68.608 28.331c-26.283 0-48.469-9.216-66.56-27.307-6.144-5.461-9.216-12.971-9.216-22.869 0-8.875 3.072-16.043 8.875-21.504s12.971-8.192 21.504-8.192c8.192 0 15.36 2.731 21.504 8.192 6.485 7.168 14.336 10.581 23.893 10.581 9.899 0 18.091-3.413 24.917-10.24s10.24-15.019 10.24-24.917c0-9.899-3.413-18.091-10.24-24.576s-15.019-9.899-24.917-9.899h-684.032c-8.533 0-15.701-3.072-21.845-8.875-6.144-6.485-9.216-13.653-9.216-22.187z" />
<glyph unicode="&#xe94c;" glyph-name="video-camera" data-tags="video-camera" d="M1024 749.714v-621.714c0-14.857-9.143-28-22.286-33.714-4.571-1.714-9.714-2.857-14.286-2.857-9.714 0-18.857 3.429-25.714 10.857l-230.286 230.286v-94.857c0-90.857-73.714-164.571-164.571-164.571h-402.286c-90.857 0-164.571 73.714-164.571 164.571v402.286c0 90.857 73.714 164.571 164.571 164.571h402.286c90.857 0 164.571-73.714 164.571-164.571v-94.286l230.286 229.714c6.857 7.429 16 10.857 25.714 10.857 4.571 0 9.714-1.143 14.286-2.857 13.143-5.714 22.286-18.857 22.286-33.714z" />
<glyph unicode="&#xe94d;" glyph-name="wi-thermometer" data-tags="wi-thermometer" d="M338.261 292.352c0 29.013 6.827 55.979 20.139 81.237s32.085 46.080 56.32 62.805v338.603c0 27.307 9.216 50.517 27.989 69.291s41.984 28.672 69.291 28.672c27.648 0 50.859-9.557 69.632-28.331 18.773-19.115 28.331-41.984 28.331-69.291v-338.603c24.235-16.725 42.667-37.888 55.979-62.805s19.797-52.224 19.797-81.237c0-31.403-7.851-60.757-23.211-87.381s-36.523-47.787-63.147-63.147-55.637-23.211-87.381-23.211c-31.403 0-60.416 7.851-87.040 23.211s-47.787 36.523-63.488 63.147-23.211 55.637-23.211 87.040zM398.336 292.352c0-31.744 11.264-59.051 33.451-81.579s49.152-33.792 80.555-33.792c31.744 0 59.051 11.264 81.92 34.133s34.475 49.835 34.475 80.896c0 21.163-5.461 40.96-16.384 59.051s-25.941 32.085-45.056 41.984l-9.557 4.779c-3.413 1.365-5.12 4.779-5.12 9.899v367.275c0 10.923-3.755 20.139-11.605 27.648-7.851 7.168-17.408 10.923-29.013 10.923-10.923 0-20.48-3.755-28.331-10.923s-11.605-16.384-11.605-27.648v-366.592c0-5.12-1.707-8.533-4.779-9.899l-9.216-4.779c-18.773-9.899-33.451-23.893-44.032-41.984s-15.701-37.547-15.701-59.392zM424.96 292.352c0-24.235 8.192-45.056 24.917-62.123s36.523-25.6 60.075-25.6 43.691 8.533 61.099 25.6c17.408 17.067 25.941 37.888 25.941 61.781 0 21.504-7.509 40.619-22.187 57.003s-32.768 26.283-53.931 29.013v251.221c0 2.048-1.024 4.437-3.413 6.485-2.389 2.389-4.779 3.413-7.509 3.413-3.072 0-5.461-1.024-7.168-2.731-1.707-2.048-2.731-4.096-2.731-7.168v-250.539c-20.821-3.072-38.571-12.629-53.248-29.013-14.677-16.725-21.845-35.499-21.845-57.344z" />
<glyph unicode="&#xe94e;" glyph-name="pause" data-tags="pause_circle_outline" d="M554 256.667v340h86v-340h-86zM512 84.667q140 0 241 101t101 241-101 241-241 101-241-101-101-241 101-241 241-101zM512 852.667q176 0 301-125t125-301-125-301-301-125-301 125-125 301 125 301 301 125zM384 256.667v340h86v-340h-86z" />
<glyph unicode="&#xe94f;" glyph-name="open-new" data-tags="launch, open_in_new" d="M598 810.667h298v-298h-86v152l-418-418-60 60 418 418h-152v86zM810 128.667v298h86v-298q0-34-26-60t-60-26h-596q-36 0-61 25t-25 61v596q0 36 25 61t61 25h298v-86h-298v-596h596z" />
<glyph unicode="&#xe950;" glyph-name="chat" data-tags="chat" d="M768 596.667v86h-512v-86h512zM598 340.667v86h-342v-86h342zM256 554.667v-86h512v86h-512zM854 852.667q34 0 59-25t25-59v-512q0-34-25-60t-59-26h-598l-170-170v768q0 34 25 59t59 25h684z" />
<glyph unicode="&#xe951;" glyph-name="description" data-tags="description" d="M554 554.667h236l-236 234v-234zM682 340.667v86h-340v-86h340zM682 170.667v86h-340v-86h340zM598 852.667l256-256v-512q0-34-26-59t-60-25h-512q-34 0-60 25t-26 59l2 684q0 34 25 59t59 25h342z" />
<glyph unicode="&#xe952;" glyph-name="trending-up" data-tags="trending_up" d="M682 682.667h256v-256l-98 98-268-268-170 170-256-256-60 60 316 316 170-170 208 208z" />
<glyph unicode="&#xe953;" glyph-name="compare" data-tags="compare_arrows" d="M640 384.667l-170 170 170 170v-128h298v-84h-298v-128zM384 340.667v128l170-170-170-170v128h-298v84h298z" />
<glyph unicode="&#xe954;" glyph-name="watch_later" data-tags="watch_later" d="M692 246.667l34 56-192 116v222h-64v-256zM512 852.667q176 0 301-125t125-301-125-301-301-125-301 125-125 301 125 301 301 125z" />
<glyph unicode="&#xe955;" glyph-name="select_all" data-tags="select_all" d="M384 554.667v-256h256v256h-256zM298 212.667v428h428v-428h-428zM640 724.667v86h86v-86h-86zM640 42.667v86h86v-86h-86zM810 212.667v86h86v-86h-86zM810 554.667v86h86v-86h-86zM810 42.667v86h86q0-34-26-60t-60-26zM810 384.667v84h86v-84h-86zM470 42.667v86h84v-86h-84zM384 810.667v-86h-86v86h86zM128 212.667v86h86v-86h-86zM214 42.667q-34 0-60 26t-26 60h86v-86zM810 810.667q34 0 60-26t26-60h-86v86zM554 810.667v-86h-84v86h84zM128 554.667v86h86v-86h-86zM298 42.667v86h86v-86h-86zM128 384.667v84h86v-84h-86zM128 724.667q0 34 26 60t60 26v-86h-86z" />
<glyph unicode="&#xe956;" glyph-name="school" data-tags="school" d="M512 810.667l470-256v-342h-86v296l-384-210-470 256zM214 376.667l298-164 298 164v-172l-298-162-298 162v172z" />
<glyph unicode="&#xe957;" glyph-name="content_copy" data-tags="content_copy" d="M810 42.667v598h-468v-598h468zM810 724.667q34 0 60-25t26-59v-598q0-34-26-60t-60-26h-468q-34 0-60 26t-26 60v598q0 34 26 59t60 25h468zM682 896.667v-86h-512v-598h-84v598q0 34 25 60t59 26h512z" />
<glyph unicode="&#xe958;" glyph-name="tiktok" data-tags="tiktok" d="M534.613 959.147c55.893 0.853 111.36 0.427 166.827 0.853 3.413-65.28 26.88-131.84 74.667-177.92 47.787-47.36 115.2-69.12 180.907-76.373v-171.947c-61.44 2.133-123.307 14.933-179.2 41.387-24.32 11.093-46.933 25.173-69.12 39.68-0.427-124.587 0.427-249.173-0.853-373.333-3.413-59.733-23.040-119.040-57.6-168.107-55.893-81.92-152.747-135.253-252.16-136.96-61.013-3.413-122.027 13.227-174.080 43.947-86.187 50.773-146.773 143.787-155.733 243.627-0.853 21.333-1.28 42.667-0.427 63.573 7.68 81.067 47.787 158.72 110.080 211.627 70.827 61.44 169.813 90.88 262.4 73.387 0.853-63.147-1.707-126.293-1.707-189.44-42.24 13.653-91.733 9.813-128.853-15.787-26.88-17.493-47.36-44.373-58.027-74.667-8.96-21.76-6.4-45.653-5.973-68.693 10.24-69.973 77.653-128.853 149.333-122.453 47.787 0.427 93.44 28.16 118.187 68.693 8.107 14.080 17.067 28.587 17.493 45.227 4.267 76.373 2.56 152.32 2.987 228.693 0.427 171.947-0.427 343.467 0.853 514.987z" />
<glyph unicode="&#xe959;" glyph-name="squarespace" data-tags="squarespace" d="M966.613 587.989c-76.885 76.843-201.643 76.843-280.064 0l-313.643-313.6c-19.2-19.2-19.2-51.2 0-70.4 19.2-19.157 51.2-19.157 70.4 0l313.643 313.643c38.357 38.357 100.779 38.357 139.264 0 38.4-38.4 38.4-100.864 0-139.264l-308.864-308.864c38.4-38.357 100.779-38.357 139.221 0l238.464 238.464c78.336 78.421 78.336 203.221 1.579 280.021zM861.013 484.011c-19.243 19.2-51.243 19.2-70.4 0l-313.771-315.264c-38.4-38.357-100.736-38.357-139.179 0-19.2 19.2-51.2 19.2-70.4 0s-19.2-51.2 0-70.357c76.843-76.843 201.643-76.843 280.064 0l313.643 313.6c19.157 20.779 19.157 52.864 0.043 72.021zM756.949 797.611c-76.843 76.843-201.643 76.843-280.064 0l-313.643-313.643c-19.2-19.157-19.2-51.157 0-70.357s51.2-19.2 70.4 0l315.52 313.643c38.4 38.357 101.163 38.357 139.52 0 19.243-19.2 51.243-19.2 70.4 0 17.963 20.779 17.963 51.157-1.237 70.357zM651.349 693.632c-19.2 19.2-51.2 19.2-70.4 0l-313.643-315.264c-38.357-38.4-100.821-38.4-139.307 0-38.4 38.357-38.4 100.821 0 139.264l308.864 308.864c-38.4 38.4-100.779 38.4-139.221 0l-240.043-238.507c-76.8-76.8-76.8-201.6 0-280.021 76.843-76.843 201.6-76.843 280.064 0l313.6 313.643c19.243 20.821 19.243 52.821 0 72.021z" />
<glyph unicode="&#xe95a;" glyph-name="update" data-tags="update" d="M534 596.667v-180l148-90-30-52-182 110v212h64zM896 506.667h-290l118 120q-88 88-211 89t-211-85q-36-36-62-97t-26-111 26-111 62-97 98-62 112-26 113 26 99 62q86 86 86 208h86q0-158-112-268-112-112-272-112t-272 112q-112 110-112 267t112 269q46 46 125 79t145 33 145-33 125-79l116 120v-304z" />
<glyph unicode="&#xe95b;" glyph-name="lightbulb_outline" data-tags="lightbulb_outline" d="M634 380.667q92 64 92 174 0 88-63 151t-151 63-151-63-63-151q0-46 27-96t65-78l36-26v-98h172v98zM512 852.667q124 0 211-87t87-211q0-156-128-244v-98q0-18-12-30t-30-12h-256q-18 0-30 12t-12 30v98q-128 88-128 244 0 124 87 211t211 87zM384 42.667v42h256v-42q0-18-12-30t-30-12h-172q-18 0-30 12t-12 30z" />
<glyph unicode="&#xe95c;" glyph-name="play_arrow" data-tags="play_arrow" d="M342 724.667l468-298-468-298v596z" />
<glyph unicode="&#xe95d;" glyph-name="computer" data-tags="computer, laptop" d="M170 682.667v-426h684v426h-684zM854 170.667h170v-86h-1024v86h170q-34 0-59 26t-25 60v426q0 34 25 60t59 26h684q34 0 59-26t25-60v-426q0-34-25-60t-59-26z" />
<glyph unicode="&#xe95e;" glyph-name="arrow_drop_down" data-tags="arrow_drop_down" d="M298 512.667h428l-214-214z" />
<glyph unicode="&#xe95f;" glyph-name="event_note" data-tags="event_note" d="M598 340.667v-84h-300v84h300zM810 128.667v468h-596v-468h596zM810 810.667q34 0 60-26t26-60v-596q0-34-26-60t-60-26h-596q-36 0-61 25t-25 61v596q0 34 25 60t61 26h42v86h86v-86h340v86h86v-86h42zM726 512.667v-86h-428v86h428z" />
<glyph unicode="&#xe960;" glyph-name="pest_control" data-tags="pest_control" d="M896 298.667v86h-130q-4 26-10 48l110 64-42 74-102-58-20 28t-22 26q0 8 1 15t1 15q0 52-28 94l72 70-60 60-74-74q-36 20-67 21t-55-6-38-15l-74 74-60-60 72-70q-28-42-28-94 0-8 1-15t1-15q-24-26-42-54l-102 58-42-74 110-64q-6-22-10-48h-130v-86h130q4-26 10-48l-110-64 42-74 102 58q34-58 89-93t121-35 121 35 89 93l102-58 42 74-110 62q6 24 10 50h130zM554 212.667h-84v256h84v-256z" />
<glyph unicode="&#xe961;" glyph-name="web" data-tags="web" d="M854 170.667v384h-172v-384h172zM640 384.667v170h-470v-170h470zM640 170.667v170h-470v-170h470zM854 768.667q34 0 59-26t25-60v-512q0-34-25-60t-59-26h-684q-34 0-59 26t-25 60v512q0 34 25 60t59 26h684z" />
<glyph unicode="&#xe962;" glyph-name="picture_in_picture" data-tags="picture_in_picture" d="M896 126.667v600h-768v-600h768zM896 810.667q34 0 60-26t26-60v-596q0-34-26-60t-60-26h-768q-34 0-60 26t-26 60v596q0 34 26 60t60 26h768zM810 640.667v-256h-340v256h340z" />
<glyph unicode="&#xe963;" glyph-name="file_download" data-tags="file_download, get_app" d="M214 170.667h596v-86h-596v86zM810 554.667l-298-298-298 298h170v256h256v-256h170z" />
<glyph unicode="&#xe964;" glyph-name="account_balance_wallet" data-tags="account_balance_wallet" d="M682 362.667q26 0 45 18t19 46-19 46-45 18-45-18-19-46 19-46 45-18zM512 256.667v340h426v-340h-426zM896 170.667v-42q0-34-26-60t-60-26h-596q-36 0-61 25t-25 61v596q0 36 25 61t61 25h596q34 0 60-26t26-60v-42h-384q-36 0-61-25t-25-61v-340q0-36 25-61t61-25h384z" />
<glyph unicode="&#xe965;" glyph-name="videocam" data-tags="videocam" d="M726 490.667l170 170v-468l-170 170v-150q0-18-13-30t-31-12h-512q-18 0-30 12t-12 30v428q0 18 12 30t30 12h512q18 0 31-12t13-30v-150z" />
<glyph unicode="&#xe966;" glyph-name="star" data-tags="star, grade" d="M512 202.667l-264-160 70 300-232 202 306 26 120 282 120-282 306-26-232-202 70-300z" />
<glyph unicode="&#xe967;" glyph-name="whatsapp" data-tags="whatsapp" d="M745.472 346.368c-12.672 6.357-75.008 36.992-86.613 41.259-11.648 4.224-20.096 6.315-28.587-6.4-8.405-12.672-32.725-41.216-40.107-49.664-7.381-8.491-14.805-9.515-27.477-3.2-12.672 6.4-53.547 19.755-101.973 62.933-37.675 33.621-63.147 75.136-70.528 87.851-7.381 12.672-0.768 19.541 5.547 25.856 5.717 5.675 12.715 14.805 19.029 22.187 6.357 7.424 8.448 12.715 12.715 21.205 4.224 8.448 2.133 15.829-1.067 22.187s-28.544 68.779-39.083 94.165c-10.325 24.704-20.779 21.333-28.544 21.76-7.381 0.341-15.829 0.427-24.32 0.427-8.448 0-22.187-3.157-33.792-15.872-11.605-12.672-44.373-43.349-44.373-105.771 0-62.379 45.44-122.667 51.755-131.157 6.357-8.448 89.429-136.533 216.619-191.445 30.251-13.056 53.845-20.864 72.277-26.667 30.379-9.685 58.027-8.32 79.829-5.035 24.363 3.627 75.008 30.677 85.589 60.288s10.581 54.997 7.381 60.288c-3.157 5.291-11.605 8.448-24.32 14.805zM514.133 30.507h-0.171c-0.010 0-0.022 0-0.034 0-79.18 0-153.256 21.853-216.527 59.856l1.905-1.061-15.403 9.131-159.616-41.899 42.581 155.648-10.027 15.957c-40.424 63.455-64.427 140.792-64.427 223.735 0 0.243 0 0.486 0.001 0.729v-0.038c0.043 232.533 189.269 421.717 421.888 421.717 112.64 0 218.539-43.947 298.155-123.648 76.252-75.925 123.437-180.989 123.437-297.074 0-0.47-0.001-0.94-0.002-1.409v0.072c-0.128-232.533-189.312-421.717-421.76-421.717zM873.088 811.179c-91.341 91.926-217.839 148.823-357.627 148.823-0.467 0-0.933-0.001-1.4-0.002h0.072c-279.68 0-507.307-227.627-507.435-507.392 0-89.429 23.339-176.725 67.755-253.653l-72.021-262.955 269.013 70.571c70.032-38.88 153.579-61.77 242.472-61.781h0.216c279.637 0 507.307 227.627 507.435 507.435 0.002 0.463 0.002 1.012 0.002 1.56 0 139.653-56.758 266.048-148.466 357.378l-0.017 0.017z" />
<glyph unicode="&#xe968;" glyph-name="messenger" data-tags="messenger" d="M0.043 463.403c0 285.44 223.573 496.597 512 496.597s511.957-211.2 511.957-496.597c0-285.397-223.573-496.555-512-496.555-51.627 0-101.547 6.827-148.053 19.627-3.193 0.894-6.86 1.408-10.647 1.408-6.032 0-11.76-1.304-16.917-3.646l0.257 0.104-101.973-44.8c-4.899-2.236-10.625-3.54-16.656-3.54-22.216 0-40.301 17.686-40.942 39.747l-0.001 0.059-2.987 91.307c-0.5 11.541-5.653 21.787-13.617 28.981l-0.036 0.032c-98.663 89.286-160.385 217.81-160.385 360.748 0 2.28 0.016 4.556 0.047 6.828l-0.004-0.344zM355.029 556.843l-150.187-238.933c-14.933-22.613 13.653-48.597 34.987-32l161.707 122.453c11.093 8.533 25.6 8.533 37.12 0l119.467-89.6c35.84-26.88 87.040-17.067 110.933 20.48l150.187 238.933c14.933 22.613-13.653 48.213-34.987 32l-161.707-122.453c-10.667-8.533-25.6-8.533-36.693 0l-119.467 89.6c-12.716 9.688-28.823 15.521-46.293 15.521-27.292 0-51.26-14.236-64.881-35.688l-0.186-0.313z" />
<glyph unicode="&#xe969;" glyph-name="line" data-tags="line" d="M376.297 141.879c22.953 0 41.732 18.779 41.732 41.732v734.483c0 15.998-9.041 30.604-22.953 37.559s-31.299 5.565-43.819-4.173l-272.65-204.487c-18.779-13.911-22.258-39.645-8.346-58.425s39.645-22.258 58.425-8.346l205.879 154.408v-651.019c0-22.953 18.779-41.732 41.732-41.732zM647.555 746.993c-22.953 0-41.732-18.779-41.732-41.732v-727.529c0-15.998 9.041-29.907 22.953-37.559 6.26-2.781 12.52-4.173 18.779-4.173 9.041 0 17.388 2.781 25.039 8.346l272.65 201.008c18.779 13.911 22.258 39.645 9.041 58.425-13.911 18.779-39.645 22.258-58.425 9.041l-206.573-152.322v644.759c0 22.955-18.779 41.734-41.732 41.734z" />
<glyph unicode="&#xe96a;" glyph-name="ROGcoin" data-tags="ROGcoin" d="M510.952 960l8.444-0.071c278.113-4.609 502.124-231.493 502.124-510.681 0-206.597-124.461-392.848-315.339-471.892s-410.576-35.312-556.636 110.8c-146.060 146.113-189.712 365.827-110.599 556.676s265.409 315.243 472.006 315.168v0zM510.946 941.856l-5.972-0.034c-196.869-2.3-373.727-121.709-449.266-303.938-76.303-184.070-34.201-395.978 106.67-536.901s352.765-183.1 536.862-106.864c184.097 76.236 304.137 255.87 304.137 455.128 0 271.991-220.44 492.51-492.43 492.609v0zM260.925 584.783c81.829 0 141.525-58.605 141.525-133.902 0.221-37.21-14.762-72.898-41.482-98.795s-62.858-39.759-100.043-38.373c-37.185-1.386-73.323 12.475-100.043 38.373s-41.703 61.585-41.482 98.795c0 75.297 59.696 133.902 141.525 133.902zM510.042 577.162l96.163-164.747v49.352l62.96 49.896-0.726-192.689h-65.5l-94.711 162.388v-163.296h-61.689v259.096h63.504zM902.496 578.069v-54.432h-107.049v-46.993l81.285 0.181v-54.432h-81.285v-48.444h107.049v-54.432h-172.368v258.551h172.368zM224.909 514.204c-22.623-13.062-36.56-37.201-36.56-63.324-0.933-20.061 6.225-39.657 19.87-54.393s32.633-23.378 52.706-23.989c20.265 0.322 39.534 8.839 53.414 23.607s21.185 34.529 20.25 54.775c0 26.123-13.937 50.262-36.56 63.324s-50.497 13.062-73.12 0zM668.439 577.162v-1.27l-62.234-48.444v49.714h62.234z" />
<glyph unicode="&#xe96b;" glyph-name="ROGregular" data-tags="ROGregular" horiz-adv-x="922" d="M233.397 517.896c-36.852 0-66.457-29.359-66.457-68.422s29.605-71.37 66.457-71.37 66.457 30.71 66.457 71.37-29.605 68.422-66.457 68.422zM460.775 904.353c-251.946 0-456.23-204.284-456.23-456.353s204.284-456.23 456.23-456.23 456.23 204.284 456.23 456.23-204.161 456.353-456.23 456.353zM233.397 324.791c-74.319 0-128.737 54.664-128.737 124.806s54.418 121.735 128.737 121.735 128.737-53.313 128.737-121.735-54.418-124.806-128.737-124.806zM604.131 329.459h-59.701l-86.848 147.777v-147.9h-56.138v235.117h57.735l87.463-149.866s0.737 30.833 0 44.837l57.367 45.328v-175.417zM604.131 563.225l-56.63-43.977v45.205h56.63v-1.228zM793.551 473.182v-49.259h-73.95v-44.345h97.413v-49.259h-156.745v234.994h156.745v-49.259h-97.413v-42.749h73.95z" />
<glyph unicode="&#xe96c;" glyph-name="bhhs_seal_blk" data-tags="bhhs_seal_blk" d="M144.111 176.094l-45.602-30.515-5.734 8.602 18.842 12.561-13.585 20.412-18.842-12.561-5.734 8.602 45.602 30.515 5.734-8.602-18.773-12.561 13.653-20.412 18.773 12.561 5.734-8.602zM196.267 114.108c1.092-4.506 0.887-9.011-0.614-13.585s-4.301-8.806-8.329-12.834c-4.028-4.028-8.329-6.758-12.902-8.26s-9.079-1.707-13.585-0.546c-4.506 1.161-8.67 3.618-12.561 7.509s-6.349 8.055-7.441 12.561c-1.092 4.506-0.887 9.011 0.614 13.585s4.301 8.806 8.329 12.834c4.028 4.028 8.329 6.758 12.902 8.26s9.079 1.707 13.585 0.546c4.506-1.161 8.67-3.618 12.561-7.509s6.349-8.055 7.441-12.561zM186.3 111.991c-0.546 2.731-1.98 5.325-4.437 7.851-2.389 2.526-4.983 4.028-7.714 4.574s-5.53 0.205-8.329-0.956c-2.799-1.161-5.598-3.14-8.329-5.803s-4.642-5.461-5.803-8.192c-1.161-2.799-1.502-5.53-0.956-8.26s1.98-5.325 4.437-7.851 4.983-4.028 7.714-4.574c2.731-0.546 5.53-0.205 8.329 0.956s5.598 3.14 8.329 5.803c2.731 2.662 4.642 5.461 5.803 8.192 1.161 2.799 1.502 5.53 0.956 8.26zM240.435 36.147l4.915 40.414-7.782 5.12-30.242-45.807 8.055-5.325 18.022 27.375-4.779-36.113 3.072-2.048 31.334 18.569-18.022-27.375 8.055-5.325 30.242 45.807-7.782 5.12-35.157-20.412zM301.056-18.671l33.109-13.653 3.686 8.943-23.552 9.694 5.393 13.039 19.319-7.987 3.686 8.943-19.319 7.987 4.506 10.854 23.484-9.694 3.686 8.943-33.109 13.653-20.89-50.722zM404.48-7.953c1.092 0.751 2.389 1.161 3.891 1.365s3.072 0.068 4.642-0.341c1.57-0.41 3.072-1.092 4.437-1.98 1.365-0.956 2.389-2.116 3.209-3.55s1.229-3.072 1.229-4.847l11.332-0.478c-0.137 3.55-0.956 6.69-2.389 9.421s-3.482 5.052-6.144 6.895c-2.662 1.843-5.803 3.209-9.489 4.028s-7.168 0.956-10.445 0.478-6.076-1.775-8.397-3.755c-2.321-1.98-3.891-4.779-4.642-8.397-0.546-2.526-0.614-4.779-0.068-6.622 0.478-1.843 1.297-3.413 2.321-4.71 1.092-1.297 2.253-2.389 3.482-3.209s2.389-1.502 3.345-2.048l13.039-7.1c0.956-0.546 1.775-1.092 2.321-1.638 0.614-0.546 1.024-1.092 1.297-1.638s0.41-1.092 0.478-1.638c0-0.546 0-1.092-0.068-1.638-0.341-1.502-1.092-2.662-2.321-3.413-1.229-0.819-2.662-1.297-4.369-1.502s-3.345-0.068-4.983 0.273c-3.004 0.614-5.461 2.048-7.441 4.233s-3.004 4.847-3.072 8.124l-10.923 0.751c-0.205-3.755 0.41-7.168 1.843-10.24 1.502-3.072 3.686-5.666 6.554-7.714 2.867-2.116 6.281-3.55 10.308-4.437 2.731-0.614 5.461-0.819 8.192-0.683s5.257 0.683 7.578 1.638 4.369 2.389 6.007 4.301c1.638 1.911 2.799 4.301 3.413 7.168 0.614 2.731 0.546 5.052 0 7.031-0.614 1.98-1.57 3.686-2.935 5.12-1.297 1.434-2.731 2.594-4.301 3.618-1.57 0.956-3.004 1.775-4.301 2.458l-8.738 4.574c-1.092 0.546-2.116 1.161-3.14 1.843s-1.775 1.502-2.321 2.389c-0.546 0.887-0.751 1.911-0.478 3.072 0.273 1.297 0.956 2.253 2.048 3.004zM475.887-62.771l35.772-1.297 0.341 9.694-25.395 0.887 0.478 14.063 20.821-0.751 0.341 9.694-20.821 0.751 0.41 11.742 25.395-0.887 0.341 9.694-35.772 1.297-1.98-54.818zM592.759-36.898l12.629-18.773-11.605-1.638-11.469 17.203-11.469-1.57 2.594-18.432-10.24-1.434-7.578 54.34 22.938 3.209c0.546 0.068 1.229 0.137 2.116 0.273 0.887 0.068 1.707 0.137 2.458 0.068 3.345 0 6.144-0.751 8.397-2.116 2.321-1.365 4.096-3.209 5.461-5.53 1.297-2.321 2.185-5.052 2.594-8.055 0.614-4.574 0-8.602-1.775-12.151-1.092-2.185-2.799-3.959-5.052-5.325zM581.7-30.413c0.546 0.068 1.092 0.205 1.707 0.341s1.161 0.341 1.707 0.546c1.297 0.546 2.321 1.365 2.935 2.321 0.614 1.024 1.024 2.048 1.161 3.209s0.137 2.185 0 3.209c-0.137 0.956-0.41 1.98-0.887 3.072-0.41 1.024-1.092 1.98-1.98 2.731-0.887 0.819-2.048 1.297-3.482 1.434-0.546 0.068-1.161 0.068-1.775 0-0.614 0-1.229-0.068-1.775-0.137l-12.22-1.707 2.321-16.794 12.22 1.707zM669.423 18.876l1.024-47.241-27.238 38.502-10.103-3.345 33.246-46.763 14.677 4.915-1.434 57.344-10.103-3.345zM715.639 39.083l25.054-48.811 9.216 4.71-25.054 48.811-9.216-4.71zM815.309 59.836c1.161-3.277 1.297-6.349 0.41-9.284-0.819-2.935-2.799-5.53-5.871-7.782-2.799-2.048-5.598-3.14-8.397-3.277s-5.461 0.614-8.124 2.185c-2.594 1.57-5.052 3.891-7.305 6.963s-3.755 6.076-4.506 9.079-0.614 5.734 0.341 8.397c0.956 2.594 2.799 4.983 5.666 7.031 3.072 2.253 6.144 3.345 9.148 3.277 3.004 0 5.939-1.092 8.738-3.209l6.69 8.533c-4.574 3.277-9.489 4.915-14.814 4.847-5.325 0-10.513-1.911-15.565-5.598-4.437-3.277-7.509-7.031-9.284-11.264-1.775-4.301-2.253-8.806-1.434-13.517s2.867-9.421 6.281-13.995c3.345-4.574 7.168-7.987 11.469-10.172s8.738-3.072 13.312-2.662c4.642 0.41 9.148 2.253 13.585 5.53 5.052 3.755 8.397 8.124 10.035 13.175 1.57 5.052 1.502 10.24-0.205 15.565l-10.103-3.823zM872.858 99.226l-10.24 9.694 14.336 15.223-7.031 6.622-14.336-15.223-8.533 8.055 17.408 18.569-7.031 6.622-24.508-26.078 39.936-37.615 24.508 26.078-7.031 6.622-17.408-18.569zM939.145 196.369c-2.321 1.502-4.506 2.321-6.554 2.458s-4.028-0.205-5.803-0.887c-1.775-0.751-3.413-1.638-4.915-2.731-1.434-1.092-2.731-2.116-3.823-3.14l-7.373-6.554c-0.887-0.819-1.843-1.57-2.799-2.253-1.024-0.683-1.98-1.161-3.004-1.365s-2.048 0-3.072 0.683c-1.092 0.683-1.775 1.707-2.048 2.935-0.273 1.297-0.273 2.662 0.137 4.096 0.341 1.502 1.024 2.867 1.98 4.233s2.116 2.458 3.482 3.413c1.365 0.887 2.867 1.502 4.437 1.775 1.638 0.273 3.277 0 4.983-0.614l4.506 10.445c-3.345 1.161-6.554 1.502-9.626 1.161-3.072-0.41-5.939-1.502-8.602-3.277s-5.052-4.301-7.168-7.441c-2.048-3.14-3.482-6.349-4.164-9.557-0.683-3.277-0.546-6.349 0.478-9.216s3.072-5.325 6.144-7.373c2.185-1.434 4.233-2.253 6.144-2.458s3.686 0 5.257 0.478c1.57 0.546 3.004 1.229 4.233 2.116s2.253 1.707 3.14 2.389l11.332 9.626c0.887 0.683 1.638 1.229 2.389 1.638 0.751 0.341 1.365 0.546 1.98 0.614 0.614 0 1.161 0 1.707-0.137s1.024-0.341 1.502-0.683c1.297-0.819 2.048-1.98 2.389-3.413s0.273-2.935-0.205-4.574c-0.41-1.638-1.092-3.14-2.048-4.574-1.638-2.526-3.891-4.369-6.622-5.461s-5.598-1.024-8.67 0l-4.574-9.967c3.413-1.57 6.827-2.185 10.172-1.911 3.413 0.273 6.554 1.434 9.557 3.345 3.004 1.98 5.598 4.642 7.782 8.055 1.502 2.321 2.731 4.779 3.55 7.373s1.229 5.12 1.161 7.714c0 2.526-0.683 4.915-1.843 7.168s-3.004 4.164-5.461 5.803zM426.94 460.493h-139.878v219.614h135.031c44.783 0 70.451-21.572 70.451-59.119 0-27.375-17.203-40.755-27.443-46.217 20.89-8.875 33.655-28.467 33.655-52.019 0-38.366-27.511-62.191-71.885-62.191zM332.732 592.043h82.534c26.556 0 32.154 13.107 32.154 24.030 0 15.497-11.401 24.030-32.154 24.030h-82.534v-48.060zM421.478 500.702c19.319 0 31.266 10.035 31.266 26.146s-12.288 26.146-31.266 26.146h-88.747v-52.292h88.747zM582.997 460.493v91.955h122.539v-91.955h47.445v219.614s-47.445 0-47.445 0v-86.221h-122.539v86.221h-47.445v-219.614h47.445zM655.292 337.749c-50.995 6.281-61.235 9.762-61.235 24.030 0 12.22 10.854 25.259 48.538 25.259 34.133 0 62.464-12.083 77.756-33.109l1.092-1.502 29.969 30.583-0.751 1.092c-18.91 26.556-60.416 43.759-105.813 43.759-58.095 0-97.075-28.399-97.075-70.588 0-45.739 42.325-54.613 89.498-60.348l1.092-0.137c56.32-6.554 68.813-8.26 68.813-27.238 0-15.974-20.070-26.761-53.862-26.761-21.982 0-62.737 5.53-88.815 42.735l-1.161 1.638-30.174-33.451 0.683-1.024c19.593-30.037 67.994-51.063 117.76-51.063 63.898 0 103.561 27.853 103.561 72.704 0 47.65-41.438 56.32-100.011 63.351zM504.491 296.926v127.659s-47.445 0-47.445 0v-86.221h-122.539v86.221h-47.445v-219.614h47.445v91.955h122.539v-91.955h47.445v91.955zM54.613 490.53c1.229-2.526 1.775-5.666 1.57-9.421l-1.434-24.303-54.75 3.209 1.297 21.914c0.205 3.891 1.161 7.031 2.867 9.353s3.755 3.959 6.212 4.915c2.458 0.956 4.847 1.365 7.236 1.229 3.072-0.205 5.598-1.024 7.509-2.526 1.161-0.887 2.116-1.98 2.799-3.277 0.956 2.116 2.389 3.755 4.301 4.847 2.526 1.57 5.325 2.253 8.397 2.116 3.277-0.205 6.144-0.956 8.533-2.321s4.233-3.277 5.53-5.871zM22.255 483.703c-0.341 0.956-0.956 1.707-1.775 2.253-0.819 0.614-1.911 0.887-3.209 1.024-1.707 0.068-3.14-0.341-4.301-1.297-1.229-0.956-1.843-2.458-1.98-4.437l-0.683-11.264 11.742-0.683 0.683 11.264c0 1.161-0.068 2.253-0.41 3.14zM45.739 484.386c-0.546 1.092-1.297 2.048-2.389 2.731-1.024 0.683-2.321 1.092-3.755 1.161-1.297 0.068-2.458-0.137-3.482-0.614s-1.911-1.229-2.526-2.253c-0.683-1.024-1.024-2.389-1.161-3.959l-0.751-12.698 13.995-0.819 0.751 12.698c0.068 1.365-0.137 2.662-0.683 3.755zM56.73 551.424l-13.722 3.277 4.847 20.275-9.421 2.253-4.847-20.275-11.401 2.731 5.939 24.781-9.421 2.253-8.397-34.816 53.316-12.834 8.397 34.816-9.421 2.253-5.939-24.781zM85.811 615.049l-50.108 22.255 9.353 21.163c0.205 0.478 0.546 1.161 0.956 1.911 0.41 0.819 0.819 1.502 1.229 2.116 1.775 2.799 3.891 4.779 6.212 6.076 2.389 1.229 4.847 1.843 7.578 1.707 2.662-0.137 5.461-0.751 8.26-2.048 4.233-1.843 7.305-4.506 9.421-7.919 1.297-2.116 1.911-4.506 1.911-7.1l22.596 0.819-4.779-10.718-20.617-0.683-4.71-10.581 16.998-7.509-4.164-9.489zM69.769 654.37c-0.546 1.092-1.229 1.98-2.116 2.662s-1.775 1.297-2.662 1.707c-0.887 0.41-1.911 0.683-3.072 0.887s-2.253 0.137-3.413-0.205c-1.161-0.341-2.185-1.092-3.072-2.185-0.341-0.41-0.683-0.887-0.956-1.502-0.273-0.546-0.546-1.092-0.751-1.57l-4.983-11.264 15.428-6.827 4.983 11.264c0.205 0.478 0.41 1.024 0.614 1.638s0.341 1.161 0.41 1.707c0.205 1.434 0.068 2.662-0.478 3.755zM129.911 699.631l-20.548 14.199 32.973 3.823 7.441 10.786-36.727-4.301-9.284 34.27-7.168-10.445 9.011-31.539-20.821 14.336-5.871-8.533 45.193-31.13 5.871 8.533zM192.512 798.686c-1.98 1.98-3.959 3.209-5.939 3.755s-3.959 0.614-5.871 0.273c-1.911-0.341-3.686-0.887-5.325-1.707-1.638-0.751-3.14-1.57-4.369-2.253l-8.533-4.915c-1.024-0.614-2.116-1.161-3.209-1.638s-2.185-0.683-3.277-0.683c-1.024 0-1.98 0.41-2.867 1.297s-1.365 2.048-1.434 3.345c0 1.297 0.273 2.662 0.956 4.028s1.57 2.594 2.799 3.755c1.229 1.161 2.526 1.98 4.096 2.662s3.072 0.887 4.71 0.819c1.638-0.068 3.209-0.614 4.779-1.57l6.554 9.284c-3.072 1.775-6.144 2.799-9.216 3.072s-6.144-0.205-9.079-1.434c-3.004-1.229-5.803-3.14-8.533-5.803-2.662-2.662-4.642-5.461-6.007-8.533s-1.775-6.076-1.365-9.079c0.41-3.004 1.911-5.871 4.574-8.465 1.843-1.843 3.686-3.072 5.53-3.686s3.55-0.751 5.257-0.614c1.638 0.205 3.209 0.614 4.574 1.229s2.594 1.161 3.55 1.707l13.039 7.168c0.956 0.546 1.843 0.887 2.662 1.092 0.751 0.205 1.434 0.273 2.048 0.205 0.614 0 1.161-0.205 1.638-0.478s0.956-0.546 1.297-0.956c1.092-1.092 1.638-2.321 1.638-3.823 0-1.434-0.341-2.935-1.092-4.437s-1.707-2.867-2.935-4.096c-2.185-2.185-4.642-3.482-7.578-3.959-2.867-0.478-5.734 0.137-8.465 1.775l-6.485-8.806c3.004-2.253 6.212-3.55 9.626-3.959 3.345-0.41 6.69 0 10.035 1.365 3.345 1.297 6.417 3.413 9.284 6.281 1.98 1.98 3.618 4.164 4.983 6.485 1.365 2.389 2.253 4.779 2.731 7.305 0.478 2.458 0.341 4.915-0.341 7.373s-2.048 4.71-4.164 6.758zM245.282 820.122l-12.698 18.705 20.275 13.79 12.698-18.705 8.602 5.803-30.788 45.397-8.602-5.803 12.698-18.637-20.275-13.79-12.698 18.637-8.602-5.803 30.788-45.397 8.602 5.803zM324.13 865.519l-23.142 49.766-9.421-4.369 23.142-49.766 9.421 4.369zM366.729 882.654l-15.019 52.77 22.255 6.349c0.546 0.137 1.229 0.341 2.116 0.546s1.707 0.341 2.389 0.41c3.277 0.41 6.144 0.137 8.602-0.887s4.506-2.594 6.144-4.71 2.867-4.71 3.755-7.646c1.229-4.437 1.229-8.533 0-12.288-0.819-2.321-2.185-4.301-4.233-6.007l15.087-16.862-11.264-3.209-13.79 15.428-11.127-3.209 5.12-17.886-9.967-2.867zM364.271 928.939l4.642-16.247 11.878 3.413c0.546 0.137 1.092 0.341 1.638 0.546 0.614 0.205 1.161 0.478 1.57 0.751 1.229 0.751 2.116 1.638 2.594 2.731s0.683 2.185 0.683 3.345-0.137 2.185-0.41 3.14-0.683 1.911-1.297 2.935c-0.614 0.956-1.365 1.775-2.321 2.458s-2.185 0.956-3.618 0.956c-0.546 0-1.161 0-1.775-0.205s-1.161-0.273-1.707-0.41l-11.878-3.413zM485.308 905.318l-0.956 9.626-25.327-2.458-1.365 14.063 20.753 2.048-0.956 9.626-20.753-2.048-1.161 11.674 25.327 2.458-0.956 9.626-35.635-3.482 5.325-54.613 35.635 3.482zM593.374 921.566l24.030-4.779-4.369-22.187 10.172-2.048 10.65 53.862-10.172 2.048-4.369-22.118-24.030 4.779 4.369 22.118-10.172 2.048-10.65-53.862 10.172-2.048 4.369 22.187zM672.29 876.851l-9.83 4.028 36.318 44.442 14.336-5.871-5.325-57.139-9.899 4.028 1.092 11.947-19.115 7.851-7.578-9.284zM686.217 893.918l13.653-5.598 2.253 25.054-15.906-19.456zM798.242 861.628l5.188 8.192-38.025 24.030-5.188-8.192 14.609-9.216-24.098-38.229 8.738-5.53 24.098 38.229 14.609-9.216zM839.202 768.034l37.342 40.209-7.578 7.031-15.36-16.521-17.954 16.725 15.36 16.521-7.578 7.031-37.342-40.209 7.578-7.031 15.428 16.589 17.954-16.725-15.428-16.589 7.578-7.031zM866.509 737.519l54.204 18.842 9.148-12.493-34.406-45.875-6.281 8.602 7.168 9.626-12.151 16.725-11.264-3.959-6.281 8.602zM902.281 724.275l15.019 20.207-23.689-8.26 8.67-11.878zM923.034 647.885l38.093 5.734-29.286-25.054 4.233-9.284 56.525 8.192-4.506 9.899-38.571-6.281 30.037 25.054-4.574 9.899-38.502-6.281 30.037 25.054-4.506 9.899-43.213-37.41 4.233-9.284zM1012.19 555.725l-49.698-28.604-2.389 10.377 10.377 6.007-4.642 20.139-11.878 0.819-2.389 10.377 57.207-4.096 3.482-15.087zM979.217 548.625l21.777 12.629-25.054 1.775 3.277-14.336zM967.68 477.355l0.546-10.513 22.255 1.161 33.451-17.067-0.614 12.083-21.231 10.854 20.002 12.902-0.614 12.083-31.539-20.343-22.255-1.161zM41.233 325.461c-8.26 0-14.882-6.69-14.882-14.882s6.69-14.882 14.882-14.882 14.882 6.69 14.882 14.882-6.69 14.882-14.882 14.882zM981.879 325.461c-8.26 0-14.882-6.69-14.882-14.882s6.69-14.882 14.882-14.882 14.882 6.69 14.882 14.882-6.69 14.882-14.882 14.882z" />
<glyph unicode="&#xe96d;" glyph-name="sliders" data-tags="sliders" d="M0 128c0 17.6 14.328 32 32 32h131.2c14.82 73 79.4 128 156.8 128s140.2-55 156.8-128h515.2c17.6 0 32-14.4 32-32s-14.4-32-32-32h-515.2c-16.6-73-79.4-128-156.8-128s-141.98 55-156.8 128h-131.2c-17.672 0-32 14.4-32 32v0zM416 128c0 53-43 96-96 96s-96-43-96-96c0-53 43-96 96-96s96 43 96 96zM704 608c77.4 0 140.2-55 156.8-128h131.2c17.6 0 32-14.4 32-32s-14.4-32-32-32h-131.2c-16.6-73-79.4-128-156.8-128s-142 55-156.8 128h-515.2c-17.672 0-32 14.4-32 32s14.328 32 32 32h515.2c14.8 73 79.4 128 156.8 128zM800 448c0 53-43 96-96 96s-96-43-96-96c0-53 43-96 96-96s96 43 96 96zM992 800c17.6 0 32-14.32 32-32 0-17.6-14.4-32-32-32h-451.2c-16.6-73-79.4-128-156.8-128s-142 55-156.8 128h-195.2c-17.672 0-32 14.4-32 32 0 17.68 14.328 32 32 32h195.2c14.8 73.040 79.4 128 156.8 128s140.2-54.96 156.8-128h451.2zM288 768c0-53 43-96 96-96s96 43 96 96c0 53.020-43 96-96 96s-96-42.98-96-96z" />
<glyph unicode="&#xe96e;" glyph-name="arrow-right" data-tags="arrow-right" horiz-adv-x="896" d="M887.4 426.4l-331.8-352c-6.6-7-17.4-10.4-24.6-10.4-7.972 0-15.976 2.75-22.32 8.312-13.546 11.876-14.55 32.12-2.236 45.18l281.356 298.508h-754.62c-18.342 0-33.18 14.31-33.18 30.2s14.842 33.8 33.18 33.8h754.6l-281.4 298.6c-12.314 13.062-11.31 33.32 2.236 45.18 13.578 11.812 34.54 10.938 46.9-2.188l331.8-352c11.484-12.192 11.484-30.992 0.084-43.192z" />
<glyph unicode="&#xe96f;" glyph-name="house-chimney-user" data-tags="house-chimney-user" horiz-adv-x="1152" d="M704 512c0-70.6-57.4-128-128-128s-128 57.4-128 128c0 70.6 57.4 128 128 128s128-57.4 128-128zM576 608c-53 0-96-43-96-96s43-96 96-96c53 0 96 43 96 96s-43 96-96 96zM640 320c88.4 0 160-71.6 160-160 0-17.6-14.4-32-32-32h-384c-17.6 0-32 14.4-32 32 0 88.4 71.6 160 160 160h128zM512 288c-70.6 0-128-57.4-128-128h384c0 70.6-57.4 128-128 128h-128zM768 795.32v52.68c0 26.5 21.4 48 48 48h160c26.6 0 48-21.5 48-48v-279.4l122.6-108.6c6.6-5.8 7.2-14.2-0.4-22.6-4-6.6-14.2-7.2-20.8 0.4l-101.4 88v-461.8c0-70.6-57.4-128-128-128h-640c-70.7 0-128 57.4-128 128v461.8l-101.4-88c-6.606-7.6-16.718-7-22.576-0.4-5.86 8.4-5.247 16.8 1.368 22.6l560.008 495.978c6 5.363 15.2 5.363 21.2 0l181.4-160.658zM576 922.62l-416-368.42v-490.2c0-53 43-96 96-96h640c53 0 96 43 96 96v490.2l-223.4 199.6h-0.6v-1.2l-192 170.020zM992 597v251c0 8.84-7.2 16-16 16h-160c-8.8 0-16-7.16-16-16v-81.020l192-169.98z" />
<glyph unicode="&#xe970;" glyph-name="house-heart" data-tags="house-heart" horiz-adv-x="1152" d="M576 441.2l26.6 27.4c43.8 45.2 116.2 45.2 160 0 42.2-43.2 42.2-112.2 0-155.6l-152.2-156.6c-18.8-19.4-50-19.4-68.8 0l-152.2 156.6c-42.2 43.4-42.2 112.4 0 155.6 43.8 45.2 116.2 45.2 160 0l26.6-27.4zM412.2 335.4l152.4-156.6c6.2-6.6 16.6-6.6 22.8 0l152.4 156.6c30 30.8 30 80 0 111-31.4 32-83 32-114.2 0l-49.6-51-49.6 51c-31.2 32-82.8 32-114.2 0-30-31-30-80.2 0-111zM1146.6 460c6.6-5.8 7.2-14.2-0.4-22.6-4-6.6-14.2-7.2-20.8 0.4l-101.4 88v-461.8c0-70.6-57.4-128-128-128h-640c-70.7 0-128 57.4-128 128v461.8l-101.4-88c-6.606-7.6-16.718-7-22.576-0.4-5.86 8.4-5.247 16.8 1.368 22.6l560.008 495.978c6 5.363 15.2 5.363 21.2 0l560-495.978zM256-32h640c53 0 96 43 96 96v490.2l-416 368.42-416-368.42v-490.2c0-53 43-96 96-96v0z" />
<glyph unicode="&#xe971;" glyph-name="city" data-tags="city" horiz-adv-x="1280" d="M160 816h160v128c0 8.836 7.2 16 16 16s16-7.164 16-16v-128h80c8.8 0 16-7.16 16-16s-7.2-16-16-16h-320c-44.18 0-80-35.8-80-80v-656c0-44.2 35.82-80 80-80h352c8.8 0 16-7.2 16-16s-7.2-16-16-16h-352c-61.86 0-112 50.2-112 112v656c0 61.86 50.14 112 112 112h16v128c0 8.836 7.16 16 16 16s16-7.164 16-16v-128zM656 256c0 26.6 21.4 48 48 48h64c26.6 0 48-21.4 48-48v-64c0-26.6-21.4-48-48-48h-64c-26.6 0-48 21.4-48 48v64zM768 176c8.8 0 16 7.2 16 16v64c0 8.8-7.2 16-16 16h-64c-8.8 0-16-7.2-16-16v-64c0-8.8 7.2-16 16-16h64zM768 816c26.6 0 48-21.5 48-48v-64c0-26.6-21.4-48-48-48h-64c-26.6 0-48 21.4-48 48v64c0 26.5 21.4 48 48 48h64zM688 704c0-8.8 7.2-16 16-16h64c8.8 0 16 7.2 16 16v64c0 8.84-7.2 16-16 16h-64c-8.8 0-16-7.16-16-16v-64zM656 512c0 26.6 21.4 48 48 48h64c26.6 0 48-21.4 48-48v-64c0-26.6-21.4-48-48-48h-64c-26.6 0-48 21.4-48 48v64zM768 432c8.8 0 16 7.2 16 16v64c0 8.8-7.2 16-16 16h-64c-8.8 0-16-7.2-16-16v-64c0-8.8 7.2-16 16-16h64zM1024 80c-26.6 0-48 21.4-48 48v64c0 26.6 21.4 48 48 48h64c26.6 0 48-21.4 48-48v-64c0-26.6-21.4-48-48-48h-64zM1008 128c0-8.8 7.2-16 16-16h64c8.8 0 16 7.2 16 16v64c0 8.8-7.2 16-16 16h-64c-8.8 0-16-7.2-16-16v-64zM976 448c0 26.6 21.4 48 48 48h64c26.6 0 48-21.4 48-48v-64c0-26.6-21.4-48-48-48h-64c-26.6 0-48 21.4-48 48v64zM1088 368c8.8 0 16 7.2 16 16v64c0 8.8-7.2 16-16 16h-64c-8.8 0-16-7.2-16-16v-64c0-8.8 7.2-16 16-16h64zM960 832v-192h192c70.6 0 128-57.4 128-128v-448c0-70.6-57.4-128-128-128h-512c-70.6 0-128 57.4-128 128v768c0 70.7 57.4 128 128 128h192c70.6 0 128-57.3 128-128zM928 608v224c0 53.020-43 96-96 96h-192c-53 0-96-42.98-96-96v-768c0-53 43-96 96-96h512c53 0 96 43 96 96v448c0 53-43 96-96 96h-224zM192 272c-26.5 0-48 21.4-48 48v64c0 26.6 21.5 48 48 48h64c26.6 0 48-21.4 48-48v-64c0-26.6-21.4-48-48-48h-64zM176 320c0-8.8 7.16-16 16-16h64c8.8 0 16 7.2 16 16v64c0 8.8-7.2 16-16 16h-64c-8.84 0-16-7.2-16-16v-64zM144 640c0 26.6 21.5 48 48 48h64c26.6 0 48-21.4 48-48v-64c0-26.6-21.4-48-48-48h-64c-26.5 0-48 21.4-48 48v64zM256 560c8.8 0 16 7.2 16 16v64c0 8.8-7.2 16-16 16h-64c-8.84 0-16-7.2-16-16v-64c0-8.8 7.16-16 16-16h64z" />
<glyph unicode="&#xe972;" glyph-name="chart-user" data-tags="chart-user" horiz-adv-x="1280" d="M320 320c106.040 0 192 85.96 192 192s-85.96 192-192 192c-107.8 0-192-84.2-192-192 0-106 84.2-192 192-192zM320 672c88.22 0 160-71.78 160-160s-71.78-160-160-160-160 71.8-160 160c0 88.2 71.8 160 160 160zM1168 960h-736c-61.8 0-112-50.24-112-112v-64c0-8.82 7.2-16 16-16s16 7.18 16 16v64c0 44.12 35.88 80 80 80h736c44.12 0 80-35.88 80-80v-608c0-44.12-35.88-80-80-80h-480c-8.812 0-16-7.188-16-16s7.2-16 16-16h480c61.76 0 112 50.24 112 112v608c0 61.76-50.2 112-112 112zM384 256h-128c-141.38 0-256-114.6-256-256 0-35.34 28.66-64 64-64h512c35.34 0 64 28.66 64 64 0 141.4-114.6 256-256 256zM576-32h-512c-17.644 0-32 14.356-32 32 0 123.52 100.48 224 224 224h128c123.52 0 224-100.48 224-224 0-17.6-14.4-32-32-32zM619.4 619.4c-6.25 6.25-16.376 6.25-22.62 0s-6.25-16.376 0-22.62l160-160c3.020-3.18 7.020-4.78 11.22-4.78s8.188 1.563 11.312 4.688l244.688 244.712v-153.4c0-8.8 7.2-16 16-16s16 7.188 16 16v192c0 8.812-7.188 16-16 16h-192c-8.8 0-16-7.2-16-16s7.2-16 16-16h153.38l-233.38-233.4-148.6 148.8z" />
<glyph unicode="&#xe973;" glyph-name="circle-arrow-down" data-tags="circle-arrow-down" d="M740.6 459.4l-212.6-212.8v441.4c0 8.8-7.2 16-16 16s-16-7.2-16-16v-441.4l-212.6 212.8c-6.25 6.25-16.376 6.25-22.62 0s-6.25-16.376 0-22.62l240-240c6.25-6.25 16.376-6.25 22.62 0l240 240c3 3.020 4.6 7.020 4.6 11.22s-1.563 8.188-4.688 11.312c-6.312 6.288-16.312 6.288-22.712 0.088zM512 960c-282.8 0-512-229.2-512-512s229.2-512 512-512 512 229.2 512 512-229.2 512-512 512zM512-32c-264.6 0-480 215.4-480 480s215.4 480 480 480 480-215.4 480-480-215.4-480-480-480z" />
<glyph unicode="&#xe974;" glyph-name="circle-arrow-up" data-tags="circle-arrow-up" d="M523.4 699.4c-6.25 6.25-16.376 6.25-22.62 0l-240-240c-3.18-3.2-4.78-7.2-4.78-11.4s1.563-8.188 4.688-11.312c6.25-6.25 16.376-6.25 22.62 0l212.692 212.712v-441.4c0-8.8 7.2-16 16-16s16 7.188 16 16v441.4l212.6-212.6c6.25-6.25 16.376-6.25 22.62 0s6.25 16.376 0 22.62l-239.82 239.98zM512 960c-282.8 0-512-229.2-512-512s229.2-512 512-512 512 229.2 512 512-229.2 512-512 512zM512-32c-264.6 0-480 215.4-480 480s215.4 480 480 480 480-215.4 480-480-215.4-480-480-480z" />
<glyph unicode="&#xe975;" glyph-name="alarm-clock" data-tags="alarm-clock" d="M187.44 959.999c49.16 0 93.96-18.983 127.36-48.199 6.6-7.8 7-17.92 1-24.4s-16.2-6.86-22.6-0.86c-27.8 25.74-65 41.46-105.76 41.46-85.84 0-155.44-69.6-155.44-155.44 0-30.76 8.9-59.36 24.24-83.36 4.76-7.4 2.56-17.4-4.9-22.2-7.44-4.6-17.34-2.4-22.080 5-18.53 29-29.26 63.6-29.26 100.56 0 103.52 83.92 187.44 187.44 187.44v-0.001zM528 359.6l152.2-123.2c8.6-5.4 9.8-15.4 4.2-20.6-5.4-8.6-15.4-9.8-22.4-4.2l-160 128c-3.8 3-7.8 7.6-7.8 12.4v272c0 8.8 9 16 16 16 10.6 0 17.8-7.2 17.8-16v-264.4zM68.68-59.4c-6.24 6.4-6.24 16.4 0 22.8l115.42 115.4c-74.52 80-120.1 189-120.1 305.2 0 247.4 200.6 448 448 448s448-200.6 448-448c0-116.2-45.6-225.2-120.2-305.2l115.6-115.4c6.2-6.4 6.2-16.4 0-22.8-6.4-6.2-16.4-6.2-22.8 0l-115.4 115.6c-80-74.6-189-120.2-305.2-120.2-118 0-225.2 45.6-305.2 120.2l-115.48-115.6c-6.26-6.2-16.38-6.2-22.64 0v0zM512-32c229.8 0 416 186.2 416 416s-186.2 416-416 416c-229.8 0-416-186.2-416-416s186.2-416 416-416zM709.2 911.8c33.4 29.216 78.2 48.199 127.4 48.199 103.4 0 187.4-83.919 187.4-187.439 0-36.96-10.8-71.56-29.2-100.56-6.6-7.4-14.6-9.6-22.2-5-7.4 4.8-9.6 14.8-4.8 22.2 15.4 24 24.2 52.6 24.2 83.36 0 85.84-69.6 155.44-155.4 155.44-40.8 0-78-15.72-105.8-41.46-6.4-6-16.6-5.62-22.6 0.86-6 6.46-5.6 16.6 1 24.4v0z" />
<glyph unicode="&#xe976;" glyph-name="road-solid" data-tags="road-solid" horiz-adv-x="1152" d="M512 896h-149.6c-54.2 0-102.6-34.2-120.6-85.2l-235.6-665.2c-4-11.6-6.2-24-6.2-36.4 0-60.2 49-109.2 109.2-109.2h402.8v128c0 35.4 28.6 64 64 64s64-28.6 64-64v-128h402.8c60.4 0 109.2 49 109.2 109.2 0 12.4-2.2 24.8-6.2 36.4l-235.6 665.2c-18.2 51-66.4 85.2-120.6 85.2h-149.6v-128c0-35.4-28.6-64-64-64s-64 28.6-64 64v128zM640 512v-128c0-35.4-28.6-64-64-64s-64 28.6-64 64v128c0 35.4 28.6 64 64 64s64-28.6 64-64z" />
<glyph unicode="&#xe977;" glyph-name="flag-solid" data-tags="flag-solid" horiz-adv-x="896" d="M128 896c0 35.4-28.6 64-64 64s-64-28.6-64-64v-896c0-35.4 28.6-64 64-64s64 28.6 64 64v256l128.6 32.2c82.2 20.6 169.2 11 245-26.8 88.4-44.2 191-49.6 283.4-14.8l69.4 26c25 9.4 41.6 33.2 41.6 60v495.2c0 46-48.4 76-89.6 55.4l-19.2-9.6c-92.6-46.4-201.6-46.4-294.2 0-70.2 35.2-150.8 44-227 25l-138-34.6v32z" />
<glyph unicode="&#xe978;" glyph-name="bookmark-solid" data-tags="bookmark-solid" horiz-adv-x="768" d="M0 864v-879.4c0-26.8 21.8-48.6 48.6-48.6 10 0 19.8 3 28 8.8l307.4 215.2 307.4-215.2c8.2-5.8 18-8.8 28-8.8 26.8 0 48.6 21.8 48.6 48.6v879.4c0 53-43 96-96 96h-576c-53 0-96-43-96-96z" />
<glyph unicode="&#xe979;" glyph-name="users-solid" data-tags="users-solid" horiz-adv-x="1280" d="M288 960c88.366 0 160-71.634 160-160s-71.634-160-160-160v0c-88.366 0-160 71.634-160 160s71.634 160 160 160v0zM1024 960c88.366 0 160-71.634 160-160s-71.634-160-160-160v0c-88.366 0-160 71.634-160 160s71.634 160 160 160v0zM0 362.6c0 117.8 95.6 213.4 213.4 213.4h85.4c31.8 0 62-7 89.2-19.4-2.6-14.4-3.8-29.4-3.8-44.6 0-76.4 33.6-145 86.6-192-0.4 0-0.8 0-1.4 0h-426.8c-23.4 0-42.6 19.2-42.6 42.6zM810.6 320c-0.4 0-0.8 0-1.4 0 53.2 47 86.6 115.6 86.6 192 0 15.2-1.4 30-3.8 44.6 27.2 12.6 57.4 19.4 89.2 19.4h85.4c117.8 0 213.4-95.6 213.4-213.4 0-23.6-19.2-42.6-42.6-42.6h-426.8zM448 512c0 106.039 85.961 192 192 192s192-85.961 192-192v0c0-106.039-85.961-192-192-192s-192 85.961-192 192v0zM256-10.6c0 147.2 119.4 266.6 266.6 266.6h234.8c147.2 0 266.6-119.4 266.6-266.6 0-29.4-23.8-53.4-53.4-53.4h-661.2c-29.4 0-53.4 23.8-53.4 53.4z" />
<glyph unicode="&#xe97a;" glyph-name="arrow-down-arrow-up" data-tags="arrow-down-arrow-up" d="M14 206l192-192c18.8-18.8 49.2-18.8 67.8 0l192 192c18.8 18.8 18.8 49.2 0 67.8s-49.2 18.8-67.8 0l-110-110v684.2c0 26.6-21.4 48-48 48s-48-21.4-48-48v-684.2l-110 110.2c-18.8 18.8-49.2 18.8-67.8 0s-18.8-49.2 0-67.8zM718 882l-192-192c-18.8-18.8-18.8-49.2 0-67.8s49.2-18.8 67.8 0l110 110v-684.2c0-26.6 21.4-48 48-48s48 21.4 48 48v684.2l110-110c18.8-18.8 49.2-18.8 67.8 0s18.8 49.2 0 67.8l-191.6 192c-18.8 18.8-49.2 18.8-67.8 0z" />
<glyph unicode="&#xe97b;" glyph-name="arrow-up-wide-short" data-tags="arrow-up-wide-short" horiz-adv-x="1152" d="M222 882c18.8 18.8 49.2 18.8 67.8 0l192-192c18.8-18.8 18.8-49.2 0-67.8s-49.2-18.8-67.8 0l-110 110v-684.2c0-26.6-21.4-48-48-48s-48 21.4-48 48v684.2l-110-110.2c-18.8-18.8-49.2-18.8-67.8 0s-18.8 49.2 0 67.8l192 192zM624 0c-26.6 0-48 21.4-48 48s21.4 48 48 48h96c26.6 0 48-21.4 48-48s-21.4-48-48-48h-96zM624 256c-26.6 0-48 21.4-48 48s21.4 48 48 48h224c26.6 0 48-21.4 48-48s-21.4-48-48-48h-224zM624 512c-26.6 0-48 21.4-48 48s21.4 48 48 48h352c26.6 0 48-21.4 48-48s-21.4-48-48-48h-352zM624 768c-26.6 0-48 21.4-48 48s21.4 48 48 48h480c26.6 0 48-21.4 48-48s-21.4-48-48-48h-480z" />
<glyph unicode="&#xe97c;" glyph-name="arrow-down-short-wide" data-tags="arrow-down-short-wide" horiz-adv-x="1152" d="M30 206l192-192c18.8-18.8 49.2-18.8 67.8 0l192 192c18.8 18.8 18.8 49.2 0 67.8s-49.2 18.8-67.8 0l-110-110v684.2c0 26.6-21.4 48-48 48s-48-21.4-48-48v-684.2l-110 110.2c-18.8 18.8-49.2 18.8-67.8 0s-18.8-49.2 0-67.8zM624 864c-26.6 0-48-21.4-48-48s21.4-48 48-48h96c26.6 0 48 21.4 48 48s-21.4 48-48 48h-96zM624 608c-26.6 0-48-21.4-48-48s21.4-48 48-48h224c26.6 0 48 21.4 48 48s-21.4 48-48 48h-224zM624 352c-26.6 0-48-21.4-48-48s21.4-48 48-48h352c26.6 0 48 21.4 48 48s-21.4 48-48 48h-352zM624 96c-26.6 0-48-21.4-48-48s21.4-48 48-48h480c26.6 0 48 21.4 48 48s-21.4 48-48 48h-480z" />
<glyph unicode="&#xe97d;" glyph-name="book-open-cover" data-tags="book-open-cover" horiz-adv-x="1280" d="M608 896v-752l-416 80v666.6c0 39.6 35.6 69.8 74.6 63.2l341.4-57.8zM179.4 149.8l460.6-92.2 460.6 92.2c30 6 51.4 32.2 51.4 62.8v689.8l51.4 10.2c39.6 8 76.6-22.2 76.6-62.6v-733.6c0-30.6-21.6-56.8-51.4-62.8l-588.6-117.6-588.6 117.8c-29.8 5.8-51.4 32.2-51.4 62.6v733.6c0 40.4 37 70.6 76.6 62.6l51.4-10.2v-690c0-30.6 21.6-56.8 51.4-62.8zM672 144v752l341.4 57.8c39 6.6 74.6-23.6 74.6-63.2v-666.6l-416-80z" />
<glyph unicode="&#xe97e;" glyph-name="briefcase-solid" data-tags="briefcase-solid" d="M368 864h288c8.8 0 16-7.2 16-16v-80h-320v80c0 8.8 7.2 16 16 16zM256 848v-80h-128c-70.6 0-128-57.4-128-128v-192h1024v192c0 70.6-57.4 128-128 128h-128v80c0 61.8-50.2 112-112 112h-288c-61.8 0-112-50.2-112-112zM1024 384h-384v-64c0-35.4-28.6-64-64-64h-128c-35.4 0-64 28.6-64 64v64h-384v-256c0-70.6 57.4-128 128-128h768c70.6 0 128 57.4 128 128v256z" />
<glyph unicode="&#xe97f;" glyph-name="circle-check-regular" data-tags="circle-check-regular" d="M512 864c229.75 0 416-186.25 416-416s-186.25-416-416-416v0c-229.75 0-416 186.25-416 416s186.25 416 416 416v0zM512-64c282.77 0 512 229.23 512 512s-229.23 512-512 512v0c-282.77 0-512-229.23-512-512s229.23-512 512-512v0zM738 542c18.8 18.8 18.8 49.2 0 67.8s-49.2 18.8-67.8 0l-222-222-94 94c-18.8 18.8-49.2 18.8-67.8 0s-18.8-49.2 0-67.8l128-128c18.8-18.8 49.2-18.8 67.8 0l255.8 256z" />
<glyph unicode="&#xe980;" glyph-name="Al" data-tags="Al" d="M311.685 939.254c60.047-2.56 115.384-17.613 162.714-57.344 25.149-21.217 43.745-47.022 60.908-74.301 6.144-9.851 14.746-15.217 26.337-14.807 67.052 2.355 126.976-18.555 183.009-54.047 34.14-21.606 65.925-45.978 93.471-75.244 40.817-43.377 75.407-91.464 94.536-148.439 7.352-21.934 8.745-45.875 12.657-68.936 5.14-30.392 1.475-60.641-5.161-90.112-10.24-45.363-38.912-76.984-82.268-92.365-32.154-11.387-66.109-17.51-98.898-27.218-20.623-6.144-43.889-10.24-49.029-37.253-1.127-4.54-1.773-9.751-1.773-15.114 0-1.232 0.034-2.456 0.101-3.671l-0.007 0.169c3.297-31.15 4.198-61.788-4.588-92.611-8.417-29.614-23.347-55.296-42.496-78.602-20.931-25.457-47.104-43.315-80.425-49.746-30.904-5.96-60.928-2.048-90.952 5.181-44.242 10.513-82.342 32.44-112.285 62.498l-0.007 0.007c-22.979 23.060-44.032 47.964-65.372 72.54-2.499 2.888-1.475 8.847-2.048 13.373 4.485 0.225 9.462 1.782 13.353 0.369 4.567-1.659 8.52-5.53 12.145-9.073 27.402-26.829 53.084-55.583 86.016-76.308 29.409-18.432 60.416-31.928 95.437-36.27 25.866-3.195 50.504-2.785 75.141 7.086 23.183 9.277 40.284 25.62 55.009 44.401 24.412 31.15 37.765 66.458 34.57 106.865-1.024 13.005-1.413 26.051-2.458 39.035-2.826 34.714 20.48 61.624 51.978 71.148 30.147 9.073 61.051 15.585 91.32 24.289 50.975 14.664 85.279 49.623 89.334 106.004 5.55 76.759-18.944 144.015-65.004 203.919-19.014 24.653-38.671 46.563-59.819 66.934l-0.187 0.179c-44.298 42.455-94.208 76.329-155.771 88.924-13.182 2.871-28.766 4.961-44.676 5.824l-0.769 0.033c-19.149 0.963-38.4 0.696-57.59 0-12.472-0.389-19.169 5.468-23.9 16.261-10.895 24.904-24.31 48.005-43.766 67.748-27.758 28.612-63.877 48.969-104.411 57.128l-1.286 0.216c-72.151 14.766-137.687-1.004-196.608-44.872-26.87-20.029-49.521-43.459-66.519-72.458-1.495-2.54-7.946-4.588-10.486-3.42s-5.53 7.148-4.772 10.117c7.347 29.993 24.506 55.179 47.813 72.587l0.335 0.24c23.798 17.736 47.247 36.557 73.175 50.627 31.893 17.955 70.013 28.533 110.604 28.533 1.184 0 2.366-0.009 3.545-0.027l-0.179 0.002zM569.549 265.564h-67.789c-35.308 85.32-70.738 170.906-109.056 263.537-37.97-91.402-73.421-176.681-109.261-262.984h-67.359l150.18 364.319h52.572zM644.076 265.728h-55.869v364.196h55.869z" />
<glyph unicode="&#xe981;" glyph-name="bed1" data-tags="bed" horiz-adv-x="1280" d="M64 320h448v288c0 53 43 96 96 96h448c123.8 0 224-100.2 224-224v-448c0-17.6-14.4-32-32-32s-32 14.4-32 32v96h-1152v-96c0-17.6-14.32-32-32-32-17.672 0-32 14.4-32 32v832c0 17.68 14.328 32 32 32 17.68 0 32-14.32 32-32v-544zM1216 256h-1152v-64h1152v64zM1056 640h-448c-17.6 0-32-14.4-32-32v-288h640v160c0 88.4-71.6 160-160 160zM448 544c0-88.4-71.6-160-160-160-88.36 0-160 71.6-160 160s71.64 160 160 160c88.4 0 160-71.6 160-160zM288 640c-53 0-96-43-96-96s43-96 96-96c53 0 96 43 96 96s-43 96-96 96z" />
<glyph unicode="&#xe982;" glyph-name="wi-night-rain" data-tags="wi-night-rain" d="M145.408 382.123c0-22.528 4.096-43.691 12.971-64.171s20.139-37.888 34.816-52.907c14.677-14.677 32.085-26.965 52.224-35.84s41.301-14.336 63.829-15.36c3.755 0 5.803 2.048 5.803 5.803v45.739c0 3.755-2.048 5.803-5.803 5.803-29.696 2.048-54.613 13.995-74.752 35.157s-30.379 46.763-30.379 75.776c0 28.672 9.557 53.589 29.013 74.752s43.008 33.109 71.68 35.499l18.091 2.048c4.437 0 6.827 2.048 6.827 6.485l2.048 17.408c3.755 37.205 19.115 67.925 46.763 92.501s60.075 36.864 97.621 36.864c37.205 0 69.973-12.288 97.28-36.523 27.648-24.576 43.349-54.955 47.104-91.819l2.389-19.797c0-4.096 2.048-6.144 6.485-6.144h54.613c30.72 0 57.003-10.923 79.189-32.768s33.109-47.787 33.109-78.165c0-29.355-10.24-54.613-30.379-75.776s-45.397-33.109-74.752-35.157c-4.437 0-6.827-2.048-6.827-5.803v-45.739c0-3.755 2.389-5.803 6.827-5.803 45.739 2.048 84.309 19.456 115.712 51.541 31.403 32.427 47.104 71.339 47.104 116.736 0 24.576-4.779 47.104-14.336 67.925 26.624 32.085 39.936 70.315 39.936 114.688 0 32.085-7.851 61.781-23.893 89.429s-37.888 49.493-65.195 65.536-57.344 24.235-89.429 24.235c-53.248 0-97.28-19.797-132.437-59.051-30.037 14.677-60.757 22.187-92.16 22.187-48.128 0-90.795-15.019-128-45.056s-61.099-68.267-71.68-115.371c-37.547-8.875-68.608-28.331-93.184-59.051-25.941-31.744-38.229-66.56-38.229-105.813zM332.8 154.112c0-13.653 7.509-22.528 22.187-26.624 7.168-2.389 14.336-1.707 21.504 2.048s11.947 9.557 13.995 17.067l51.2 195.584c2.048 7.509 1.024 14.677-3.072 21.504s-10.24 11.264-18.432 13.653c-7.509 2.389-14.677 1.707-21.504-2.389s-11.264-9.899-13.312-17.749l-51.2-194.56c-1.024-3.755-1.365-6.485-1.365-8.533zM421.205 50.005c0-4.096 1.024-8.192 2.731-12.629 3.413-7.168 9.216-11.947 17.408-14.677 0.683 0 2.048 0 3.413-0.341s2.731-0.341 3.755-0.341 2.048 0 3.072 0c14.677 0 23.211 7.509 25.941 22.528l78.507 298.325c2.389 7.509 1.707 14.677-2.048 21.504s-9.557 11.264-17.067 13.653c-8.192 2.389-16.043 1.707-23.211-2.389s-11.264-9.899-12.971-17.749l-78.848-298.667c-0.341-3.413-0.683-6.485-0.683-9.216zM563.2 154.453c0-5.461 1.707-10.581 5.461-16.043s8.875-8.875 15.36-10.923c2.048-0.683 4.779-1.024 7.851-1.024 5.803 0 11.264 1.707 16.725 4.779s8.875 8.192 10.923 15.36l51.2 195.584c2.731 7.168 1.707 13.995-2.389 21.163s-9.899 11.605-17.749 13.995c-8.192 2.389-15.701 1.707-22.528-2.389s-10.923-9.899-12.288-17.749l-51.2-194.56c-1.024-3.755-1.365-6.485-1.365-8.192zM615.424 650.069c22.869 22.869 50.859 34.133 84.651 34.133 33.451 0 61.781-11.605 84.992-34.816 23.552-23.211 35.157-51.541 35.157-84.651 0-21.504-5.803-42.325-17.749-63.147-32.427 32.427-72.021 48.811-119.125 48.811h-10.581c-9.557 39.936-28.672 73.045-57.344 99.669z" />
<glyph unicode="&#xe983;" glyph-name="wi-night-sleet-storm" data-tags="wi-night-sleet-storm" d="M143.019 383.829c0-38.229 11.264-72.363 34.133-102.4s52.224-50.176 88.064-60.075l-22.528-58.027c-1.707-4.779 0-7.509 4.779-7.509h72.704l-48.811-143.701h9.899l148.821 193.195c1.365 1.365 1.365 3.072 0.683 4.779s-2.389 2.389-4.779 2.389h-74.752l84.992 158.72c2.389 4.779 1.024 7.509-4.779 7.509h-101.035c-3.072 0-5.803-1.707-7.851-5.12l-36.523-98.304c-24.576 6.144-44.715 19.115-60.757 39.595-16.043 20.139-23.893 43.008-23.893 68.949 0 28.672 9.557 53.589 28.672 74.411s43.008 33.109 72.021 36.523l17.408 1.024c4.096 0 6.485 1.707 7.509 4.779l2.389 20.139c3.755 36.864 19.115 67.925 46.763 92.843s60.075 37.547 97.621 37.547c37.205 0 69.632-12.629 97.621-37.547s44.032-55.979 47.787-92.843l2.731-20.139c0-3.755 2.048-5.803 6.144-5.803h54.955c30.379 0 56.661-10.923 78.848-32.768s33.109-47.787 33.109-78.165c0-29.696-10.24-55.296-30.72-77.141s-45.056-33.451-74.411-35.157c-4.437 0-6.827-2.048-6.827-6.144v-45.739c0-3.755 2.389-5.803 6.827-5.803 30.037 0.683 57.685 8.875 82.603 24.576 24.917 15.36 44.715 36.181 59.392 61.781s21.845 53.589 21.845 83.627c0 24.917-4.779 47.787-14.677 68.949 25.941 32.768 38.912 70.315 38.912 112.299 0 32.427-8.192 62.464-24.235 90.112s-37.888 49.493-65.536 65.536c-27.648 16.043-57.685 24.235-90.112 24.235-24.576 0-48.469-5.12-71.68-15.36s-43.008-24.576-60.075-42.667c-27.648 14.677-58.368 22.187-92.843 22.187-48.469 0-91.477-15.019-128.683-45.056s-61.44-68.267-71.68-115.029c-37.888-8.875-68.949-28.672-93.525-59.392-24.235-31.403-36.523-66.56-36.523-105.813zM411.989 34.987c0-5.803 1.707-11.264 5.461-16.725s9.216-9.216 16.725-11.264c3.072-0.683 5.803-1.024 8.192-1.024 14.677 0 23.893 6.827 27.307 20.821l4.437 20.139c2.048 8.875 1.024 16.384-2.731 23.211-4.096 6.827-9.899 10.923-18.091 12.629-7.168 2.389-14.336 1.707-21.504-2.389s-11.605-9.899-13.995-17.408l-4.437-20.139c-1.024-4.096-1.365-6.827-1.365-7.851zM438.955 133.973c0-7.851 2.731-14.336 8.192-19.797s12.288-8.192 19.797-8.192c8.192 0 14.677 2.731 20.139 7.851 5.461 5.461 7.851 11.947 7.851 20.139 0 7.851-2.731 14.336-7.851 19.797-5.461 5.461-11.947 7.851-20.139 7.851s-14.677-2.731-20.139-7.851-7.851-11.947-7.851-19.797zM460.117 211.456c-0.341-5.12 1.024-10.581 4.779-16.043 3.413-5.461 8.533-8.875 15.36-10.24 7.851-2.048 15.019-1.365 21.845 2.048s11.264 9.899 13.995 19.115l8.875 30.72c2.389 7.509 1.707 14.677-2.389 21.504s-9.899 11.264-18.091 13.653c-7.509 2.389-14.677 1.365-21.845-2.731s-11.605-10.24-13.995-18.091l-7.509-30.72c-0.683-2.731-1.024-5.803-1.024-9.216zM554.325 138.069c0-5.803 1.707-11.264 5.12-16.384s8.533-8.875 15.701-10.923c1.024 0 2.731-0.341 4.779-0.683s3.755-0.683 4.779-0.683c13.995 0 22.528 7.509 25.941 22.528l4.779 20.48c2.389 7.168 1.707 14.336-2.389 21.504s-9.899 11.605-17.408 13.995c-8.533 2.048-16.384 1.365-23.211-2.731s-11.605-9.899-13.995-18.091l-3.072-20.139c0-0.341 0-1.707-0.341-3.755-0.341-2.389-0.683-3.755-0.683-5.12zM579.584 239.104c0-7.851 2.731-14.336 8.192-19.456 5.12-5.461 11.605-8.192 19.797-8.192s14.677 2.731 20.139 7.851c5.461 5.461 7.851 11.947 7.851 19.797 0 8.192-2.731 14.677-7.851 20.139-5.461 5.461-11.947 7.851-20.139 7.851s-14.677-2.731-20.139-7.851-7.851-11.947-7.851-20.139zM615.083 652.117c22.869 21.845 50.517 33.109 83.627 33.109 33.451 0 62.123-11.605 85.675-35.157 23.552-23.211 35.499-51.883 35.499-85.333 0-22.528-5.461-43.008-16.043-61.781-32.768 32.768-72.704 49.152-120.149 49.152h-10.581c-10.24 40.619-29.696 74.069-58.027 100.011z" />
<glyph unicode="&#xe984;" glyph-name="wi-night-storm-showers" data-tags="wi-night-storm-showers" d="M145.067 384.512c0-37.547 11.264-71.339 34.133-101.717 22.869-30.037 51.883-50.517 87.723-61.44l-22.187-56.661c-1.365-4.779 0-7.168 4.779-7.168h72.363l-38.912-139.605h9.899l139.264 187.392c1.365 1.365 1.365 3.072 0.341 4.779s-2.731 2.389-5.12 2.389h-74.069l84.309 159.403c2.389 4.779 1.024 7.509-4.437 7.509h-101.035c-3.072 0-5.461-1.707-6.485-4.779l-37.888-100.011c-24.235 6.144-44.373 19.456-60.757 39.936-16.043 20.48-24.235 43.349-24.235 68.949 0 28.672 9.557 53.589 29.013 74.752s43.349 33.109 71.68 35.84l17.749 2.389c4.437 0 6.827 2.048 6.827 5.803l2.389 17.749c3.755 37.205 19.115 68.267 46.763 92.843 27.648 24.917 60.075 37.205 97.621 37.205 37.205 0 69.973-12.288 97.621-37.205s43.691-55.979 47.787-92.843l2.389-19.797c0-3.755 2.048-5.803 6.144-5.803h55.296c31.061 0 57.344-10.923 79.531-32.427 21.845-21.504 33.109-47.787 33.109-77.824 0-29.355-10.24-54.613-30.72-76.117s-45.397-33.109-75.093-35.499c-4.096 0-6.485-2.048-6.485-6.144v-47.104c0-3.755 2.048-5.803 6.485-5.803 45.397 1.365 83.968 18.773 115.712 51.883s47.445 72.363 47.445 118.443c0 24.917-4.779 47.445-13.995 68.267 25.941 34.133 38.912 71.68 38.912 112.299 0 24.235-4.779 47.445-14.336 69.632s-22.528 40.96-38.229 57.003-35.157 28.672-57.344 38.229c-22.187 9.557-45.397 14.336-69.291 14.336-25.259 0-49.152-5.12-72.363-15.36-22.869-10.24-43.008-24.576-59.392-43.008-27.989 15.019-58.709 22.528-92.16 22.528-48.469 0-91.477-15.019-128.683-44.715s-61.44-68.267-72.021-115.029c-37.888-8.875-68.949-28.331-93.525-59.051s-36.523-65.195-36.523-104.448zM423.936 47.616c0-6.144 1.707-11.947 5.461-17.408 3.755-5.803 8.875-9.216 15.701-10.24 0.683 0 1.707 0 2.731-0.341s2.389-0.341 3.072-0.341 1.707 0 2.731 0c14.677 1.024 23.552 7.851 27.307 20.821l9.899 36.181c2.048 7.509 1.024 14.677-3.072 21.504s-10.24 11.605-18.091 13.995c-7.509 2.048-14.677 1.024-21.504-2.731-6.827-4.096-11.605-10.24-13.995-18.091l-8.533-34.133c-1.024-6.144-1.707-8.875-1.707-9.216zM469.675 210.432c0-5.12 1.707-10.24 5.12-15.36s8.875-8.875 15.701-11.605c7.509-2.731 14.677-2.048 21.504 1.707s11.264 9.899 13.653 18.091l10.24 35.499c2.048 8.533 1.365 16.384-2.731 23.211s-9.899 10.923-18.091 12.629c-7.509 2.389-15.019 1.707-21.845-2.389s-11.605-9.899-14.336-18.091l-8.533-34.816c0-0.683 0-1.707-0.341-2.731s-0.341-2.389-0.341-3.072c0-1.024 0-2.048 0-3.072zM566.272 155.136c0-6.485 1.707-12.288 5.461-17.749s8.875-9.216 16.043-10.923c5.461-1.024 8.533-1.707 9.216-1.707 13.312 0 22.187 6.827 26.283 20.48l8.192 36.181c2.389 7.509 1.707 14.677-2.048 21.504s-9.216 11.605-17.067 13.995c-8.533 2.048-16.384 1.024-23.211-3.072-7.168-4.096-11.264-10.24-12.971-18.091l-9.557-33.792c0-1.707-0.341-4.096-0.341-6.827zM612.693 317.269c0-5.461 1.707-10.923 5.461-16.043s9.216-9.216 16.725-11.605c5.803-0.683 8.875-1.024 8.875-1.024 4.096 0 8.192 1.024 12.971 2.731 6.485 3.413 11.264 9.216 13.312 17.749l9.899 35.499c2.048 7.509 1.024 14.677-3.072 21.504s-10.24 11.605-18.091 13.995c-7.851 2.389-15.019 1.707-21.845-2.389s-11.264-9.899-13.653-18.091l-9.557-34.816c-0.683-3.072-1.024-5.461-1.024-7.509zM616.448 653.483c22.528 21.845 50.517 32.768 83.627 32.768 33.451 0 62.123-11.947 85.333-35.499 23.552-23.552 35.157-52.224 35.157-85.675 0-21.504-5.461-41.643-16.725-60.757-33.792 32.768-73.387 49.152-119.125 49.152h-10.923c-10.24 39.595-29.355 73.045-57.344 100.011z" />
<glyph unicode="&#xe985;" glyph-name="wi-raindrop" data-tags="wi-raindrop" d="M334.848 439.467c0-31.403 7.851-60.757 23.893-87.723s37.547-48.811 64.853-64.853c27.307-16.043 56.661-24.235 88.405-24.235s61.44 8.192 89.088 24.235c27.648 16.043 49.493 37.888 65.536 64.853 16.043 27.307 24.235 56.32 24.235 87.723 0 20.48-5.803 44.715-17.749 73.045s-26.283 54.613-43.008 78.507c-15.019 19.456-32.768 40.96-53.248 64.171s-56.32 59.051-64.512 67.243l-43.691-44.032c-21.163-20.48-41.643-44.032-61.099-70.997s-36.523-55.979-50.859-87.040c-15.019-31.061-21.845-58.027-21.845-80.896z" />
</font>
</defs>
</svg>
