<?xml version="1.0" standalone="no"?> <!DOCTYPE svg PUBLIC "-//W3C//DTD SVG 1.0//EN" "http://www.w3.org/TR/2001/REC-SVG-20010904/DTD/svg10.dtd" > <svg xmlns="http://www.w3.org/2000/svg" width="100%" height="100%">
<defs >
<font id="roboto-regular" horiz-adv-x="1068" ><font-face
    font-family="Roboto"
    units-per-em="2048"
    panose-1="2 0 0 0 0 0 0 0 0 0"
    ascent="2146"
    descent="-555"
    alphabetic="0" />
<missing-glyph horiz-adv-x="2048" />
<glyph unicode=" " glyph-name="space" horiz-adv-x="509" />
<glyph unicode="!" glyph-name="exclam" horiz-adv-x="539" d="M368 478H171V1456H368V478ZM369 0H171V204H369V0Z" />
<glyph unicode="&quot;" glyph-name="quotedbl" horiz-adv-x="668" d="M278 1290L177 1040H80L81 1280V1560H278V1290ZM587 1290L486 1040H389L390 1288V1560H587V1290Z" />
<glyph unicode="#" glyph-name="numbersign" horiz-adv-x="1276" d="M712 410H457L377 0H226L306 410H70V550H334L402 898H146V1040H430L512 1456H663L581 1040H836L918 1456H1069L987 1040H1186V898H960L892 550H1111V410H864L784 0H632L712 410ZM485 550H740L808
898H553L485 550Z" />
<glyph unicode="$" glyph-name="dollar" horiz-adv-x="1153" d="M848 376Q848 465 784 529T574 643Q372 704 269 806T166 1078Q166 1243 260 1347T521 1472V1693H679V1471Q847 1447 939 1328T1032 1007H836Q836 1143 773 1227T598 1311Q480 1311 422 1250T363
1081Q363 984 423 924T642 810Q847 744 946 646T1045 378Q1045 206 942 105T659 -16V-208H502V-17Q330 1 220 108T114 424L116 429H306Q306 275 383 210T574 144Q703 144 775 205T848 376Z" />
<glyph unicode="%" glyph-name="percent" horiz-adv-x="1498" d="M104 1176Q104 1303 186 1390T405 1477Q542 1477 624 1391T706 1176V1099Q706 972 625 886T407 800Q269 800 187 886T104 1099V1176ZM250 1099Q250 1025 290 974T407 922Q480 922 520 973T560 1099V1176Q560
1250 520 1302T405 1355Q330 1355 290 1303T250 1176V1099ZM809 357Q809 484 891 570T1110 657Q1246 657 1328 571T1411 357V279Q1411 151 1329 65T1112 -21Q974 -21 892 65T809 279V357ZM955 279Q955 204 995 153T1112 101Q1185 101 1225 152T1265 279V357Q1265
431 1224 483T1110 535Q1036 535 996 483T955 357V279ZM458 110L349 177L1060 1315L1169 1248L458 110Z" />
<glyph unicode="&amp;" glyph-name="ampersand" horiz-adv-x="1276" d="M64 392Q64 514 134 605T345 789Q267 888 229 965T191 1125Q191 1294 288 1385T557 1477Q715 1477 814 1386T913 1167Q913 1069 861 998T705 851L596 771L936 362Q977 427 1000 506T1023
673H1199Q1199 541 1160 429T1047 228L1232 5L1230 0H1001L916 102Q836 42 739 11T538 -21Q321 -21 193 94T64 392ZM538 133Q610 133 680 157T812 228L451 663L411 634Q320 566 291 504T261 392Q261 279 332 206T538 133ZM388 1127Q388 1074 415 1017T496 891L634
986Q691 1024 711 1068T732 1167Q732 1228 684 1275T557 1322Q476 1322 432 1266T388 1127Z" />
<glyph unicode="&apos;" glyph-name="quotesingle" horiz-adv-x="359" d="M278 1337L177 1055H80L81 1320V1560H278V1337Z" />
<glyph unicode="(" glyph-name="parenleft" horiz-adv-x="679" d="M132 591Q132 985 291 1264T625 1636L631 1635L669 1519Q532 1412 431 1176T329 593V580Q329 233 430 -3T669 -355L631 -463H625Q450 -370 291 -92T132 582V591Z" />
<glyph unicode=")" glyph-name="parenright" horiz-adv-x="687" d="M543 582Q543 187 384 -91T50 -463H44L6 -355Q141 -250 243 -10T346 580V593Q346 935 241 1176T6 1528L44 1636H50Q224 1543 383 1264T543 591V582Z" />
<glyph unicode="*" glyph-name="asterisk" horiz-adv-x="884" d="M324 982L28 1071L77 1225L373 1114L363 1456H524L514 1108L807 1218L855 1062L553 973L746 703L615 607L434 894L258 615L126 708L324 982Z" />
<glyph unicode="+" glyph-name="plus" horiz-adv-x="1162" d="M677 783H1076V605H677V146H480V605H78V783H480V1206H677V783Z" />
<glyph unicode="," glyph-name="comma" horiz-adv-x="404" d="M315 48L165 -258H48L118 58V221H315V48Z" />
<glyph unicode="-" glyph-name="hyphen" horiz-adv-x="561" d="M525 538H35V692H525V538Z" />
<glyph unicode="." glyph-name="period" horiz-adv-x="548" d="M358 0H161V202H358V0Z" />
<glyph unicode="/" glyph-name="slash" horiz-adv-x="850" d="M184 -125H16L624 1456H791L184 -125Z" />
<glyph unicode="0" glyph-name="zero" horiz-adv-x="1154" d="M1040 555Q1040 276 917 128T578 -21Q363 -21 238 128T113 555V900Q113 1178 237 1327T576 1477Q791 1477 915 1328T1040 900V555ZM843 942Q843 1131 775 1226T576 1322Q446 1322 378 1227T310 942V515Q310
326 379 230T578 133Q708 133 775 229T843 515V942Z" />
<glyph unicode="1" glyph-name="one" horiz-adv-x="1153" d="M681 0H484V1264L186 1260V1402L681 1456V0Z" />
<glyph unicode="2" glyph-name="two" horiz-adv-x="1153" d="M1062 0H118V135L595 665Q723 808 768 892T814 1064Q814 1173 751 1247T582 1322Q431 1322 360 1245T288 1027H99L97 1033Q92 1221 222 1349T582 1477Q778 1477 894 1363T1011 1071Q1011 952 941 833T743
576L360 159L362 154H1062V0Z" />
<glyph unicode="3" glyph-name="three" horiz-adv-x="1153" d="M388 819H560Q691 819 745 884T800 1067Q800 1192 738 1257T555 1322Q440 1322 371 1255T301 1075H112L110 1081Q105 1246 229 1361T555 1477Q757 1477 877 1370T997 1063Q997 973 943 884T779 747Q910
704 964 612T1019 406Q1019 207 889 93T555 -21Q356 -21 226 86T100 378L103 384H291Q291 269 361 201T555 133Q680 133 751 201T822 402Q822 537 759 601T560 665H388V819Z" />
<glyph unicode="4" glyph-name="four" horiz-adv-x="1153" d="M905 490H1106V336H905V0H709V336H55V447L697 1456H905V490ZM265 490H709V1173L703 1174L684 1124L265 490Z" />
<glyph unicode="5" glyph-name="five" horiz-adv-x="1153" d="M175 657L259 1456H988V1281H426L378 872Q424 906 480 928T611 953Q812 955 927 822T1043 464Q1043 245 926 112T583 -21Q398 -21 275 80T157 377L159 383H337Q337 264 405 199T583 133Q708 133 777
221T846 462Q846 602 776 692T583 782Q467 782 415 747T339 640L175 657Z" />
<glyph unicode="6" glyph-name="six" horiz-adv-x="1153" d="M675 1477Q750 1477 823 1460T945 1417L903 1266Q854 1291 801 1306T675 1322Q519 1322 424 1197T328 871V848Q392 904 474 935T652 967Q847 967 963 832T1079 490Q1079 264 956 122T626 -21Q412 -21
272 134T132 571V849Q132 1129 288 1303T675 1477ZM608 820Q507 820 436 779T328 670V552Q328 351 413 242T626 133Q747 133 814 235T882 490Q882 634 810 727T608 820Z" />
<glyph unicode="7" glyph-name="seven" horiz-adv-x="1153" d="M1062 1301Q798 987 706 745T572 157L556 0H359L375 157Q417 501 538 772T869 1301H77V1456H1062V1301Z" />
<glyph unicode="8" glyph-name="eight" horiz-adv-x="1153" d="M1010 1076Q1010 962 946 877T773 749Q899 705 974 611T1050 394Q1050 192 919 86T577 -21Q363 -21 233 85T102 394Q102 517 176 611T376 749Q267 791 205 876T143 1076Q143 1268 261 1372T575 1477Q767
1477 888 1373T1010 1076ZM854 398Q854 518 775 595T575 672Q452 672 376 595T299 398Q299 274 375 204T577 133Q700 133 777 204T854 398ZM813 1072Q813 1180 746 1251T575 1322Q470 1322 405 1254T340 1072Q340 961 405 894T577 827Q681 827 747 894T813 1072Z"
/>
<glyph unicode="9" glyph-name="nine" horiz-adv-x="1153" d="M511 133Q655 133 741 242T828 566V632Q779 561 706 525T542 488Q331 488 207 618T83 978Q83 1197 214 1337T534 1477Q762 1477 893 1335T1025 915V568Q1025 283 883 131T511 -21Q434 -21 355 -7T212
38L242 189Q301 158 364 146T511 133ZM542 642Q651 642 723 689T828 809V935Q828 1126 755 1224T540 1322Q432 1322 356 1226T280 978Q280 828 350 735T542 642Z" />
<glyph unicode=":" glyph-name="colon" horiz-adv-x="517" d="M358 0H161V202H358V0ZM358 876H161V1078H358V876Z" />
<glyph unicode=";" glyph-name="semicolon" horiz-adv-x="525" d="M359 876H162V1078H359V876ZM366 48L216 -258H99L169 58V221H366V48Z" />
<glyph unicode="&lt;" glyph-name="less" horiz-adv-x="1040" d="M328 559L243 541V535L328 516L887 288V87L71 466V615L887 993V792L328 559Z" />
<glyph unicode="=" glyph-name="equal" horiz-adv-x="1153" d="M986 823H152V987H986V823ZM986 407H152V571H986V407Z" />
<glyph unicode="&gt;" glyph-name="greater" horiz-adv-x="1072" d="M136 798V993L992 615V466L136 87V283L734 521L819 538V544L734 564L136 798Z" />
<glyph unicode="?" glyph-name="question" horiz-adv-x="974" d="M355 410Q356 555 380 611T506 759Q605 876 647 939T689 1091Q689 1197 633 1254T471 1311Q380 1311 316 1262T252 1116H64L61 1122Q58 1283 174 1380T471 1477Q668 1477 777 1377T886 1096Q886
967 816 860T629 641Q575 587 564 544T552 410H355ZM559 0H353V208H559V0Z" />
<glyph unicode="@" glyph-name="at" horiz-adv-x="1833" d="M1732 502Q1723 288 1612 134T1280 -21Q1207 -21 1154 20T1078 138Q1028 58 956 19T788 -21Q663 -21 594 99T543 416Q566 675 680 831T960 988Q1065 988 1129 962T1268 882L1264 878H1270L1219 293Q1210
183 1240 142T1322 100Q1445 100 1519 213T1601 502Q1617 884 1457 1097T961 1311Q653 1311 466 1080T263 478Q245 102 413 -116T895 -335Q983 -335 1073 -314T1226 -257L1264 -364Q1197 -406 1094 -429T891 -453Q511 -453 304 -204T114 478Q133 901 363 1166T965
1431Q1344 1431 1546 1181T1732 502ZM720 416Q709 274 741 200T848 126Q912 126 965 150T1062 238Q1061 250 1061 263T1064 293L1111 831Q1085 843 1057 850T997 857Q872 857 806 748T720 416Z" />
<glyph unicode="A" glyph-name="A" horiz-adv-x="1326" d="M969 375H359L221 0H20L583 1456H752L1306 0H1105L969 375ZM420 540H910L670 1203H664L420 540Z" />
<glyph unicode="B" glyph-name="B" horiz-adv-x="1309" d="M180 0V1456H655Q883 1456 1012 1358T1141 1062Q1141 965 1079 889T916 775Q1048 747 1123 646T1199 411Q1199 211 1070 106T718 0H180ZM377 683V154H718Q852 154 927 220T1002 409Q1002 537 940 610T747
683H377ZM377 837H696Q806 837 875 897T944 1066Q944 1184 870 1242T655 1301H377V837Z" />
<glyph unicode="C" glyph-name="C" horiz-adv-x="1297" d="M1209 466L1211 460Q1215 255 1067 117T676 -21Q429 -21 274 154T118 598V857Q118 1126 273 1301T676 1477Q923 1477 1069 1346T1211 997L1209 991H1020Q1020 1144 930 1233T676 1322Q511 1322 413 1189T315
859V598Q315 399 413 266T676 133Q840 133 930 221T1020 466H1209Z" />
<glyph unicode="D" glyph-name="D" horiz-adv-x="1349" d="M180 0V1456H627Q913 1456 1086 1281T1259 827V628Q1259 349 1086 175T627 0H180ZM377 1301V154H627Q829 154 945 287T1062 628V829Q1062 1035 946 1168T627 1301H377Z" />
<glyph unicode="E" glyph-name="E" horiz-adv-x="1197" d="M1044 675H377V154H1146V0H180V1456H1135V1301H377V830H1044V675Z" />
<glyph unicode="F" glyph-name="F" horiz-adv-x="1193" d="M1041 644H377V0H180V1456H1143V1301H377V799H1041V644Z" />
<glyph unicode="G" glyph-name="G" horiz-adv-x="1396" d="M1235 193Q1183 113 1055 46T722 -21Q461 -21 291 146T120 578V878Q120 1143 279 1310T689 1477Q939 1477 1082 1354T1228 1037L1226 1031H1038Q1029 1158 942 1240T689 1322Q522 1322 420 1197T318 880V578Q318
384 432 259T722 133Q846 133 925 166T1038 241V572H719V727H1235V193Z" />
<glyph unicode="H" glyph-name="H" horiz-adv-x="1461" d="M1281 0H1084V643H377V0H180V1456H377V798H1084V1456H1281V0Z" />
<glyph unicode="I" glyph-name="I" horiz-adv-x="579" d="M388 0H190V1456H388V0Z" />
<glyph unicode="J" glyph-name="J" horiz-adv-x="1130" d="M766 1456H963V403Q963 208 840 94T519 -21Q309 -21 185 85T66 395L68 401H257Q257 266 325 200T519 133Q628 133 697 206T766 403V1456Z" />
<glyph unicode="K" glyph-name="K" horiz-adv-x="1317" d="M547 657H377V0H180V1456H377V812H529L1050 1456H1268L1271 1451L706 752L1312 5L1309 0H1074L547 657Z" />
<glyph unicode="L" glyph-name="L" horiz-adv-x="1106" d="M377 154H1066V0H180V1456H377V154Z" />
<glyph unicode="M" glyph-name="M" horiz-adv-x="1799" d="M432 1456L896 273H902L1366 1456H1618V0H1421V576L1441 1168L1436 1169L964 0H833L363 1166L358 1165L377 576V0H180V1456H432Z" />
<glyph unicode="N" glyph-name="N" horiz-adv-x="1461" d="M1281 0H1084L383 1126L377 1124V0H180V1456H377L1078 332L1084 334V1456H1281V0Z" />
<glyph unicode="O" glyph-name="O" horiz-adv-x="1396" d="M1282 598Q1282 331 1117 155T687 -21Q432 -21 273 155T113 598V857Q113 1123 272 1300T687 1477Q951 1477 1116 1301T1282 857V598ZM1085 859Q1085 1059 977 1187T687 1315Q515 1315 413 1187T310 859V598Q310
396 412 268T687 140Q870 140 977 267T1085 598V859Z" />
<glyph unicode="P" glyph-name="P" horiz-adv-x="1312" d="M377 584V0H180V1456H737Q970 1456 1099 1336T1228 1020Q1228 821 1099 703T737 584H377ZM377 738H737Q885 738 958 817T1031 1018Q1031 1139 958 1220T737 1301H377V738Z" />
<glyph unicode="Q" glyph-name="Q" horiz-adv-x="1396" d="M1282 598Q1282 456 1232 335T1092 130L1339 -103L1204 -232L928 25Q872 2 812 -9T687 -21Q432 -21 273 155T113 598V857Q113 1123 272 1300T687 1477Q951 1477 1116 1301T1282 857V598ZM1085 859Q1085
1059 977 1187T687 1315Q515 1315 413 1187T310 859V598Q310 396 412 268T687 140Q870 140 977 267T1085 598V859Z" />
<glyph unicode="R" glyph-name="R" horiz-adv-x="1357" d="M377 631V0H180V1455H707Q946 1455 1072 1349T1198 1041Q1198 929 1140 846T969 714Q1089 675 1141 588T1194 371V234Q1194 166 1209 112T1261 24V0H1058Q1019 34 1008 100T997 236V369Q997 487 928 559T743
631H377ZM377 786H687Q854 786 927 849T1001 1043Q1001 1166 930 1233T707 1301H377V786Z" />
<glyph unicode="S" glyph-name="S" horiz-adv-x="1277" d="M973 367Q973 467 898 534T632 648Q401 703 272 810T142 1079Q142 1249 281 1363T643 1477Q882 1477 1023 1346T1160 1042L1158 1036H970Q970 1164 886 1243T643 1322Q496 1322 418 1256T339 1082Q339
987 424 924T700 812Q930 755 1050 644T1170 369Q1170 193 1026 86T650 -21Q432 -21 265 97T102 413L104 419H292Q292 279 395 206T650 133Q799 133 886 196T973 367Z" />
<glyph unicode="T" glyph-name="T" horiz-adv-x="1200" d="M1166 1301H698V0H501V1301H34V1456H1166V1301Z" />
<glyph unicode="U" glyph-name="U" horiz-adv-x="1386" d="M1244 1456V469Q1244 231 1090 105T686 -21Q446 -21 297 105T147 469V1456H344V469Q344 304 438 219T686 133Q848 133 947 218T1047 469V1456H1244Z" />
<glyph unicode="V" glyph-name="V" horiz-adv-x="1295" d="M612 362L645 247H651L684 362L1060 1456H1273L732 0H563L22 1456H236L612 362Z" />
<glyph unicode="W" glyph-name="W" horiz-adv-x="1809" d="M472 504L499 322L505 321L544 504L811 1456H985L1254 504L1294 317H1300L1329 504L1546 1456H1743L1392 0H1216L929 1010L903 1141H897L872 1010L580 0H404L54 1456H250L472 504Z" />
<glyph unicode="X" glyph-name="X" horiz-adv-x="1295" d="M650 888L990 1456H1228L766 734L1238 0H1003L654 578L304 0H66L538 734L76 1456H312L650 888Z" />
<glyph unicode="Y" glyph-name="Y" horiz-adv-x="1250" d="M625 716L1005 1456H1230L719 512V0H523V525L20 1456H245L625 716Z" />
<glyph unicode="Z" glyph-name="Z" horiz-adv-x="1225" d="M319 154H1133V0H97V146L875 1301H108V1456H1100V1315L319 154Z" />
<glyph unicode="[" glyph-name="bracketleft" horiz-adv-x="552" d="M528 1509H340V-157H528V-312H143V1664H528V1509Z" />
<glyph unicode="\" glyph-name="backslash" horiz-adv-x="846" d="M39 1456H225L833 -125H647L39 1456Z" />
<glyph unicode="]" glyph-name="bracketright" horiz-adv-x="552" d="M11 1664H397V-312H11V-157H200V1509H11V1664Z" />
<glyph unicode="^" glyph-name="asciicircum" horiz-adv-x="856" d="M244 729H61L360 1456H494L792 729H611L445 1148L429 1218H423L407 1148L244 729Z" />
<glyph unicode="_" glyph-name="underscore" horiz-adv-x="931" d="M927 -154H4V0H927V-154Z" />
<glyph unicode="`" glyph-name="grave" horiz-adv-x="641" d="M490 1211H332L82 1471L85 1477H315L490 1211Z" />
<glyph unicode="a" glyph-name="a" horiz-adv-x="1126" d="M808 0Q798 49 793 86T786 162Q731 84 643 32T452 -21Q283 -21 195 65T106 304Q106 459 231 546T572 634H786V741Q786 836 728 891T564 947Q469 947 410 899T350 782H162L160 788Q154 906 271 1004T575
1102Q759 1102 871 1009T983 739V218Q983 160 989 106T1011 0H808ZM481 144Q588 144 674 199T786 325V501H565Q446 501 375 441T303 300Q303 228 348 186T481 144Z" />
<glyph unicode="b" glyph-name="b" horiz-adv-x="1164" d="M1067 500Q1067 266 955 123T645 -21Q538 -21 459 20T328 143L304 0H143V1560H340V954Q391 1026 466 1064T643 1102Q843 1102 955 942T1067 521V500ZM870 521Q870 707 802 824T593 942Q502 942 440 898T340
778V309Q378 229 439 184T595 139Q734 139 802 238T870 500V521Z" />
<glyph unicode="c" glyph-name="c" horiz-adv-x="1087" d="M583 133Q681 133 755 193T830 342H1007L1009 336Q1014 196 885 88T583 -21Q347 -21 222 133T97 520V562Q97 793 222 947T583 1102Q773 1102 893 990T1010 715L1008 709H830Q830 808 760 877T583 947Q428
947 362 836T295 562V520Q295 354 361 244T583 133Z" />
<glyph unicode="d" glyph-name="d" horiz-adv-x="1164" d="M98 521Q98 782 209 942T522 1102Q617 1102 690 1067T816 965V1560H1013V0H852L829 133Q776 57 699 18T520 -21Q322 -21 210 122T98 500V521ZM295 500Q295 336 362 238T570 139Q658 139 718 179T816 291V796Q778
863 718 902T572 942Q430 942 363 825T295 521V500Z" />
<glyph unicode="e" glyph-name="e" horiz-adv-x="1083" d="M592 -21Q366 -21 233 129T99 520V564Q99 795 236 948T562 1102Q781 1102 893 970T1005 618V495H303L300 490Q303 334 379 234T592 133Q692 133 767 161T898 240L975 112Q917 55 822 17T592 -21ZM562
947Q463 947 393 864T307 654L309 649H808V675Q808 791 746 869T562 947Z" />
<glyph unicode="f" glyph-name="f" horiz-adv-x="707" d="M225 0V936H56V1082H225V1219Q225 1392 315 1486T568 1581Q602 1581 636 1576T713 1560L689 1410Q671 1414 646 1417T592 1420Q506 1420 464 1369T422 1219V1082H647V936H422V0H225Z" />
<glyph unicode="g" glyph-name="g" horiz-adv-x="1164" d="M100 521Q100 782 214 942T529 1102Q632 1102 710 1061T840 941L864 1082H1021V-6Q1021 -214 900 -325T551 -437Q473 -437 383 -416T223 -357L273 -204Q326 -234 401 -252T549 -271Q693 -271 758 -206T824
-6V116Q771 48 697 14T527 -21Q328 -21 214 123T100 500V521ZM297 500Q297 337 366 238T576 139Q665 139 725 179T824 294V792Q786 861 725 901T578 942Q437 942 367 824T297 521V500Z" />
<glyph unicode="h" glyph-name="h" horiz-adv-x="1164" d="M340 937Q396 1015 477 1058T658 1102Q831 1102 927 998T1024 678V0H827V680Q827 814 770 878T598 942Q516 942 450 904T340 799V0H143V1560H340V937Z" />
<glyph unicode="i" glyph-name="i" horiz-adv-x="516" d="M356 0H159V1082H356V0ZM356 1359H159V1560H356V1359Z" />
<glyph unicode="j" glyph-name="j" horiz-adv-x="530" d="M370 1082V-89Q370 -256 284 -346T45 -437Q14 -437 -11 -433T-66 -419L-52 -264Q-38 -269 -12 -272T31 -276Q96 -276 134 -232T173 -89V1082H370ZM364 1363H167V1560H364V1363Z" />
<glyph unicode="k" glyph-name="k" horiz-adv-x="1050" d="M469 499H341V0H144V1560H341V656H467L763 1082H999L629 590L1052 0H820L469 499Z" />
<glyph unicode="l" glyph-name="l" horiz-adv-x="516" d="M356 0H159V1560H356V0Z" />
<glyph unicode="m" glyph-name="m" horiz-adv-x="1790" d="M319 1082L333 940Q386 1017 467 1059T657 1102Q765 1102 842 1052T959 902Q1010 994 1094 1048T1290 1102Q1455 1102 1551 989T1647 647V0H1450V649Q1450 809 1395 875T1231 942Q1130 942 1068 872T994
695V687V0H796V649Q796 801 740 871T577 942Q487 942 429 905T340 801V0H143V1082H319Z" />
<glyph unicode="n" glyph-name="n" horiz-adv-x="1164" d="M319 1082L333 921Q387 1007 468 1054T654 1102Q829 1102 925 1000T1021 683V0H824V679Q824 822 768 882T595 942Q510 942 445 901T340 789V0H143V1082H319Z" />
<glyph unicode="o" glyph-name="o" horiz-adv-x="1164" d="M97 551Q97 791 227 946T580 1102Q805 1102 935 947T1066 551V529Q1066 287 936 133T582 -21Q358 -21 228 133T97 529V551ZM294 529Q294 357 366 245T582 133Q723 133 796 245T869 529V551Q869 721 796
834T580 947Q439 947 367 834T294 551V529Z" />
<glyph unicode="p" glyph-name="p" horiz-adv-x="1164" d="M1065 500Q1065 266 953 123T644 -21Q544 -21 469 12T340 113V-416H143V1082H294L325 942Q378 1020 457 1061T641 1102Q842 1102 953 943T1065 521V500ZM868 521Q868 705 796 823T582 942Q497 942 437
904T340 798V275Q377 208 437 171T584 133Q724 133 796 235T868 500V521Z" />
<glyph unicode="q" glyph-name="q" horiz-adv-x="1164" d="M98 521Q98 782 209 942T522 1102Q621 1102 696 1065T823 955L852 1082H1002V-416H805V102Q753 41 682 10T520 -21Q322 -21 210 122T98 500V521ZM295 500Q295 336 362 235T570 133Q651 133 708 169T805
270V816Q766 877 709 912T572 947Q431 947 363 828T295 521V500Z" />
<glyph unicode="r" glyph-name="r" horiz-adv-x="702" d="M655 908L554 914Q476 914 423 877T340 773V0H143V1082H319L338 924Q384 1008 451 1055T607 1102Q629 1102 649 1099T682 1091L655 908Z" />
<glyph unicode="s" glyph-name="s" horiz-adv-x="1071" d="M772 287Q772 352 723 394T535 467Q338 510 239 583T139 784Q139 916 251 1009T543 1102Q732 1102 843 1005T950 769L948 763H760Q760 834 701 890T543 947Q438 947 387 901T336 790Q336 726 381 689T564
623Q769 579 869 504T969 301Q969 157 853 68T548 -21Q341 -21 222 84T109 329L111 335H299Q304 230 377 182T548 133Q653 133 712 175T772 287Z" />
<glyph unicode="t" glyph-name="t" horiz-adv-x="708" d="M403 1343V1082H608V936H403V279Q403 203 434 172T518 141Q535 141 555 145T592 155L618 20Q596 2 554 -9T468 -21Q348 -21 277 51T206 279V936H34V1082H206V1343H403Z" />
<glyph unicode="u" glyph-name="u" horiz-adv-x="1164" d="M830 160Q779 73 699 26T514 -21Q337 -21 238 92T139 444V1082H336V442Q336 269 387 204T546 139Q651 139 719 181T823 302V1082H1020V0H843L830 160Z" />
<glyph unicode="v" glyph-name="v" horiz-adv-x="1030" d="M504 319L521 243H527L546 319L795 1082H996L598 0H449L46 1082H248L504 319Z" />
<glyph unicode="w" glyph-name="w" horiz-adv-x="1550" d="M420 394L443 263H449L477 394L693 1082H851L1068 394L1099 248H1105L1134 394L1304 1082H1500L1186 0H1027L818 659L773 843L767 842L724 659L518 0H359L45 1082H241L420 394Z" />
<glyph unicode="x" glyph-name="x" horiz-adv-x="1030" d="M510 683L740 1082H970L619 547L980 0H754L514 409L274 0H46L407 547L56 1082H283L510 683Z" />
<glyph unicode="y" glyph-name="y" horiz-adv-x="1030" d="M474 401L509 265H515L781 1082H1000L545 -166Q504 -275 428 -356T221 -437Q197 -437 160 -432T103 -421L123 -266Q117 -265 158 -268T211 -271Q274 -271 314 -215T381 -91L428 22L26 1082H246L474 401Z" />
<glyph unicode="z" glyph-name="z" horiz-adv-x="1030" d="M329 154H954V0H94V138L679 926H101V1082H920V948L329 154Z" />
<glyph unicode="{" glyph-name="braceleft" horiz-adv-x="696" d="M631 -364Q436 -309 354 -189T272 101V306Q272 418 221 480T63 543V690Q169 690 220 751T272 926V1132Q272 1303 354 1422T631 1597L671 1480Q561 1445 515 1355T469 1132V926Q469 821 427 741T299
616Q384 570 426 490T469 306V101Q469 -31 515 -120T671 -246L631 -364Z" />
<glyph unicode="|" glyph-name="bar" horiz-adv-x="507" d="M333 -270H175V1456H333V-270Z" />
<glyph unicode="}" glyph-name="braceright" horiz-adv-x="696" d="M21 -246Q130 -210 177 -121T224 101V306Q224 413 269 493T408 616Q314 657 269 737T224 926V1132Q224 1264 177 1354T21 1480L62 1597Q256 1542 338 1423T421 1132V926Q421 813 471 752T630
690V543Q522 543 472 481T421 306V101Q421 -69 339 -189T62 -364L21 -246Z" />
<glyph unicode="~" glyph-name="asciitilde" horiz-adv-x="1391" d="M1264 740Q1264 603 1177 502T960 401Q870 401 797 434T638 541Q579 589 530 613T431 637Q364 637 317 584T269 456L128 474Q128 610 213 706T431 803Q519 803 594 769T754 664Q812 613 860
590T960 567Q1026 567 1074 624T1123 758L1264 740Z" />
</font>
</defs>
</svg>
