<?xml version="1.0" standalone="no"?> <!DOCTYPE svg PUBLIC "-//W3C//DTD SVG 1.0//EN" "http://www.w3.org/TR/2001/REC-SVG-20010904/DTD/svg10.dtd" > <svg xmlns="http://www.w3.org/2000/svg" width="100%" height="100%">
<defs >
<font id="roboto-black" horiz-adv-x="1082" ><font-face
    font-family="Roboto"
    units-per-em="2048"
    panose-1="2 0 0 0 0 0 0 0 0 0"
    ascent="2146"
    descent="-555"
    alphabetic="0" />
<missing-glyph horiz-adv-x="2048" />
<glyph unicode=" " glyph-name="space" horiz-adv-x="510" />
<glyph unicode="!" glyph-name="exclam" horiz-adv-x="565" d="M454 516H115V1456H454V516ZM454 0H115V283H454V0Z" />
<glyph unicode="&quot;" glyph-name="quotedbl" horiz-adv-x="649" d="M272 1291L187 1042H43V1560H272V1291ZM605 1291L521 1042H378V1560H605V1291Z" />
<glyph unicode="#" glyph-name="numbersign" horiz-adv-x="1190" d="M619 410H458L391 0H192L259 410H37V593H289L333 857H112V1040H363L432 1456H630L562 1040H723L792 1456H991L922 1040H1153V857H892L848 593H1077V410H818L751 0H552L619 410ZM488 593H649L693
857H532L488 593Z" />
<glyph unicode="$" glyph-name="dollar" horiz-adv-x="1186" d="M760 386Q760 465 722 508T587 594Q351 688 244 784T136 1068Q136 1237 250 1346T554 1474V1685H713V1470Q893 1444 998 1322T1100 1011L1098 1006H767Q767 1115 725 1168T613 1222Q542 1222 508
1178T474 1066Q474 997 510 954T647 867Q879 768 988 670T1097 388Q1097 214 988 108T693 -17V-218H534V-16Q340 3 212 119T88 461L91 467H420Q420 343 474 289T614 234Q686 234 723 276T760 386Z" />
<glyph unicode="%" glyph-name="percent" horiz-adv-x="1521" d="M91 1176Q91 1306 175 1391T414 1477Q571 1477 655 1392T739 1176V1099Q739 969 655 885T416 800Q260 800 176 885T91 1099V1176ZM307 1099Q307 1049 335 1016T416 982Q467 982 494 1015T522 1099V1176Q522
1226 494 1260T414 1295Q363 1295 335 1261T307 1176V1099ZM782 357Q782 486 867 571T1107 657Q1264 657 1347 572T1431 357V280Q1431 149 1348 65T1109 -20Q953 -20 868 65T782 280V357ZM999 280Q999 232 1031 197T1109 162Q1171 162 1193 193T1215 280V357Q1215
406 1187 440T1107 475Q1055 475 1027 441T999 357V280ZM469 109L312 188L1023 1326L1180 1247L469 109Z" />
<glyph unicode="&amp;" glyph-name="ampersand" horiz-adv-x="1380" d="M315 767Q251 857 220 932T188 1084Q188 1258 301 1367T600 1477Q759 1477 858 1375T958 1127Q958 1029 913 945T789 805L702 744L946 464Q981 520 1000 587T1019 728H1257Q1257 586 1226
468T1125 258L1345 5L1343 0H974L900 84Q813 30 727 5T536 -21Q318 -21 189 93T60 391Q60 507 121 588T312 765L315 767ZM559 239Q602 239 645 248T731 276L464 578L455 572Q424 534 412 497T399 414Q399 337 445 288T559 239ZM480 1088Q480 1049 499 1009T556
920L616 958Q672 994 691 1028T710 1103Q710 1147 680 1182T599 1217Q542 1217 511 1180T480 1088Z" />
<glyph unicode="&apos;" glyph-name="quotesingle" horiz-adv-x="316" d="M261 1268L187 985H43V1560H261V1268Z" />
<glyph unicode="(" glyph-name="parenleft" horiz-adv-x="727" d="M120 592Q120 981 268 1251T616 1599H622L683 1440Q555 1346 472 1136T389 594V562Q389 229 472 20T683 -284L622 -443H616Q416 -366 268 -96T120 564V592Z" />
<glyph unicode=")" glyph-name="parenright" horiz-adv-x="726" d="M630 564Q630 190 473 -88T111 -443H105L44 -284Q170 -189 254 20T338 562V594Q338 926 254 1136T44 1440L105 1599H111Q316 1523 473 1244T630 592V564Z" />
<glyph unicode="*" glyph-name="asterisk" horiz-adv-x="919" d="M332 958L26 1048L87 1236L385 1106L363 1456H563L538 1099L829 1226L889 1036L580 946L785 682L624 565L451 858L280 575L118 687L332 958Z" />
<glyph unicode="+" glyph-name="plus" horiz-adv-x="1094" d="M702 826H1043V537H702V146H387V537H45V826H387V1206H702V826Z" />
<glyph unicode="," glyph-name="comma" horiz-adv-x="541" d="M418 -8L255 -326H56L126 1V254H418V-8Z" />
<glyph unicode="-" glyph-name="hyphen" horiz-adv-x="921" d="M753 497H152V758H753V497Z" />
<glyph unicode="." glyph-name="period" horiz-adv-x="619" d="M473 0H136V284H473V0Z" />
<glyph unicode="/" glyph-name="slash" horiz-adv-x="719" d="M210 -125H-29L468 1456H708L210 -125Z" />
<glyph unicode="0" glyph-name="zero" horiz-adv-x="1186" d="M1100 575Q1100 280 963 130T594 -21Q360 -21 223 129T86 575V881Q86 1176 222 1326T592 1477Q825 1477 962 1326T1100 881V575ZM763 904Q763 1071 719 1144T592 1217Q508 1217 466 1144T423 904V554Q423
384 466 312T594 239Q677 239 720 311T763 554V904Z" />
<glyph unicode="1" glyph-name="one" horiz-adv-x="1186" d="M806 0H469V1117H144V1355L806 1457V0Z" />
<glyph unicode="2" glyph-name="two" horiz-adv-x="1186" d="M1108 0H89V220L557 712Q646 814 688 894T730 1033Q730 1117 688 1167T560 1217Q484 1217 441 1153T397 988H67L65 994Q60 1196 197 1336T560 1477Q800 1477 934 1359T1069 1036Q1069 898 998 792T734
477L537 266L540 260H1108V0Z" />
<glyph unicode="3" glyph-name="three" horiz-adv-x="1186" d="M397 869H556Q647 869 696 918T745 1054Q745 1123 701 1170T573 1217Q507 1217 457 1179T407 1081H79L77 1087Q71 1261 214 1369T561 1477Q798 1477 940 1369T1082 1061Q1082 962 1021 879T856 748Q973
705 1039 618T1105 408Q1105 208 952 94T561 -21Q356 -21 203 86T54 398L56 404H386Q386 334 440 287T573 239Q662 239 715 289T768 415Q768 521 713 569T556 618H397V869Z" />
<glyph unicode="4" glyph-name="four" horiz-adv-x="1186" d="M980 569H1127V307H980V0H642V307H78L58 515L642 1453V1456H980V569ZM360 569H642V1017L636 1019L610 978L360 569Z" />
<glyph unicode="5" glyph-name="five" horiz-adv-x="1186" d="M116 640L200 1456H1054V1194H475L438 891Q476 920 533 938T658 958Q872 962 987 834T1102 469Q1102 264 971 122T596 -21Q388 -21 235 94T87 398L89 404L419 424Q419 337 467 288T596 239Q688 239
726 303T765 467Q765 587 722 656T586 725Q518 725 477 696T419 623L116 640Z" />
<glyph unicode="6" glyph-name="six" horiz-adv-x="1186" d="M688 1477Q774 1477 841 1463T989 1416L933 1170Q863 1191 811 1201T690 1212Q570 1212 498 1128T428 881L431 876Q475 926 548 954T714 982Q909 982 1017 842T1126 482Q1126 266 983 123T616 -21Q377
-21 230 136T83 566V859Q83 1147 252 1312T688 1477ZM621 724Q551 724 501 705T421 652V566Q421 408 472 324T616 239Q692 239 740 311T788 482Q788 593 742 658T621 724Z" />
<glyph unicode="7" glyph-name="seven" horiz-adv-x="1186" d="M1102 1196Q884 947 801 710T684 141L670 0H332L345 141Q375 453 482 720T778 1196H52V1456H1102V1196Z" />
<glyph unicode="8" glyph-name="eight" horiz-adv-x="1186" d="M1070 1067Q1070 960 1015 877T863 745Q974 694 1037 605T1100 401Q1100 197 960 88T594 -21Q368 -21 227 88T86 401Q86 516 149 605T323 745Q224 793 170 876T115 1067Q115 1262 246 1369T592 1477Q808
1477 939 1370T1070 1067ZM763 428Q763 515 716 565T592 615Q515 615 470 565T424 428Q424 340 470 290T594 239Q670 239 716 289T763 428ZM733 1049Q733 1127 697 1172T592 1217Q525 1217 490 1173T454 1049Q454 969 490 922T594 875Q662 875 697 921T733 1049Z"
/>
<glyph unicode="9" glyph-name="nine" horiz-adv-x="1186" d="M524 239Q625 239 691 311T757 512V576Q708 516 643 486T505 455Q306 455 194 589T81 957Q81 1174 223 1325T589 1477Q809 1477 951 1318T1094 881V535Q1094 283 932 131T524 -21Q449 -21 369 -5T215
42L250 283Q320 260 382 250T524 239ZM579 698Q636 698 681 718T757 773V923Q757 1066 710 1141T588 1217Q510 1217 465 1138T419 957Q419 837 459 768T579 698Z" />
<glyph unicode=":" glyph-name="colon" horiz-adv-x="613" d="M473 0H136V284H473V0ZM473 798H136V1082H473V798Z" />
<glyph unicode=";" glyph-name="semicolon" horiz-adv-x="579" d="M460 798H123V1082H460V798ZM460 -8L297 -326H98L168 1V254H460V-8Z" />
<glyph unicode="&lt;" glyph-name="less" horiz-adv-x="1044" d="M378 546V540L930 359V52L46 412V678L930 1038V732L378 546Z" />
<glyph unicode="=" glyph-name="equal" horiz-adv-x="1195" d="M1054 732H128V992H1054V732ZM1054 293H128V553H1054V293Z" />
<glyph unicode="&gt;" glyph-name="greater" horiz-adv-x="1044" d="M114 732V1038L998 678V412L114 52V359L666 540V546L114 732Z" />
<glyph unicode="?" glyph-name="question" horiz-adv-x="1043" d="M308 416Q309 555 358 625T537 786Q604 828 642 890T681 1033Q681 1117 636 1167T508 1217Q441 1217 396 1176T349 1054H20L18 1060Q15 1268 150 1372T508 1477Q746 1477 882 1357T1019 1033Q1019
908 945 803T755 638Q691 596 669 548T646 416H308ZM645 0H309V270H645V0Z" />
<glyph unicode="@" glyph-name="at" horiz-adv-x="1809" d="M1729 520Q1720 300 1597 140T1230 -21Q1149 -21 1090 24T1007 153Q966 68 904 26T757 -17Q608 -17 529 101T471 416Q497 667 617 818T910 969Q1031 969 1104 943T1266 863L1263 859H1268L1217 293Q1212
206 1228 174T1273 141Q1385 141 1452 248T1528 520Q1544 859 1395 1048T935 1238Q633 1238 455 1034T262 478Q245 135 406 -64T870 -263Q954 -263 1044 -245T1201 -198L1239 -364Q1172 -406 1069 -429T866 -453Q462 -453 244 -204T43 478Q61 907 301 1158T939
1410Q1330 1410 1537 1172T1729 520ZM719 416Q710 296 736 235T823 173Q877 173 919 203T994 314L1034 766Q1012 771 991 774T949 778Q845 778 791 688T719 416Z" />
<glyph unicode="A" glyph-name="A" horiz-adv-x="1300" d="M888 283H429L347 0H7L477 1456H840L1311 0H971L888 283ZM504 543H813L661 1064H655L504 543Z" />
<glyph unicode="B" glyph-name="B" horiz-adv-x="1315" d="M114 0V1456H614Q885 1456 1037 1356T1189 1056Q1189 952 1140 871T989 749Q1117 720 1178 633T1239 431Q1239 218 1096 109T686 0H114ZM453 625V260H686Q794 260 848 302T902 433Q902 528 856 576T705
625H453ZM453 849H621Q736 851 793 893T850 1018Q850 1111 792 1153T614 1196H453V849Z" />
<glyph unicode="C" glyph-name="C" horiz-adv-x="1316" d="M1248 511L1250 505Q1240 249 1099 114T688 -21Q418 -21 249 145T80 576V880Q80 1144 242 1310T665 1477Q941 1477 1087 1338T1252 943L1250 937H921Q914 1079 858 1148T665 1217Q550 1217 484 1125T418
882V576Q418 425 490 332T688 239Q810 239 861 304T919 511H1248Z" />
<glyph unicode="D" glyph-name="D" horiz-adv-x="1338" d="M114 0V1456H640Q897 1456 1070 1289T1243 859V597Q1243 334 1070 167T640 0H114ZM453 1196V260H617Q752 260 828 352T904 597V861Q904 1012 828 1104T617 1196H453Z" />
<glyph unicode="E" glyph-name="E" horiz-adv-x="1165" d="M1024 623H453V260H1126V0H114V1456H1128V1196H453V883H1024V623Z" />
<glyph unicode="F" glyph-name="F" horiz-adv-x="1177" d="M1036 586H453V0H114V1456H1138V1196H453V846H1036V586Z" />
<glyph unicode="G" glyph-name="G" horiz-adv-x="1356" d="M1264 201Q1190 113 1049 46T695 -21Q425 -21 257 145T88 576V880Q88 1143 252 1310T676 1477Q957 1477 1097 1347T1256 992L1254 986H937Q920 1101 863 1159T687 1217Q569 1217 497 1124T425 882V576Q425
424 496 332T695 239Q788 239 841 254T925 294V524H696V748H1264V201Z" />
<glyph unicode="H" glyph-name="H" horiz-adv-x="1444" d="M1329 0H992V586H453V0H114V1456H453V846H992V1456H1329V0Z" />
<glyph unicode="I" glyph-name="I" horiz-adv-x="611" d="M474 0H137V1456H474V0Z" />
<glyph unicode="J" glyph-name="J" horiz-adv-x="1188" d="M737 1456H1074V457Q1074 237 930 108T568 -21Q331 -21 194 93T61 430L63 436H393Q393 330 442 285T568 239Q637 239 687 296T737 457V1456Z" />
<glyph unicode="K" glyph-name="K" horiz-adv-x="1325" d="M609 584H453V0H114V1456H453V886H568L888 1456H1308L857 797L1347 0H935L609 584Z" />
<glyph unicode="L" glyph-name="L" horiz-adv-x="1109" d="M453 260H1080V0H114V1456H453V260Z" />
<glyph unicode="M" glyph-name="M" horiz-adv-x="1780" d="M558 1456L884 437H890L1220 1456H1666V0H1327V361L1359 1026L1353 1027L1002 0H774L427 1018L421 1017L453 361V0H114V1456H558Z" />
<glyph unicode="N" glyph-name="N" horiz-adv-x="1444" d="M1329 0H992L459 928L453 926V0H114V1456H453L986 528L992 530V1456H1329V0Z" />
<glyph unicode="O" glyph-name="O" horiz-adv-x="1400" d="M1318 597Q1318 328 1148 154T702 -21Q425 -21 253 153T81 597V859Q81 1127 252 1302T700 1477Q974 1477 1146 1302T1318 859V597ZM981 861Q981 1017 908 1117T700 1217Q563 1217 491 1118T418 861V597Q418
439 491 339T702 239Q835 239 908 339T981 597V861Z" />
<glyph unicode="P" glyph-name="P" horiz-adv-x="1344" d="M453 499V0H114V1456H705Q964 1456 1116 1324T1268 977Q1268 762 1116 631T705 499H453ZM453 759H705Q815 759 872 819T930 975Q930 1072 873 1134T705 1196H453V759Z" />
<glyph unicode="Q" glyph-name="Q" horiz-adv-x="1451" d="M1326 597Q1326 470 1286 360T1170 168L1414 -68L1208 -235L947 20Q892 0 833 -10T710 -21Q433 -21 261 153T89 597V859Q89 1127 260 1302T708 1477Q982 1477 1154 1302T1326 859V597ZM989 861Q989 1017
916 1117T708 1217Q571 1217 499 1118T426 861V597Q426 439 499 339T710 239Q843 239 916 339T989 597V861Z" />
<glyph unicode="R" glyph-name="R" horiz-adv-x="1352" d="M453 558V0H114V1456H674Q927 1456 1075 1339T1223 1019Q1223 906 1164 825T988 693Q1122 655 1180 567T1239 346V254Q1239 197 1256 124T1315 20V0H967Q927 31 915 110T902 256V344Q902 448 847 503T686
558H453ZM453 818H676Q778 818 832 864T886 998Q886 1087 831 1141T674 1196H453V818Z" />
<glyph unicode="S" glyph-name="S" horiz-adv-x="1293" d="M887 386Q887 463 836 505T653 594Q377 681 244 780T111 1068Q111 1251 269 1364T672 1477Q914 1477 1068 1353T1218 1032L1216 1026H888Q888 1113 829 1167T666 1222Q564 1222 506 1177T448 1066Q448
1002 506 964T726 867Q974 793 1099 685T1225 388Q1225 196 1076 88T679 -21Q431 -21 250 103T74 462L76 468H405Q405 342 473 288T679 234Q784 234 835 276T887 386Z" />
<glyph unicode="T" glyph-name="T" horiz-adv-x="1153" d="M1130 1196H746V0H407V1196H26V1456H1130V1196Z" />
<glyph unicode="U" glyph-name="U" horiz-adv-x="1417" d="M1309 1456V502Q1309 253 1144 116T710 -21Q439 -21 273 116T107 502V1456H446V502Q446 368 515 304T710 239Q835 239 902 303T970 502V1456H1309Z" />
<glyph unicode="V" glyph-name="V" horiz-adv-x="1305" d="M637 395L647 342H653L663 391L952 1456H1306L834 0H469L-1 1456H352L637 395Z" />
<glyph unicode="W" glyph-name="W" horiz-adv-x="1819" d="M1285 501H1291L1482 1456H1809L1475 0H1157L912 898H906L663 0H345L10 1456H338L529 501H535L792 1456H1027L1285 501Z" />
<glyph unicode="X" glyph-name="X" horiz-adv-x="1307" d="M648 965L888 1456H1278L861 734L1310 0H900L652 501L404 0H14L442 734L25 1456H412L648 965Z" />
<glyph unicode="Y" glyph-name="Y" horiz-adv-x="1310" d="M651 820H657L947 1456H1314L819 512V0H482V529L-3 1456H362L651 820Z" />
<glyph unicode="Z" glyph-name="Z" horiz-adv-x="1196" d="M483 260H1146V0H67V152L718 1196H64V1456H1137V1310L483 260Z" />
<glyph unicode="[" glyph-name="bracketleft" horiz-adv-x="577" d="M564 1460H446V-104H564V-349H108V1706H564V1460Z" />
<glyph unicode="\" glyph-name="backslash" horiz-adv-x="871" d="M-16 1456H322L930 -125H591L-16 1456Z" />
<glyph unicode="]" glyph-name="bracketright" horiz-adv-x="577" d="M14 1706H470V-349H14V-104H133V1460H14V1706Z" />
<glyph unicode="^" glyph-name="asciicircum" horiz-adv-x="916" d="M289 729H36L335 1456H584L884 729H630L465 1142L461 1160H455L451 1142L289 729Z" />
<glyph unicode="_" glyph-name="underscore" horiz-adv-x="904" d="M903 -251H0V0H903V-251Z" />
<glyph unicode="`" glyph-name="grave" horiz-adv-x="695" d="M631 1212H356L74 1472L76 1478H423L631 1212Z" />
<glyph unicode="a" glyph-name="a" horiz-adv-x="1086" d="M718 1Q704 27 693 59T673 125Q625 58 557 19T392 -21Q238 -21 142 68T45 305Q45 466 165 553T532 641H655V718Q655 787 623 824T522 861Q464 861 436 834T407 748L80 749L78 755Q71 903 201 1002T545
1102Q745 1102 869 1002T994 716V308Q994 221 1008 147T1052 0L718 1ZM495 220Q545 220 587 240T655 292V461H535Q455 461 419 422T382 323Q382 277 413 249T495 220Z" />
<glyph unicode="b" glyph-name="b" horiz-adv-x="1151" d="M1098 518Q1098 271 992 125T678 -21Q589 -21 523 17T411 128L389 0H96V1560H434V977Q479 1037 538 1069T676 1102Q885 1102 991 949T1098 539V518ZM761 539Q761 683 725 762T591 842Q536 842 497 822T434
762V308Q458 273 497 256T593 239Q693 239 727 308T761 518V539Z" />
<glyph unicode="c" glyph-name="c" horiz-adv-x="1046" d="M558 239Q626 239 659 276T692 385H1001L1003 379Q1007 202 881 91T558 -21Q312 -21 179 132T45 529V552Q45 795 178 948T555 1102Q761 1102 884 987T1003 674L1001 668H692Q692 745 658 793T555 842Q459
842 421 763T382 552V529Q382 393 420 316T558 239Z" />
<glyph unicode="d" glyph-name="d" horiz-adv-x="1151" d="M51 539Q51 792 161 947T473 1102Q548 1102 608 1068T717 969V1560H1055V0H762L738 133Q688 58 622 19T471 -21Q271 -21 161 127T51 518V539ZM389 518Q389 386 427 313T557 239Q610 239 650 258T717 316V753Q691
796 651 819T559 842Q469 842 429 759T389 539V518Z" />
<glyph unicode="e" glyph-name="e" horiz-adv-x="1083" d="M590 -21Q351 -21 209 129T66 505V543Q66 790 195 946T566 1102Q786 1102 911 970T1036 612V435H418L416 429Q427 346 484 293T636 239Q732 239 789 254T935 306L1015 100Q944 48 832 14T590 -21ZM566
842Q493 842 457 790T412 651L415 646H706V672Q706 754 672 798T566 842Z" />
<glyph unicode="f" glyph-name="f" horiz-adv-x="743" d="M168 0V848H12V1082H168V1194Q168 1381 280 1481T597 1581Q635 1581 675 1576T764 1560L739 1311Q712 1316 691 1318T638 1321Q575 1321 541 1288T507 1194V1082H717V848H507V0H168Z" />
<glyph unicode="g" glyph-name="g" horiz-adv-x="1151" d="M51 539Q51 792 161 947T472 1102Q558 1102 623 1062T735 946L758 1082H1054V42Q1054 -175 905 -306T504 -437Q420 -437 328 -414T153 -352L208 -102Q282 -134 349 -149T502 -165Q606 -165 661 -109T716
44V99Q670 40 609 10T470 -21Q270 -21 161 127T51 518V539ZM388 518Q388 386 426 313T556 239Q611 239 650 256T716 308V762Q691 800 652 821T558 842Q468 842 428 759T388 539V518Z" />
<glyph unicode="h" glyph-name="h" horiz-adv-x="1151" d="M424 948Q473 1021 543 1061T699 1102Q867 1102 963 985T1059 622V0H721V624Q721 748 684 795T569 842Q520 842 484 828T424 787V0H86V1560H424V948Z" />
<glyph unicode="i" glyph-name="i" horiz-adv-x="561" d="M450 0H111V1082H450V0ZM450 1333H111V1560H450V1333Z" />
<glyph unicode="j" glyph-name="j" horiz-adv-x="548" d="M454 1082V-15Q454 -217 346 -327T44 -437Q0 -437 -36 -433T-115 -420L-101 -165Q-72 -171 -52 -174T0 -177Q56 -177 85 -136T115 -15V1082H454ZM448 1334H109V1560H448V1334Z" />
<glyph unicode="k" glyph-name="k" horiz-adv-x="1119" d="M491 430H434V0H96V1560H434V685H479L710 1082H1097L761 593L1150 0H765L491 430Z" />
<glyph unicode="l" glyph-name="l" horiz-adv-x="561" d="M450 0H111V1560H450V0Z" />
<glyph unicode="m" glyph-name="m" horiz-adv-x="1764" d="M414 1082L426 939Q477 1017 554 1059T732 1102Q833 1102 906 1058T1016 924Q1066 1009 1144 1055T1328 1102Q1486 1102 1576 994T1667 659V0H1328V659Q1328 764 1296 803T1198 842Q1149 842 1112 825T1048
776Q1048 759 1049 747T1050 722V0H712V659Q712 764 680 803T581 842Q535 842 498 825T434 776V0H96V1082H414Z" />
<glyph unicode="n" glyph-name="n" horiz-adv-x="1151" d="M407 1082L420 930Q473 1011 551 1056T725 1102Q884 1102 973 999T1063 671V0H725V672Q725 765 687 803T573 842Q526 842 490 825T427 778V0H90V1082H407Z" />
<glyph unicode="o" glyph-name="o" horiz-adv-x="1151" d="M51 551Q51 795 189 948T574 1102Q822 1102 960 949T1098 551V530Q1098 285 960 132T576 -21Q327 -21 189 132T51 530V551ZM389 530Q389 394 431 317T576 239Q675 239 718 317T761 530V551Q761 683 718
762T574 842Q474 842 432 762T389 551V530Z" />
<glyph unicode="p" glyph-name="p" horiz-adv-x="1151" d="M1098 518Q1098 274 988 127T678 -21Q600 -21 540 9T434 96V-416H96V1082H412L424 963Q470 1030 532 1066T676 1102Q877 1102 987 947T1098 539V518ZM761 539Q761 676 721 759T593 842Q536 842 497 821T434
760V308Q458 273 497 256T595 239Q684 239 722 312T761 518V539Z" />
<glyph unicode="q" glyph-name="q" horiz-adv-x="1151" d="M51 539Q51 792 161 947T473 1102Q558 1102 623 1062T736 946L763 1082H1056V-416H718V100Q672 41 611 10T471 -21Q271 -21 161 127T51 518V539ZM389 518Q389 386 427 313T557 239Q613 239 653 256T718
309V759Q693 800 654 821T559 842Q469 842 429 759T389 539V518Z" />
<glyph unicode="r" glyph-name="r" horiz-adv-x="757" d="M707 784L584 785Q526 785 489 766T434 710V0H96V1082H414L426 923Q460 1008 516 1055T647 1102Q671 1102 696 1099T740 1090L707 784Z" />
<glyph unicode="s" glyph-name="s" horiz-adv-x="1048" d="M660 304Q660 344 615 375T449 432Q260 469 164 547T68 760Q68 903 188 1002T513 1102Q729 1102 857 1006T979 756L977 750H649Q649 814 617 847T512 880Q459 880 423 851T387 777Q387 734 428 704T596
650Q794 611 889 534T985 314Q985 168 856 74T513 -21Q292 -21 164 91T41 341L43 347H349Q351 270 395 236T522 202Q590 202 625 228T660 304Z" />
<glyph unicode="t" glyph-name="t" horiz-adv-x="742" d="M496 1351V1082H679V848H496V352Q496 294 519 269T583 243Q615 243 633 245T681 253L705 3Q649 -10 604 -15T498 -21Q331 -21 245 68T159 350V848H7V1082H159V1351H496Z" />
<glyph unicode="u" glyph-name="u" horiz-adv-x="1151" d="M745 128Q693 56 618 18T447 -21Q279 -21 184 87T88 422V1082H425V420Q425 329 459 284T558 239Q612 239 653 254T723 299V1082H1061V0H766L745 128Z" />
<glyph unicode="v" glyph-name="v" horiz-adv-x="1053" d="M501 446L521 331L527 330L549 446L692 1082H1047L695 0H352L0 1082H356L501 446Z" />
<glyph unicode="w" glyph-name="w" horiz-adv-x="1485" d="M1025 455H1031L1148 1082H1460L1206 0H920L744 574H738L561 0H276L21 1082H333L452 450H458L634 1082H847L1025 455Z" />
<glyph unicode="x" glyph-name="x" horiz-adv-x="1053" d="M524 763H530L667 1082H1046L732 547L1057 0H678L534 329H528L384 0H5L330 547L15 1082H392L524 763Z" />
<glyph unicode="y" glyph-name="y" horiz-adv-x="1053" d="M515 477L516 469H522L701 1082H1061L630 -161Q580 -281 501 -359T250 -437Q206 -437 178 -432T90 -411L131 -170Q145 -173 152 -174T170 -176Q250 -176 287 -153T342 -82L369 -12L-5 1082H354L515 477Z" />
<glyph unicode="z" glyph-name="z" horiz-adv-x="1053" d="M492 260H984V0H65V188L546 822H86V1082H974V900L492 260Z" />
<glyph unicode="{" glyph-name="braceleft" horiz-adv-x="665" d="M562 -360Q367 -305 285 -185T202 106V309Q202 401 162 453T40 505V732Q122 732 162 783T202 929V1132Q202 1303 284 1422T562 1597L625 1421Q552 1392 523 1318T494 1132V929Q494 825 448 745T309
619Q402 572 448 492T494 309V106Q494 -6 523 -80T625 -183L562 -360Z" />
<glyph unicode="|" glyph-name="bar" horiz-adv-x="523" d="M356 -270H172V1456H356V-270Z" />
<glyph unicode="}" glyph-name="braceright" horiz-adv-x="665" d="M41 -183Q113 -154 142 -80T172 106V309Q172 412 217 492T358 619Q263 664 218 744T172 929V1132Q172 1244 143 1318T41 1421L104 1597Q298 1542 381 1423T464 1132V929Q464 835 503 784T626
732V505Q543 505 504 453T464 309V106Q464 -65 381 -185T104 -360L41 -183Z" />
<glyph unicode="~" glyph-name="asciitilde" horiz-adv-x="1295" d="M1197 769Q1197 594 1109 481T882 367Q799 367 728 397T582 497Q535 540 503 558T429 576Q386 576 356 526T325 405L94 435Q94 610 181 723T407 836Q488 836 563 804T710 707Q753 665 786 647T859
628Q902 628 933 678T965 800L1197 769Z" />
</font>
</defs>
</svg>
