<?xml version="1.0" standalone="no"?>
<!DOCTYPE svg PUBLIC "-//W3C//DTD SVG 1.1//EN" "http://www.w3.org/Graphics/SVG/1.1/DTD/svg11.dtd" >
<svg xmlns="http://www.w3.org/2000/svg" xmlns:xlink="http://www.w3.org/1999/xlink" version="1.1">
<metadata>
Created by FontForge 20170731 at Wed Mar  4 22:05:05 2009
 By Aleksey,,,
Copyright (c) 2008 by Luc(as) de Groot. All rights reserved.
</metadata>
<defs>
<font id="TheSans-Plain" horiz-adv-x="550" >
  <font-face 
    font-family="TheSans"
    font-weight="400"
    font-stretch="normal"
    units-per-em="1000"
    panose-1="2 11 5 3 4 3 2 2 2 3"
    ascent="750"
    descent="-250"
    x-height="497"
    cap-height="675"
    bbox="-149 -320 2985 960"
    underline-thickness="41"
    underline-position="-311"
    unicode-range="U+0020-FEFC"
  />
<missing-glyph 
d="M300 150h-150v250h50v-200h100v-50zM500 50h-450v450h450v-450zM350 350h-100v50h150v-250h-50v100h-100v50h100v50zM100 100h350v350h-350v-350z" />
    <glyph glyph-name="lam_alef_madda.isol" unicode="&#xfedf;&#xfe82;" horiz-adv-x="583" arabic-form="isolated" 
d="M135 711l160 -548h-93l-159 535zM488 0h-402v73h309v632h93v-705zM15 788l-37 48l89 67q41 -41 94 -41q56 0 105 43v-73q-43 -38 -109 -38q-58 0 -90 32z" />
    <glyph glyph-name="lam_alef_madda.fina" unicode="&#xfee0;&#xfe82;" horiz-adv-x="583" arabic-form="final" 
d="M86 0v73h309v632h93v-632h109v-73h-511zM135 711l160 -548h-93l-159 535zM15 788l-37 48l89 67q41 -41 94 -41q56 0 105 43v-73q-43 -38 -109 -38q-58 0 -90 32z" />
    <glyph glyph-name="lam_alef_hamza_above.isol" unicode="&#xfedf;&#xfe84;" horiz-adv-x="583" arabic-form="isolated" 
d="M135 702l160 -539h-93l-159 526zM488 0h-402v73h309v623h93v-696zM-20 767v53q44 0 71 -5q-28 14 -28 48q0 42 31 69.5t96 27.5q31 0 53 -4l-8 -54q-25 5 -49 5q-55 0 -55 -41q0 -46 77 -46h54v-53h-242z" />
    <glyph glyph-name="lam_alef_hamza_above.fina" unicode="&#xfee0;&#xfe84;" horiz-adv-x="583" arabic-form="final" 
d="M598 0h-512v73h309v623h93v-623h110v-73zM135 702l160 -539h-93l-159 526zM-20 767v53q44 0 71 -5q-28 14 -28 48q0 42 31 69.5t96 27.5q31 0 53 -4l-8 -54q-25 5 -49 5q-55 0 -55 -41q0 -46 77 -46h54v-53h-242z" />
    <glyph glyph-name="lam_alef_hamza_below.isol" unicode="&#xfedf;&#xfe88;" horiz-adv-x="583" arabic-form="isolated" 
d="M135 711l160 -548h-93l-159 535zM488 0h-402v73h309v632h93v-705zM98 -254v55q42 0 58 -3q-18 11 -18 37q0 39 30.5 64.5t86.5 25.5q33 0 55 -5l-9 -56q-24 6 -47 6q-47 0 -47 -33q0 -36 66 -36h59v-55h-234z" />
    <glyph glyph-name="lam_alef_hamza_below.fina" unicode="&#xfee0;&#xfe88;" horiz-adv-x="583" arabic-form="final" 
d="M86 0v73h309v632h93v-632h109v-73h-511zM135 711l160 -548h-93l-159 535zM98 -254v55q42 0 58 -3q-18 11 -18 37q0 39 30.5 64.5t86.5 25.5q33 0 55 -5l-9 -56q-24 6 -47 6q-47 0 -47 -33q0 -36 66 -36h59v-55h-234z" />
    <glyph glyph-name="lam_alef.isol" unicode="&#xfedf;&#xfe8e;" horiz-adv-x="583" arabic-form="isolated" 
d="M135 711l160 -548h-93l-159 535zM488 0h-402v73h309v632h93v-705z" />
    <glyph glyph-name="lam_alef.fina" unicode="&#xfee0;&#xfe8e;" horiz-adv-x="583" arabic-form="final" 
d="M597 0h-511v73h309v632h93v-632h109v-73zM135 711l160 -548h-93l-159 535z" />
    <glyph glyph-name="hamza.isol" unicode="&#x621;" horiz-adv-x="514" arabic-form="isolated" 
d="M50 0v72q72 0 119 -5q-52 22 -52 87q0 64 48.5 109t148.5 45q41 0 85 -7l-11 -74q-43 8 -83 8q-46 0 -71 -21t-25 -56q0 -86 135 -86h90v-72h-384z" />
    <glyph glyph-name="alef_madda.isol" unicode="&#x622;" horiz-adv-x="282" arabic-form="isolated" 
d="M95 0v705h92v-705h-92zM17 788l-37 48l89 67q41 -41 94 -41q56 0 105 43v-73q-43 -38 -109 -38q-58 0 -90 32z" />
    <glyph glyph-name="alef_hamza_above.isol" unicode="&#x623;" horiz-adv-x="282" arabic-form="isolated" 
d="M95 0v696h92v-696h-92zM11 767v53q43 0 70 -5q-27 13 -27 48q0 42 31 69.5t95 27.5q32 0 54 -4l-9 -54q-23 5 -49 5t-40.5 -11t-14.5 -30q0 -46 78 -46h54v-53h-242z" />
    <glyph glyph-name="waw_hamza.isol" unicode="&#x624;" horiz-adv-x="585" arabic-form="isolated" 
d="M207 -253q-34 0 -73 3.5t-61 7.5l-22 4l6 77q84 -19 160 -19q191 0 191 156v24h-101q-262 0 -262 233q0 106 65 177t187 71q49 0 99 -8.5t76 -17.5l26 -9v-465q0 -46 -16 -86.5t-48.5 -74.5t-91 -53.5t-135.5 -19.5zM408 73v312q-49 23 -121 23q-69 0 -109 -45t-40 -120
q0 -87 43.5 -128.5t138.5 -41.5h88zM158 566v57q42 0 69 -5q-27 12 -27 48q0 41 31.5 70t95.5 29q32 0 54 -4l-9 -56q-36 4 -48 4q-56 0 -56 -41q0 -45 78 -45h54v-57h-242z" />
    <glyph glyph-name="alef_hamza_below.isol" unicode="&#x625;" horiz-adv-x="282" arabic-form="isolated" 
d="M95 0v705h92v-705h-92zM9 -254v55q42 0 58 -3q-18 11 -18 37q0 39 30.5 64.5t86.5 25.5q33 0 55 -5l-9 -56q-24 6 -47 6q-47 0 -47 -33q0 -36 66 -36h59v-55h-234z" />
    <glyph glyph-name="yeh_hamza_above.isol" unicode="&#x626;" horiz-adv-x="1000" arabic-form="isolated" 
d="M599 0h-186q-185 0 -268 72.5t-83 218.5q0 95 33 166l98 17q-38 -78 -38 -172q0 -119 59 -174t210 -55h85v389q88 19 183 19q120 0 171.5 -55.5t51.5 -163.5v-134h-90v122q0 85 -33 121.5t-109 36.5q-18 0 -39 -2t-33 -4l-12 -2v-400zM47 566v57q42 0 69 -5
q-27 12 -27 48q0 41 31.5 70t95.5 29q32 0 54 -4l-9 -56q-36 4 -48 4q-56 0 -56 -41q0 -45 78 -45h54v-57h-242z" />
    <glyph glyph-name="alef.isol" unicode="&#x627;" horiz-adv-x="282" arabic-form="isolated" 
d="M95 0v705h92v-705h-92z" />
    <glyph glyph-name="beh.isol" unicode="&#x628;" horiz-adv-x="773" arabic-form="isolated" 
d="M393 -204q-23 0 -38.5 15.5t-15.5 38.5q0 22 15.5 38t38.5 16t39 -15.5t16 -38.5q0 -22 -16 -38t-39 -16zM686 0h-273q-185 0 -268 72.5t-83 218.5q0 95 33 166l98 17q-38 -78 -38 -172q0 -119 59 -174t210 -55h170v397h92v-470z" />
    <glyph glyph-name="tehmarbuta.isol" unicode="&#x629;" horiz-adv-x="594" arabic-form="isolated" 
d="M363 562q-23 0 -38.5 15.5t-15.5 38.5q0 22 16 37.5t38 15.5t37 -15.5t15 -37.5q0 -23 -15 -38.5t-37 -15.5zM215 562q-23 0 -38 15.5t-15 38.5q0 22 15.5 37.5t37.5 15.5t37.5 -15.5t15.5 -37.5t-15.5 -38t-37.5 -16zM509 0h-202q-262 0 -262 233q0 106 65.5 177
t184.5 71q106 0 160 -58t54 -166v-257zM419 73v168q0 167 -132 167q-69 0 -109 -45t-40 -121q0 -86 43.5 -127.5t138.5 -41.5h99z" />
    <glyph glyph-name="teh.isol" unicode="&#x62a;" horiz-adv-x="773" arabic-form="isolated" 
d="M476 562q-23 0 -38.5 15.5t-15.5 38.5q0 22 16 37.5t38 15.5t37 -15.5t15 -37.5q0 -23 -15 -38.5t-37 -15.5zM328 562q-23 0 -38 15.5t-15 38.5q0 22 15.5 37.5t37.5 15.5t37.5 -15.5t15.5 -37.5t-15.5 -38t-37.5 -16zM686 0h-273q-185 0 -268 72.5t-83 218.5
q0 95 33 166l98 17q-38 -78 -38 -172q0 -119 59 -174t210 -55h170v397h92v-470z" />
    <glyph glyph-name="theh.isol" unicode="&#x62b;" horiz-adv-x="773" arabic-form="isolated" 
d="M402 681q-22 0 -36.5 14.5t-14.5 36.5t14.5 37t36.5 15q21 0 35.5 -15t14.5 -37q0 -21 -14.5 -36t-35.5 -15zM476 562q-23 0 -38 15.5t-15 38.5q0 22 15.5 37.5t37.5 15.5t37.5 -15.5t15.5 -37.5t-15.5 -38t-37.5 -16zM328 562q-23 0 -38 15.5t-15 38.5q0 22 15.5 37.5
t37.5 15.5t37.5 -15.5t15.5 -37.5q0 -23 -15.5 -38.5t-37.5 -15.5zM686 0h-273q-185 0 -268 72.5t-83 218.5q0 95 33 166l98 17q-38 -78 -38 -172q0 -119 59 -174t210 -55h170v397h92v-470z" />
    <glyph glyph-name="jeem.isol" unicode="&#x62c;" horiz-adv-x="594" arabic-form="isolated" 
d="M370 -204q-23 0 -38.5 15.5t-15.5 38.5q0 22 16 38t38 16q23 0 39 -15.5t16 -38.5q0 -22 -16 -38t-39 -16zM501 0h-186q-119 0 -166 -33t-47 -92q0 -51 49 -86.5t139 -35.5l-6 -73q-133 0 -203 52.5t-70 135.5q0 94 74 149.5t235 55.5h98q7 49 7 103q0 117 -49.5 171
t-169.5 54q-58 0 -111 -7v72q54 8 120 8q161 0 231.5 -72t70.5 -219q0 -87 -16 -183z" />
    <glyph glyph-name="hah.isol" unicode="&#x62d;" horiz-adv-x="588" arabic-form="isolated" 
d="M294 -320q-134 0 -203.5 51.5t-69.5 137.5q0 94 74 149t235 55h93q7 61 7 103q0 117 -49.5 171t-169.5 54q-59 0 -111 -7v72q53 8 119 8q161 0 231.5 -72t70.5 -219q0 -87 -16 -183h-180q-119 0 -166 -33t-47 -91q0 -54 48.5 -88.5t141.5 -34.5q82 0 180 21l7 -72
q-98 -22 -195 -22z" />
    <glyph glyph-name="khah.isol" unicode="&#x62e;" horiz-adv-x="588" arabic-form="isolated" 
d="M246 577q-22 0 -38 15.5t-16 38.5t16 39t38 16q23 0 39 -16t16 -39q0 -22 -16 -38t-39 -16zM294 -320q-134 0 -203.5 51.5t-69.5 137.5q0 94 74 149t235 55h93q7 61 7 103q0 117 -49.5 171t-169.5 54q-59 0 -111 -7v72q53 8 119 8q161 0 231.5 -72t70.5 -219
q0 -87 -16 -183h-180q-119 0 -166 -33t-47 -91q0 -54 48.5 -88.5t141.5 -34.5q82 0 180 21l7 -72q-98 -22 -195 -22z" />
    <glyph glyph-name="dal.isol" unicode="&#x62f;" horiz-adv-x="527" arabic-form="isolated" 
d="M52 0v73h321q-2 138 -61 218.5t-191 120.5l23 78q166 -51 243 -153t77 -287v-50h-412z" />
    <glyph glyph-name="thal.isol" unicode="&#x630;" horiz-adv-x="527" arabic-form="isolated" 
d="M197 577q-23 0 -38.5 15.5t-15.5 38.5t16 39t38 16q23 0 39 -16t16 -39q0 -22 -16 -38t-39 -16zM52 0v73h321q-2 138 -61 218.5t-191 120.5l23 78q166 -51 243 -153t77 -287v-50h-412z" />
    <glyph glyph-name="reh.isol" unicode="&#x631;" horiz-adv-x="409" arabic-form="isolated" 
d="M90 -257q-52 0 -104 14l11 76q46 -17 100 -17q66 0 99.5 38.5t33.5 132.5v483h92v-475q0 -252 -232 -252z" />
    <glyph glyph-name="zain.isol" unicode="&#x632;" horiz-adv-x="409" arabic-form="isolated" 
d="M274 577q-22 0 -38 15.5t-16 38.5t16 39t38 16q23 0 39 -16t16 -39q0 -22 -16 -38t-39 -16zM90 -257q-52 0 -104 14l11 76q46 -17 100 -17q66 0 99.5 38.5t33.5 132.5v483h92v-475q0 -252 -232 -252z" />
    <glyph glyph-name="seen.isol" unicode="&#x633;" horiz-adv-x="1206" arabic-form="isolated" 
d="M307 -231q-112 0 -180.5 67t-68.5 212q0 98 25 190l95 18q-28 -97 -28 -199q0 -117 48 -166t118 -49q163 0 163 203v365h92v-205q0 -69 20.5 -104t73.5 -35q51 0 72 35.5t21 103.5v245h89v-241q0 -79 27 -107.5t105 -28.5h46q8 69 8 139q0 149 -33 276l90 16
q36 -135 36 -284q0 -106 -17 -220h-149q-138 0 -168 80q-13 -41 -47 -64t-80 -23q-71 0 -102 45q3 -10 3 -27q0 -36 -9.5 -71.5t-34.5 -77t-80.5 -67.5t-134.5 -26z" />
    <glyph glyph-name="sheen.isol" unicode="&#x634;" horiz-adv-x="1206" arabic-form="isolated" 
d="M799 681q-22 0 -36.5 14.5t-14.5 36.5t14.5 37t36.5 15q21 0 35.5 -15t14.5 -37q0 -21 -14.5 -36t-35.5 -15zM873 562q-23 0 -38 15.5t-15 38.5q0 22 15.5 37.5t37.5 15.5t37.5 -15.5t15.5 -37.5t-15.5 -38t-37.5 -16zM725 562q-23 0 -38 15.5t-15 38.5q0 22 15.5 37.5
t37.5 15.5q23 0 38 -15.5t15 -37.5q0 -23 -15.5 -38.5t-37.5 -15.5zM307 -231q-112 0 -180.5 67t-68.5 212q0 98 25 190l95 18q-28 -97 -28 -199q0 -117 48 -166t118 -49q163 0 163 203v365h92v-205q0 -69 20.5 -104t73.5 -35q51 0 72 35.5t21 103.5v245h89v-241
q0 -79 27 -107.5t105 -28.5h46q8 69 8 139q0 149 -33 276l90 16q36 -135 36 -284q0 -106 -17 -220h-149q-138 0 -168 80q-13 -41 -47 -64t-80 -23q-71 0 -102 45q3 -10 3 -27q0 -36 -9.5 -71.5t-34.5 -77t-80.5 -67.5t-134.5 -26z" />
    <glyph glyph-name="sad.isol" unicode="&#x635;" horiz-adv-x="1106" arabic-form="isolated" 
d="M307 -231q-112 0 -180.5 67t-68.5 212q0 98 25 190l95 18q-28 -97 -28 -199q0 -117 48 -166t118 -49q163 0 163 203v425h92v-39q0 -103 -11 -179h1q36 107 111 168t162 61q97 0 146 -65t49 -182q0 -110 -13 -234h-449q-9 -117 -77 -174t-183 -57zM570 73h358q6 74 6 151
q0 183 -116 183q-95 0 -164 -102t-84 -232z" />
    <glyph glyph-name="dad.isol" unicode="&#x636;" horiz-adv-x="1106" arabic-form="isolated" 
d="M822 577q-22 0 -38 15.5t-16 38.5t16 39t38 16q23 0 39 -16t16 -39q0 -22 -16 -38t-39 -16zM307 -231q-112 0 -180.5 67t-68.5 212q0 98 25 190l95 18q-28 -97 -28 -199q0 -117 48 -166t118 -49q163 0 163 203v425h92v-39q0 -103 -11 -179h1q36 107 111 168t162 61
q97 0 146 -65t49 -182q0 -110 -13 -234h-449q-9 -117 -77 -174t-183 -57zM570 73h358q6 74 6 151q0 183 -116 183q-95 0 -164 -102t-84 -232z" />
    <glyph glyph-name="tah.isol" unicode="&#x637;" horiz-adv-x="765" arabic-form="isolated" 
d="M0 0v73h138v632h92v-274q0 -103 -11 -179h1q36 107 111 168t162 61q97 0 146 -65t49 -182q0 -110 -13 -234h-675zM229 73h358q6 74 6 151q0 183 -116 183q-95 0 -164 -102t-84 -232z" />
    <glyph glyph-name="zah.isol" unicode="&#x638;" horiz-adv-x="765" arabic-form="isolated" 
d="M481 577q-23 0 -38.5 15.5t-15.5 38.5t16 39t38 16q23 0 39 -16t16 -39q0 -22 -16 -38t-39 -16zM0 0v73h138v632h92v-274q0 -103 -11 -179h1q36 107 111 168t162 61q97 0 146 -65t49 -182q0 -110 -13 -234h-675zM229 73h358q6 74 6 151q0 183 -116 183q-95 0 -164 -102
t-84 -232z" />
    <glyph glyph-name="ain.isol" unicode="&#x639;" horiz-adv-x="492" arabic-form="isolated" 
d="M283 -320q-134 0 -201 52.5t-67 136.5q0 71 44 119t127 61q-56 17 -94 69t-38 125q0 109 67.5 173.5t187.5 64.5q28 0 55.5 -3t41.5 -6l13 -3l-15 -74q-42 14 -100 14q-73 0 -115 -43t-42 -118q0 -78 55.5 -126.5t166.5 -48.5h70v-73h-130q-201 0 -201 -127
q0 -54 46.5 -87t137.5 -33q36 0 75.5 3.5t60.5 7.5l21 4l6 -70q-82 -18 -172 -18z" />
    <glyph glyph-name="ghain.isol" unicode="&#x63a;" horiz-adv-x="492" arabic-form="isolated" 
d="M269 580q-23 0 -38.5 16t-15.5 38q0 23 16 39t38 16q23 0 39 -16t16 -39q0 -22 -16 -38t-39 -16zM283 -320q-134 0 -201 52.5t-67 136.5q0 71 44 119t127 61q-56 17 -94 69t-38 125q0 109 67.5 173.5t187.5 64.5q28 0 55.5 -3t41.5 -6l13 -3l-15 -74q-42 14 -100 14
q-73 0 -115 -43t-42 -118q0 -78 55.5 -126.5t166.5 -48.5h70v-73h-130q-201 0 -201 -127q0 -54 46.5 -87t137.5 -33q36 0 75.5 3.5t60.5 7.5l21 4l6 -70q-82 -18 -172 -18z" />
    <glyph glyph-name="feh.isol" unicode="&#x641;" horiz-adv-x="922" arabic-form="isolated" 
d="M640 579q-22 0 -38 15.5t-16 38.5t16 39t38 16q23 0 39 -16t16 -39q0 -22 -16 -38t-39 -16zM869 248q0 -107 -67 -177.5t-176 -70.5h-213q-185 0 -268 72.5t-83 218.5q0 95 33 166l98 17q-38 -78 -38 -172q0 -118 58 -173.5t200 -55.5h55q-64 46 -64 164q0 105 66 174.5
t176 69.5q102 0 162.5 -56.5t60.5 -176.5zM776 243q0 80 -35 122.5t-103 42.5q-59 0 -100 -42t-41 -123q0 -82 36 -126t104 -44q60 0 99.5 43.5t39.5 126.5z" />
    <glyph glyph-name="qaf.isol" unicode="&#x642;" horiz-adv-x="881" arabic-form="isolated" 
d="M794 446v-684q-164 -13 -302 -13q-230 0 -332 72t-102 231q0 94 25 186l95 18q-28 -97 -28 -194q0 -130 80.5 -185t273.5 -55q44 0 94 2t78 4l28 2v170h-101q-262 0 -262 233q0 106 65 177t187 71q49 0 99 -8.5t76 -17.5zM704 73v312q-49 23 -121 23q-69 0 -109 -45
t-40 -120q0 -87 43.5 -128.5t138.5 -41.5h88zM659 562q-23 0 -38.5 15.5t-15.5 38.5q0 22 16 37.5t38 15.5t37 -15.5t15 -37.5q0 -23 -15 -38.5t-37 -15.5zM511 562q-23 0 -38 15.5t-15 38.5q0 22 15.5 37.5t37.5 15.5t37.5 -15.5t15.5 -37.5t-15.5 -38t-37.5 -16z" />
    <glyph glyph-name="kaf.isol" unicode="&#x643;" horiz-adv-x="851" arabic-form="isolated" 
d="M413 0q-185 0 -268 72.5t-83 218.5q0 95 33 166l98 17q-38 -78 -38 -172q0 -119 59 -174t210 -55h240v632h92v-705h-343zM311 408v57q42 0 69 -5q-27 12 -27 48q0 41 31.5 70t95.5 29q32 0 54 -4l-9 -56q-36 4 -48 4q-56 0 -56 -41q0 -45 78 -45h54v-57h-242z" />
    <glyph glyph-name="lam.isol" unicode="&#x644;" horiz-adv-x="643" arabic-form="isolated" 
d="M459 51v654h92v-645q0 -148 -66.5 -219.5t-180.5 -71.5q-112 0 -179 67t-67 212q0 98 25 190l95 18q-28 -97 -28 -199q0 -117 46.5 -166t116.5 -49q146 0 146 209z" />
    <glyph glyph-name="meem.isol" unicode="&#x645;" horiz-adv-x="799" arabic-form="isolated" 
d="M714 0h-202q-251 0 -262 211h-28q-53 0 -72 -34.5t-6 -110.5l52 -326h-90l-51 318q-16 105 25.5 165.5t145.5 60.5h28q15 87 78.5 142t167.5 55q106 0 160 -58t54 -166v-257zM624 73v168q0 167 -132 167q-69 0 -109 -45t-40 -121q0 -86 43.5 -127.5t138.5 -41.5h99z" />
    <glyph glyph-name="noon.isol" unicode="&#x646;" horiz-adv-x="658" arabic-form="isolated" 
d="M313 373q-23 0 -38.5 15.5t-15.5 38.5t16 39t38 16q23 0 39 -16t16 -39q0 -22 -16 -38t-39 -16zM571 470v-419q0 -282 -264 -282q-112 0 -180.5 67t-68.5 212q0 98 25 190l95 18q-28 -97 -28 -199q0 -117 48 -166t118 -49q163 0 163 203v425h92z" />
    <glyph glyph-name="heh.isol" unicode="&#x647;" horiz-adv-x="594" arabic-form="isolated" 
d="M509 0h-202q-262 0 -262 233q0 106 65.5 177t184.5 71q106 0 160 -58t54 -166v-257zM419 73v168q0 167 -132 167q-69 0 -109 -45t-40 -121q0 -86 43.5 -127.5t138.5 -41.5h99z" />
    <glyph glyph-name="waw.isol" unicode="&#x648;" horiz-adv-x="585" arabic-form="isolated" 
d="M207 -253q-34 0 -73 3.5t-61 7.5l-22 4l6 77q84 -19 160 -19q191 0 191 156v24h-101q-262 0 -262 233q0 106 65 177t187 71q49 0 99 -8.5t76 -17.5l26 -9v-465q0 -46 -16 -86.5t-48.5 -74.5t-91 -53.5t-135.5 -19.5zM408 73v312q-49 23 -121 23q-69 0 -109 -45t-40 -120
q0 -87 43.5 -128.5t138.5 -41.5h88z" />
    <glyph glyph-name="alefmaksura.isol" unicode="&#x649;" horiz-adv-x="1000" arabic-form="isolated" 
d="M599 0h-186q-185 0 -268 72.5t-83 218.5q0 95 33 166l98 17q-38 -78 -38 -172q0 -119 59 -174t210 -55h85v389q88 19 183 19q120 0 171.5 -55.5t51.5 -163.5v-134h-90v122q0 85 -33 121.5t-109 36.5q-18 0 -39 -2t-33 -4l-12 -2v-400z" />
    <glyph glyph-name="yeh.isol" unicode="&#x64a;" horiz-adv-x="1000" arabic-form="isolated" 
d="M523 -149q0 -23 -15 -38.5t-37 -15.5q-23 0 -38.5 15.5t-15.5 38.5q0 22 16 37.5t38 15.5t37 -15.5t15 -37.5zM376 -149q0 -22 -15.5 -38t-37.5 -16q-23 0 -38 15.5t-15 38.5q0 22 15.5 37.5t37.5 15.5t37.5 -15.5t15.5 -37.5zM599 0h-186q-185 0 -268 72.5t-83 218.5
q0 95 33 166l98 17q-38 -78 -38 -172q0 -119 59 -174t210 -55h85v389q88 19 183 19q120 0 171.5 -55.5t51.5 -163.5v-134h-90v122q0 85 -33 121.5t-109 36.5q-18 0 -39 -2t-33 -4l-12 -2v-400z" />
    <glyph glyph-name="fathatan" unicode="&#xfe70;" horiz-adv-x="0" arabic-form="isolated" 
d="M-112 0v51l224 32v-51zM-111 94v51l224 32v-51z" />
    <glyph glyph-name="dammatan" unicode="&#xfe72;" horiz-adv-x="0" arabic-form="isolated" 
d="M-113 0l-28 134l46 10l21 -92l53 11q-6 23 -6 43q0 38 26.5 63t65.5 25q35 0 56 -20.5t21 -51.5q0 -68 -80 -85zM27 73l30 6q17 4 27 15t10 25q0 31 -32 31q-19 0 -30.5 -12t-11.5 -30q0 -8 2 -16.5t4 -13.5z" />
    <glyph glyph-name="kasratan" unicode="&#xfe74;" horiz-adv-x="0" arabic-form="isolated" 
d="M-112 -177v51l224 32v-51zM-111 -83v51l224 32v-51z" />
    <glyph glyph-name="fatha" unicode="&#xfe76;" horiz-adv-x="0" arabic-form="isolated" 
d="M-112 0v56l224 32v-56z" />
    <glyph glyph-name="damma" unicode="&#xfe78;" horiz-adv-x="0" arabic-form="isolated" 
d="M-111 0l-9 41l78 17q-6 23 -6 43q0 38 26.5 63t65.5 25q35 0 56 -20.5t21 -51.5q0 -68 -80 -85zM6 68l30 6q17 4 27 15t10 25q0 31 -32 31q-19 0 -30.5 -12t-11.5 -30q0 -8 1.5 -16.5t3.5 -13.5z" />
    <glyph glyph-name="kasra" unicode="&#xfe7a;" horiz-adv-x="0" arabic-form="isolated" 
d="M-112 -88v56l224 32v-56z" />
    <glyph glyph-name="shadda" unicode="&#xfe7c;" horiz-adv-x="0" arabic-form="isolated" 
d="M1 35q-20 -35 -66 -35q-50 0 -60 64l-7 52l48 7l7 -50q5 -29 25 -29q15 1 23 11.5t6 26.5l-8 51l48 7l8 -52q6 -30 29 -30q33 0 28 45l-8 53l48 7l8 -51q7 -42 -14.5 -70t-67.5 -28q-31 0 -47 21z" />
    <glyph glyph-name="sukun" unicode="&#xfe7e;" horiz-adv-x="0" arabic-form="isolated" 
d="M-39 80q0 -17 11.5 -27.5t28.5 -10.5t27 11t10 29q0 17 -11 27.5t-28 10.5q-16 0 -27 -11.5t-11 -28.5zM-89 80q0 35 26.5 58.5t63.5 23.5q39 0 63.5 -21t24.5 -59q0 -35 -26.5 -58.5t-63.5 -23.5q-39 0 -63.5 21t-24.5 59z" />
    <glyph glyph-name="alef_wasla.isol" unicode="&#x671;" horiz-adv-x="282" arabic-form="isolated" 
d="M187 696v-696h-92v696h92zM91 820h123v13q0 75 -42 75q-30 0 -50.5 -25t-30.5 -63zM-22 767v53h54q19 63 56 101.5t93 38.5q48 0 72 -29.5t24 -96.5v-67h-299z" />
    <glyph glyph-name="tteh.isol" unicode="&#x679;" horiz-adv-x="773" arabic-form="isolated" 
d="M686 0h-273q-185 0 -268 72.5t-83 218.5q0 95 33 166l98 17q-38 -78 -38 -172q0 -119 59 -174t210 -55h170v397h92v-470zM496 660q0 54 -43 54q-38 0 -71.5 -38.5t-38.5 -82.5h73q80 0 80 67zM344 830v-83q0 -26 -7 -63h1q20 34 53.5 55.5t69.5 21.5q45 0 70 -24.5
t25 -69.5q0 -56 -38 -88t-110 -32h-122v283h58z" />
    <glyph glyph-name="peh.isol" unicode="&#x67e;" horiz-adv-x="773" arabic-form="isolated" 
d="M415 -271q-20 0 -34.5 14t-14.5 34q0 21 14.5 35t34.5 14t34.5 -14t14.5 -35q0 -20 -14.5 -34t-34.5 -14zM488 -163q-21 0 -36 14.5t-15 36.5q0 21 15 35.5t36 14.5t35.5 -14t14.5 -36q0 -21 -14.5 -36t-35.5 -15zM342 -163q-21 0 -35.5 14.5t-14.5 36.5q0 21 14.5 35.5
t35.5 14.5t35.5 -14t14.5 -36q0 -21 -14.5 -36t-35.5 -15zM686 0h-273q-185 0 -268 72.5t-83 218.5q0 95 33 166l98 17q-38 -78 -38 -172q0 -119 59 -174t210 -55h170v397h92v-470z" />
    <glyph glyph-name="tcheh.isol" unicode="&#x686;" horiz-adv-x="602" arabic-form="isolated" 
d="M519 0h-194q-119 0 -166 -33.5t-47 -92.5q0 -45 33 -75.5t95 -40.5l-19 -75q-93 14 -146.5 62t-53.5 122q0 95 74 150.5t235 55.5h107q7 61 7 103q0 117 -49.5 171t-169.5 54q-59 0 -111 -7v72q53 8 119 8q161 0 231.5 -72t70.5 -219q0 -87 -16 -183zM380 -270
q-20 0 -34.5 14t-14.5 34q0 21 14.5 35t34.5 14t34.5 -14t14.5 -35q0 -20 -14.5 -34t-34.5 -14zM453 -162q-21 0 -36 14.5t-15 36.5q0 21 15 35.5t36 14.5t35.5 -14t14.5 -36q0 -21 -14.5 -36t-35.5 -15zM307 -162q-21 0 -35.5 14.5t-14.5 36.5q0 21 14.5 35.5t35.5 14.5
t35.5 -14t14.5 -36q0 -21 -14.5 -36t-35.5 -15z" />
    <glyph glyph-name="ddal.isol" unicode="&#x688;" horiz-adv-x="527" arabic-form="isolated" 
d="M52 0v73h321q-2 138 -61 218.5t-191 120.5l23 78q166 -51 243 -153t77 -287v-50h-412zM330 690q0 54 -43 54q-38 0 -71.5 -38.5t-38.5 -82.5h73q80 0 80 67zM178 860v-83q0 -26 -7 -63h1q20 34 53.5 55.5t69.5 21.5q45 0 70 -24.5t25 -69.5q0 -56 -38 -88t-110 -32h-122
v283h58z" />
    <glyph glyph-name="uni0691" unicode="&#x691;" horiz-adv-x="409" arabic-form="isolated" 
d="M90 -257q-52 0 -104 14l11 76q46 -17 100 -17q66 0 99.5 38.5t33.5 132.5v483h92v-475q0 -252 -232 -252zM350 690q0 54 -43 54q-38 0 -71.5 -38.5t-38.5 -82.5h73q80 0 80 67zM198 860v-83q0 -26 -7 -63h1q20 34 53.5 55.5t69.5 21.5q45 0 70 -24.5t25 -69.5
q0 -56 -38 -88t-110 -32h-122v283h58z" />
    <glyph glyph-name="uni0698" unicode="&#x698;" horiz-adv-x="409" arabic-form="isolated" 
d="M269 681q-22 0 -36.5 14.5t-14.5 36.5t14.5 37t36.5 15q21 0 35.5 -15t14.5 -37q0 -21 -14.5 -36t-35.5 -15zM343 562q-23 0 -38 15.5t-15 38.5q0 22 15.5 37.5t37.5 15.5t37.5 -15.5t15.5 -37.5t-15.5 -38t-37.5 -16zM195 562q-23 0 -38 15.5t-15 38.5q0 22 15.5 37.5
t37.5 15.5q23 0 38 -15.5t15 -37.5q0 -23 -15.5 -38.5t-37.5 -15.5zM90 -257q-52 0 -104 14l11 76q46 -17 100 -17q66 0 99.5 38.5t33.5 132.5v483h92v-475q0 -252 -232 -252z" />
    <glyph glyph-name="veh.isol" unicode="&#x6a4;" horiz-adv-x="922" arabic-form="isolated" 
d="M640 681q-22 0 -36.5 14.5t-14.5 36.5t14.5 37t36.5 15q21 0 35.5 -15t14.5 -37q0 -21 -14.5 -36t-35.5 -15zM714 562q-23 0 -38 15.5t-15 38.5q0 22 15.5 37.5t37.5 15.5t37.5 -15.5t15.5 -37.5t-15.5 -38t-37.5 -16zM566 562q-23 0 -38 15.5t-15 38.5q0 22 15.5 37.5
t37.5 15.5t37.5 -15.5t15.5 -37.5q0 -23 -15.5 -38.5t-37.5 -15.5zM869 248q0 -107 -67 -177.5t-176 -70.5h-213q-185 0 -268 72.5t-83 218.5q0 95 33 166l98 17q-38 -78 -38 -172q0 -118 58 -173.5t200 -55.5h55q-64 46 -64 164q0 105 66 174.5t176 69.5q102 0 162.5 -56.5
t60.5 -176.5zM776 243q0 80 -35 122.5t-103 42.5q-59 0 -100 -42t-41 -123q0 -82 36 -126t104 -44q60 0 99.5 43.5t39.5 126.5z" />
    <glyph glyph-name="kheh.isol" unicode="&#x6a9;" horiz-adv-x="847" arabic-form="isolated" 
d="M770 0h-357q-185 0 -268 72.5t-83 218.5q0 95 33 166l98 17q-38 -78 -38 -172q0 -119 59 -174t210 -55h255q-2 144 -65 224t-197 118v68l379 238v-93l-272 -167q123 -51 184.5 -146t61.5 -264v-51z" />
    <glyph glyph-name="Gaf.isol" unicode="&#x6af;" horiz-adv-x="847" arabic-form="isolated" 
d="M770 0h-357q-185 0 -268 72.5t-83 218.5q0 95 33 166l98 17q-38 -78 -38 -172q0 -119 59 -174t210 -55h255q-2 144 -65 224t-197 118v62l379 238v-87l-272 -167q123 -51 184.5 -146t61.5 -264v-51zM417 566v84l379 238v-84z" />
    <glyph glyph-name="ghunna.isol" unicode="&#x6ba;" horiz-adv-x="658" arabic-form="isolated" 
d="M571 470v-419q0 -282 -264 -282q-112 0 -180.5 67t-68.5 212q0 98 25 190l95 18q-28 -97 -28 -199q0 -117 48 -166t118 -49q163 0 163 203v425h92z" />
    <glyph glyph-name="uni06BE" unicode="&#x6be;" horiz-adv-x="765" arabic-form="isolated" 
d="M692 0h-692v73h112q6 0 11.5 -0.5t10 -0.5t8 -0.5t6.5 -1.5h2q-34 34 -34 82q0 73 47 117t128 44q87 0 130 -55t43 -148v-37h139v20q0 184 -72 266.5t-228 82.5q-107 0 -212 -35l-10 68q117 36 235 36q186 0 281 -99.5t95 -318.5v-93zM384 71v36q0 144 -99 144
q-42 0 -65 -24.5t-23 -64.5q0 -45 30 -68t75 -23h82z" />
    <glyph glyph-name="hehhamza" unicode="&#x6c0;" horiz-adv-x="594" arabic-form="isolated" 
d="M509 0h-202q-262 0 -262 233q0 106 65.5 177t184.5 71q106 0 160 -58t54 -166v-257zM419 73v168q0 167 -132 167q-69 0 -109 -45t-40 -121q0 -86 43.5 -127.5t138.5 -41.5h99zM153 566v57q42 0 69 -5q-27 12 -27 48q0 41 31.5 70t95.5 29q32 0 54 -4l-9 -56q-36 4 -48 4
q-56 0 -56 -41q0 -45 78 -45h54v-57h-242z" />
    <glyph glyph-name="uni06C1" unicode="&#x6c1;" horiz-adv-x="594" arabic-form="isolated" 
d="M509 0h-202q-262 0 -262 233q0 106 65.5 177t184.5 71q106 0 160 -58t54 -166v-257zM419 73v168q0 167 -132 167q-69 0 -109 -45t-40 -121q0 -86 43.5 -127.5t138.5 -41.5h99z" />
    <glyph glyph-name="uni06CC" unicode="&#x6cc;" horiz-adv-x="1057" arabic-form="isolated" 
d="M599 0h-186q-185 0 -268 72.5t-83 218.5q0 95 33 166l98 17q-38 -78 -38 -172q0 -119 59 -174t210 -55h85v389q88 19 183 19q120 0 171.5 -55.5t51.5 -163.5v-134h-90v122q0 85 -33 121.5t-109 36.5q-18 0 -39 -2t-33 -4l-12 -2v-400z" />
    <glyph glyph-name="yehbarree" unicode="&#x6d2;" horiz-adv-x="750" arabic-form="isolated" 
d="M688 0h-613q-11 117 26.5 228t115.5 182t175 71q159 0 159 -166v-65h-90v43q0 58 -19 86t-66 28q-58 0 -108.5 -54t-77 -130.5t-26.5 -149.5h524v-73z" />
    <glyph glyph-name="uni06D3" unicode="&#x6d3;" horiz-adv-x="750" arabic-form="isolated" 
d="M688 0h-613q-11 117 26.5 228t115.5 182t175 71q159 0 159 -166v-65h-90v43q0 58 -19 86t-66 28q-58 0 -108.5 -54t-77 -130.5t-26.5 -149.5h524v-73zM195 566v57q42 0 69 -5q-27 12 -27 48q0 41 31.5 70t95.5 29q32 0 54 -4l-9 -56q-36 4 -48 4q-56 0 -56 -41
q0 -45 78 -45h54v-57h-242z" />
    <glyph glyph-name="alef_wasla.fina" unicode="&#x671;" horiz-adv-x="282" arabic-form="final" 
d="M95 0v696h92v-623h110v-73h-202zM91 820h123v13q0 75 -42 75q-30 0 -50.5 -25t-30.5 -63zM-22 767v53h54q19 63 56 101.5t93 38.5q48 0 72 -29.5t24 -96.5v-67h-299z" />
    <glyph glyph-name="peh.fina" unicode="&#x67e;" horiz-adv-x="782" arabic-form="final" 
d="M413 0q-185 0 -268 72.5t-83 218.5q0 95 33 166l98 17q-38 -78 -38 -172q0 -119 59 -174t210 -55h170v397h92v-397h110v-73h-383zM488 -163q-21 0 -36 14.5t-15 36.5q0 21 15 35.5t36 14.5t35.5 -14t14.5 -36q0 -21 -14.5 -36t-35.5 -15zM342 -163q-21 0 -35.5 14.5
t-14.5 36.5q0 21 14.5 35.5t35.5 14.5t35.5 -14t14.5 -36q0 -21 -14.5 -36t-35.5 -15zM415 -271q-20 0 -34.5 14t-14.5 34q0 21 14.5 35t34.5 14t34.5 -14t14.5 -35q0 -20 -14.5 -34t-34.5 -14z" />
    <glyph glyph-name="peh.init" unicode="&#x67e;" horiz-adv-x="380" arabic-form="initial" 
d="M176 -271q-20 0 -34.5 14t-14.5 34q0 21 14.5 35t34.5 14t34.5 -14t14.5 -35q0 -20 -14.5 -34t-34.5 -14zM249 -163q-21 0 -36 14.5t-15 36.5q0 21 15 35.5t36 14.5t35.5 -14t14.5 -36q0 -21 -14.5 -36t-35.5 -15zM103 -163q-21 0 -35.5 14.5t-14.5 36.5q0 21 14.5 35.5
t35.5 14.5t35.5 -14t14.5 -36q0 -21 -14.5 -36t-35.5 -15zM0 0v73h201v397h92v-470h-293z" />
    <glyph glyph-name="peh.medi" unicode="&#x67e;" horiz-adv-x="389" arabic-form="medial" 
d="M0 0v73h201v397h92v-397h110v-73h-403zM249 -163q-21 0 -36 14.5t-15 36.5q0 21 15 35.5t36 14.5t35.5 -14t14.5 -36q0 -21 -14.5 -36t-35.5 -15zM103 -163q-21 0 -35.5 14.5t-14.5 36.5q0 21 14.5 35.5t35.5 14.5t35.5 -14t14.5 -36q0 -21 -14.5 -36t-35.5 -15z
M176 -271q-20 0 -34.5 14t-14.5 34q0 21 14.5 35t34.5 14t34.5 -14t14.5 -35q0 -20 -14.5 -34t-34.5 -14z" />
    <glyph glyph-name="uniFB67" unicode="&#x679;" horiz-adv-x="782" arabic-form="final" 
d="M413 0q-185 0 -268 72.5t-83 218.5q0 95 33 166l98 17q-38 -78 -38 -172q0 -119 59 -174t210 -55h170v397h92v-397h110v-73h-383zM344 830v-83q0 -26 -7 -63h1q20 34 53.5 55.5t69.5 21.5q45 0 70 -24.5t25 -69.5q0 -56 -38 -88t-110 -32h-122v283h58zM496 660
q0 54 -43 54q-38 0 -71.5 -38.5t-38.5 -82.5h73q80 0 80 67z" />
    <glyph glyph-name="uniFB68" unicode="&#x679;" horiz-adv-x="380" arabic-form="initial" 
d="M0 0v73h201v397h92v-470h-293zM277 690q0 54 -43 54q-38 0 -71.5 -38.5t-38.5 -82.5h73q80 0 80 67zM125 860v-83q0 -26 -7 -63h1q20 34 53.5 55.5t69.5 21.5q46 0 70.5 -24.5t24.5 -69.5q0 -56 -38 -88t-110 -32h-122v283h58z" />
    <glyph glyph-name="uniFB69" unicode="&#x679;" horiz-adv-x="389" arabic-form="medial" 
d="M0 0v73h201v397h92v-397h110v-73h-403zM125 860v-83q0 -26 -7 -63h1q20 34 53.5 55.5t69.5 21.5q46 0 70.5 -24.5t24.5 -69.5q0 -56 -38 -88t-110 -32h-122v283h58zM277 690q0 54 -43 54q-38 0 -71.5 -38.5t-38.5 -82.5h73q80 0 80 67z" />
    <glyph glyph-name="veh.fina" unicode="&#x6a4;" horiz-adv-x="932" arabic-form="final" 
d="M640 681q-22 0 -36.5 14.5t-14.5 36.5t14.5 37t36.5 15q21 0 35.5 -15t14.5 -37q0 -21 -14.5 -36t-35.5 -15zM714 562q-23 0 -38 15.5t-15 38.5q0 22 15.5 37.5t37.5 15.5t37.5 -15.5t15.5 -37.5t-15.5 -38t-37.5 -16zM566 562q-23 0 -38 15.5t-15 38.5q0 22 15.5 37.5
t37.5 15.5t37.5 -15.5t15.5 -37.5q0 -23 -15.5 -38.5t-37.5 -15.5zM947 73v-73h-534q-185 0 -268 72.5t-83 218.5q0 95 33 166l98 17q-38 -78 -38 -172q0 -118 58 -173.5t200 -55.5h55q-64 46 -64 164q0 105 66 174.5t176 69.5q102 0 162.5 -56.5t60.5 -175.5
q0 -55 -20.5 -103.5t-57.5 -75.5q51 3 87 3h69zM776 243q0 80 -35 122.5t-103 42.5q-59 0 -100 -42t-41 -123q0 -82 36 -126t104 -44q60 0 99.5 43.5t39.5 126.5z" />
    <glyph glyph-name="veh.init" unicode="&#x6a4;" horiz-adv-x="612" arabic-form="initial" 
d="M302 681q-22 0 -36.5 14.5t-14.5 36.5t14.5 37t36.5 15q21 0 35.5 -15t14.5 -37q0 -21 -14.5 -36t-35.5 -15zM376 562q-23 0 -38 15.5t-15 38.5q0 22 15.5 37.5t37.5 15.5t37.5 -15.5t15.5 -37.5t-15.5 -38t-37.5 -16zM228 562q-23 0 -38 15.5t-15 38.5q0 22 15.5 37.5
t37.5 15.5t37.5 -15.5t15.5 -37.5q0 -23 -15.5 -38.5t-37.5 -15.5zM527 0h-527v73h79l58 -5q-74 47 -74 169q0 103 65.5 173.5t184.5 70.5q106 0 160 -58t54 -166v-257zM437 73v168q0 167 -132 167q-69 0 -109 -45t-40 -121q0 -86 43.5 -127.5t138.5 -41.5h99z" />
    <glyph glyph-name="veh.medi" unicode="&#x6a4;" horiz-adv-x="591" arabic-form="medial" 
d="M299 681q-22 0 -36.5 14.5t-14.5 36.5t14.5 37t36.5 15q21 0 35.5 -15t14.5 -37q0 -21 -14.5 -36t-35.5 -15zM373 562q-23 0 -38 15.5t-15 38.5q0 22 15.5 37.5t37.5 15.5t37.5 -15.5t15.5 -37.5t-15.5 -38t-37.5 -16zM225 562q-23 0 -38 15.5t-15 38.5q0 22 15.5 37.5
t37.5 15.5q23 0 38 -15.5t15 -37.5q0 -23 -15.5 -38.5t-37.5 -15.5zM0 0v73h58l71 -3q-66 49 -66 167q0 105 66 174.5t176 69.5q102 0 162.5 -56.5t60.5 -175.5q0 -55 -20.5 -103.5t-57.5 -75.5q51 3 87 3h69v-73h-606zM296 73q60 0 99.5 43.5t39.5 126.5q0 80 -35 122.5
t-103 42.5q-59 0 -100 -42t-41 -122q0 -83 36 -127t104 -44z" />
    <glyph glyph-name="tcheh.fina" unicode="&#x686;" horiz-adv-x="607" arabic-form="final" 
d="M622 0h-297q-119 0 -166 -33.5t-47 -92.5q0 -45 33 -75.5t95 -40.5l-19 -75q-93 14 -146.5 62t-53.5 122q0 95 74 150.5t235 55.5h107q7 61 7 103q0 117 -49.5 171t-169.5 54q-59 0 -111 -7v72q53 8 119 8q161 0 231.5 -72t70.5 -219q0 -47 -6 -110h93v-73zM453 -162
q-21 0 -36 14.5t-15 36.5q0 21 15 35.5t36 14.5t35.5 -14t14.5 -36q0 -21 -14.5 -36t-35.5 -15zM307 -162q-21 0 -35.5 14.5t-14.5 36.5q0 21 14.5 35.5t35.5 14.5t35.5 -14t14.5 -36q0 -21 -14.5 -36t-35.5 -15zM380 -270q-20 0 -34.5 14t-14.5 34q0 21 14.5 35t34.5 14
t34.5 -14t14.5 -35q0 -20 -14.5 -34t-34.5 -14z" />
    <glyph glyph-name="tcheh.init" unicode="&#x686;" horiz-adv-x="578" arabic-form="initial" 
d="M237 -270q-20 0 -34.5 14t-14.5 34q0 21 14.5 35t34.5 14t34.5 -14t14.5 -35q0 -20 -14.5 -34t-34.5 -14zM310 -162q-21 0 -36 14.5t-15 36.5q0 21 15 35.5t36 14.5t35.5 -14t14.5 -36q0 -21 -14.5 -36t-35.5 -15zM164 -162q-21 0 -35.5 14.5t-14.5 36.5q0 21 14.5 35.5
t35.5 14.5t35.5 -14t14.5 -36q0 -21 -14.5 -36t-35.5 -15zM0 0v73h413q7 61 7 103q0 117 -49.5 171t-169.5 54q-59 0 -111 -7v72q53 8 119 8q161 0 231.5 -72t70.5 -219q0 -87 -16 -183h-495z" />
    <glyph glyph-name="tcheh.medi" unicode="&#x686;" horiz-adv-x="582" arabic-form="medial" 
d="M0 0v73h413q7 61 7 103q0 117 -49.5 171t-169.5 54q-59 0 -111 -7v72q53 8 119 8q161 0 231.5 -72t70.5 -219q0 -47 -6 -110h92v-73h-597zM310 -162q-21 0 -36 14.5t-15 36.5q0 21 15 35.5t36 14.5t35.5 -14t14.5 -36q0 -21 -14.5 -36t-35.5 -15zM164 -162
q-21 0 -35.5 14.5t-14.5 36.5q0 21 14.5 35.5t35.5 14.5t35.5 -14t14.5 -36q0 -21 -14.5 -36t-35.5 -15zM237 -270q-20 0 -34.5 14t-14.5 34q0 21 14.5 35t34.5 14t34.5 -14t14.5 -35q0 -20 -14.5 -34t-34.5 -14z" />
    <glyph glyph-name="ddal.fina" unicode="&#x688;" horiz-adv-x="527" arabic-form="final" 
d="M52 0v73h321q-2 138 -61 218.5t-191 120.5l23 78q161 -50 238.5 -147t81.5 -270h77v-73h-489zM178 860v-83q0 -26 -7 -63h1q20 34 53.5 55.5t69.5 21.5q45 0 70 -24.5t25 -69.5q0 -56 -38 -88t-110 -32h-122v283h58zM330 690q0 54 -43 54q-38 0 -71.5 -38.5t-38.5 -82.5
h73q80 0 80 67z" />
    <glyph glyph-name="uniFB8B" unicode="&#x698;" horiz-adv-x="418" arabic-form="final" 
d="M90 -257q-52 0 -104 14l11 76q46 -17 100 -17q66 0 99.5 38.5t33.5 132.5v483h92v-397h111v-73h-111v-5q0 -252 -232 -252zM195 562q-23 0 -38 15.5t-15 38.5q0 22 15.5 37.5t37.5 15.5q23 0 38 -15.5t15 -37.5q0 -23 -15.5 -38.5t-37.5 -15.5zM343 562q-23 0 -38 15.5
t-15 38.5q0 22 15.5 37.5t37.5 15.5t37.5 -15.5t15.5 -37.5t-15.5 -38t-37.5 -16zM269 681q-22 0 -36.5 14.5t-14.5 36.5t14.5 37t36.5 15q21 0 35.5 -15t14.5 -37q0 -21 -14.5 -36t-35.5 -15z" />
    <glyph glyph-name="uniFB8D" unicode="&#x691;" horiz-adv-x="418" arabic-form="final" 
d="M90 -257q-52 0 -104 14l11 76q46 -17 100 -17q66 0 99.5 38.5t33.5 132.5v483h92v-397h111v-73h-111v-5q0 -252 -232 -252zM198 860v-83q0 -26 -7 -63h1q20 34 53.5 55.5t69.5 21.5q45 0 70 -24.5t25 -69.5q0 -56 -38 -88t-110 -32h-122v283h58zM350 690q0 54 -43 54
q-38 0 -71.5 -38.5t-38.5 -82.5h73q80 0 80 67z" />
    <glyph glyph-name="kheh.fina" unicode="&#x6a9;" horiz-adv-x="847" arabic-form="final" 
d="M862 0h-449q-185 0 -268 72.5t-83 218.5q0 95 33 166l98 17q-38 -78 -38 -172q0 -119 59 -174t210 -55h255q-2 144 -65 224t-197 118v68l379 238v-93l-272 -167q119 -49 180.5 -139.5t65.5 -248.5h92v-73z" />
    <glyph glyph-name="kheh.init" unicode="&#x6a9;" horiz-adv-x="489" arabic-form="initial" 
d="M0 0v73h321q-2 144 -65 224t-197 118v68l379 238v-93l-272 -167q81 -33 133.5 -82.5t82.5 -131t30 -196.5v-51h-412z" />
    <glyph glyph-name="kheh.medi" unicode="&#x6a9;" horiz-adv-x="489" arabic-form="medial" 
d="M0 0v73h321q-2 144 -65 224t-197 118v68l379 238v-93l-272 -167q119 -49 180.5 -139.5t65.5 -248.5h92v-73h-504z" />
    <glyph glyph-name="Gaf.fina" unicode="&#x6af;" horiz-adv-x="847" arabic-form="final" 
d="M862 0h-449q-185 0 -268 72.5t-83 218.5q0 95 33 166l98 17q-38 -78 -38 -172q0 -119 59 -174t210 -55h255q-2 144 -65 224t-197 118v62l379 238v-87l-272 -167q119 -49 180.5 -139.5t65.5 -248.5h92v-73zM417 566v84l379 238v-84z" />
    <glyph glyph-name="Gaf.init" unicode="&#x6af;" horiz-adv-x="489" arabic-form="initial" 
d="M0 0v73h321q-2 144 -65 224t-197 118v62l379 238v-87l-272 -167q81 -33 133.5 -82.5t82.5 -131t30 -196.5v-51h-412zM59 566v84l379 238v-84z" />
    <glyph glyph-name="Gaf.medi" unicode="&#x6af;" horiz-adv-x="489" arabic-form="medial" 
d="M0 0v73h321q-2 144 -65 224t-197 118v62l379 238v-87l-272 -167q119 -49 180.5 -139.5t65.5 -248.5h92v-73h-504zM59 566v84l379 238v-84z" />
    <glyph glyph-name="ghunna.fina" unicode="&#x6ba;" horiz-adv-x="667" arabic-form="final" 
d="M571 470v-397h111v-73h-114q-22 -231 -261 -231q-112 0 -180.5 67t-68.5 212q0 98 25 190l95 18q-28 -97 -28 -199q0 -117 48 -166t118 -49q163 0 163 203v425h92z" />
    <glyph glyph-name="hehhamza.fina" unicode="&#x6c0;" horiz-adv-x="594" arabic-form="final" 
d="M609 0h-302q-262 0 -262 233q0 106 65 177t187 71q49 0 99 -8.5t76 -17.5l26 -9v-373h111v-73zM408 73v312q-49 23 -121 23q-69 0 -109 -45t-40 -120q0 -87 43.5 -128.5t138.5 -41.5h88zM153 566v57q42 0 69 -5q-27 12 -27 48q0 41 31.5 70t95.5 29q32 0 54 -4l-9 -56
q-36 4 -48 4q-56 0 -56 -41q0 -45 78 -45h54v-57h-242z" />
    <glyph glyph-name="hehfinaltone" unicode="&#x6c1;" horiz-adv-x="557" arabic-form="final" 
d="M572 73v-73h-26q-110 0 -163.5 53t-53.5 163v48q-133 -23 -219 -160l-61 49q131 193 339 193l31 -1v-110q0 -87 31.5 -124.5t103.5 -37.5h18z" />
    <glyph glyph-name="hehinitialaltone" unicode="&#x6c1;" horiz-adv-x="326" arabic-form="initial" 
d="M110 -240q-23 0 -37 16.5t-14 40.5q0 76 109 134l23 -34q-46 -34 -46 -67q0 -11 6 -22.5t6 -21.5q0 -19 -12.5 -32.5t-34.5 -13.5zM0 0v73h146v397h92v-470h-238z" />
    <glyph glyph-name="hehmedialaltone" unicode="&#x6c1;" horiz-adv-x="705" arabic-form="medial" 
d="M720 73v-73h-127v-261h-88q-132 0 -206.5 69.5t-74.5 196.5q0 59 9 107l-2 1q-21 -53 -65.5 -83t-104.5 -30h-61v73h72q68 0 109.5 56t41.5 142v99h89v-347q0 -210 191 -212v262h217zM95 -263q-24 0 -38.5 17.5t-14.5 43.5q0 70 90 144l30 -30q-39 -39 -39 -71
q0 -13 9.5 -28t9.5 -29q0 -19 -13.5 -33t-33.5 -14z" />
    <glyph glyph-name="uniFBAB" unicode="&#x6be;" horiz-adv-x="661" arabic-form="final" 
d="M676 73v-73h-124q-15 0 -73 4v-1q47 -14 74 -48.5t27 -85.5q0 -88 -55 -138.5t-150 -50.5q-123 0 -187.5 84t-71.5 236h-116v73h116q6 129 61 240.5t157 182.5q226 -126 226 -274q0 -57 -22 -96t-59 -55v-1q42 3 74 3h123zM339 388q-58 -51 -93.5 -134.5t-39.5 -180.5
h112q81 0 116.5 38t35.5 98q0 96 -131 179zM307 0h-100q15 -247 175 -247q51 0 78.5 30t27.5 81q0 60 -48.5 98t-132.5 38z" />
    <glyph glyph-name="yehbarree.fina" unicode="&#x6d2;" horiz-adv-x="781" arabic-form="final" 
d="M688 -320h-613q-9 105 29.5 193t127.5 144t214 56h350v-73h-362q-67 0 -120.5 -23t-85 -60t-48 -79.5t-16.5 -84.5h524v-73z" />
    <glyph glyph-name="uniFBB1" unicode="&#x6d3;" horiz-adv-x="781" arabic-form="final" 
d="M688 -320h-613q-9 105 29.5 193t127.5 144t214 56h350v-73h-362q-67 0 -120.5 -23t-85 -60t-48 -79.5t-16.5 -84.5h524v-73zM207 169v57q42 0 69 -5q-27 12 -27 48q0 41 31.5 70t95.5 29q32 0 54 -4l-9 -56q-36 4 -48 4q-56 0 -56 -41q0 -45 78 -45h54v-57h-242z" />
    <glyph glyph-name="alefmaksura.init" unicode="&#x649;" horiz-adv-x="326" arabic-form="initial" 
d="M0 0v73h146v397h92v-470h-238z" />
    <glyph glyph-name="alefmaksura.medi" unicode="&#x649;" horiz-adv-x="334" arabic-form="medial" 
d="M0 0v73h146v397h92v-397h111v-73h-349z" />
    <glyph glyph-name="uniFBFD" unicode="&#x6cc;" horiz-adv-x="576" arabic-form="final" 
d="M386 0v73h205v-73h-89q34 -17 34 -72q0 -62 -57.5 -115.5t-171.5 -53.5q-113 0 -181 69t-68 214q0 104 25 196l95 18q-28 -97 -28 -205q0 -118 47.5 -168.5t119.5 -50.5q64 0 96 31.5t31 70.5q-1 29 -17 47.5t-41 18.5z" />
    <glyph glyph-name="uniFBFE" unicode="&#x6cc;" horiz-adv-x="380" arabic-form="initial" 
d="M285 -149q0 -23 -15 -38.5t-37 -15.5q-23 0 -38.5 15.5t-15.5 38.5q0 22 16 37.5t38 15.5t37 -15.5t15 -37.5zM138 -149q0 -22 -15.5 -38t-37.5 -16q-23 0 -38 15.5t-15 38.5q0 22 15.5 37.5t37.5 15.5t37.5 -15.5t15.5 -37.5zM0 0v73h201v397h92v-470h-293z" />
    <glyph glyph-name="uniFBFF" unicode="&#x6cc;" horiz-adv-x="389" arabic-form="medial" 
d="M0 0v73h201v397h92v-397h110v-73h-403zM138 -149q0 -22 -15.5 -38t-37.5 -16q-23 0 -38 15.5t-15 38.5q0 22 15.5 37.5t37.5 15.5t37.5 -15.5t15.5 -37.5zM285 -149q0 -23 -15 -38.5t-37 -15.5q-23 0 -38.5 15.5t-15.5 38.5q0 22 16 37.5t38 15.5t37 -15.5t15 -37.5z" />
    <glyph glyph-name="shadda_dammatan" unicode="&#xfc5e;" horiz-adv-x="0" arabic-form="isolated" 
d="M-111 139l-26 123l43 9l19 -84l51 10q-6 18 -6 35q0 37 26 61.5t64 24.5q33 0 51 -17t18 -47q0 -67 -77 -83zM20 206l23 5q40 9 40 41q0 25 -28 25q-18 0 -29 -11.5t-11 -30.5zM29 34q-16 -34 -58 -34q-40 0 -53 58l-7 36l41 8l7 -34q6 -25 23 -25q27 0 22 35l-6 36l41 8
l7 -36q6 -27 24 -27q30 0 23 42l-7 37l42 8l6 -36q8 -42 -9.5 -67.5t-58.5 -25.5q-24 0 -37 17z" />
    <glyph glyph-name="shadda_kasratan" unicode="&#xfc5f;" horiz-adv-x="0" arabic-form="isolated" 
d="M-88 72l-8 40l204 32l8 -41zM-77 0l-7 40l204 32l6 -41zM-9 193q-16 -34 -56 -34q-22 0 -35 14t-19 45l-7 36l41 7l7 -34q4 -25 23 -25q27 0 22 35l-5 36l40 8l7 -37q4 -27 24 -27q28 1 23 42l-6 37l41 7l7 -36q7 -41 -11 -66t-57 -26q-26 0 -39 18z" />
    <glyph glyph-name="shadda_fatha" unicode="&#xfc60;" horiz-adv-x="0" arabic-form="isolated" 
d="M-111 160l-8 41l204 31l7 -40zM10 33q-15 -33 -56 -33q-23 0 -35.5 14t-17.5 45l-7 36l41 7l6 -34q6 -25 23 -25q13 0 19 10t3 25l-5 36l40 7l7 -36q6 -27 24 -27q30 1 23 42l-6 37l42 7l6 -36q8 -42 -10 -66.5t-58 -25.5q-25 0 -39 17z" />
    <glyph glyph-name="shadda_damma" unicode="&#xfc61;" horiz-adv-x="0" arabic-form="isolated" 
d="M-116 140l-8 40l88 17q-6 18 -6 35q0 37 26 61.5t64 24.5q33 0 51 -17t18 -47q0 -67 -77 -83zM8 206l23 5q40 9 40 41q0 25 -28 25q-18 0 -29 -11.5t-11 -30.5zM17 34q-16 -34 -58 -34q-40 0 -53 58l-7 36l41 8l7 -34q6 -25 23 -25q27 0 22 35l-6 36l41 8l7 -36
q6 -27 24 -27q30 0 23 42l-7 37l42 8l6 -36q8 -42 -9.5 -67.5t-58.5 -25.5q-24 0 -37 17z" />
    <glyph glyph-name="shadda_kasra" unicode="&#xfc62;" horiz-adv-x="0" arabic-form="isolated" 
d="M-83 0l-7 41l204 31l6 -40zM-2 123q-15 -34 -56 -34q-22 0 -35 14t-19 45l-7 36l42 7l6 -34q6 -25 23 -25q27 0 22 35l-5 36l40 8l7 -37q6 -27 24 -27q30 1 23 42l-6 37l42 7l6 -36q8 -41 -10.5 -66t-57.5 -26q-25 0 -39 18z" />
    <glyph glyph-name="shadda_alefsuperscript" unicode="&#xfc63;" horiz-adv-x="0" arabic-form="isolated" 
d="M4 32q-14 -32 -55 -32q-23 -1 -36 12t-19 43l-7 34l41 8l7 -33q5 -24 23 -24q27 0 22 34l-6 34l40 8l8 -35q5 -26 24 -26q28 1 23 41l-7 35l42 8l6 -35q8 -39 -9.5 -63t-56.5 -25q-24 -2 -40 16zM10 156l-42 -8v93h42v-85z" />
    <glyph glyph-name="alah" unicode="&#xfdf2;" horiz-adv-x="1248" arabic-form="isolated" 
d="M307 0q-262 0 -262 233q0 106 65 177t187 71q49 0 99 -8.5t76 -17.5l26 -9v-373h236v598h92v-598h235v632h92v-705h-846zM408 73v312q-49 23 -121 23q-69 0 -109 -45t-40 -120q0 -87 43.5 -128.5t138.5 -41.5h88z" />
    <glyph glyph-name="alef_madda.fina" unicode="&#x622;" horiz-adv-x="282" arabic-form="final" 
d="M95 0v705h92v-632h110v-73h-202zM17 788l-37 48l89 67q41 -41 94 -41q56 0 105 43v-73q-43 -38 -109 -38q-58 0 -90 32z" />
    <glyph glyph-name="alef_hamza_above.fina" unicode="&#x623;" horiz-adv-x="282" arabic-form="final" 
d="M95 0v696h92v-623h110v-73h-202zM11 767v53q43 0 70 -5q-27 13 -27 48q0 42 31 69.5t95 27.5q32 0 54 -4l-9 -54q-23 5 -49 5t-40.5 -11t-14.5 -30q0 -46 78 -46h54v-53h-242z" />
    <glyph glyph-name="waw_hamza.fina" unicode="&#x624;" horiz-adv-x="594" arabic-form="final" 
d="M207 -253q-34 0 -73 3.5t-61 7.5l-22 4l6 77q84 -19 160 -19q191 0 191 156v24h-101q-262 0 -262 233q0 106 65 177t187 71q49 0 99 -8.5t76 -17.5l26 -9v-373h111v-73h-111v-19q0 -46 -16 -86.5t-48.5 -74.5t-91 -53.5t-135.5 -19.5zM408 73v312q-49 23 -121 23
q-69 0 -109 -45t-40 -120q0 -87 43.5 -128.5t138.5 -41.5h88zM158 566v57q42 0 69 -5q-27 12 -27 48q0 41 31.5 70t95.5 29q32 0 54 -4l-9 -56q-36 4 -48 4q-56 0 -56 -41q0 -45 78 -45h54v-57h-242z" />
    <glyph glyph-name="alef_hamza_below.fina" unicode="&#x625;" horiz-adv-x="282" arabic-form="final" 
d="M95 0v705h92v-632h110v-73h-202zM9 -254v55q42 0 58 -3q-18 11 -18 37q0 39 30.5 64.5t86.5 25.5q33 0 55 -5l-9 -56q-24 6 -47 6q-47 0 -47 -33q0 -36 66 -36h59v-55h-234z" />
    <glyph glyph-name="yeh_hamza_above.fina" unicode="&#x626;" horiz-adv-x="1000" arabic-form="final" 
d="M825 0v250q0 85 -33 121.5t-109 36.5q-18 0 -39 -2t-33 -4l-12 -2v-400h-186q-185 0 -268 72.5t-83 218.5q0 95 33 166l98 17q-38 -78 -38 -172q0 -119 59 -174t210 -55h85v389q88 19 183 19q120 0 171.5 -55.5t51.5 -163.5v-189h100v-73h-190zM47 566v57q42 0 69 -5
q-27 12 -27 48q0 41 31.5 70t95.5 29q32 0 54 -4l-9 -56q-36 4 -48 4q-56 0 -56 -41q0 -45 78 -45h54v-57h-242z" />
    <glyph glyph-name="yeh_hamza_above.init" unicode="&#x626;" horiz-adv-x="326" arabic-form="initial" 
d="M0 0v73h146v397h92v-470h-238zM48 566v57q42 0 69 -5q-27 12 -27 48q0 41 31.5 70t95.5 29q32 0 54 -4l-9 -56q-36 4 -48 4q-56 0 -56 -41q0 -45 78 -45h54v-57h-242z" />
    <glyph glyph-name="yeh_hamza_above.medi" unicode="&#x626;" horiz-adv-x="334" arabic-form="medial" 
d="M0 0v73h146v397h92v-397h111v-73h-349zM48 566v57q42 0 69 -5q-27 12 -27 48q0 41 31.5 70t95.5 29q32 0 54 -4l-9 -56q-36 4 -48 4q-56 0 -56 -41q0 -45 78 -45h54v-57h-242z" />
    <glyph glyph-name="alef.fina" unicode="&#x627;" horiz-adv-x="282" arabic-form="final" 
d="M95 0v705h92v-632h110v-73h-202z" />
    <glyph glyph-name="beh.fina" unicode="&#x628;" horiz-adv-x="782" arabic-form="final" 
d="M796 0h-383q-185 0 -268 72.5t-83 218.5q0 95 33 166l98 17q-38 -78 -38 -172q0 -119 59 -174t210 -55h170v397h92v-397h110v-73zM393 -204q-23 0 -38.5 15.5t-15.5 38.5q0 22 15.5 38t38.5 16t39 -15.5t16 -38.5q0 -22 -16 -38t-39 -16z" />
    <glyph glyph-name="beh.init" unicode="&#x628;" horiz-adv-x="326" arabic-form="initial" 
d="M125 -204q-23 0 -38.5 15.5t-15.5 38.5q0 22 15.5 38t38.5 16t39 -15.5t16 -38.5q0 -22 -16 -38t-39 -16zM0 0v73h146v397h92v-470h-238z" />
    <glyph glyph-name="beh.medi" unicode="&#x628;" horiz-adv-x="334" arabic-form="medial" 
d="M0 0v73h146v397h92v-397h111v-73h-349zM125 -204q-23 0 -38.5 15.5t-15.5 38.5q0 22 15.5 38t38.5 16t39 -15.5t16 -38.5q0 -22 -16 -38t-39 -16z" />
    <glyph glyph-name="tehmarbuta.fina" unicode="&#x629;" horiz-adv-x="594" arabic-form="final" 
d="M363 562q-23 0 -38.5 15.5t-15.5 38.5q0 22 16 37.5t38 15.5t37 -15.5t15 -37.5q0 -23 -15 -38.5t-37 -15.5zM215 562q-23 0 -38 15.5t-15 38.5q0 22 15.5 37.5t37.5 15.5t37.5 -15.5t15.5 -37.5t-15.5 -38t-37.5 -16zM609 0h-302q-262 0 -262 233q0 106 65 177t187 71
q49 0 99 -8.5t76 -17.5l26 -9v-373h111v-73zM408 73v312q-49 23 -121 23q-69 0 -109 -45t-40 -120q0 -87 43.5 -128.5t138.5 -41.5h88z" />
    <glyph glyph-name="teh.fina" unicode="&#x62a;" horiz-adv-x="782" arabic-form="final" 
d="M796 0h-383q-185 0 -268 72.5t-83 218.5q0 95 33 166l98 17q-38 -78 -38 -172q0 -119 59 -174t210 -55h170v397h92v-397h110v-73zM328 562q-23 0 -38 15.5t-15 38.5q0 22 15.5 37.5t37.5 15.5t37.5 -15.5t15.5 -37.5t-15.5 -38t-37.5 -16zM476 562q-23 0 -38.5 15.5
t-15.5 38.5q0 22 16 37.5t38 15.5t37 -15.5t15 -37.5q0 -23 -15 -38.5t-37 -15.5z" />
    <glyph glyph-name="teh.init" unicode="&#x62a;" horiz-adv-x="326" arabic-form="initial" 
d="M250 562q-23 0 -38.5 15.5t-15.5 38.5q0 22 16 37.5t38 15.5t37 -15.5t15 -37.5q0 -23 -15 -38.5t-37 -15.5zM102 562q-23 0 -38 15.5t-15 38.5q0 22 15.5 37.5t37.5 15.5t37.5 -15.5t15.5 -37.5t-15.5 -38t-37.5 -16zM0 0v73h146v397h92v-470h-238z" />
    <glyph glyph-name="teh.medi" unicode="&#x62a;" horiz-adv-x="326" arabic-form="medial" 
d="M0 0v73h146v397h92v-397h103v-73h-341zM102 562q-23 0 -38 15.5t-15 38.5q0 22 15.5 37.5t37.5 15.5t37.5 -15.5t15.5 -37.5t-15.5 -38t-37.5 -16zM250 562q-23 0 -38.5 15.5t-15.5 38.5q0 22 16 37.5t38 15.5t37 -15.5t15 -37.5q0 -23 -15 -38.5t-37 -15.5z" />
    <glyph glyph-name="theh.fina" unicode="&#x62b;" horiz-adv-x="782" arabic-form="final" 
d="M413 0q-185 0 -268 72.5t-83 218.5q0 95 33 166l98 17q-38 -78 -38 -172q0 -119 59 -174t210 -55h170v397h92v-397h110v-73h-383zM328 562q-23 0 -38 15.5t-15 38.5q0 22 15.5 37.5t37.5 15.5t37.5 -15.5t15.5 -37.5q0 -23 -15.5 -38.5t-37.5 -15.5zM476 562
q-23 0 -38 15.5t-15 38.5q0 22 15.5 37.5t37.5 15.5t37.5 -15.5t15.5 -37.5t-15.5 -38t-37.5 -16zM402 681q-22 0 -36.5 14.5t-14.5 36.5t14.5 37t36.5 15q21 0 35.5 -15t14.5 -37q0 -21 -14.5 -36t-35.5 -15z" />
    <glyph glyph-name="theh.init" unicode="&#x62b;" horiz-adv-x="326" arabic-form="initial" 
d="M176 681q-22 0 -36.5 14.5t-14.5 36.5t14.5 37t36.5 15q21 0 35.5 -15t14.5 -37q0 -21 -14.5 -36t-35.5 -15zM250 562q-23 0 -38 15.5t-15 38.5q0 22 15.5 37.5t37.5 15.5t37.5 -15.5t15.5 -37.5t-15.5 -38t-37.5 -16zM102 562q-23 0 -38 15.5t-15 38.5q0 22 15.5 37.5
t37.5 15.5t37.5 -15.5t15.5 -37.5q0 -23 -15.5 -38.5t-37.5 -15.5zM0 0v73h146v397h92v-470h-238z" />
    <glyph glyph-name="theh.medi" unicode="&#x62b;" horiz-adv-x="334" arabic-form="medial" 
d="M0 0v73h146v397h92v-397h111v-73h-349zM102 562q-23 0 -38 15.5t-15 38.5q0 22 15.5 37.5t37.5 15.5t37.5 -15.5t15.5 -37.5q0 -23 -15.5 -38.5t-37.5 -15.5zM250 562q-23 0 -38 15.5t-15 38.5q0 22 15.5 37.5t37.5 15.5t37.5 -15.5t15.5 -37.5t-15.5 -38t-37.5 -16z
M176 681q-22 0 -36.5 14.5t-14.5 36.5t14.5 37t36.5 15q21 0 35.5 -15t14.5 -37q0 -21 -14.5 -36t-35.5 -15z" />
    <glyph glyph-name="jeem.fina" unicode="&#x62c;" horiz-adv-x="588" arabic-form="final" 
d="M315 0q-119 0 -166 -33t-47 -92q0 -51 49 -86.5t139 -35.5l-6 -73q-133 0 -203 52.5t-70 135.5q0 94 74 149.5t235 55.5h98q7 49 7 103q0 117 -49.5 171t-169.5 54q-58 0 -111 -7v72q54 8 120 8q161 0 231.5 -72t70.5 -219q0 -47 -6 -110h92v-73h-288zM370 -204
q-23 0 -38.5 15.5t-15.5 38.5q0 22 16 38t38 16q23 0 39 -15.5t16 -38.5q0 -22 -16 -38t-39 -16z" />
    <glyph glyph-name="jeem.init" unicode="&#x62c;" horiz-adv-x="578" arabic-form="initial" 
d="M236 -204q-23 0 -38.5 15.5t-15.5 38.5q0 22 16 38t38 16q23 0 39 -15.5t16 -38.5q0 -22 -16 -38t-39 -16zM0 0v73h413q7 61 7 103q0 117 -49.5 171t-169.5 54q-59 0 -111 -7v72q53 8 119 8q161 0 231.5 -72t70.5 -219q0 -87 -16 -183h-495z" />
    <glyph glyph-name="jeem.medi" unicode="&#x62c;" horiz-adv-x="582" arabic-form="medial" 
d="M0 0v73h413q7 61 7 103q0 117 -49.5 171t-169.5 54q-59 0 -111 -7v72q53 8 119 8q161 0 231.5 -72t70.5 -219q0 -47 -6 -110h92v-73h-597zM236 -204q-23 0 -38.5 15.5t-15.5 38.5q0 22 16 38t38 16q23 0 39 -15.5t16 -38.5q0 -22 -16 -38t-39 -16z" />
    <glyph glyph-name="hah.fina" unicode="&#x62d;" horiz-adv-x="592" arabic-form="final" 
d="M325 0q-119 0 -166 -33t-47 -91q0 -54 48.5 -88.5t141.5 -34.5q82 0 180 21l7 -72q-98 -22 -195 -22q-134 0 -203.5 51.5t-69.5 137.5q0 94 74 149t235 55h93q7 61 7 103q0 117 -49.5 171t-169.5 54q-59 0 -111 -7v72q53 8 119 8q161 0 231.5 -72t70.5 -219
q0 -47 -6 -110h92v-73h-282z" />
    <glyph glyph-name="hah.init" unicode="&#x62d;" horiz-adv-x="578" arabic-form="initial" 
d="M0 0v73h413q7 61 7 103q0 117 -49.5 171t-169.5 54q-59 0 -111 -7v72q53 8 119 8q161 0 231.5 -72t70.5 -219q0 -87 -16 -183h-495z" />
    <glyph glyph-name="hah.medi" unicode="&#x62d;" horiz-adv-x="582" arabic-form="medial" 
d="M0 0v73h413q7 61 7 103q0 117 -49.5 171t-169.5 54q-59 0 -111 -7v72q53 8 119 8q161 0 231.5 -72t70.5 -219q0 -47 -6 -110h92v-73h-597z" />
    <glyph glyph-name="khah.fina" unicode="&#x62e;" horiz-adv-x="592" arabic-form="final" 
d="M325 0q-119 0 -166 -33t-47 -91q0 -54 48.5 -88.5t141.5 -34.5q82 0 180 21l7 -72q-98 -22 -195 -22q-134 0 -203.5 51.5t-69.5 137.5q0 94 74 149t235 55h93q7 61 7 103q0 117 -49.5 171t-169.5 54q-59 0 -111 -7v72q53 8 119 8q161 0 231.5 -72t70.5 -219
q0 -47 -6 -110h92v-73h-282zM246 577q-22 0 -38 15.5t-16 38.5t16 39t38 16q23 0 39 -16t16 -39q0 -22 -16 -38t-39 -16z" />
    <glyph glyph-name="khah.init" unicode="&#x62e;" horiz-adv-x="578" arabic-form="initial" 
d="M236 577q-22 0 -38 15.5t-16 38.5t16 39t38 16q23 0 39 -16t16 -39q0 -22 -16 -38t-39 -16zM0 0v73h413q7 61 7 103q0 117 -49.5 171t-169.5 54q-59 0 -111 -7v72q53 8 119 8q161 0 231.5 -72t70.5 -219q0 -87 -16 -183h-495z" />
    <glyph glyph-name="khah.medi" unicode="&#x62e;" horiz-adv-x="582" arabic-form="medial" 
d="M0 0v73h413q7 61 7 103q0 117 -49.5 171t-169.5 54q-59 0 -111 -7v72q53 8 119 8q161 0 231.5 -72t70.5 -219q0 -47 -6 -110h92v-73h-597zM236 577q-22 0 -38 15.5t-16 38.5t16 39t38 16q23 0 39 -16t16 -39q0 -22 -16 -38t-39 -16z" />
    <glyph glyph-name="dal.fina" unicode="&#x62f;" horiz-adv-x="527" arabic-form="final" 
d="M52 0v73h321q-2 138 -61 218.5t-191 120.5l23 78q161 -50 238.5 -147t81.5 -270h77v-73h-489z" />
    <glyph glyph-name="thal.fina" unicode="&#x630;" horiz-adv-x="527" arabic-form="final" 
d="M52 0v73h321q-2 138 -61 218.5t-191 120.5l23 78q161 -50 238.5 -147t81.5 -270h77v-73h-489zM197 577q-23 0 -38.5 15.5t-15.5 38.5t16 39t38 16q23 0 39 -16t16 -39q0 -22 -16 -38t-39 -16z" />
    <glyph glyph-name="reh.fina" unicode="&#x631;" horiz-adv-x="418" arabic-form="final" 
d="M90 -257q-52 0 -104 14l11 76q46 -17 100 -17q66 0 99.5 38.5t33.5 132.5v483h92v-397h110v-73h-110v-5q0 -252 -232 -252z" />
    <glyph glyph-name="zain.fina" unicode="&#x632;" horiz-adv-x="418" arabic-form="final" 
d="M90 -257q-52 0 -104 14l11 76q46 -17 100 -17q66 0 99.5 38.5t33.5 132.5v483h92v-397h110v-73h-110v-5q0 -252 -232 -252zM274 577q-22 0 -38 15.5t-16 38.5t16 39t38 16q23 0 39 -16t16 -39q0 -22 -16 -38t-39 -16z" />
    <glyph glyph-name="seen.fina" unicode="&#x633;" horiz-adv-x="1215" arabic-form="final" 
d="M307 -231q-112 0 -180.5 67t-68.5 212q0 98 25 190l95 18q-28 -97 -28 -199q0 -117 48 -166t118 -49q163 0 163 203v365h92v-205q0 -69 20.5 -104t73.5 -35q51 0 72 35.5t21 103.5v245h89v-241q0 -79 27 -107.5t105 -28.5h46q8 69 8 139q0 149 -33 276l90 16
q36 -135 36 -284q0 -69 -8 -147h111v-73h-269q-138 0 -168 80q-13 -41 -47 -64t-80 -23q-71 0 -102 45q3 -10 3 -27q0 -36 -9.5 -71.5t-34.5 -77t-80.5 -67.5t-134.5 -26z" />
    <glyph glyph-name="seen.init" unicode="&#x633;" horiz-adv-x="865" arabic-form="initial" 
d="M0 0v73h35q55 0 79 30.5t24 109.5v197h92v-205q0 -69 20.5 -104t73.5 -35q51 0 72 35.5t21 103.5v245h89v-241q0 -79 27 -107.5t105 -28.5h46q8 69 8 139q0 149 -33 276l90 16q35 -131 35 -284q0 -113 -16 -220h-149q-138 0 -168 80q-15 -42 -53 -65t-88 -23
q-58 0 -93.5 23.5t-47.5 64.5q-29 -80 -135 -80h-34z" />
    <glyph glyph-name="seen.medi" unicode="&#x633;" horiz-adv-x="874" arabic-form="medial" 
d="M619 0q-138 0 -168 80q-15 -42 -53 -65t-88 -23q-58 0 -93.5 23.5t-47.5 64.5q-29 -80 -135 -80h-34v73h35q55 0 79 30.5t24 109.5v197h92v-205q0 -69 20.5 -104t73.5 -35q51 0 72 35.5t21 103.5v245h89v-241q0 -79 27 -107.5t105 -28.5h46q8 69 8 139q0 149 -33 276
l90 16q35 -131 35 -284q0 -61 -7 -147h111v-73h-269z" />
    <glyph glyph-name="sheen.fina" unicode="&#x634;" horiz-adv-x="1215" arabic-form="final" 
d="M307 -231q-112 0 -180.5 67t-68.5 212q0 98 25 190l95 18q-28 -97 -28 -199q0 -117 48 -166t118 -49q163 0 163 203v365h92v-205q0 -69 20.5 -104t73.5 -35q51 0 72 35.5t21 103.5v245h89v-241q0 -79 27 -107.5t105 -28.5h46q8 69 8 139q0 149 -33 276l90 16
q36 -135 36 -284q0 -69 -8 -147h111v-73h-269q-138 0 -168 80q-13 -41 -47 -64t-80 -23q-71 0 -102 45q3 -10 3 -27q0 -36 -9.5 -71.5t-34.5 -77t-80.5 -67.5t-134.5 -26zM725 562q-23 0 -38 15.5t-15 38.5q0 22 15.5 37.5t37.5 15.5q23 0 38 -15.5t15 -37.5
q0 -23 -15.5 -38.5t-37.5 -15.5zM873 562q-23 0 -38 15.5t-15 38.5q0 22 15.5 37.5t37.5 15.5t37.5 -15.5t15.5 -37.5t-15.5 -38t-37.5 -16zM799 681q-22 0 -36.5 14.5t-14.5 36.5t14.5 37t36.5 15q21 0 35.5 -15t14.5 -37q0 -21 -14.5 -36t-35.5 -15z" />
    <glyph glyph-name="sheen.init" unicode="&#x634;" horiz-adv-x="865" arabic-form="initial" 
d="M457 681q-22 0 -36.5 14.5t-14.5 36.5t14.5 37t36.5 15q21 0 35.5 -15t14.5 -37q0 -21 -14.5 -36t-35.5 -15zM531 562q-23 0 -38 15.5t-15 38.5q0 22 15.5 37.5t37.5 15.5t37.5 -15.5t15.5 -37.5t-15.5 -38t-37.5 -16zM383 562q-23 0 -38 15.5t-15 38.5q0 22 15.5 37.5
t37.5 15.5q23 0 38 -15.5t15 -37.5q0 -23 -15.5 -38.5t-37.5 -15.5zM0 0v73h35q55 0 79 30.5t24 109.5v197h92v-205q0 -69 20.5 -104t73.5 -35q51 0 72 35.5t21 103.5v245h89v-241q0 -79 27 -107.5t105 -28.5h46q8 69 8 139q0 149 -33 276l90 16q35 -131 35 -284
q0 -113 -16 -220h-149q-138 0 -168 80q-15 -42 -53 -65t-88 -23q-58 0 -93.5 23.5t-47.5 64.5q-29 -80 -135 -80h-34z" />
    <glyph glyph-name="sheen.medi" unicode="&#x634;" horiz-adv-x="874" arabic-form="medial" 
d="M0 0v73h35q55 0 79 30.5t24 109.5v197h92v-205q0 -69 20.5 -104t73.5 -35q51 0 72 35.5t21 103.5v245h89v-241q0 -79 27 -107.5t105 -28.5h46q8 69 8 139q0 149 -33 276l90 16q35 -131 35 -284q0 -61 -7 -147h111v-73h-269q-138 0 -168 80q-15 -42 -53 -65t-88 -23
q-58 0 -93.5 23.5t-47.5 64.5q-29 -80 -135 -80h-34zM383 562q-23 0 -38 15.5t-15 38.5q0 22 15.5 37.5t37.5 15.5q23 0 38 -15.5t15 -37.5q0 -23 -15.5 -38.5t-37.5 -15.5zM531 562q-23 0 -38 15.5t-15 38.5q0 22 15.5 37.5t37.5 15.5t37.5 -15.5t15.5 -37.5t-15.5 -38
t-37.5 -16zM457 681q-22 0 -36.5 14.5t-14.5 36.5t14.5 37t36.5 15q21 0 35.5 -15t14.5 -37q0 -21 -14.5 -36t-35.5 -15z" />
    <glyph glyph-name="sad.fina" unicode="&#x635;" horiz-adv-x="1114" arabic-form="final" 
d="M307 -231q-112 0 -180.5 67t-68.5 212q0 98 25 190l95 18q-28 -97 -28 -199q0 -117 48 -166t118 -49q163 0 163 203v425h92v-39q0 -103 -11 -179h1q36 107 111 168t162 61q97 0 146 -65t49 -182q0 -82 -6 -161h106v-73h-562q-9 -117 -77 -174t-183 -57zM570 73h358
q6 74 6 151q0 183 -116 183q-95 0 -164 -102t-84 -232z" />
    <glyph glyph-name="sad.init" unicode="&#x635;" horiz-adv-x="765" arabic-form="initial" 
d="M688 234q0 -110 -13 -234h-675v73h138v397h92v-39q0 -103 -11 -179h1q36 107 111 168t162 61q97 0 146 -65t49 -182zM593 224q0 183 -116 183q-95 0 -164 -102t-84 -232h358q6 74 6 151z" />
    <glyph glyph-name="sad.medi" unicode="&#x635;" horiz-adv-x="773" arabic-form="medial" 
d="M688 234q0 -82 -6 -161h106v-73h-788v73h138v397h92v-39q0 -103 -11 -179h1q36 107 111 168t162 61q97 0 146 -65t49 -182zM593 224q0 183 -116 183q-95 0 -164 -102t-84 -232h358q6 74 6 151z" />
    <glyph glyph-name="dad.fina" unicode="&#x636;" horiz-adv-x="1114" arabic-form="final" 
d="M567 0q-9 -117 -77 -174t-183 -57q-112 0 -180.5 67t-68.5 212q0 98 25 190l95 18q-28 -97 -28 -199q0 -117 48 -166t118 -49q163 0 163 203v425h92v-39q0 -103 -11 -179h1q36 107 111 168t162 61q97 0 146 -65t49 -182q0 -82 -6 -161h106v-73h-562zM570 73h358
q6 74 6 151q0 183 -116 183q-95 0 -164 -102t-84 -232zM822 577q-22 0 -38 15.5t-16 38.5t16 39t38 16q23 0 39 -16t16 -39q0 -22 -16 -38t-39 -16z" />
    <glyph glyph-name="dad.init" unicode="&#x636;" horiz-adv-x="765" arabic-form="initial" 
d="M481 577q-23 0 -38.5 15.5t-15.5 38.5t16 39t38 16q23 0 39 -16t16 -39q0 -22 -16 -38t-39 -16zM688 234q0 -110 -13 -234h-675v73h138v397h92v-39q0 -103 -11 -179h1q36 107 111 168t162 61q97 0 146 -65t49 -182zM593 224q0 183 -116 183q-95 0 -164 -102t-84 -232h358
q6 74 6 151z" />
    <glyph glyph-name="dad.medi" unicode="&#x636;" horiz-adv-x="773" arabic-form="medial" 
d="M0 0v73h138v397h92v-39q0 -103 -11 -179h1q36 107 111 168t162 61q97 0 146 -65t49 -182q0 -82 -6 -161h106v-73h-788zM593 224q0 183 -116 183q-95 0 -164 -102t-84 -232h358q6 74 6 151zM481 577q-23 0 -38.5 15.5t-15.5 38.5t16 39t38 16q23 0 39 -16t16 -39
q0 -22 -16 -38t-39 -16z" />
    <glyph glyph-name="tah.fina" unicode="&#x637;" horiz-adv-x="773" arabic-form="final" 
d="M0 0v73h138v632h92v-274q0 -103 -11 -179h1q36 107 111 168t162 61q97 0 146 -65t49 -182q0 -82 -6 -161h106v-73h-788zM229 73h358q6 74 6 151q0 183 -116 183q-95 0 -164 -102t-84 -232z" />
    <glyph glyph-name="tah.init" unicode="&#x637;" horiz-adv-x="765" arabic-form="initial" 
d="M0 0v73h138v632h92v-274q0 -103 -11 -179h1q36 107 111 168t162 61q97 0 146 -65t49 -182q0 -110 -13 -234h-675zM229 73h358q6 74 6 151q0 183 -116 183q-95 0 -164 -102t-84 -232z" />
    <glyph glyph-name="tah.medi" unicode="&#x637;" horiz-adv-x="773" arabic-form="medial" 
d="M0 0v73h138v632h92v-274q0 -103 -11 -179h1q36 107 111 168t162 61q97 0 146 -65t49 -182q0 -82 -6 -161h105v-73h-787zM229 73h358q6 74 6 151q0 183 -116 183q-95 0 -164 -102t-84 -232z" />
    <glyph glyph-name="zah.fina" unicode="&#x638;" horiz-adv-x="773" arabic-form="final" 
d="M0 0v73h138v632h92v-274q0 -103 -11 -179h1q36 107 111 168t162 61q97 0 146 -65t49 -182q0 -82 -6 -161h106v-73h-788zM229 73h358q6 74 6 151q0 183 -116 183q-95 0 -164 -102t-84 -232zM481 577q-23 0 -38.5 15.5t-15.5 38.5t16 39t38 16q23 0 39 -16t16 -39
q0 -22 -16 -38t-39 -16z" />
    <glyph glyph-name="zah.init" unicode="&#x638;" horiz-adv-x="765" arabic-form="initial" 
d="M481 577q-23 0 -38.5 15.5t-15.5 38.5t16 39t38 16q23 0 39 -16t16 -39q0 -22 -16 -38t-39 -16zM0 0v73h138v632h92v-274q0 -103 -11 -179h1q36 107 111 168t162 61q97 0 146 -65t49 -182q0 -110 -13 -234h-675zM229 73h358q6 74 6 151q0 183 -116 183q-95 0 -164 -102
t-84 -232z" />
    <glyph glyph-name="zah.medi" unicode="&#x638;" horiz-adv-x="773" arabic-form="medial" 
d="M0 0v73h138v632h92v-274q0 -103 -11 -179h1q36 107 111 168t162 61q97 0 146 -65t49 -182q0 -82 -6 -161h106v-73h-788zM229 73h358q6 74 6 151q0 183 -116 183q-95 0 -164 -102t-84 -232zM481 577q-23 0 -38.5 15.5t-15.5 38.5t16 39t38 16q23 0 39 -16t16 -39
q0 -22 -16 -38t-39 -16z" />
    <glyph glyph-name="ain.fina" unicode="&#x639;" horiz-adv-x="626" arabic-form="final" 
d="M311 -258q-138 0 -205.5 48.5t-67.5 123.5q0 40 17.5 73t56 61t67 44t83.5 42q15 7 23 11q-43 42 -66.5 63t-66.5 49t-86 42l8 64q159 120 289 120q96 0 144.5 -44.5t48.5 -110.5q0 -112 -138 -194q80 -61 162 -61h61v-73h-74q-119 0 -226 93q-10 -5 -34.5 -17t-35 -17
t-31 -16t-30.5 -17.5t-25 -17t-22.5 -19.5t-15.5 -20t-11.5 -22.5t-3.5 -24.5q0 -48 46 -77.5t144 -29.5q34 0 73 3.5t61 7.5l23 3l5 -70q-89 -17 -173 -17zM160 334q19 -7 39 -18.5t33.5 -20.5t35.5 -27.5t29.5 -25.5t33 -31t29.5 -28q50 29 77 60.5t27 72.5q0 43 -28 70.5
t-83 27.5q-79 0 -193 -80z" />
    <glyph glyph-name="ain.init" unicode="&#x639;" horiz-adv-x="573" arabic-form="initial" 
d="M0 0v73h193q-47 21 -77 68.5t-30 108.5q0 99 64 165t183 66q31 0 63.5 -5.5t49.5 -11.5l17 -5l-17 -74q-55 24 -119 24q-67 0 -108 -41.5t-41 -113.5q0 -81 66 -131t200 -50h82v-73h-526z" />
    <glyph glyph-name="ain.medi" unicode="&#x639;" horiz-adv-x="626" arabic-form="medial" 
d="M0 0v73h33q159 0 273 52q-6 6 -34 33t-38 36t-35.5 30t-42 31t-41 23t-49.5 21l8 64q159 120 289 120q96 0 144.5 -44.5t48.5 -110.5q0 -114 -120 -207q70 -48 144 -48h61v-73h-74q-108 0 -203 74q-141 -74 -339 -74h-25zM160 334q31 -12 63 -33.5t51 -38t54.5 -49.5
t48.5 -45q87 66 87 148q0 43 -28 70.5t-83 27.5q-79 0 -193 -80z" />
    <glyph glyph-name="ghain.fina" unicode="&#x63a;" horiz-adv-x="626" arabic-form="final" 
d="M311 -258q-138 0 -205.5 48.5t-67.5 123.5q0 40 17.5 73t56 61t67 44t83.5 42q15 7 23 11q-43 42 -66.5 63t-66.5 49t-86 42l8 64q159 120 289 120q96 0 144.5 -44.5t48.5 -110.5q0 -112 -138 -194q80 -61 162 -61h61v-73h-74q-119 0 -226 93q-10 -5 -34.5 -17t-35 -17
t-31 -16t-30.5 -17.5t-25 -17t-22.5 -19.5t-15.5 -20t-11.5 -22.5t-3.5 -24.5q0 -48 46 -77.5t144 -29.5q34 0 73 3.5t61 7.5l23 3l5 -70q-89 -17 -173 -17zM160 334q19 -7 39 -18.5t33.5 -20.5t35.5 -27.5t29.5 -25.5t33 -31t29.5 -28q50 29 77 60.5t27 72.5q0 43 -28 70.5
t-83 27.5q-79 0 -193 -80zM344 580q-22 0 -38 16t-16 38q0 23 16 39t38 16q23 0 39 -16t16 -39q0 -22 -16 -38t-39 -16z" />
    <glyph glyph-name="ghain.init" unicode="&#x63a;" horiz-adv-x="573" arabic-form="initial" 
d="M310 577q-22 0 -38 15.5t-16 38.5t16 39t38 16q23 0 39 -16t16 -39q0 -22 -16 -38t-39 -16zM0 0v73h193q-47 21 -77 68.5t-30 108.5q0 99 64 165t183 66q31 0 63.5 -5.5t49.5 -11.5l17 -5l-17 -74q-55 24 -119 24q-67 0 -108 -41.5t-41 -113.5q0 -81 66 -131t200 -50h82
v-73h-526z" />
    <glyph glyph-name="ghain.medi" unicode="&#x63a;" horiz-adv-x="626" arabic-form="medial" 
d="M0 0v73h33q159 0 273 52q-6 6 -34 33t-38 36t-35.5 30t-42 31t-41 23t-49.5 21l8 64q159 120 289 120q96 0 144.5 -44.5t48.5 -110.5q0 -114 -120 -207q70 -48 144 -48h61v-73h-74q-108 0 -203 74q-141 -74 -339 -74h-25zM160 334q31 -12 63 -33.5t51 -38t54.5 -49.5
t48.5 -45q87 66 87 148q0 43 -28 70.5t-83 27.5q-79 0 -193 -80zM344 580q-22 0 -38 16t-16 38q0 23 16 39t38 16q23 0 39 -16t16 -39q0 -22 -16 -38t-39 -16z" />
    <glyph glyph-name="feh.fina" unicode="&#x641;" horiz-adv-x="932" arabic-form="final" 
d="M640 579q-22 0 -38 15.5t-16 38.5t16 39t38 16q23 0 39 -16t16 -39q0 -22 -16 -38t-39 -16zM947 73v-73h-534q-185 0 -268 72.5t-83 218.5q0 95 33 166l98 17q-38 -78 -38 -172q0 -118 58 -173.5t200 -55.5h55q-64 46 -64 164q0 105 66 174.5t176 69.5q102 0 162.5 -56.5
t60.5 -175.5q0 -55 -20.5 -103.5t-57.5 -75.5q51 3 87 3h69zM776 243q0 80 -35 122.5t-103 42.5q-59 0 -100 -42t-41 -123q0 -82 36 -126t104 -44q60 0 99.5 43.5t39.5 126.5z" />
    <glyph glyph-name="feh.init" unicode="&#x641;" horiz-adv-x="612" arabic-form="initial" 
d="M302 579q-22 0 -38 15.5t-16 38.5t16 39t38 16q23 0 39 -16t16 -39q0 -22 -16 -38t-39 -16zM527 0h-527v73h79l58 -5q-74 47 -74 169q0 103 65.5 173.5t184.5 70.5q106 0 160 -58t54 -166v-257zM437 73v168q0 167 -132 167q-69 0 -109 -45t-40 -121q0 -86 43.5 -127.5
t138.5 -41.5h99z" />
    <glyph glyph-name="feh.medi" unicode="&#x641;" horiz-adv-x="591" arabic-form="medial" 
d="M299 579q-23 0 -38.5 15.5t-15.5 38.5t16 39t38 16q23 0 39 -16t16 -39q0 -22 -16 -38t-39 -16zM0 0v73h58l71 -3q-66 49 -66 167q0 105 66 174.5t176 69.5q102 0 162.5 -56.5t60.5 -175.5q0 -55 -20.5 -103.5t-57.5 -75.5q51 3 87 3h69v-73h-606zM296 73q60 0 99.5 43.5
t39.5 126.5q0 80 -35 122.5t-103 42.5q-59 0 -100 -42t-41 -122q0 -83 36 -127t104 -44z" />
    <glyph glyph-name="qaf.fina" unicode="&#x642;" horiz-adv-x="890" arabic-form="final" 
d="M794 446v-373h110v-73h-110v-238q-164 -13 -302 -13q-230 0 -332 72t-102 231q0 94 25 186l95 18q-28 -97 -28 -194q0 -130 80.5 -185t273.5 -55q44 0 94 2t78 4l28 2v170h-101q-262 0 -262 233q0 106 65 177t187 71q49 0 99 -8.5t76 -17.5zM704 73v312q-49 23 -121 23
q-69 0 -109 -45t-40 -120q0 -87 43.5 -128.5t138.5 -41.5h88zM511 562q-23 0 -38 15.5t-15 38.5q0 22 15.5 37.5t37.5 15.5t37.5 -15.5t15.5 -37.5t-15.5 -38t-37.5 -16zM659 562q-23 0 -38.5 15.5t-15.5 38.5q0 22 16 37.5t38 15.5t37 -15.5t15 -37.5q0 -23 -15 -38.5
t-37 -15.5z" />
    <glyph glyph-name="qaf.init" unicode="&#x642;" horiz-adv-x="612" arabic-form="initial" 
d="M377 562q-23 0 -38.5 15.5t-15.5 38.5q0 22 16 37.5t38 15.5t37 -15.5t15 -37.5q0 -23 -15 -38.5t-37 -15.5zM229 562q-23 0 -38 15.5t-15 38.5q0 22 15.5 37.5t37.5 15.5t37.5 -15.5t15.5 -37.5t-15.5 -38t-37.5 -16zM527 0h-527v73h79l58 -5q-74 47 -74 169
q0 103 65.5 173.5t184.5 70.5q106 0 160 -58t54 -166v-257zM437 73v168q0 167 -132 167q-69 0 -109 -45t-40 -121q0 -86 43.5 -127.5t138.5 -41.5h99z" />
    <glyph glyph-name="qaf.medi" unicode="&#x642;" horiz-adv-x="591" arabic-form="medial" 
d="M374 562q-23 0 -38.5 15.5t-15.5 38.5q0 22 16 37.5t38 15.5t37 -15.5t15 -37.5q0 -23 -15 -38.5t-37 -15.5zM226 562q-23 0 -38 15.5t-15 38.5q0 22 15.5 37.5t37.5 15.5t37.5 -15.5t15.5 -37.5t-15.5 -38t-37.5 -16zM0 0v73h58l71 -3q-66 49 -66 167q0 105 66 174.5
t176 69.5q102 0 162.5 -56.5t60.5 -175.5q0 -55 -20.5 -103.5t-57.5 -75.5q51 3 87 3h69v-73h-606zM296 73q60 0 99.5 43.5t39.5 126.5q0 80 -35 122.5t-103 42.5q-59 0 -100 -42t-41 -122q0 -83 36 -127t104 -44z" />
    <glyph glyph-name="kaf.fina" unicode="&#x643;" horiz-adv-x="851" arabic-form="final" 
d="M413 0q-185 0 -268 72.5t-83 218.5q0 95 33 166l98 17q-38 -78 -38 -172q0 -119 59 -174t210 -55h240v632h92v-632h110v-73h-453zM311 408v57q42 0 69 -5q-27 12 -27 48q0 41 31.5 70t95.5 29q32 0 54 -4l-9 -56q-36 4 -48 4q-56 0 -56 -41q0 -45 78 -45h54v-57h-242z
" />
    <glyph glyph-name="kaf.init" unicode="&#x643;" horiz-adv-x="489" arabic-form="initial" 
d="M0 0v73h321q-2 144 -65 224t-197 118v68l379 238v-93l-272 -167q81 -33 133.5 -82.5t82.5 -131t30 -196.5v-51h-412z" />
    <glyph glyph-name="kaf.medi" unicode="&#x643;" horiz-adv-x="489" arabic-form="medial" 
d="M0 0v73h321q-2 144 -65 224t-197 118v68l379 238v-93l-272 -167q119 -49 180.5 -139.5t65.5 -248.5h92v-73h-504z" />
    <glyph glyph-name="lam.fina" unicode="&#x644;" horiz-adv-x="643" arabic-form="final" 
d="M459 51v654h92v-632h107v-73h-110q-14 -117 -78.5 -174t-165.5 -57q-112 0 -179 67t-67 212q0 98 25 190l95 18q-28 -97 -28 -199q0 -117 46.5 -166t116.5 -49q146 0 146 209z" />
    <glyph glyph-name="lam.init" unicode="&#x644;" horiz-adv-x="327" arabic-form="initial" 
d="M0 0v73h140v632h92v-705h-232z" />
    <glyph glyph-name="lam.medi" unicode="&#x644;" horiz-adv-x="327" arabic-form="medial" 
d="M0 0v73h140v632h92v-632h110v-73h-342z" />
    <glyph glyph-name="meem.fina" unicode="&#x645;" horiz-adv-x="799" arabic-form="final" 
d="M814 0h-302q-251 0 -262 211h-28q-53 0 -72 -34.5t-6 -110.5l52 -326h-90l-51 318q-16 105 25.5 165.5t145.5 60.5h28q15 87 78.5 142t167.5 55q106 0 160 -58t54 -166v-184h100v-73zM624 73v168q0 167 -132 167q-69 0 -109 -45t-40 -121q0 -86 43.5 -127.5t138.5 -41.5
h99z" />
    <glyph glyph-name="meem.init" unicode="&#x645;" horiz-adv-x="656" arabic-form="initial" 
d="M571 0h-215q-159 0 -208 85q-34 -85 -133 -85h-15v73h19q42 0 65 32t23 115q0 115 64.5 188t179.5 73q220 0 220 -237v-244zM481 73v156q0 94 -34 136.5t-103 42.5q-67 0 -106 -47.5t-39 -131.5q0 -81 39.5 -118.5t129.5 -37.5h113z" />
    <glyph glyph-name="meem.medi" unicode="&#x645;" horiz-adv-x="656" arabic-form="medial" 
d="M356 0q-159 0 -208 85q-34 -85 -133 -85h-15v73h19q42 0 65 32t23 115q0 115 64.5 188t179.5 73q220 0 220 -237v-171h100v-73h-315zM481 73v156q0 94 -34 136.5t-103 42.5q-67 0 -106 -47.5t-39 -131.5q0 -81 39.5 -118.5t129.5 -37.5h113z" />
    <glyph glyph-name="noon.fina" unicode="&#x646;" horiz-adv-x="667" arabic-form="final" 
d="M571 470v-397h111v-73h-114q-22 -231 -261 -231q-112 0 -180.5 67t-68.5 212q0 98 25 190l95 18q-28 -97 -28 -199q0 -117 48 -166t118 -49q163 0 163 203v425h92zM313 373q-23 0 -38.5 15.5t-15.5 38.5t16 39t38 16q23 0 39 -16t16 -39q0 -22 -16 -38t-39 -16z" />
    <glyph glyph-name="noon.init" unicode="&#x646;" horiz-adv-x="326" arabic-form="initial" 
d="M192 577q-22 0 -38 15.5t-16 38.5t16 39t38 16q23 0 39 -16t16 -39q0 -22 -16 -38t-39 -16zM0 0v73h146v397h92v-470h-238z" />
    <glyph glyph-name="noon.medi" unicode="&#x646;" horiz-adv-x="334" arabic-form="medial" 
d="M0 0v73h146v397h92v-397h111v-73h-349zM192 577q-22 0 -38 15.5t-16 38.5t16 39t38 16q23 0 39 -16t16 -39q0 -22 -16 -38t-39 -16z" />
    <glyph glyph-name="heh.fina" unicode="&#x647;" horiz-adv-x="594" arabic-form="final" 
d="M609 0h-302q-262 0 -262 233q0 106 65 177t187 71q49 0 99 -8.5t76 -17.5l26 -9v-373h111v-73zM408 73v312q-49 23 -121 23q-69 0 -109 -45t-40 -120q0 -87 43.5 -128.5t138.5 -41.5h88z" />
    <glyph glyph-name="heh.init" unicode="&#x647;" horiz-adv-x="765" arabic-form="initial" 
d="M692 0h-692v73h118l39 -3q-5 3 -11.5 10t-18 30.5t-11.5 50.5q0 74 49 120t131 46q87 0 131 -56t44 -154v-44h132v20q0 185 -72 268t-228 83q-107 0 -212 -35l-10 67q120 37 235 37q186 0 281 -100.5t95 -319.5v-93zM391 71v43q0 69 -24.5 109.5t-76.5 40.5
q-45 0 -69 -26t-24 -67q0 -47 31.5 -73.5t80.5 -26.5h82z" />
    <glyph glyph-name="heh.medi" unicode="&#x647;" horiz-adv-x="765" arabic-form="medial" 
d="M780 0h-780v73h118q6 0 11.5 -0.5t10 -0.5t8 -0.5t6.5 -1.5h2q-3 2 -11.5 10.5t-18.5 31.5t-10 49q0 74 49 120t131 46q87 0 131 -56t44 -154v-44h132v20q0 185 -72 268t-228 83q-107 0 -212 -35l-10 67q120 37 235 37q186 0 281 -100.5t95 -319.5v-20h88v-73zM391 71v43
q0 69 -24.5 109.5t-76.5 40.5q-45 0 -69 -26t-24 -67q0 -47 31.5 -73.5t80.5 -26.5h82z" />
    <glyph glyph-name="waw.fina" unicode="&#x648;" horiz-adv-x="594" arabic-form="final" 
d="M207 -253q-34 0 -73 3.5t-61 7.5l-22 4l6 77q84 -19 160 -19q191 0 191 156v24h-101q-262 0 -262 233q0 106 65 177t187 71q49 0 99 -8.5t76 -17.5l26 -9v-373h111v-73h-111v-19q0 -46 -16 -86.5t-48.5 -74.5t-91 -53.5t-135.5 -19.5zM408 73v312q-49 23 -121 23
q-69 0 -109 -45t-40 -120q0 -87 43.5 -128.5t138.5 -41.5h88z" />
    <glyph glyph-name="alefmaksura.fina" unicode="&#x649;" horiz-adv-x="1000" arabic-form="final" 
d="M599 0h-186q-185 0 -268 72.5t-83 218.5q0 95 33 166l98 17q-38 -78 -38 -172q0 -119 59 -174t210 -55h85v389q88 19 183 19q120 0 171.5 -55.5t51.5 -163.5v-189h100v-73h-190v250q0 85 -33 121.5t-109 36.5q-18 0 -39 -2t-33 -4l-12 -2v-400z" />
    <glyph glyph-name="yeh.fina" unicode="&#x64a;" horiz-adv-x="1000" arabic-form="final" 
d="M599 0h-186q-185 0 -268 72.5t-83 218.5q0 95 33 166l98 17q-38 -78 -38 -172q0 -119 59 -174t210 -55h85v389q88 19 183 19q120 0 171.5 -55.5t51.5 -163.5v-189h100v-73h-190v250q0 85 -33 121.5t-109 36.5q-18 0 -39 -2t-33 -4l-12 -2v-400zM376 -149q0 -22 -15.5 -38
t-37.5 -16q-23 0 -38 15.5t-15 38.5q0 22 15.5 37.5t37.5 15.5t37.5 -15.5t15.5 -37.5zM523 -149q0 -23 -15 -38.5t-37 -15.5q-23 0 -38.5 15.5t-15.5 38.5q0 22 16 37.5t38 15.5t37 -15.5t15 -37.5z" />
    <glyph glyph-name="yeh.init" unicode="&#x64a;" horiz-adv-x="380" arabic-form="initial" 
d="M285 -149q0 -23 -15 -38.5t-37 -15.5q-23 0 -38.5 15.5t-15.5 38.5q0 22 16 37.5t38 15.5t37 -15.5t15 -37.5zM138 -149q0 -22 -15.5 -38t-37.5 -16q-23 0 -38 15.5t-15 38.5q0 22 15.5 37.5t37.5 15.5t37.5 -15.5t15.5 -37.5zM0 0v73h201v397h92v-470h-293z" />
    <glyph glyph-name="yeh.medi" unicode="&#x64a;" horiz-adv-x="389" arabic-form="medial" 
d="M0 0v73h201v397h92v-397h110v-73h-403zM138 -149q0 -22 -15.5 -38t-37.5 -16q-23 0 -38 15.5t-15 38.5q0 22 15.5 37.5t37.5 15.5t37.5 -15.5t15.5 -37.5zM285 -149q0 -23 -15 -38.5t-37 -15.5q-23 0 -38.5 15.5t-15.5 38.5q0 22 16 37.5t38 15.5t37 -15.5t15 -37.5z" />
    <glyph glyph-name=".notdef" 
d="M300 150h-150v250h50v-200h100v-50zM500 50h-450v450h450v-450zM350 350h-100v50h150v-250h-50v100h-100v50h100v50zM100 100h350v350h-350v-350z" />
    <glyph glyph-name=".null" horiz-adv-x="0" 
 />
    <glyph glyph-name="nonmarkingreturn" horiz-adv-x="333" 
 />
    <glyph glyph-name="space" unicode=" " horiz-adv-x="244" 
 />
    <glyph glyph-name="exclam" unicode="!" horiz-adv-x="320" 
d="M222 703l-15 -535h-75l-16 535h106zM229 50q0 -25 -17.5 -42t-42.5 -17q-26 0 -43.5 17t-17.5 42t17.5 42t43.5 17q25 0 42.5 -17t17.5 -42z" />
    <glyph glyph-name="quotedbl" unicode="&#x22;" horiz-adv-x="366" 
d="M314 699l-14 -230h-67l-14 230h95zM147 699l-14 -230h-67l-14 230h95z" />
    <glyph glyph-name="numbersign" unicode="#" horiz-adv-x="577" 
d="M544 429h-96l-19 -177h91v-62h-98l-20 -190h-72l19 190h-153l-20 -190h-72l20 190h-92v62h98l20 177h-93v62h98l20 184h73l-20 -184h153l20 184h73l-20 -184h90v-62zM375 429h-153l-19 -177h153z" />
    <glyph glyph-name="dollar" unicode="$" horiz-adv-x="489" 
d="M435 178q0 -69 -44.5 -118.5t-123.5 -64.5v-130h-67v126q-71 2 -124 15l6 84q59 -23 130 -23q58 0 93.5 24.5t35.5 74.5q0 37 -29 61.5t-70.5 40t-83.5 34.5t-71 56.5t-29 93.5q0 65 44 111t116 57v105h67v-101q60 -2 106 -12l-6 -80q-61 18 -113 18q-64 0 -93.5 -25
t-29.5 -62q0 -35 29.5 -59.5t71.5 -41t84 -36t71.5 -56.5t29.5 -92z" />
    <glyph glyph-name="percent" unicode="%" horiz-adv-x="750" 
d="M706 153q0 -72 -41.5 -117.5t-108.5 -45.5q-141 0 -141 153q0 70 41.5 115t108.5 45q141 0 141 -150zM651 653l-497 -674l-58 42l497 673zM335 534q0 -72 -41.5 -117t-108.5 -45q-141 0 -141 153q0 70 41.5 115t108.5 45q141 0 141 -151zM632 146q0 97 -72 97
q-32 0 -51.5 -25.5t-19.5 -68.5q0 -98 74 -98q30 0 49.5 26t19.5 69zM261 528q0 97 -72 97q-32 0 -51.5 -25.5t-19.5 -68.5q0 -99 74 -99q30 0 49.5 26.5t19.5 69.5z" />
    <glyph glyph-name="ampersand" unicode="&#x26;" horiz-adv-x="795" 
d="M739 50l-58 -69q-88 60 -142 106q-111 -97 -264 -97q-104 0 -161.5 55t-57.5 141q0 63 35 113t104 104q-52 60 -72.5 100.5t-20.5 81.5q0 64 47.5 107.5t130.5 43.5q76 0 118 -37.5t42 -97.5q0 -52 -29 -98.5t-96 -98.5q109 -113 221 -203v-1q75 106 68 248h90
q5 -172 -92 -297q69 -53 137 -101zM350 592q0 33 -19.5 54t-58.5 21q-35 0 -58 -22t-23 -56q0 -49 73 -133q44 36 65 67.5t21 68.5zM476 136q-131 107 -229 214q-99 -79 -99 -153q0 -54 39.5 -92t103.5 -38q105 0 185 69z" />
    <glyph glyph-name="quotesingle" unicode="'" horiz-adv-x="199" 
d="M147 699l-14 -230h-67l-14 230h95z" />
    <glyph glyph-name="parenleft" unicode="(" horiz-adv-x="303" 
d="M283 -176l-67 -33q-146 231 -146 493q0 264 147 497l65 -31q-124 -213 -124 -461q0 -255 125 -465z" />
    <glyph glyph-name="parenright" unicode=")" horiz-adv-x="303" 
d="M238 289q0 -266 -147 -498l-65 32q124 210 124 460q0 255 -125 466l68 32q145 -231 145 -492z" />
    <glyph glyph-name="asterisk" unicode="*" horiz-adv-x="374" 
d="M330 535l-34 -58l-90 66l11 -112h-67l11 112l-90 -66l-33 58l103 45l-103 46l34 58l90 -66l-11 112h67l-12 -112l91 66l33 -58l-103 -45z" />
    <glyph glyph-name="plus" unicode="+" 
d="M508 260h-191v-201h-85v201h-190v75h190v200h85v-200h191v-75z" />
    <glyph glyph-name="comma" unicode="," horiz-adv-x="228" 
d="M112 113q39 0 56 -36t-7.5 -100.5t-96.5 -130.5l-38 34q85 91 43 144q-21 26 -7 57.5t50 31.5z" />
    <glyph glyph-name="hyphen" unicode="-" horiz-adv-x="330" 
d="M283 250h-236v74h236v-74z" />
    <glyph glyph-name="hyphen" unicode="&#xad;" horiz-adv-x="330" 
d="M283 250h-236v74h236v-74z" />
    <glyph glyph-name="period" unicode="." horiz-adv-x="228" 
d="M176 53q0 -26 -18 -44t-44 -18t-44 18.5t-18 43.5t18 43.5t44 18.5t44 -18t18 -44z" />
    <glyph glyph-name="slash" unicode="/" horiz-adv-x="438" 
d="M439 757l-350 -918h-86l350 918h86z" />
    <glyph glyph-name="zero" unicode="0" horiz-adv-x="585" 
d="M537 344q0 -173 -70.5 -263t-181.5 -90q-237 0 -237 340q0 173 70.5 262.5t181.5 89.5q237 0 237 -339zM441 336q0 272 -147 272q-69 0 -109.5 -65t-40.5 -204q0 -272 148 -272q68 0 108.5 64.5t40.5 204.5z" />
    <glyph glyph-name="one" unicode="1" horiz-adv-x="352" 
d="M261 0h-93v583l-127 -50l-15 84l162 58h73v-675z" />
    <glyph glyph-name="two" unicode="2" horiz-adv-x="501" 
d="M453 0h-393v74l127 146q82 94 112.5 153t30.5 115q0 51 -30.5 83.5t-87.5 32.5q-67 0 -132 -41l-13 82q78 39 169 39t141.5 -51t50.5 -131q0 -70 -37 -141.5t-127 -173.5l-89 -104v-1q80 4 278 4v-86z" />
    <glyph glyph-name="three" unicode="3" horiz-adv-x="489" 
d="M429 203q0 -92 -74 -151.5t-188 -59.5q-68 0 -109 11l10 81q42 -14 104 -14q73 0 116.5 36.5t43.5 91.5q0 54 -45.5 86t-130.5 32q-24 0 -62 -4v73q213 -6 213 125q0 46 -29 72t-82 26q-62 0 -117 -30l-8 77q68 29 145 29q91 0 138.5 -44t47.5 -113q0 -57 -30.5 -99.5
t-82.5 -61.5l-1 -2q63 -14 102 -57t39 -104z" />
    <glyph glyph-name="four" unicode="4" horiz-adv-x="544" 
d="M524 158h-113v-158h-89v158h-299l-6 70l273 447h121v-435h113v-82zM323 239v351h-1l-217 -353q59 2 218 2z" />
    <glyph glyph-name="five" unicode="5" horiz-adv-x="462" 
d="M426 223q0 -103 -75.5 -167t-194.5 -64q-50 0 -100 10l10 82q41 -13 97 -13q78 0 123 38.5t45 102.5q0 125 -195 125q-39 0 -57 -2v340h311v-86h-226v-178q131 1 196.5 -48t65.5 -140z" />
    <glyph glyph-name="six" unicode="6" horiz-adv-x="576" 
d="M528 225q0 -102 -66 -168.5t-171 -66.5q-53 0 -94 19t-65 48t-39.5 69t-21 77t-5.5 78q0 201 95 301.5t246 100.5q41 0 60 -3v-80q-26 5 -66 5q-191 0 -232 -209l-8 -42l1 -1q55 73 162 73q94 0 149 -55t55 -146zM434 211q0 64 -34.5 102t-97.5 38q-60 0 -98 -38.5
t-38 -92.5q0 -70 35.5 -111.5t97.5 -41.5q60 0 97.5 39.5t37.5 104.5z" />
    <glyph glyph-name="seven" unicode="7" horiz-adv-x="455" 
d="M426 597q-60 -129 -114.5 -293t-84.5 -304h-102q36 150 93.5 316t106.5 273q-31 -2 -300 -2v88h401v-78z" />
    <glyph glyph-name="eight" unicode="8" horiz-adv-x="551" 
d="M493 173q0 -85 -65 -134t-163 -49q-99 0 -154 46.5t-55 122.5q0 57 36.5 100.5t99.5 83.5q-63 36 -94 76t-31 91q0 80 59.5 129t157.5 49q89 0 142 -45t53 -115q0 -54 -34 -93.5t-96 -80.5q144 -78 144 -181zM385 520q0 41 -28.5 68t-81.5 27t-84.5 -26t-31.5 -69
q0 -38 28.5 -67t88.5 -61q59 37 84 65.5t25 62.5zM398 164q0 45 -34 76t-99 65q-55 -33 -84.5 -64t-29.5 -73q0 -47 33.5 -74.5t90.5 -27.5q53 0 88 26t35 72z" />
    <glyph glyph-name="nine" unicode="9" horiz-adv-x="582" 
d="M516 394q0 -199 -91.5 -301t-250.5 -102q-46 0 -81 6v84q40 -11 91 -11q184 0 222 199q3 10 6.5 27t4.5 22l-1 1q-22 -32 -63.5 -52.5t-95.5 -20.5q-93 0 -148 55t-55 148q0 100 65.5 167.5t169.5 67.5q54 0 95.5 -19t66 -48t39.5 -69t20.5 -77t5.5 -77zM414 454
q0 71 -35.5 112.5t-97.5 41.5q-58 0 -95.5 -40t-37.5 -105q0 -63 34 -101.5t97 -38.5q59 0 97 39t38 92z" />
    <glyph glyph-name="colon" unicode=":" horiz-adv-x="286" 
d="M220 346q0 -26 -18 -44t-44 -18t-44 18t-18 44t18 44t44 18t44 -18t18 -44zM220 53q0 -25 -18 -43.5t-44 -18.5t-44 18.5t-18 43.5t18 43.5t44 18.5t44 -18.5t18 -43.5z" />
    <glyph glyph-name="semicolon" unicode=";" horiz-adv-x="286" 
d="M220 346q0 -26 -18 -44t-44 -18t-44 18t-18 44t18 44t44 18t44 -18t18 -44zM157 113q39 0 56 -36t-7.5 -100.5t-96.5 -130.5l-38 34q85 91 43 144q-21 26 -7 57.5t50 31.5z" />
    <glyph glyph-name="semicolon" unicode="&#x37e;" horiz-adv-x="286" 
d="M220 346q0 -26 -18 -44t-44 -18t-44 18t-18 44t18 44t44 18t44 -18t18 -44zM157 113q39 0 56 -36t-7.5 -100.5t-96.5 -130.5l-38 34q85 91 43 144q-21 26 -7 57.5t50 31.5z" />
    <glyph glyph-name="less" unicode="&#x3c;" 
d="M446 81l-58 -62l-316 283l316 284l58 -58l-259 -225z" />
    <glyph glyph-name="equal" unicode="=" 
d="M494 345h-438v75h438v-75zM494 175h-438v74h438v-74z" />
    <glyph glyph-name="greater" unicode="&#x3e;" 
d="M478 303l-316 -284l-58 58l259 225l-259 222l58 62z" />
    <glyph glyph-name="question" unicode="?" horiz-adv-x="445" 
d="M385 516q0 -38 -15 -70t-36 -52.5t-44.5 -44.5t-40 -45.5t-22.5 -57t8 -78.5h-88q-16 47 -12 85.5t19.5 64t38 50t43.5 43t35.5 44t14.5 52.5q0 50 -55 83.5t-147 37.5l11 82q134 -4 212 -60t78 -134zM252 50q0 -25 -17.5 -42t-43.5 -17q-25 0 -42.5 17t-17.5 42t17.5 42
t42.5 17q26 0 43.5 -17t17.5 -42z" />
    <glyph glyph-name="at" unicode="@" horiz-adv-x="978" 
d="M883 406q0 -130 -63.5 -203.5t-163.5 -73.5q-58 0 -85 32t-20 77h-3q-14 -37 -57.5 -73t-92.5 -36q-98 0 -98 135q0 116 59 192t168 76q68 0 122 -14l-38 -213q-18 -102 59 -102q58 0 94.5 51.5t36.5 146.5q0 51 -16 96t-48 82.5t-88 59.5t-130 22q-148 0 -249 -104
t-101 -264q0 -143 79.5 -223.5t229.5 -80.5q84 0 168 26l13 -73q-87 -28 -192 -28q-180 0 -280.5 98.5t-100.5 268.5q0 195 128 323.5t310 128.5q88 0 158 -26.5t113 -72.5t65.5 -104t22.5 -124zM566 463q-24 6 -58 6q-43 0 -74.5 -32.5t-44.5 -74t-13 -82.5q0 -77 43 -77
q40 0 78.5 54t57.5 153z" />
    <glyph glyph-name="A" unicode="A" horiz-adv-x="615" 
d="M606 0h-103l-56 158h-287l-56 -158h-94l245 675h104zM423 231l-90 253q-15 41 -29 92h-2q-14 -50 -28 -90l-91 -255h240z" />
    <glyph glyph-name="B" unicode="B" horiz-adv-x="570" 
d="M519 202q0 -37 -13.5 -71t-42 -65.5t-82 -50t-124.5 -18.5q-28 0 -89.5 1.5t-82.5 1.5v675q147 3 197 3q107 0 161.5 -42.5t54.5 -119.5q0 -54 -30.5 -96t-85.5 -61v-2q62 -8 99.5 -50.5t37.5 -104.5zM402 501q0 104 -135 104q-38 0 -90 -2v-219q19 -1 61 -1
q82 0 123 30.5t41 87.5zM422 197q0 117 -182 117q-47 0 -63 -1v-237q45 -5 86 -5q79 0 119 35t40 91z" />
    <glyph glyph-name="C" unicode="C" horiz-adv-x="583" 
d="M538 28q-87 -36 -185 -36q-156 0 -231.5 89t-75.5 240q0 163 83 261.5t247 98.5q83 0 155 -21l-15 -84q-76 26 -150 26q-110 0 -165 -74t-55 -192q0 -262 229 -262q80 0 148 34z" />
    <glyph glyph-name="D" unicode="D" horiz-adv-x="678" 
d="M632 345q0 -169 -102.5 -259t-273.5 -90q-36 0 -92 2t-79 2v674q16 0 55.5 1.5t76.5 2t70 0.5q345 0 345 -333zM535 339q0 264 -257 264q-26 0 -101 -3v-520q37 -6 89 -6q124 0 196.5 66.5t72.5 198.5z" />
    <glyph glyph-name="E" unicode="E" horiz-adv-x="501" 
d="M432 0h-347v675h347v-76h-255v-214h243v-74h-243v-234h255v-77z" />
    <glyph glyph-name="F" unicode="F" horiz-adv-x="469" 
d="M429 599h-252v-219h239v-74h-239v-306h-92v675h344v-76z" />
    <glyph glyph-name="G" unicode="G" horiz-adv-x="682" 
d="M601 30q-105 -39 -223 -39q-158 0 -246.5 87.5t-88.5 242.5q0 163 94.5 263t268.5 100q94 0 187 -29l-20 -83q-86 33 -176 33q-128 0 -192 -77t-64 -193q0 -126 66 -195t184 -69q60 0 119 18v255h91v-314z" />
    <glyph glyph-name="H" unicode="H" horiz-adv-x="698" 
d="M613 0h-92v311h-344v-311h-92v675h92v-286h344v286h92v-675z" />
    <glyph glyph-name="I" unicode="I" horiz-adv-x="262" 
d="M177 0h-92v675h92v-675z" />
    <glyph glyph-name="J" unicode="J" horiz-adv-x="329" 
d="M245 176q0 -183 -169 -183q-41 0 -75 8v80q33 -11 69 -11q43 0 63 24t20 88v493h92v-499z" />
    <glyph glyph-name="K" unicode="K" horiz-adv-x="584" 
d="M569 0h-125l-267 334v-334h-92v675h92v-318l268 318h114l-286 -326z" />
    <glyph glyph-name="L" unicode="L" horiz-adv-x="426" 
d="M419 0h-334v675h92v-596h242v-79z" />
    <glyph glyph-name="M" unicode="M" horiz-adv-x="889" 
d="M841 0h-96l-57 391q-14 105 -21 171h-2q-19 -77 -35 -127l-144 -435h-98l-137 407q-28 83 -43 155h-2q-4 -77 -18 -179l-46 -383h-94l99 675h112l143 -426q16 -44 39 -134h1q19 73 37 128l146 432h114z" />
    <glyph glyph-name="N" unicode="N" horiz-adv-x="707" 
d="M622 0h-122l-262 433q-46 75 -71 133q7 -124 7 -378v-188h-89v675h122l259 -425q41 -69 74 -137q-7 196 -7 390v172h89v-675z" />
    <glyph glyph-name="O" unicode="O" horiz-adv-x="705" 
d="M663 346q0 -164 -92 -260t-228 -96q-148 0 -224.5 90.5t-76.5 248.5q0 164 91.5 260t228.5 96q148 0 224.5 -90.5t76.5 -248.5zM565 332q0 125 -54 198.5t-158 73.5q-91 0 -152 -70t-61 -191q0 -125 54 -198t158 -73q91 0 152 69.5t61 190.5z" />
    <glyph glyph-name="P" unicode="P" horiz-adv-x="528" 
d="M495 482q0 -102 -69 -165.5t-187 -63.5l-62 3v-256h-92v675q89 4 169 4q115 0 178 -53t63 -144zM400 470q0 133 -156 133l-67 -2v-266q32 -6 70 -6q75 0 114 37.5t39 103.5z" />
    <glyph glyph-name="Q" unicode="Q" horiz-adv-x="704" 
d="M704 -67q-57 -7 -103.5 0t-73.5 20.5t-69 25t-89 11.5h-26q-148 0 -224.5 90.5t-76.5 248.5q0 164 91.5 260t228.5 96q148 0 224.5 -90.5t76.5 -248.5q0 -108 -42.5 -188.5t-121.5 -114.5q26 0 88.5 -17.5t116.5 -11.5v-81zM565 332q0 125 -54 198.5t-158 73.5
q-91 0 -152 -70t-61 -191q0 -125 54 -198t158 -73q91 0 152 70t61 190z" />
    <glyph glyph-name="R" unicode="R" horiz-adv-x="553" 
d="M527 0h-117l-221 302h-12v-302h-92v675q61 4 169 4q229 0 229 -176q0 -83 -56.5 -133.5t-141.5 -56.5q33 -39 58 -72zM387 491q0 60 -37 86.5t-112 26.5q-25 0 -61 -2v-230q20 -2 57 -2q72 0 112.5 33t40.5 88z" />
    <glyph glyph-name="S" unicode="S" horiz-adv-x="503" 
d="M455 198q0 -91 -69 -149t-181 -58q-81 0 -148 19l11 88q68 -27 142 -27q64 0 105 28t41 87q0 35 -22.5 60.5t-56.5 39t-73.5 30.5t-73.5 35.5t-56.5 55t-22.5 86.5q0 85 62.5 138t173.5 53q67 0 122 -13l-11 -81q-59 18 -116 18q-67 0 -101.5 -28t-34.5 -77
q0 -40 32 -66.5t77 -43.5t90.5 -37t77.5 -59.5t32 -98.5z" />
    <glyph glyph-name="T" unicode="T" horiz-adv-x="516" 
d="M499 598h-195v-598h-92v598h-194v77h481v-77z" />
    <glyph glyph-name="U" unicode="U" horiz-adv-x="693" 
d="M607 258q0 -132 -68.5 -200t-200.5 -68q-76 0 -128 19.5t-78 55t-36.5 74t-10.5 88.5v448h92v-441q0 -79 36.5 -123.5t130.5 -44.5q90 0 131.5 42.5t41.5 142.5v424h90v-417z" />
    <glyph glyph-name="V" unicode="V" horiz-adv-x="618" 
d="M606 675l-249 -675h-103l-243 675h102l151 -434q32 -97 43 -138h2q17 65 47 145l155 427h95z" />
    <glyph glyph-name="W" unicode="W" horiz-adv-x="952" 
d="M918 675l-178 -675h-113l-129 454q-17 66 -25 117h-1q-6 -43 -24 -117l-126 -454h-110l-178 675h98l114 -440q16 -59 27 -130h1q11 66 27 125l125 445h104l129 -448q17 -61 27 -120h1q11 60 23 110l117 458h91z" />
    <glyph glyph-name="X" unicode="X" horiz-adv-x="599" 
d="M582 0h-115l-172 279l-171 -279h-107l222 348l-208 327h106l160 -258l157 258h104l-205 -324z" />
    <glyph glyph-name="Y" unicode="Y" horiz-adv-x="537" 
d="M527 675l-215 -432v-243h-92v243l-211 432h101l107 -228q29 -60 51 -117h1q16 41 58 129l104 216h96z" />
    <glyph glyph-name="Z" unicode="Z" horiz-adv-x="539" 
d="M495 0h-449v68l283 446q38 58 55 81q-64 -2 -148 -2h-180v82h435v-70l-298 -464l-40 -59q21 2 168 2h174v-84z" />
    <glyph glyph-name="bracketleft" unicode="[" horiz-adv-x="322" 
d="M284 -199h-198v970h198v-69h-114v-830h114v-71z" />
    <glyph glyph-name="backslash" unicode="\" horiz-adv-x="442" 
d="M448 -161h-87l-350 918h87z" />
    <glyph glyph-name="bracketright" unicode="]" horiz-adv-x="322" 
d="M236 -199h-198v71h114v830h-114v69h198v-970z" />
    <glyph glyph-name="asciicircum" unicode="^" 
d="M474 377l-66 -34l-144 265l-138 -265l-62 33l165 299h73z" />
    <glyph glyph-name="underscore" unicode="_" 
d="M550 -249h-550v71h550v-71z" />
    <glyph glyph-name="grave" unicode="`" horiz-adv-x="369" 
d="M270 619l-38 -49l-151 114l49 60z" />
    <glyph glyph-name="a" unicode="a" horiz-adv-x="521" 
d="M438 0h-88q0 71 5 99h-2q-19 -47 -64 -77.5t-105 -30.5q-62 0 -100 37t-38 97q0 81 78.5 126t220.5 45v23q0 61 -24 89t-81 28q-73 0 -150 -36l-17 71q86 36 179 36q99 0 141 -44.5t42 -129.5v-190q0 -79 3 -143zM345 220v13q-210 0 -210 -95q0 -33 21 -54.5t55 -21.5
q58 0 96 48.5t38 109.5z" />
    <glyph glyph-name="b" unicode="b" horiz-adv-x="558" 
d="M515 272q0 -130 -69.5 -204.5t-189.5 -74.5q-95 0 -171 20v717h90v-241q0 -55 -9 -93l2 -1q20 52 63.5 81.5t100.5 29.5q88 0 135.5 -60t47.5 -174zM421 264q0 168 -110 168q-63 0 -99.5 -59.5t-36.5 -131.5v-165q39 -12 88 -12q74 0 116 48.5t42 151.5z" />
    <glyph glyph-name="c" unicode="c" horiz-adv-x="435" 
d="M407 19q-67 -27 -148 -27q-99 0 -158.5 56t-59.5 184q0 124 62.5 198.5t179.5 74.5q67 0 122 -21l-17 -77q-55 23 -113 23q-66 0 -102.5 -51t-36.5 -135q0 -174 141 -174q65 0 116 24z" />
    <glyph glyph-name="d" unicode="d" horiz-adv-x="557" 
d="M472 0h-87q0 62 8 101l-2 1q-21 -51 -65 -81t-102 -30q-90 0 -136.5 61.5t-46.5 172.5q0 130 69.5 204.5t187.5 74.5q34 0 84 -5v231h90v-730zM382 257v165q-47 11 -88 11q-158 0 -158 -200q0 -168 110 -168q63 0 99.5 59.5t36.5 132.5z" />
    <glyph glyph-name="e" unicode="e" horiz-adv-x="508" 
d="M462 302q0 -26 -3 -56h-325q-4 -182 157 -182q75 0 142 29l13 -71q-78 -31 -172 -31q-233 0 -233 255q0 114 60.5 187t163.5 73q99 0 148 -57t49 -147zM370 310q1 60 -28.5 94t-82.5 34q-49 0 -82 -34t-41 -94h234z" />
    <glyph glyph-name="f" unicode="f" horiz-adv-x="350" 
d="M382 727l-8 -75q-32 11 -73 11q-53 0 -77.5 -31t-24.5 -97v-38h138v-70h-138v-427h-90v427h-102v70h102v37q0 202 191 202q42 0 82 -9z" />
    <glyph glyph-name="g" unicode="g" horiz-adv-x="541" 
d="M512 -67q0 -80 -74 -134.5t-189 -54.5q-97 0 -153 39t-56 110q0 42 23.5 77t59.5 55q-49 21 -49 74q0 26 15 49t40 35q-73 44 -73 137q0 79 56.5 132.5t154.5 53.5q33 0 70 -9h169v-71h-82q40 -32 40 -92q0 -80 -54 -130t-156 -50q-28 0 -53 7q-32 -15 -32 -42
q0 -21 19.5 -29t65.5 -10l91 -3q81 -3 124 -40t43 -104zM375 328q0 52 -29.5 81.5t-82.5 29.5q-55 0 -86.5 -31t-31.5 -80q0 -52 30 -80.5t85 -28.5q54 0 84.5 29t30.5 80zM421 -78q0 77 -102 80l-96 4q-21 0 -29 1q-64 -44 -64 -98q0 -43 37 -68.5t97 -25.5q74 0 115.5 30
t41.5 77z" />
    <glyph glyph-name="h" unicode="h" horiz-adv-x="575" 
d="M491 0h-90v320q0 56 -19 84t-66 28q-61 0 -101 -55.5t-40 -138.5v-238h-90v730h90v-236q0 -64 -9 -99l2 -1q22 52 67 82t106 30q150 0 150 -159v-347z" />
    <glyph glyph-name="i" unicode="i" horiz-adv-x="260" 
d="M190 654q0 -24 -17.5 -41t-42.5 -17t-42.5 16.5t-17.5 41.5t17.5 42t42.5 17t42.5 -17t17.5 -42zM175 0h-90v497h90v-497z" />
    <glyph glyph-name="j" unicode="j" horiz-adv-x="266" 
d="M196 654q0 -24 -17.5 -41t-41.5 -17q-25 0 -42.5 16.5t-17.5 41.5t17.5 42t42.5 17q24 0 41.5 -17t17.5 -42zM181 -55q0 -103 -38 -151t-133 -48q-39 0 -69 9l8 79q33 -12 63 -12q46 0 63 24t17 91v560h89v-552z" />
    <glyph glyph-name="k" unicode="k" horiz-adv-x="493" 
d="M474 0h-115l-184 256v-256h-90v730h90v-451l175 218h109l-191 -227z" />
    <glyph glyph-name="l" unicode="l" horiz-adv-x="260" 
d="M175 0h-90v730h90v-730z" />
    <glyph glyph-name="m" unicode="m" horiz-adv-x="879" 
d="M794 0h-90v319q0 56 -17.5 84.5t-63.5 28.5q-56 0 -97.5 -54.5t-41.5 -141.5v-236h-89v319q0 54 -17 83.5t-64 29.5q-58 0 -98.5 -56t-40.5 -140v-236h-90v497h87q0 -63 -7 -105l1 -1q22 53 68 84t105 31q37 0 64.5 -11.5t42 -30t21.5 -36t9 -35.5q20 44 62.5 78.5
t107.5 34.5q148 0 148 -163v-343z" />
    <glyph glyph-name="n" unicode="n" horiz-adv-x="575" 
d="M491 0h-90v320q0 56 -19 84t-66 28q-61 0 -101 -55.5t-40 -138.5v-238h-90v497h87q0 -65 -8 -105h2q22 53 67.5 83.5t107.5 30.5q150 0 150 -159v-347z" />
    <glyph glyph-name="o" unicode="o" horiz-adv-x="545" 
d="M505 257q0 -115 -67 -190.5t-175 -75.5q-105 0 -164 62.5t-59 190.5q0 112 66 187t176 75q102 0 162.5 -60.5t60.5 -188.5zM412 252q0 86 -35 132.5t-103 46.5q-59 0 -100 -45.5t-41 -132.5q0 -90 36.5 -138t104.5 -48q59 0 98.5 47t39.5 138z" />
    <glyph glyph-name="p" unicode="p" horiz-adv-x="558" 
d="M515 272q0 -132 -67.5 -205t-188.5 -73q-49 0 -84 6v-247h-90v744h87q0 -64 -8 -101l2 -1q21 52 64.5 81.5t102.5 29.5q87 0 134.5 -60.5t47.5 -173.5zM421 264q0 168 -110 168q-63 0 -99.5 -59.5t-36.5 -132.5v-164q39 -12 88 -12q74 0 116 48.5t42 151.5z" />
    <glyph glyph-name="q" unicode="q" horiz-adv-x="558" 
d="M473 -247h-89v258q0 54 7 89l-2 1q-20 -51 -63.5 -80.5t-98.5 -29.5q-89 0 -136.5 59t-47.5 174q0 131 69.5 206t192.5 75q79 0 168 -14v-738zM384 258v165q-43 10 -89 10q-157 0 -157 -200q0 -168 109 -168q63 0 100 60t37 133z" />
    <glyph glyph-name="r" unicode="r" horiz-adv-x="355" 
d="M334 506l-4 -89q-78 14 -116.5 -41t-38.5 -176v-200h-90v497h87q0 -62 -11 -118h2q18 60 60.5 97t110.5 30z" />
    <glyph glyph-name="s" unicode="s" horiz-adv-x="425" 
d="M375 150q0 -70 -57 -114.5t-153 -44.5q-65 0 -110 13l8 80q49 -20 110 -20q49 0 78.5 20.5t29.5 55.5q0 30 -24 48t-57.5 27t-67.5 21.5t-58 42.5t-24 78q0 66 51 107.5t147 41.5q46 0 96 -10l-7 -74q-48 15 -97 15q-97 0 -97 -71q0 -30 24 -48t58 -27.5t68 -22.5t58 -42
t24 -76z" />
    <glyph glyph-name="t" unicode="t" horiz-adv-x="371" 
d="M338 3q-46 -11 -100 -11q-75 0 -104 33.5t-29 115.5v286h-102v70h102v161l90 25v-186h139v-70h-139v-254q0 -61 15 -82.5t56 -21.5q34 0 63 8z" />
    <glyph glyph-name="u" unicode="u" horiz-adv-x="575" 
d="M490 0h-87q0 65 8 105h-2q-22 -53 -67.5 -83.5t-107.5 -30.5q-149 0 -149 159v347h89v-320q0 -56 19 -84t66 -28q61 0 101 55.5t40 138.5v238h90v-497z" />
    <glyph glyph-name="v" unicode="v" horiz-adv-x="486" 
d="M476 497l-183 -497h-103l-181 497h100l105 -304q19 -62 29 -101h2q12 48 28 99l107 306h96z" />
    <glyph glyph-name="w" unicode="w" horiz-adv-x="793" 
d="M777 497l-161 -497h-101l-99 293q-13 39 -28 99h-1q-10 -45 -35 -125l-83 -267h-100l-153 497h99l76 -265q29 -102 36 -130h1q12 53 34 128l85 267h96l86 -264q30 -97 38 -132h1q10 44 34 128l80 268h95z" />
    <glyph glyph-name="x" unicode="x" horiz-adv-x="518" 
d="M498 0h-117l-125 191l-126 -191h-109l182 249l-173 248h110l123 -187l125 187h102l-172 -245z" />
    <glyph glyph-name="y" unicode="y" horiz-adv-x="480" 
d="M472 497l-204 -539q-45 -119 -97 -166t-137 -47q-26 0 -58 6l10 80q26 -8 60 -8q42 0 73.5 27t57.5 96l20 54l-188 497h102l94 -258q16 -45 38 -123h2q13 51 49 153l80 228h98z" />
    <glyph glyph-name="z" unicode="z" horiz-adv-x="447" 
d="M396 0h-348v64l238 355q-56 -2 -131 -2h-102v80h338v-63l-235 -353q54 2 135 2h105v-83z" />
    <glyph glyph-name="braceleft" unicode="{" horiz-adv-x="341" 
d="M309 -199h-18q-84 0 -120 47.5t-36 147.5v175q0 59 -24 83t-82 27v71q60 3 83 25.5t23 82.5v117q0 194 156 194h18v-69q-52 0 -71.5 -26t-19.5 -96v-116q0 -129 -93 -146v-2q93 -14 93 -148v-174q0 -70 19.5 -96t71.5 -26v-71z" />
    <glyph glyph-name="bar" unicode="|" horiz-adv-x="285" 
d="M177 -247h-71v1000h71v-1000z" />
    <glyph glyph-name="braceright" unicode="}" horiz-adv-x="338" 
d="M318 281q-58 -3 -82 -27t-24 -83v-175q0 -100 -36 -147.5t-120 -47.5h-18v71q52 0 71.5 26t19.5 96v174q0 134 93 148v2q-93 12 -93 142v120q0 70 -19.5 96t-71.5 26v69h18q156 0 156 -194v-113q0 -63 23 -86t83 -26v-71z" />
    <glyph glyph-name="asciitilde" unicode="~" 
d="M497 564q0 -65 -36 -105.5t-97 -40.5q-31 0 -54.5 11.5t-38 27.5t-27 32t-28 27.5t-34.5 11.5q-59 0 -61 -89h-67v10q0 66 36.5 106.5t97.5 40.5q37 0 65 -17.5t41.5 -38t33 -38t42.5 -17.5q58 0 60 89h67v-10z" />
    <glyph glyph-name="uni00A0" unicode="&#xa0;" horiz-adv-x="120" 
 />
    <glyph glyph-name="exclamdown" unicode="&#xa1;" horiz-adv-x="320" 
d="M211 447q0 -25 -17.5 -42t-42.5 -17t-42.5 17t-17.5 42t17.5 42t42.5 17t42.5 -17t17.5 -42zM204 -206h-107l15 535h76z" />
    <glyph glyph-name="cent" unicode="&#xa2;" horiz-adv-x="455" 
d="M413 65q-51 -23 -106 -27v-106h-71v106q-93 9 -143 70t-50 165q0 97 52 163t141 79v92h71v-88q55 -2 103 -20l-7 -78q-52 25 -112 25q-72 0 -113.5 -44.5t-41.5 -123.5q0 -74 36.5 -119t116.5 -45q64 0 117 30z" />
    <glyph glyph-name="sterling" unicode="&#xa3;" horiz-adv-x="471" 
d="M442 0h-400v63q56 43 78 83.5t22 98.5q0 30 -5 76h-107v70h97q-11 84 -11 115q0 86 49.5 132t139.5 46q60 0 105 -13l-16 -77q-46 17 -89 17q-47 0 -73 -25.5t-26 -73.5q0 -34 12 -121h151v-70h-142q4 -36 4 -67q0 -61 -18 -100.5t-65 -79.5q43 5 102 5h192v-79z" />
    <glyph glyph-name="currency" unicode="&#xa4;" 
d="M501 110l-66 -50l-80 108q-39 -24 -88 -24q-37 0 -68 13l-72 -97l-67 49l73 90q-40 46 -40 130q0 77 45 125l-78 96l66 48l74 -101q33 18 82 18q46 0 80 -17l75 101l64 -49l-77 -97q33 -43 33 -118q0 -71 -40 -121zM376 334q0 114 -104 114q-42 0 -70 -32t-28 -85
q0 -54 24.5 -87t78.5 -33q41 0 70 33.5t29 89.5z" />
    <glyph glyph-name="yen" unicode="&#xa5;" horiz-adv-x="591" 
d="M557 675l-194 -384h142v-61h-164v-70h164v-61h-164v-99h-91v99h-165v61h165v70h-165v61h143l-190 384h100l107 -222q27 -54 51 -121h1q21 58 59 132l104 211h97z" />
    <glyph glyph-name="brokenbar" unicode="&#xa6;" horiz-adv-x="285" 
d="M177 385h-71v368h71v-368zM177 -247h-71v378h71v-378z" />
    <glyph glyph-name="section" unicode="&#xa7;" horiz-adv-x="520" 
d="M434 235q0 -83 -79 -141q39 -53 39 -105q0 -64 -48.5 -109t-140.5 -45q-38 0 -79 11l7 76q39 -12 75 -12q43 0 67 21t24 55q0 29 -23.5 60.5t-56.5 62t-66.5 63.5t-57 76.5t-23.5 90.5q0 82 79 142q-39 50 -39 103q0 66 45.5 109t134.5 43q38 0 75 -8l-6 -76
q-36 10 -70 10q-84 0 -84 -72q0 -28 23.5 -60t56.5 -63t66.5 -64.5t57 -77.5t23.5 -90zM349 223q0 22 -7.5 42.5t-25.5 43t-32 38t-42 43t-42 41.5q-43 -32 -43 -81q0 -17 6.5 -35.5t14 -32t26.5 -35t28.5 -31.5t37.5 -37t37 -36q42 29 42 80z" />
    <glyph glyph-name="dieresis" unicode="&#xa8;" horiz-adv-x="546" 
d="M414 654q0 -23 -15.5 -38.5t-37.5 -15.5q-23 0 -38.5 16t-15.5 38t15.5 38t38.5 16q22 0 37.5 -15.5t15.5 -38.5zM222 654q0 -23 -15.5 -38.5t-37.5 -15.5q-23 0 -38.5 16t-15.5 38t15.5 38t38.5 16q22 0 37.5 -15.5t15.5 -38.5z" />
    <glyph glyph-name="copyright" unicode="&#xa9;" horiz-adv-x="756" 
d="M712 336q0 -140 -98 -238t-238 -98q-142 0 -239 97t-97 237q0 139 98 237t238 98t238 -97t98 -236zM641 334q0 110 -77.5 188.5t-187.5 78.5t-187 -77.5t-77 -187.5t77.5 -189t186.5 -79q110 0 187.5 78t77.5 188zM475 175q-46 -17 -99 -17q-79 0 -118.5 46.5
t-39.5 125.5t42.5 131t131.5 52q43 0 79 -13l-8 -64q-32 16 -72 16q-95 0 -95 -119q0 -111 91 -111q42 0 78 15z" />
    <glyph glyph-name="ordfeminine" unicode="&#xaa;" horiz-adv-x="389" 
d="M320 343h-74q0 32 5 53l-2 1q-10 -25 -39 -43t-62 -18q-50 0 -75 23.5t-25 62.5q0 57 52.5 89.5t144.5 32.5v18q0 60 -65 60q-55 0 -105 -26l-7 66q55 21 123 21q69 0 98.5 -31t29.5 -80v-142q0 -70 1 -87zM345 211h-288v71h288v-71zM245 484v9q-123 0 -123 -59
q0 -17 11.5 -27.5t31.5 -10.5q37 0 58.5 30.5t21.5 57.5z" />
    <glyph glyph-name="guillemotleft" unicode="&#xab;" horiz-adv-x="509" 
d="M437 152l-68 -36l-122 177l123 180l66 -35l-100 -144zM237 150l-70 -36l-113 179l114 182l68 -35l-92 -146z" />
    <glyph glyph-name="logicalnot" unicode="&#xac;" 
d="M482 103h-79v157h-361v75h440v-232z" />
    <glyph glyph-name="registered" unicode="&#xae;" horiz-adv-x="562" 
d="M501 529q0 -90 -65 -154.5t-155 -64.5q-93 0 -157 63.5t-64 155.5q0 91 64.5 154.5t156.5 63.5t156 -63t64 -155zM441 527q0 67 -47 115.5t-113 48.5q-67 0 -113.5 -47t-46.5 -114t47 -115.5t113 -48.5t113 47.5t47 113.5zM373 416h-60l-53 95h-4v-95h-49v228h79
q78 0 78 -60q0 -56 -53 -66q5 -5 19 -29zM312 578q0 28 -35 28h-21v-63h14q22 0 32 10.5t10 24.5z" />
    <glyph glyph-name="macron" unicode="&#xaf;" horiz-adv-x="395" 
d="M324 616h-253v68h253v-68z" />
    <glyph glyph-name="macron" unicode="&#x2c9;" horiz-adv-x="395" 
d="M324 616h-253v68h253v-68z" />
    <glyph glyph-name="degree" unicode="&#xb0;" horiz-adv-x="376" 
d="M319 611q0 -58 -41 -93t-96 -35q-59 0 -94 34t-35 92t40.5 93t94.5 35q64 0 97.5 -35.5t33.5 -90.5zM249 610q0 27 -15.5 48t-47.5 21q-27 0 -44.5 -19.5t-17.5 -49.5q0 -32 17 -50t44 -18q28 0 46 19t18 49z" />
    <glyph glyph-name="plusminus" unicode="&#xb1;" 
d="M508 336h-190v-197h-86v197h-190v74h190v196h86v-196h190v-74zM506 0h-462v75h462v-75z" />
    <glyph glyph-name="twosuperior" unicode="&#xb2;" horiz-adv-x="357" 
d="M319 364h-280v62l93 93q81 81 81 134q0 32 -17.5 50.5t-52.5 18.5q-46 0 -87 -23l-13 64q58 26 120 26q65 0 102 -32.5t37 -88.5q0 -45 -20 -83t-64 -83l-69 -69q45 2 170 2v-71z" />
    <glyph glyph-name="threesuperior" unicode="&#xb3;" horiz-adv-x="348" 
d="M301 491q0 -60 -49.5 -97t-128.5 -37q-40 0 -87 9l9 63q33 -11 80 -11q42 0 65.5 18.5t23.5 49.5q0 36 -38 53t-111 8v59q136 0 136 70q0 25 -17.5 39t-49.5 14q-42 0 -83 -18l-9 59q54 19 110 19q63 0 98.5 -26.5t35.5 -76.5q0 -72 -69 -97q40 -9 62 -36t22 -62z" />
    <glyph glyph-name="acute" unicode="&#xb4;" horiz-adv-x="389" 
d="M299 684l-151 -114l-38 48l140 126z" />
    <glyph glyph-name="mu" unicode="&#xb5;" horiz-adv-x="586" 
d="M550 -4q-19 -4 -38 -4q-104 0 -99 111l-1 1q-20 -52 -62.5 -82t-100.5 -30q-57 0 -83 35l11 -274h-92v744h90v-328q0 -104 84 -104q63 0 102.5 54.5t39.5 140.5v237h90v-325q0 -65 11.5 -85t47.5 -20v-71z" />
    <glyph glyph-name="mu" unicode="&#x3bc;" horiz-adv-x="586" 
d="M550 -4q-19 -4 -38 -4q-104 0 -99 111l-1 1q-20 -52 -62.5 -82t-100.5 -30q-57 0 -83 35l11 -274h-92v744h90v-328q0 -104 84 -104q63 0 102.5 54.5t39.5 140.5v237h90v-325q0 -65 11.5 -85t47.5 -20v-71z" />
    <glyph glyph-name="paragraph" unicode="&#xb6;" horiz-adv-x="576" 
d="M516 605h-71v-701h-154v70h73v701h152v-70zM289 247q-109 0 -166 61t-57 155q0 93 62 152.5t161 59.5v-428z" />
    <glyph glyph-name="periodcentered" unicode="&#xb7;" horiz-adv-x="234" 
d="M181 297q0 -26 -18.5 -45t-45.5 -19t-45.5 19t-18.5 45q0 27 18.5 46t45.5 19t45.5 -19t18.5 -46z" />
    <glyph glyph-name="periodcentered" unicode="&#x2219;" horiz-adv-x="234" 
d="M181 297q0 -26 -18.5 -45t-45.5 -19t-45.5 19t-18.5 45q0 27 18.5 46t45.5 19t45.5 -19t18.5 -46z" />
    <glyph glyph-name="cedilla" unicode="&#xb8;" horiz-adv-x="400" 
d="M258 -40q70 -92 -21 -195h-73q27 34 38 59t6.5 51t-27.5 55z" />
    <glyph glyph-name="onesuperior" unicode="&#xb9;" horiz-adv-x="276" 
d="M204 364h-86v340l-88 -34l-15 70l118 42h71v-418z" />
    <glyph glyph-name="ordmasculine" unicode="&#xba;" horiz-adv-x="419" 
d="M368 515q0 -80 -47.5 -129t-121.5 -49q-152 0 -152 173q0 77 46.5 125.5t118.5 48.5q68 0 112 -38.5t44 -130.5zM354 211h-292v71h292v-71zM288 514q0 103 -80 103q-34 0 -57.5 -26t-23.5 -79q0 -108 78 -108q38 0 60.5 27.5t22.5 82.5z" />
    <glyph glyph-name="guillemotright" unicode="&#xbb;" horiz-adv-x="509" 
d="M455 296l-115 -182l-67 35l92 146l-92 144l70 36zM263 296l-125 -180l-66 35l101 144l-100 142l68 36z" />
    <glyph glyph-name="onequarter" unicode="&#xbc;" horiz-adv-x="821" 
d="M204 364h-86v340l-88 -34l-15 70l118 42h71v-418zM735 763l-639 -904l-58 41l639 904zM783 -13h-66v-93h-79v93h-195l-5 56l162 269h117v-258h66v-67zM637 53v202l-121 -203q33 1 121 1z" />
    <glyph glyph-name="onehalf" unicode="&#xbd;" horiz-adv-x="844" 
d="M735 763l-639 -904l-58 41l639 904zM204 364h-86v340l-88 -34l-15 70l118 42h71v-418zM794 -106h-280v62l94 93q80 82 80 134q0 32 -17.5 50.5t-52.5 18.5q-46 0 -87 -23l-12 64q56 26 119 26q66 0 102.5 -32t36.5 -89q0 -82 -83 -166l-70 -69q45 2 170 2v-71z" />
    <glyph glyph-name="threequarters" unicode="&#xbe;" horiz-adv-x="842" 
d="M756 763l-639 -904l-59 41l640 904zM301 491q0 -60 -49.5 -97t-128.5 -37q-40 0 -87 9l9 63q33 -11 80 -11q42 0 65.5 18.5t23.5 49.5q0 36 -38 53t-111 8v59q136 0 136 70q0 25 -17.5 39t-49.5 14q-42 0 -83 -18l-9 59q54 19 110 19q63 0 98.5 -26.5t35.5 -76.5
q0 -72 -69 -97q40 -9 62 -36t22 -62zM804 -13h-67v-93h-78v93h-195l-6 56l162 269h117v-258h67v-67zM658 53v202l-122 -203q33 1 122 1z" />
    <glyph glyph-name="questiondown" unicode="&#xbf;" horiz-adv-x="445" 
d="M314 447q0 -25 -17.5 -42t-42.5 -17t-42.5 17t-17.5 42t17.5 42t42.5 17t42.5 -17t17.5 -42zM362 -131l-12 -82q-134 4 -212 60t-78 134q0 38 15 70t36 52.5t44.5 44.5t40.5 45.5t22.5 57t-7.5 78.5h88q16 -47 11.5 -85.5t-20 -64t-38 -50t-43.5 -43t-35.5 -44
t-14.5 -52.5q0 -50 55.5 -83.5t147.5 -37.5z" />
    <glyph glyph-name="AE" unicode="&#xc6;" horiz-adv-x="781" 
d="M711 0h-349v163h-224l-85 -163h-96l359 675h386v-76h-250v-214h241v-74h-241v-234h259v-77zM362 236v362h-2q-31 -68 -66 -137l-122 -225h190z" />
    <glyph glyph-name="Eth" unicode="&#xd0;" horiz-adv-x="687" 
d="M641 345q0 -167 -102.5 -257.5t-274.5 -91.5q-36 0 -92 2t-78 2v312h-91v70h91v292q16 0 55.5 1.5t76.5 2t69 0.5q346 0 346 -333zM544 339q0 264 -258 264q-26 0 -101 -3v-218h143v-70h-143v-232q37 -6 89 -6q124 0 197 66.5t73 198.5z" />
    <glyph glyph-name="multiply" unicode="&#xd7;" 
d="M495 132l-55 -55l-168 168l-167 -168l-50 50l168 168l-168 167l55 55l167 -168l168 168l50 -50l-168 -167z" />
    <glyph glyph-name="Thorn" unicode="&#xde;" horiz-adv-x="530" 
d="M512 367q0 -104 -76.5 -168.5t-197.5 -64.5q-36 0 -61 4v-138h-92v675h92v-102q54 2 84 2q119 0 185 -53.5t66 -154.5zM417 360q0 140 -173 140q-30 0 -67 -5v-281q27 -4 69 -4q80 0 125.5 39t45.5 111z" />
    <glyph glyph-name="germandbls" unicode="&#xdf;" horiz-adv-x="593" 
d="M552 149q0 -70 -54.5 -114.5t-144.5 -44.5q-53 0 -99 11l6 79q48 -17 92 -17q54 0 81 21.5t27 53.5q0 29 -20.5 50.5t-49 37t-57.5 33.5t-49.5 49.5t-20.5 74.5q0 33 14 58.5t33.5 41t39.5 30t34 34.5t14 45q0 36 -26 54.5t-69 18.5q-128 0 -128 -160v-505h-90v500
q0 122 61 178.5t162 56.5q85 0 133.5 -37t48.5 -98q0 -37 -14 -64.5t-34 -42.5t-40 -28t-34 -30.5t-14 -41.5q0 -28 20.5 -49.5t49.5 -37t58 -34t49.5 -49.5t20.5 -74z" />
    <glyph glyph-name="ae" unicode="&#xe6;" horiz-adv-x="807" 
d="M761 297q0 -17 -3 -47h-324q-7 -186 156 -186q76 0 142 30l13 -72q-77 -31 -172 -31q-80 0 -130 31.5t-68 82.5h-1q-24 -49 -73 -81.5t-116 -32.5q-62 0 -100.5 37t-38.5 97q0 81 78.5 126t220.5 45v33q0 54 -25 80.5t-84 26.5q-74 0 -144 -37l-19 73q84 35 177 35
q118 0 154 -78h1q53 77 158 77q99 0 148.5 -58.5t49.5 -150.5zM669 314q1 57 -28.5 90.5t-81.5 33.5q-49 0 -82 -33.5t-41 -90.5h233zM345 220v13q-210 0 -210 -95q0 -33 20.5 -54.5t54.5 -21.5q58 0 96.5 48t38.5 110z" />
    <glyph glyph-name="eth" unicode="&#xf0;" horiz-adv-x="546" 
d="M503 273q0 -138 -66 -210t-171 -72t-165.5 64t-60.5 189q0 113 64.5 187t170.5 74q77 0 105 -45q-4 8 -30 51q-26 45 -64 86l-102 -46l-38 47l94 42q-24 22 -81 66l90 38q43 -35 75 -68l100 44l39 -47l-97 -42q137 -166 137 -358zM410 261q0 79 -35.5 124.5t-102.5 45.5
q-59 0 -99 -46t-40 -134t38 -136t105 -48q60 0 97 48t37 146z" />
    <glyph glyph-name="divide" unicode="&#xf7;" 
d="M334 498q0 -25 -17.5 -42.5t-42.5 -17.5t-43 17.5t-18 42.5t18 42.5t43 17.5t42.5 -17.5t17.5 -42.5zM508 260h-466v75h466v-75zM334 96q0 -25 -17.5 -43t-42.5 -18q-26 0 -43.5 17.5t-17.5 43.5q0 25 18 42.5t43 17.5t42.5 -17.5t17.5 -42.5z" />
    <glyph glyph-name="logo" unicode="&#xfb;" horiz-adv-x="2985" 
d="M1098 43v47q-60 -2 -60 -31q0 -28 29 -28q19 0 31 12zM1300 7v277h51v-83q15 3 32 3q46 0 70 -22.5t24 -82.5q0 -48 -28 -75.5t-72 -27.5q-39 0 -77 11zM1351 156v-116q18 -2 27 -2q20 0 33.5 16.5t13.5 44.5q0 21 -3.5 34t-11.5 18.5t-14 7t-16 1.5q-11 0 -29 -4z
M2124 0h-60l-55 91h-16v-91h-51v283h51v-172l73 86h56l-71 -81zM376 0h-51v197h51v-197zM351 224q-11 0 -19.5 8t-8.5 20t8.5 20t19.5 8t19.5 -8t8.5 -20t-8.5 -20t-19.5 -8zM606 0h-51v100q0 29 -8 43t-32 14q-13 0 -37 -4v-153h-51v192q44 12 94 12q85 0 85 -85v-119z
M1894 0h-51v100q0 29 -8 43t-32 14q-13 0 -37 -4v-153h-51v192q44 12 95 12q84 0 84 -85v-119zM956 0h-51v100q0 30 -7.5 43.5t-31.5 13.5q-20 0 -39 -11q3 -11 3 -27v-119h-51v100q0 30 -7.5 43.5t-31.5 13.5q-13 0 -35 -4v-153h-51v192q44 12 92 12q37 0 56 -15
q32 15 70 15q84 0 84 -85v-119zM290 39l1 -39h-32q-56 0 -56 65v219h51v-216q0 -29 22 -29h14zM2106 599v-100q0 -80 -71 -80q-34 0 -58 29q-14 -26 -53 -26h-425q-10 -39 -39.5 -58.5t-66.5 -19.5l-12 42q25 0 46 17.5t21 53.5v142h56v-136h65v105l56 17v-25q87 25 136 25
q52 0 78 -31t32 -91h34q25 0 25 31v35q0 82 83 82q51 0 93 -12zM1625 463h189q-10 71 -62 71q-42 0 -127 -23v-48zM2051 491v67q-14 2 -29 2q-23 0 -30 -13.5t-7 -43.5v-4q8 -15 21.5 -27t23.5 -12q21 0 21 31zM1290 611q50 0 94 -12v-107q0 -70 -85 -70h-170
q-28 0 -47.5 18.5t-19.5 46.5v55l56 17v-65q0 -31 33 -31h81q-25 33 -25 66q0 82 83 82zM1328 494v64q-14 2 -28 2q-37 0 -37 -38q0 -19 13.5 -39t23.5 -20q28 0 28 31zM1305 641q-13 0 -21.5 8.5t-8.5 21.5t8.5 21.5t21.5 8.5t21.5 -8.5t8.5 -21.5t-8.5 -21.5t-21.5 -8.5z
M933 422h-56v279h56v-279zM766 494v207h55v-209q0 -30 -10.5 -46.5t-22 -20t-27.5 -3.5h-126l12 41h22v238h41v-238h32q24 0 24 31zM705 358h-40l4 13h6q-2 4 -2 8q0 9 9.5 14.5t23.5 2.5l-3 -13q-13 2 -13 -6q0 -6 9 -6h9zM574 641q-13 0 -21.5 8.5t-8.5 21.5t8.5 21.5
t21.5 8.5t21.5 -8.5t8.5 -21.5t-8.5 -21.5t-21.5 -8.5zM133 422h-129l13 41h20q-8 13 -8 29q0 31 31.5 47t78.5 8l-12 -44q-21 3 -32 -3.5t-11 -16.5q0 -20 29 -20h32zM526 422h-22q-25 0 -46 15q-18 -18 -51 -18q-34 0 -58 29q-14 -26 -53 -26h-55q-16 0 -28 3.5t-22.5 20
t-10.5 46.5v209h56v-207q0 -31 24 -31h17q25 0 25 31v35q2 82 83 82q51 0 93 -12v-92q0 -44 38 -44q30 0 30 31v105h56v-107q0 -42 -18.5 -56t-57.5 -14zM423 491v67q-14 2 -29 2q-23 0 -30 -13.5t-7 -43.5v-4q8 -15 21.5 -27t23.5 -12q21 0 21 31zM2985 0h-703v701h703
v-701zM2717 123v511l-172 -56v-511zM1149 0h-40l-2 9q-20 -13 -52 -13q-30 0 -47.5 17t-17.5 44q0 63 108 68v1q0 21 -8 28.5t-27 7.5q-16 0 -52 -9l-11 40q51 11 76 11q33 0 53 -14t20 -56v-134zM1667 0h-40l-2 9q-20 -13 -52 -13q-30 0 -47.5 17t-17.5 44q0 63 108 68v1
q0 21 -8 28.5t-27 7.5q-16 0 -52 -9l-11 40q51 11 76 11q33 0 53 -14t20 -56v-134zM1616 43v47q-60 -2 -60 -31q0 -28 29 -28q19 0 31 12zM159 0h-40l-2 9q-20 -13 -52 -13q-30 0 -47.5 17t-17.5 44q0 63 108 68v1q0 21 -8 28.5t-27 7.5q-16 0 -52 -9l-11 40q51 11 76 11
q33 0 53 -14t20 -56v-134zM108 43v47q-60 -2 -60 -31q0 -28 29 -28q19 0 31 12z" />
    <glyph glyph-name="thorn" unicode="&#xfe;" horiz-adv-x="558" 
d="M515 272q0 -132 -67.5 -205t-188.5 -73q-49 0 -84 6v-247h-90v977h90v-218q0 -70 -6 -111l2 -1q20 49 62.5 77.5t99.5 28.5q87 0 134.5 -60.5t47.5 -173.5zM421 264q0 168 -110 168q-63 0 -99.5 -59.5t-36.5 -132.5v-164q39 -12 88 -12q74 0 116 48.5t42 151.5z" />
    <glyph glyph-name="OE" unicode="&#x152;" horiz-adv-x="863" 
d="M794 0h-341q-60 -10 -110 -10q-148 0 -224.5 91t-76.5 249q0 163 91 259t227 96q48 0 101 -10h333v-76h-256v-214h244v-74h-244v-234h256v-77zM447 86v504q-47 14 -93 14q-90 0 -152 -69.5t-62 -191.5q0 -125 53.5 -198t157.5 -73q49 0 96 14z" />
    <glyph glyph-name="oe" unicode="&#x153;" horiz-adv-x="872" 
d="M827 297q0 -17 -3 -47h-325q-6 -186 157 -186q76 0 142 30l13 -72q-77 -31 -172 -31q-138 0 -192 101q-63 -101 -185 -101q-105 0 -164 63t-59 190q0 112 66 187t176 75q124 0 178 -94q57 94 169 94q100 0 149.5 -58.5t49.5 -150.5zM735 314q1 57 -28.5 90.5t-82.5 33.5
q-49 0 -81.5 -33.5t-40.5 -90.5h233zM411 252q0 86 -35 132.5t-103 46.5q-58 0 -99 -45.5t-41 -132.5q0 -90 36 -138t104 -48q59 0 98.5 47t39.5 138z" />
    <glyph glyph-name="florin" unicode="&#x192;" horiz-adv-x="442" 
d="M226 340l-26 -244q-15 -141 -60 -199t-144 -58q-38 0 -73 9l15 79q41 -13 70 -13q48 0 69 32.5t31 126.5l27 267h-121v70h128l13 127q22 202 195 202q31 0 71 -7l-11 -75q-34 8 -70 8q-42 0 -64.5 -28t-29.5 -90l-14 -137h162v-70h-168z" />
    <glyph glyph-name="circumflex" unicode="&#x2c6;" horiz-adv-x="433" 
d="M353 614l-40 -44l-99 85l-100 -85l-39 42l140 132z" />
    <glyph glyph-name="tilde" unicode="&#x2dc;" horiz-adv-x="489" 
d="M416 671q-41 -78 -109 -78q-35 0 -72.5 27.5t-55.5 27.5q-33 0 -59 -47l-45 35q41 78 109 78q35 0 72.5 -27t55.5 -27q34 0 59 46z" />
    <glyph glyph-name="comma.arabic" unicode="&#x60c;" horiz-adv-x="228" 
d="M115 -9q-39 0 -56 36t7.5 100.5t96.5 130.5l38 -34q-85 -91 -43 -144q21 -26 7 -57.5t-50 -31.5z" />
    <glyph glyph-name="uni0615" unicode="&#x615;" horiz-adv-x="0" 
d="M-136 0v45h49v187h53v-73q0 -37 -3 -46q13 24 39 37.5t54 13.5q55 0 72 -38.5t0 -125.5h-264zM-34 45h110q16 74 -30 74q-28 0 -50 -21t-30 -53z" />
    <glyph glyph-name="semicolon.arabic" unicode="&#x61b;" horiz-adv-x="286" 
d="M62 53q0 26 18 44t44 18t44 -18.5t18 -43.5t-18 -43.5t-44 -18.5t-44 18t-18 44zM124 285q-38 0 -55.5 36.5t7 101.5t96.5 130l39 -34q-85 -91 -43 -144q22 -26 7 -58t-51 -32z" />
    <glyph glyph-name="questionmark.arabic" unicode="&#x61f;" horiz-adv-x="459" 
d="M313 175h-90q9 31 9 52q0 35 -16.5 66t-40 55t-47 48.5t-40 58.5t-16.5 73q0 83 62 138t172 55q39 0 82 -8l-14 -80q-43 10 -76 10q-62 0 -94.5 -31t-32.5 -77q0 -29 16 -56.5t38 -51t44.5 -48.5t38.5 -60t16 -75q0 -31 -11 -69zM266 -9q-25 0 -42.5 17t-17.5 42t17.5 42
t42.5 17q26 0 43.5 -17t17.5 -42t-17.5 -42t-43.5 -17z" />
    <glyph glyph-name="kashida" unicode="&#x640;" horiz-adv-x="115" 
d="M0 0v73h130v-73h-130z" />
    <glyph glyph-name="madda" unicode="&#x653;" horiz-adv-x="0" 
d="M-107 0l-37 48l89 67q41 -41 94 -41q56 0 105 43v-73q-43 -38 -109 -38q-58 0 -90 32z" />
    <glyph glyph-name="hamza_above" unicode="&#x654;" horiz-adv-x="0" 
d="M-121 0v53q43 0 70 -5q-27 14 -27 48q0 42 31 69.5t95 27.5q32 0 54 -4l-9 -54q-23 5 -49 5t-40.5 -11t-14.5 -30q0 -46 78 -46h54v-53h-242z" />
    <glyph glyph-name="hamza_below" unicode="&#x655;" horiz-adv-x="0" 
d="M-117 -179v55q42 0 58 -3q-18 11 -18 37q0 39 30.5 64.5t86.5 25.5q33 0 55 -5l-9 -56q-24 6 -47 6q-47 0 -47 -33q0 -36 66 -36h59v-55h-234z" />
    <glyph glyph-name="alef_subscript" unicode="&#x656;" horiz-adv-x="0" 
d="M-34 -188v188h69v-176z" />
    <glyph glyph-name="uni0658" unicode="&#x658;" horiz-adv-x="400" 
d="M263 915h62q0 -58 -32.5 -96.5t-94.5 -38.5t-92.5 38.5t-30.5 96.5h61q0 -29 16.5 -48.5t46.5 -19.5t47 18t17 50z" />
    <glyph glyph-name="zero.indic" unicode="&#x660;" horiz-adv-x="585" 
d="M537 344q0 -173 -70.5 -263t-181.5 -90q-237 0 -237 340q0 173 70.5 262.5t181.5 89.5q237 0 237 -339zM441 336q0 272 -147 272q-69 0 -109.5 -65t-40.5 -204q0 -272 148 -272q68 0 108.5 64.5t40.5 204.5z" />
    <glyph glyph-name="one.indic" unicode="&#x661;" horiz-adv-x="352" 
d="M261 0h-93v583l-127 -50l-15 84l162 58h73v-675z" />
    <glyph glyph-name="two.indic" unicode="&#x662;" horiz-adv-x="501" 
d="M453 0h-393v74l127 146q82 94 112.5 153t30.5 115q0 51 -30.5 83.5t-87.5 32.5q-67 0 -132 -41l-13 82q78 39 169 39t141.5 -51t50.5 -131q0 -70 -37 -141.5t-127 -173.5l-89 -104v-1q80 4 278 4v-86z" />
    <glyph glyph-name="three.indic" unicode="&#x663;" horiz-adv-x="489" 
d="M429 203q0 -92 -74 -151.5t-188 -59.5q-68 0 -109 11l10 81q42 -14 104 -14q73 0 116.5 36.5t43.5 91.5q0 54 -45.5 86t-130.5 32q-24 0 -62 -4v73q213 -6 213 125q0 46 -29 72t-82 26q-62 0 -117 -30l-8 77q68 29 145 29q91 0 138.5 -44t47.5 -113q0 -57 -30.5 -99.5
t-82.5 -61.5l-1 -2q63 -14 102 -57t39 -104z" />
    <glyph glyph-name="four.indic" unicode="&#x664;" horiz-adv-x="544" 
d="M524 158h-113v-158h-89v158h-299l-6 70l273 447h121v-435h113v-82zM323 239v351h-1l-217 -353q59 2 218 2z" />
    <glyph glyph-name="five.indic" unicode="&#x665;" horiz-adv-x="462" 
d="M426 223q0 -103 -75.5 -167t-194.5 -64q-50 0 -100 10l10 82q41 -13 97 -13q78 0 123 38.5t45 102.5q0 125 -195 125q-39 0 -57 -2v340h311v-86h-226v-178q131 1 196.5 -48t65.5 -140z" />
    <glyph glyph-name="six.indic" unicode="&#x666;" horiz-adv-x="576" 
d="M528 225q0 -102 -66 -168.5t-171 -66.5q-53 0 -94 19t-65 48t-39.5 69t-21 77t-5.5 78q0 201 95 301.5t246 100.5q41 0 60 -3v-80q-26 5 -66 5q-191 0 -232 -209l-8 -42l1 -1q55 73 162 73q94 0 149 -55t55 -146zM434 211q0 64 -34.5 102t-97.5 38q-60 0 -98 -38.5
t-38 -92.5q0 -70 35.5 -111.5t97.5 -41.5q60 0 97.5 39.5t37.5 104.5z" />
    <glyph glyph-name="seven.indic" unicode="&#x667;" horiz-adv-x="455" 
d="M426 597q-60 -129 -114.5 -293t-84.5 -304h-102q36 150 93.5 316t106.5 273q-31 -2 -300 -2v88h401v-78z" />
    <glyph glyph-name="eight.indic" unicode="&#x668;" horiz-adv-x="551" 
d="M493 173q0 -85 -65 -134t-163 -49q-99 0 -154 46.5t-55 122.5q0 57 36.5 100.5t99.5 83.5q-63 36 -94 76t-31 91q0 80 59.5 129t157.5 49q89 0 142 -45t53 -115q0 -54 -34 -93.5t-96 -80.5q144 -78 144 -181zM385 520q0 41 -28.5 68t-81.5 27t-84.5 -26t-31.5 -69
q0 -38 28.5 -67t88.5 -61q59 37 84 65.5t25 62.5zM398 164q0 45 -34 76t-99 65q-55 -33 -84.5 -64t-29.5 -73q0 -47 33.5 -74.5t90.5 -27.5q53 0 88 26t35 72z" />
    <glyph glyph-name="nine.indic" unicode="&#x669;" horiz-adv-x="582" 
d="M516 394q0 -199 -91.5 -301t-250.5 -102q-46 0 -81 6v84q40 -11 91 -11q184 0 222 199q3 10 6.5 27t4.5 22l-1 1q-22 -32 -63.5 -52.5t-95.5 -20.5q-93 0 -148 55t-55 148q0 100 65.5 167.5t169.5 67.5q54 0 95.5 -19t66 -48t39.5 -69t20.5 -77t5.5 -77zM414 454
q0 71 -35.5 112.5t-97.5 41.5q-58 0 -95.5 -40t-37.5 -105q0 -63 34 -101.5t97 -38.5q59 0 97 39t38 92z" />
    <glyph glyph-name="percentsign.arabic" unicode="&#x66a;" horiz-adv-x="698" 
d="M608 649l-455 -690l-64 35l454 690zM246 549q0 -27 -19 -45.5t-46 -18.5q-26 0 -45 18.5t-19 45.5t19 45.5t45 18.5q27 0 46 -18.5t19 -45.5zM451 95q0 26 18.5 45t45.5 19t45.5 -19t18.5 -45q0 -27 -18.5 -46t-45.5 -19t-45.5 19t-18.5 46z" />
    <glyph glyph-name="decimal.arabic" unicode="&#x66b;" horiz-adv-x="300" 
d="M112 113q39 0 56 -36t-7.5 -100.5t-96.5 -130.5l-38 34q85 91 43 144q-21 26 -7 57.5t50 31.5z" />
    <glyph glyph-name="thousands.arabic" unicode="&#x66c;" horiz-adv-x="300" 
d="M112 533q39 0 56 -36t-7.5 -100.5t-96.5 -130.5l-38 34q85 91 43 144q-21 26 -7 57.5t50 31.5z" />
    <glyph glyph-name="fivept_star.arabic" unicode="&#x66d;" horiz-adv-x="604" 
d="M209 35l-63 49l105 129l-162 41l26 75l154 -61l-9 167h81l-12 -166l154 61l28 -76l-162 -40l104 -130l-63 -48l-90 143z" />
    <glyph glyph-name="alef_superscript" unicode="&#x670;" horiz-adv-x="0" 
d="M35 13l-69 -13v230h69v-217z" />
    <glyph glyph-name="uni06C3" unicode="&#x6c3;" horiz-adv-x="594" 
d="M363 562q-23 0 -38.5 15.5t-15.5 38.5q0 22 16 37.5t38 15.5t37 -15.5t15 -37.5q0 -23 -15 -38.5t-37 -15.5zM215 562q-23 0 -38 15.5t-15 38.5q0 22 15.5 37.5t37.5 15.5t37.5 -15.5t15.5 -37.5t-15.5 -38t-37.5 -16zM509 0h-202q-262 0 -262 233q0 106 65.5 177
t184.5 71q106 0 160 -58t54 -166v-257zM419 73v168q0 167 -132 167q-69 0 -109 -45t-40 -121q0 -86 43.5 -127.5t138.5 -41.5h99z" />
    <glyph glyph-name="arabicae" unicode="&#x6d5;" horiz-adv-x="594" 
d="M509 0h-202q-262 0 -262 233q0 106 65.5 177t184.5 71q106 0 160 -58t54 -166v-257zM419 73v168q0 167 -132 167q-69 0 -109 -45t-40 -121q0 -86 43.5 -127.5t138.5 -41.5h99z" />
    <glyph glyph-name="zero_ext.indic" unicode="&#x6f0;" horiz-adv-x="585" 
d="M537 344q0 -173 -70.5 -263t-181.5 -90q-237 0 -237 340q0 173 70.5 262.5t181.5 89.5q237 0 237 -339zM441 336q0 272 -147 272q-69 0 -109.5 -65t-40.5 -204q0 -272 148 -272q68 0 108.5 64.5t40.5 204.5z" />
    <glyph glyph-name="one_ext.indic" unicode="&#x6f1;" horiz-adv-x="352" 
d="M261 0h-93v583l-127 -50l-15 84l162 58h73v-675z" />
    <glyph glyph-name="two_ext.indic" unicode="&#x6f2;" horiz-adv-x="501" 
d="M453 0h-393v74l127 146q82 94 112.5 153t30.5 115q0 51 -30.5 83.5t-87.5 32.5q-67 0 -132 -41l-13 82q78 39 169 39t141.5 -51t50.5 -131q0 -70 -37 -141.5t-127 -173.5l-89 -104v-1q80 4 278 4v-86z" />
    <glyph glyph-name="three_ext.indic" unicode="&#x6f3;" horiz-adv-x="489" 
d="M429 203q0 -92 -74 -151.5t-188 -59.5q-68 0 -109 11l10 81q42 -14 104 -14q73 0 116.5 36.5t43.5 91.5q0 54 -45.5 86t-130.5 32q-24 0 -62 -4v73q213 -6 213 125q0 46 -29 72t-82 26q-62 0 -117 -30l-8 77q68 29 145 29q91 0 138.5 -44t47.5 -113q0 -57 -30.5 -99.5
t-82.5 -61.5l-1 -2q63 -14 102 -57t39 -104z" />
    <glyph glyph-name="four_ext.indic" unicode="&#x6f4;" horiz-adv-x="544" 
d="M524 158h-113v-158h-89v158h-299l-6 70l273 447h121v-435h113v-82zM323 239v351h-1l-217 -353q59 2 218 2z" />
    <glyph glyph-name="five_ext.indic" unicode="&#x6f5;" horiz-adv-x="462" 
d="M426 223q0 -103 -75.5 -167t-194.5 -64q-50 0 -100 10l10 82q41 -13 97 -13q78 0 123 38.5t45 102.5q0 125 -195 125q-39 0 -57 -2v340h311v-86h-226v-178q131 1 196.5 -48t65.5 -140z" />
    <glyph glyph-name="six_ext.indic" unicode="&#x6f6;" horiz-adv-x="576" 
d="M528 225q0 -102 -66 -168.5t-171 -66.5q-53 0 -94 19t-65 48t-39.5 69t-21 77t-5.5 78q0 201 95 301.5t246 100.5q41 0 60 -3v-80q-26 5 -66 5q-191 0 -232 -209l-8 -42l1 -1q55 73 162 73q94 0 149 -55t55 -146zM434 211q0 64 -34.5 102t-97.5 38q-60 0 -98 -38.5
t-38 -92.5q0 -70 35.5 -111.5t97.5 -41.5q60 0 97.5 39.5t37.5 104.5z" />
    <glyph glyph-name="seven_ext.indic" unicode="&#x6f7;" horiz-adv-x="455" 
d="M426 597q-60 -129 -114.5 -293t-84.5 -304h-102q36 150 93.5 316t106.5 273q-31 -2 -300 -2v88h401v-78z" />
    <glyph glyph-name="eight_ext.indic" unicode="&#x6f8;" horiz-adv-x="551" 
d="M493 173q0 -85 -65 -134t-163 -49q-99 0 -154 46.5t-55 122.5q0 57 36.5 100.5t99.5 83.5q-63 36 -94 76t-31 91q0 80 59.5 129t157.5 49q89 0 142 -45t53 -115q0 -54 -34 -93.5t-96 -80.5q144 -78 144 -181zM385 520q0 41 -28.5 68t-81.5 27t-84.5 -26t-31.5 -69
q0 -38 28.5 -67t88.5 -61q59 37 84 65.5t25 62.5zM398 164q0 45 -34 76t-99 65q-55 -33 -84.5 -64t-29.5 -73q0 -47 33.5 -74.5t90.5 -27.5q53 0 88 26t35 72z" />
    <glyph glyph-name="nine_ext.indic" unicode="&#x6f9;" horiz-adv-x="582" 
d="M516 394q0 -199 -91.5 -301t-250.5 -102q-46 0 -81 6v84q40 -11 91 -11q184 0 222 199q3 10 6.5 27t4.5 22l-1 1q-22 -32 -63.5 -52.5t-95.5 -20.5q-93 0 -148 55t-55 148q0 100 65.5 167.5t169.5 67.5q54 0 95.5 -19t66 -48t39.5 -69t20.5 -77t5.5 -77zM414 454
q0 71 -35.5 112.5t-97.5 41.5q-58 0 -95.5 -40t-37.5 -105q0 -63 34 -101.5t97 -38.5q59 0 97 39t38 92z" />
    <glyph glyph-name="endash" unicode="&#x2013;" 
d="M550 259h-550v78h550v-78z" />
    <glyph glyph-name="emdash" unicode="&#x2014;" horiz-adv-x="1000" 
d="M882 259h-764v78h764v-78z" />
    <glyph glyph-name="quoteleft" unicode="&#x2018;" horiz-adv-x="244" 
d="M203 715q-84 -91 -43 -143q22 -27 7 -58.5t-51 -31.5q-38 0 -55.5 36t7 101t96.5 131z" />
    <glyph glyph-name="quoteright" unicode="&#x2019;" horiz-adv-x="244" 
d="M126 743q38 0 55.5 -36t-7 -101t-96.5 -131l-39 35q84 91 43 143q-22 27 -7 58.5t51 31.5z" />
    <glyph glyph-name="quotesinglbase" unicode="&#x201a;" horiz-adv-x="244" 
d="M126 113q38 0 55.5 -36t-7 -100.5t-96.5 -130.5l-39 34q85 91 43 144q-22 26 -7 57.5t51 31.5z" />
    <glyph glyph-name="quotedblleft" unicode="&#x201c;" horiz-adv-x="433" 
d="M393 715q-84 -91 -43 -143q22 -27 7 -58.5t-51 -31.5q-38 0 -55.5 36t7 101t96.5 131zM203 715q-84 -91 -43 -143q22 -27 7 -58.5t-51 -31.5q-38 0 -55.5 36t7 101t96.5 131z" />
    <glyph glyph-name="quotedblright" unicode="&#x201d;" horiz-adv-x="433" 
d="M316 743q38 0 55.5 -36t-7 -101t-96.5 -131l-39 35q84 91 43 143q-22 27 -7 58.5t51 31.5zM126 743q38 0 55.5 -36t-7 -101t-96.5 -131l-39 35q84 91 43 143q-22 27 -7 58.5t51 31.5z" />
    <glyph glyph-name="quotedblbase" unicode="&#x201e;" horiz-adv-x="433" 
d="M316 113q38 0 55.5 -36t-7 -100.5t-96.5 -130.5l-39 34q85 91 43 144q-22 26 -7 57.5t51 31.5zM126 113q38 0 55.5 -36t-7 -100.5t-96.5 -130.5l-39 34q85 91 43 144q-22 26 -7 57.5t51 31.5z" />
    <glyph glyph-name="dagger" unicode="&#x2020;" horiz-adv-x="449" 
d="M400 557h-140l17 -98l-19 -251h-67l-19 251l16 98h-140v70h140l-16 137h105l-17 -137h140v-70z" />
    <glyph glyph-name="daggerdbl" unicode="&#x2021;" horiz-adv-x="449" 
d="M400 295h-139l16 -130h-106l17 130h-140v70h140l-16 100l16 99h-140v70h140l-16 130h105l-16 -130h139v-70h-139l16 -99l-16 -100h139v-70z" />
    <glyph glyph-name="bullet" unicode="&#x2022;" horiz-adv-x="420" 
d="M331 297q0 -50 -35.5 -85.5t-85.5 -35.5t-85.5 35.5t-35.5 85.5t35.5 85.5t85.5 35.5t85.5 -35.5t35.5 -85.5z" />
    <glyph glyph-name="ellipsis" unicode="&#x2026;" horiz-adv-x="665" 
d="M603 51q0 -25 -18 -42.5t-43 -17.5t-42.5 17.5t-17.5 42.5t17.5 43t42.5 18q26 0 43.5 -18t17.5 -43zM388 51q0 -25 -18 -42.5t-43 -17.5t-42.5 17.5t-17.5 42.5t17.5 43t42.5 18t43 -18t18 -43zM173 51q0 -25 -17.5 -42.5t-42.5 -17.5t-43 17.5t-18 42.5t18 43t43 18
t42.5 -18t17.5 -43z" />
    <glyph glyph-name="perthousand" unicode="&#x2030;" horiz-adv-x="1026" 
d="M321 539q0 -73 -41 -116.5t-101 -43.5q-62 0 -97 36.5t-35 110.5q0 72 41 115t100 43q61 0 97 -35.5t36 -109.5zM249 532q0 92 -64 92q-31 0 -48.5 -25t-17.5 -68q0 -92 64 -92q31 0 48.5 25t17.5 68zM640 647l-528 -663l-55 42l527 665zM651 151q0 -74 -41 -117.5
t-101 -43.5q-62 0 -97 36.5t-35 110.5q0 72 41 115t100 43q61 0 97 -35t36 -109zM580 144q0 47 -15.5 69t-49.5 22q-31 0 -48.5 -25t-17.5 -67q0 -48 15 -70t49 -22q31 0 49 25t18 68zM969 151q0 -74 -40.5 -117.5t-100.5 -43.5q-62 0 -97 36.5t-35 110.5q0 72 41 115
t100 43q61 0 96.5 -35t35.5 -109zM898 144q0 91 -64 91q-31 0 -49 -25t-18 -67q0 -92 65 -92q31 0 48.5 25t17.5 68z" />
    <glyph glyph-name="guilsinglleft" unicode="&#x2039;" horiz-adv-x="313" 
d="M240 152l-68 -37l-119 178l120 181l66 -36l-96 -144z" />
    <glyph glyph-name="guilsinglright" unicode="&#x203a;" horiz-adv-x="313" 
d="M260 296l-121 -181l-66 36l98 144l-97 142l68 37z" />
    <glyph glyph-name="Euro" unicode="&#x20ac;" horiz-adv-x="592" 
d="M564 45q-89 -55 -194 -55q-116 0 -184.5 61.5t-83.5 178.5h-89v59h84q-1 10 -1 31q0 22 2 60h-85v58h92q22 124 97.5 185.5t186.5 61.5q95 0 166 -40l-26 -72q-63 38 -147 38q-69 0 -117 -42.5t-62 -130.5h223v-58h-230q-1 -14 -1 -45t1 -46h230v-59h-224
q24 -165 184 -165q78 0 151 48z" />
    <glyph glyph-name="trademark" unicode="&#x2122;" horiz-adv-x="699" 
d="M647 394h-69l-22 147l-7 54l-12 -47l-45 -154h-69l-44 157l-11 44l-3 -37l-24 -164h-64l44 281h86l45 -154l10 -46l9 42l47 158h86zM260 620h-73v-226h-69v226h-74v55h216v-55z" />
    <glyph glyph-name="minus" unicode="&#x2212;" 
d="M508 259h-466v78h466v-78z" />
    <glyph glyph-name="notequal" unicode="&#x2260;" horiz-adv-x="557" 
d="M501 175h-232l-56 -139h-80l56 139h-133v74h162l38 96h-200v75h230l56 141h81l-57 -141h135v-75h-164l-39 -96h203v-74z" />
    <glyph glyph-name="parenthesis_left_ornate" unicode="&#xfd3e;" horiz-adv-x="341" 
d="M309 -199h-18q-84 0 -120 47.5t-36 147.5v175q0 59 -24 83t-82 27v71q60 3 83 25.5t23 82.5v117q0 194 156 194h18v-69q-52 0 -71.5 -26t-19.5 -96v-116q0 -129 -93 -146v-2q93 -14 93 -148v-174q0 -70 19.5 -96t71.5 -26v-71z" />
    <glyph glyph-name="parenthesis_right_ornate" unicode="&#xfd3f;" horiz-adv-x="338" 
d="M318 281q-58 -3 -82 -27t-24 -83v-175q0 -100 -36 -147.5t-120 -47.5h-18v71q52 0 71.5 26t19.5 96v174q0 134 93 148v2q-93 12 -93 142v120q0 70 -19.5 96t-71.5 26v69h18q156 0 156 -194v-113q0 -63 23 -86t83 -26v-71z" />
    <glyph glyph-name="CR" horiz-adv-x="500" 
 />
    <glyph glyph-name="uni00AD" horiz-adv-x="330" 
d="M283 250h-236v74h236v-74z" />
    <glyph glyph-name="zero.basic" 
d="M502 332q0 -174 -67 -258t-166 -84q-111 0 -166.5 78t-55.5 260q0 165 63.5 248.5t170.5 83.5q105 0 163 -75t58 -253zM405 326q0 141 -31 199.5t-100 58.5q-130 0 -130 -250q0 -141 29.5 -204t100.5 -63q63 0 97 65t34 194z" />
    <glyph glyph-name="one.basic" 
d="M496 0h-422v81h175v478l-160 -63l-16 84l197 70h72v-569h154v-81z" />
    <glyph glyph-name="two.basic" 
d="M484 0h-426v73l143 141q99 95 130 144t31 99q0 53 -34.5 87.5t-94.5 34.5q-82 0 -147 -51l-22 78q84 53 185 53t156 -54t55 -133q0 -67 -33 -126t-127 -146l-121 -115v-1q84 2 206 2h99v-86z" />
    <glyph glyph-name="three.basic" 
d="M474 199q0 -96 -74 -152.5t-199 -56.5q-65 0 -124 16l10 81q60 -20 123 -20q80 0 123 32.5t43 87.5q0 54 -42 85t-120 31q-56 0 -98 -5v72h23q224 0 224 120q0 44 -33 69.5t-90 25.5q-74 0 -143 -37l-9 79q82 33 168 33q97 0 149.5 -43.5t52.5 -112.5q0 -115 -124 -152
l-1 -1q61 -6 101 -49.5t40 -102.5z" />
    <glyph glyph-name="four.basic" 
d="M528 150h-107v-150h-89v150h-302l-7 73l276 427h122v-418h107v-82zM333 232v328h-1l-217 -331q60 3 218 3z" />
    <glyph glyph-name="five.basic" 
d="M475 213q0 -100 -74 -161t-196 -61q-64 0 -120 13v83q59 -19 127 -19q79 0 122.5 36t43.5 98q0 59 -45.5 90t-124.5 31q-67 0 -109 -8v335h352v-86h-268v-170q34 2 55 2q112 0 174.5 -51.5t62.5 -131.5z" />
    <glyph glyph-name="six.basic" 
d="M505 219q0 -103 -62 -166t-164 -63q-106 0 -166.5 72t-60.5 202q0 200 89.5 297.5t242.5 97.5q38 0 59 -3v-79q-33 5 -66 5q-188 0 -228 -209q-4 -21 -8 -49h1q24 41 66.5 63t94.5 22q95 0 148.5 -53.5t53.5 -136.5zM413 204q0 59 -33.5 94.5t-95.5 35.5q-59 0 -96 -38.5
t-37 -84.5q0 -64 36 -105.5t100 -41.5q59 0 92.5 38.5t33.5 101.5z" />
    <glyph glyph-name="seven.basic" 
d="M495 572q-150 -280 -250 -572h-105q113 310 251 564q-46 -2 -247 -2h-88v88h439v-78z" />
    <glyph glyph-name="eight.basic" 
d="M495 167q0 -80 -64 -128.5t-162 -48.5t-156.5 44.5t-58.5 118.5q0 57 37 97t102 78q-61 31 -92 68.5t-31 91.5q0 75 58.5 123.5t151.5 48.5q92 0 145.5 -44t53.5 -114q0 -51 -32.5 -88.5t-91.5 -72.5q66 -34 103 -73t37 -101zM387 494q0 44 -31 69t-83 25
q-51 0 -80.5 -26.5t-29.5 -65.5t26.5 -64.5t90.5 -56.5q53 30 80 56.5t27 62.5zM401 158q0 25 -10 45.5t-31.5 37t-40.5 27t-51 25.5q-58 -32 -89 -62t-31 -71q0 -43 34 -69.5t96 -26.5q53 0 88 25t35 69z" />
    <glyph glyph-name="nine.basic" 
d="M494 386q0 -203 -89.5 -299t-243.5 -96q-44 0 -80 7v81q40 -10 90 -10q186 0 221 195q5 30 9 48h-1q-51 -74 -156 -74q-94 0 -146.5 54.5t-52.5 141.5q0 102 62.5 164t161.5 62q106 0 165.5 -67.5t59.5 -206.5zM394 440q0 65 -34.5 105.5t-97.5 40.5q-58 0 -92 -39.5
t-34 -98.5q0 -61 33.5 -97t92.5 -36q61 0 96.5 36t35.5 89z" />
    <glyph glyph-name="Euro.basic" 
d="M514 24q-77 -34 -164 -34q-221 0 -251 232h-88v60h83q-1 10 -1 32q0 21 2 57h-84v60h93q20 106 85.5 167.5t179.5 61.5q71 0 136 -27l-22 -72q-57 26 -126 26q-128 0 -160 -156h190v-60h-200q0 -7 -0.5 -22.5t-0.5 -24.5q0 -29 1 -42h200v-60h-193q13 -80 54.5 -118
t118.5 -38q62 0 126 28z" />
    <glyph glyph-name="dollar.basic" 
d="M460 201q0 -67 -45 -117t-123 -64v-105h-67v101q-66 0 -125 14l9 84q57 -22 128 -22q58 0 93.5 24.5t35.5 72.5q0 30 -21 52t-52.5 34t-68 28t-68 33t-52.5 50t-21 79q0 64 44 111t116 57v97h67v-92q53 -1 108 -12l-10 -80q-55 18 -111 18q-64 0 -93.5 -26t-29.5 -62
q0 -34 29.5 -57.5t71.5 -39.5t84 -34.5t71.5 -54.5t29.5 -89z" />
    <glyph glyph-name="cent.basic" 
d="M470 136q-59 -29 -122 -33v-103h-70v103q-96 6 -147.5 64.5t-51.5 161.5q0 94 52.5 154.5t146.5 76.5v90h70v-87q59 -2 114 -23l-17 -75q-55 25 -115 25q-73 0 -115 -40.5t-42 -117.5q0 -71 37.5 -112.5t117.5 -41.5q67 0 119 30z" />
    <glyph glyph-name="sterling.basic" 
d="M480 0h-407v62q93 79 93 153q0 36 -6 72h-106v70h96q-12 74 -12 110q0 193 198 193q61 0 120 -17l-20 -77q-58 20 -107 20q-100 0 -100 -109q0 -33 13 -120h159v-70h-150q6 -34 6 -67q0 -44 -18 -77t-58 -67q44 2 81 2h218v-78z" />
    <glyph glyph-name="florin.basic" 
d="M517 689l-13 -77q-48 16 -89 16q-47 0 -71.5 -28t-30.5 -91l-15 -152h149v-70h-155l-24 -246q-10 -104 -61 -152.5t-143 -48.5q-42 0 -91 13l13 76q48 -15 89 -15q47 0 71.5 28t30.5 90l24 255h-115v70h122l14 143q10 104 61 152.5t143 48.5q48 0 91 -12z" />
    <glyph glyph-name="yen.basic" 
d="M517 650l-176 -354h143v-61h-165v-70h165v-61h-165v-104h-91v104h-165v61h165v70h-165v61h143l-172 354h100l94 -201q17 -36 46 -115h2q22 60 52 121l92 195h97z" />
    <glyph glyph-name="numbersign.basic" 
d="M519 412h-93l-17 -168h86v-62h-93l-19 -182h-69l20 182h-146l-20 -182h-68l19 182h-88v62h95l17 168h-88v62h94l19 176h68l-18 -176h146l19 176h68l-19 -176h87v-62zM357 412h-146l-17 -168h146z" />
    <glyph glyph-name="percent.basic" horiz-adv-x="750" 
d="M706 153q0 -72 -41.5 -117.5t-108.5 -45.5q-141 0 -141 153q0 70 41.5 115t108.5 45q141 0 141 -150zM651 627l-497 -648l-58 42l497 648zM335 509q0 -72 -41.5 -117t-108.5 -45q-141 0 -141 153q0 70 41.5 115t108.5 45q141 0 141 -151zM632 146q0 97 -72 97
q-32 0 -51.5 -25.5t-19.5 -68.5q0 -98 74 -98q30 0 49.5 26t19.5 69zM261 502q0 50 -17.5 73.5t-54.5 23.5q-32 0 -51.5 -25.5t-19.5 -67.5q0 -99 74 -99q30 0 49.5 26.5t19.5 68.5z" />
    <glyph glyph-name="perthousand.basic" horiz-adv-x="1026" 
d="M321 515q0 -74 -41 -117t-101 -43q-62 0 -97 36.5t-35 109.5t41 116t100 43q61 0 97 -35.5t36 -109.5zM249 508q0 91 -64 91q-31 0 -48.5 -24.5t-17.5 -67.5q0 -48 15 -70t49 -22q31 0 48.5 25t17.5 68zM640 622l-528 -638l-55 42l527 640zM651 151q0 -74 -41 -117.5
t-101 -43.5q-62 0 -97 36.5t-35 110.5q0 72 41 115t100 43q61 0 97 -35t36 -109zM580 144q0 47 -15.5 69t-49.5 22q-31 0 -48.5 -25t-17.5 -67q0 -48 15 -70t49 -22q31 0 49 25t18 68zM969 151q0 -74 -40.5 -117.5t-100.5 -43.5q-62 0 -97 36.5t-35 110.5q0 72 41 115
t100 43q61 0 96.5 -35t35.5 -109zM898 144q0 91 -64 91q-31 0 -49 -25t-18 -67q0 -92 65 -92q31 0 48.5 25t17.5 68z" />
    <glyph glyph-name="zero.onum" horiz-adv-x="613" 
d="M562 268q0 -125 -77 -201.5t-189 -76.5q-110 0 -177.5 67.5t-67.5 198.5q0 123 77 198.5t186 75.5q122 0 185 -73t63 -189zM471 262q0 85 -41.5 138.5t-120.5 53.5q-71 0 -119 -52.5t-48 -138.5q0 -87 40.5 -141.5t121.5 -54.5q69 0 118 54.5t49 140.5z" />
    <glyph glyph-name="one.onum" horiz-adv-x="338" 
d="M246 0h-93v436l-113 -48l-15 77l148 57h73v-522z" />
    <glyph glyph-name="two.onum" horiz-adv-x="482" 
d="M432 0h-379v72l132 113q67 51 96.5 89.5t29.5 80.5q0 44 -28 71.5t-79 27.5q-65 0 -126 -38l-13 78q75 36 158 36q89 0 137.5 -44t48.5 -115q0 -104 -128 -204l-105 -86l-2 -4q64 4 258 4v-81z" />
    <glyph glyph-name="three.onum" horiz-adv-x="461" 
d="M408 36q0 -99 -74 -163.5t-201 -64.5q-48 0 -93 10l9 81q45 -13 92 -13q81 0 125.5 38.5t44.5 99.5q0 73 -62 105t-169 21v72q103 0 159.5 33.5t56.5 98.5q0 47 -30 74t-82 27q-63 0 -118 -31l-9 77q69 29 143 29q94 0 142.5 -46t48.5 -115q0 -56 -33 -100t-88 -66v-1
q63 -11 100.5 -56.5t37.5 -109.5z" />
    <glyph glyph-name="four.onum" horiz-adv-x="544" 
d="M530 0h-120v-187h-89v187h-291l-14 74l277 446h117v-439h120v-81zM322 81v351h-1l-218 -352q57 1 219 1z" />
    <glyph glyph-name="five.onum" horiz-adv-x="467" 
d="M418 52q0 -104 -82.5 -174t-207.5 -70q-30 0 -78 6l11 84q36 -9 76 -9q89 0 137 42t48 107q0 69 -49.5 106t-145.5 37q-29 0 -49 -1v340h317v-88h-231v-174q121 0 187.5 -56t66.5 -150z" />
    <glyph glyph-name="six.onum" horiz-adv-x="582" 
d="M533 230q0 -106 -67.5 -173t-174.5 -67q-106 0 -165.5 76t-59.5 212q0 207 97.5 317t258.5 110q20 0 46 -2v-80q-30 5 -55 5q-103 0 -164 -61t-81 -168l-3 -14q-3 -14 -5 -25l1 -1q23 38 66 60t99 22q96 0 151.5 -57.5t55.5 -153.5zM437 217q0 67 -35 106t-96 39
q-65 0 -101 -40.5t-36 -96.5q0 -67 34.5 -112.5t99.5 -45.5q61 0 97.5 42t36.5 108z" />
    <glyph glyph-name="seven.onum" horiz-adv-x="459" 
d="M430 444q-136 -313 -208 -631h-102q78 315 210 621q-31 -2 -305 -2v88h405v-76z" />
    <glyph glyph-name="eight.onum" horiz-adv-x="551" 
d="M494 179q0 -88 -66 -138.5t-163 -50.5q-99 0 -154 48t-55 125q0 63 37.5 106.5t101.5 84.5h-1q-128 74 -128 177q0 79 59 128.5t155 49.5q92 0 146 -45t54 -117q0 -53 -31.5 -95t-99.5 -85q68 -40 106.5 -82t38.5 -106zM387 538q0 42 -29.5 69.5t-82.5 27.5t-83.5 -28
t-30.5 -71q0 -39 28.5 -69t88.5 -63h1q59 37 83.5 67t24.5 67zM398 167q0 46 -32 79t-99 70h-1q-114 -68 -114 -143q0 -48 33.5 -77.5t90.5 -29.5q52 0 87 27.5t35 73.5z" />
    <glyph glyph-name="nine.onum" horiz-adv-x="582" 
d="M516 239q0 -207 -96.5 -319t-266.5 -112q-35 0 -60 5v84q32 -10 65 -10q106 0 165.5 53.5t83.5 159.5q5 20 9 53h-1q-24 -35 -67 -55.5t-94 -20.5q-95 0 -150 57.5t-55 154.5q0 105 66 173t172 68q105 0 167 -72.5t62 -218.5zM413 289q0 73 -35.5 118.5t-99.5 45.5
q-59 0 -96.5 -43t-37.5 -106q0 -70 34.5 -108t97.5 -38q60 0 98.5 38.5t38.5 92.5z" />
    <glyph glyph-name="wasla" horiz-adv-x="0" 
d="M-36 53h123v13q0 75 -42 75q-30 0 -50.5 -25t-30.5 -63zM-149 0v53h54q19 63 56 101.5t93 38.5q48 0 72 -29.5t24 -96.5v-67h-299z" />
    <glyph glyph-name="hamza_medial" horiz-adv-x="0" 
d="M-121 0v57q42 0 69 -5q-27 12 -27 48q0 41 31.5 70t95.5 29q32 0 54 -4l-9 -56q-36 4 -48 4q-56 0 -56 -41q0 -45 78 -45h54v-57h-242z" />
    <glyph glyph-name="xx.TahAbove" horiz-adv-x="0" 
d="M75 113q0 54 -43 54q-38 0 -71.5 -38.5t-38.5 -82.5h73q80 0 80 67zM-77 283v-83q0 -26 -7 -63h1q20 34 53.5 55.5t69.5 21.5q46 0 70.5 -25t24.5 -69q0 -56 -38 -88t-110 -32h-122v283h58z" />
    <glyph glyph-name="shadda_fathatan" horiz-adv-x="0" 
d="M-118 232l-7 41l204 31l7 -40zM-107 160l-7 41l204 31l7 -40zM15 33q-15 -33 -56 -33q-43 0 -53 58l-7 37l41 7l6 -35q6 -24 23 -24q13 0 19 9.5t3 25.5l-5 35l40 8l7 -36q5 -27 24 -27q30 0 23 42l-6 36l42 8l6 -36q8 -42 -10 -66.5t-58 -25.5q-25 0 -39 17z" />
    <glyph glyph-name="hamza_above_damma" horiz-adv-x="0" 
d="M-95 0v43q32 0 65 -5q-13 5 -23 18t-10 29q0 35 30.5 52.5t78.5 17.5q27 0 53 -7l-7 -41q-28 6 -49 6q-52 0 -52 -29q0 -17 19 -29t54 -12h49v-43h-208zM-111 148l-9 40l88 17q-6 18 -6 36q0 37 26 61t64 24q33 0 51 -17t18 -47q0 -67 -77 -83zM12 214l23 5q41 9 41 41
q0 25 -29 25q-18 0 -29 -11.5t-11 -30.5z" />
    <glyph glyph-name="hamza_above_sukun" horiz-adv-x="0" 
d="M3 192q-78 0 -78 75q0 35 24 57.5t60 22.5q77 0 77 -74q0 -36 -24 -58.5t-59 -22.5zM5 230q16 0 25.5 11t9.5 30q0 38 -33 38q-15 0 -25.5 -10.5t-10.5 -27.5q0 -41 34 -41zM-104 0v43q30 0 65 -5q-13 5 -23 17.5t-10 29.5q0 35 30.5 52t78.5 17q27 0 53 -6l-8 -41
q-33 5 -48 5q-52 0 -52 -28q0 -17 18.5 -29t53.5 -12h50v-43h-208z" />
    <glyph glyph-name="hamza_above_fathatan" horiz-adv-x="0" 
d="M-105 240l-7 40l204 32l7 -40zM-93 168l-7 40l204 32l6 -41zM-96 0v42q31 0 66 -5q-34 15 -34 47q0 35 31 52.5t78 17.5q23 0 53 -6l-7 -42q-28 6 -48 6q-53 0 -53 -29q0 -17 19 -29t54 -12h50v-42h-209z" />
    <glyph glyph-name="hamza_above_dammatan" horiz-adv-x="0" 
d="M-87 0v43q31 0 66 -5q-13 5 -23.5 18t-10.5 29q0 35 31 52.5t78 17.5q27 0 53 -7l-7 -41q-28 6 -48 6q-53 0 -53 -29q0 -17 19 -29t54 -12h50v-43h-209zM-103 147l-26 121l44 9l17 -80l44 9q-6 17 -6 35q1 37 26.5 61t63.5 24q33 0 51 -17t18 -47q0 -65 -78 -83zM21 215
l22 4q41 8 41 41q0 25 -29 25q-18 0 -29 -11.5t-11 -30.5z" />
    <glyph glyph-name="hamza_above_fatha" horiz-adv-x="0" 
d="M-99 170l-7 40l204 31l6 -40zM-101 0v43q12 0 24.5 -1t24.5 -2.5t16 -1.5q-34 13 -34 47q0 35 31 52t79 17q24 0 52 -6l-7 -42q-26 6 -48 6q-53 0 -53 -29q0 -17 19 -28.5t54 -11.5h50v-43h-208z" />
    <glyph glyph-name="hamza_below_kasratan" horiz-adv-x="0" 
d="M-101 -270v38h203v-38h-203zM-101 -209v38h203v-38h-203zM-101 -147v40q31 0 64 -5q-13 5 -23 17.5t-10 28.5q0 33 30 49.5t77 16.5q21 0 51 -6l-7 -39q-22 5 -47 5q-52 0 -52 -27q0 -16 18.5 -28t52.5 -12h49v-40h-203z" />
    <glyph glyph-name="hamza_below_kasra" horiz-adv-x="0" 
d="M-104 -219v40h208v-40h-208zM-104 -154v43q30 0 65 -5q-13 5 -23 18t-10 29q0 35 30.5 52t78.5 17q31 0 53 -6l-8 -41q-22 5 -48 5q-52 0 -52 -28q0 -17 18.5 -29t53.5 -12h50v-43h-208z" />
    <glyph glyph-name="wasle" horiz-adv-x="103" 
d="M0 0v73h117v-73h-117z" />
    <glyph glyph-name="Kashida.Narrow" horiz-adv-x="189" 
d="M0 0v73h209v-73h-209z" />
    <glyph glyph-name="kashida.long" horiz-adv-x="209" 
d="M-1 0v73h211v-73h-211z" />
    <glyph glyph-name="tooth.init" horiz-adv-x="326" 
d="M0 0v73h146v397h92v-470h-238z" />
    <glyph glyph-name="tooth.init.long" horiz-adv-x="380" 
d="M0 0v73h201v397h92v-470h-293z" />
    </font>
</defs>
</svg>
