<?xml version="1.0" standalone="no"?>
<!DOCTYPE svg PUBLIC "-//W3C//DTD SVG 1.1//EN" "http://www.w3.org/Graphics/SVG/1.1/DTD/svg11.dtd" >
<svg xmlns="http://www.w3.org/2000/svg" xmlns:xlink="http://www.w3.org/1999/xlink" version="1.1">
<metadata>
Created by FontForge 20170731 at Tue Feb 26 05:59:56 2013
 By Aleksey,,,
(c)  2013 Bahij Virtual Academy. All rights reserved.
</metadata>
<defs>
<font id="BahijTheSansArabic-Bold" horiz-adv-x="0" >
  <font-face 
    font-family="Bahij TheSansArabic Bold"
    font-weight="500"
    font-stretch="normal"
    units-per-em="2048"
    panose-1="2 4 5 3 5 2 1 2 2 3"
    ascent="1368"
    descent="-680"
    x-height="1018"
    cap-height="1382"
    bbox="-524 -1085 5771 2391"
    underline-thickness="50"
    underline-position="-150"
    unicode-range="U+0020-FEFC"
  />
<missing-glyph horiz-adv-x="728" 
d="M0 0v1020h728v-1020h-728zM117 947l247 -372l248 372h-495zM655 881l-247 -371l247 -372v743zM612 73l-248 371l-247 -371h495zM73 138l247 372l-247 371v-743z" />
    <glyph glyph-name="uniFB01" unicode="fi" horiz-adv-x="1218" 
d="M817 0v815h-363v-815h-260v815h-178v203h178v37q0 456 502 456q153 0 315 -38l-45 -218q-126 41 -250 41q-262 0 -262 -225v-53h623v-1018h-260z" />
    <glyph glyph-name="uniFB02" unicode="fl" horiz-adv-x="1218" 
d="M817 0v1286q-74 12 -144 12q-219 0 -219 -194v-86h224v-203h-224v-815h-260v815h-178v203h178v98q0 395 502 395q148 0 381 -34v-1477h-260z" />
    <glyph glyph-name="uniFC31" unicode="&#xfed3;&#xfef0;" horiz-adv-x="3261" arabic-form="isolated" 
d="M2858 485q0 291 -219 291q-113 0 -180 -78q-64 -76 -64 -198q0 -287 307 -287h156v272zM1644 0v508q0 148 -50 208t-177 60q-68 0 -135 -12v-764h-428q-401 0 -585 163q-167 147 -167 443q0 176 53 322l289 47q-70 -153 -70 -338q0 -223 111 -320q117 -104 397 -104h140
v737q190 39 411 39q258 0 372 -121q101 -108 101 -331v-324h221q71 0 114 -14q-114 83 -114 293q0 208 132 346q146 151 400 151q463 0 463 -471v-518h-1478zM2533 1183q-42 42 -42 101q0 58 42 100q41 41 100 41q58 0 99 -41q42 -42 42 -100t-42 -100q-41 -41 -99 -41
q-59 0 -100 40z" />
    <glyph glyph-name="uniFC32" unicode="&#xfed3;&#xfef2;" horiz-adv-x="3261" arabic-form="isolated" 
d="M1068 -405q-39 -41 -96 -41q-56 0 -96 40q-39 40 -39 99q0 57 39 98q40 41 96 41q57 0 96 -40q40 -41 40 -99q0 -57 -40 -98zM730 -405q-40 -41 -98 -41q-56 0 -96 40q-39 40 -39 99q0 57 39 98q40 41 96 41q59 0 98 -40q40 -41 40 -99t-40 -98zM2858 485q0 291 -219 291
q-113 0 -180 -78q-64 -76 -64 -198q0 -287 307 -287h156v272zM1644 0v508q0 148 -50 208t-177 60q-68 0 -135 -12v-764h-428q-401 0 -585 163q-167 147 -167 443q0 176 53 322l289 47q-70 -153 -70 -338q0 -223 111 -320q117 -104 397 -104h140v737q190 39 411 39
q258 0 372 -121q101 -108 101 -331v-324h221q71 0 114 -14q-114 83 -114 293q0 208 132 346q146 151 400 151q463 0 463 -471v-518h-1478zM2533 1183q-42 42 -42 101q0 58 42 100q41 41 100 41q58 0 99 -41q42 -42 42 -100t-42 -100q-41 -41 -99 -41q-59 0 -100 40z" />
    <glyph glyph-name="uniFC43" unicode="&#xfedf;&#xfef0;" horiz-adv-x="2701" arabic-form="isolated" 
d="M1644 0v508q0 148 -50 208t-177 60q-68 0 -135 -12v-764h-428q-401 0 -585 163q-167 147 -167 443q0 176 53 322l289 47q-70 -153 -70 -338q0 -223 111 -320q117 -104 397 -104h140v737q190 39 411 39q258 0 372 -121q101 -108 101 -331v-324h358v1231h270v-1444h-890z
" />
    <glyph glyph-name="uniFC44" unicode="&#xfedf;&#xfef2;" horiz-adv-x="2701" arabic-form="isolated" 
d="M1068 -405q-39 -41 -96 -41q-56 0 -96 40q-39 40 -39 99q0 57 39 98q40 41 96 41q57 0 96 -40q40 -41 40 -99q0 -57 -40 -98zM730 -405q-40 -41 -98 -41q-56 0 -96 40q-39 40 -39 99q0 57 39 98q40 41 96 41q59 0 98 -40q40 -41 40 -99t-40 -98zM1644 0v508
q0 148 -50 208t-177 60q-68 0 -135 -12v-764h-428q-401 0 -585 163q-167 147 -167 443q0 176 53 322l289 47q-70 -153 -70 -338q0 -223 111 -320q117 -104 397 -104h140v737q190 39 411 39q258 0 372 -121q101 -108 101 -331v-324h358v1231h270v-1444h-890z" />
    <glyph glyph-name="uniFC64" unicode="&#xfe8c;&#xfeae;" horiz-adv-x="1529" arabic-form="final" 
d="M662 0v-8q0 -512 -506 -512q-90 0 -172 20l20 215q85 -24 166 -24q111 0 163 60q59 68 59 226v986h270v-750h425v750h270v-750h201v-213h-896zM917 1282q76 0 114 -8q-38 19 -38 80q0 96 67 157q79 72 229 72q50 0 121 -10l-24 -154q-51 11 -103 11q-98 0 -98 -70
q0 -78 141 -78h117v-154h-526v154z" />
    <glyph glyph-name="uniFC67" unicode="&#xfe8c;&#xfee6;" horiz-adv-x="2069" arabic-form="final" 
d="M1447 1282q76 0 114 -8q-38 19 -38 80q0 96 67 157q79 72 229 72q50 0 121 -10l-24 -154q-51 11 -103 11q-98 0 -98 -70q0 -78 141 -78h117v-154h-526v154zM504 747q-42 41 -42 101q0 58 42 100q41 41 99 41q59 0 100 -41q42 -42 42 -100t-42 -100q-41 -41 -100 -41
q-58 0 -99 40zM1179 0q-62 -471 -567 -471q-541 0 -541 582q0 188 49 366l279 51q-58 -204 -58 -393q0 -395 291 -395q287 0 287 389v834h270v-750h428v750h270v-750h201v-213h-909z" />
    <glyph glyph-name="uniFC6A" unicode="&#xfe92;&#xfeae;" horiz-adv-x="1535" arabic-form="final" 
d="M662 0v-8q0 -512 -506 -512q-90 0 -172 20l20 215q85 -24 166 -24q111 0 163 60q59 68 59 226v986h270v-750h425v750h270v-750h201v-213h-896zM970 -408q-41 41 -41 101q0 58 41 100q42 41 100 41q59 0 100 -41q42 -41 42 -100t-42 -100q-41 -42 -100 -42q-58 0 -100 41z
" />
    <glyph glyph-name="uniFC70" unicode="&#xfe98;&#xfeae;" horiz-adv-x="1512" arabic-form="final" 
d="M662 0v-8q0 -512 -506 -512q-90 0 -172 20l20 215q85 -24 166 -24q111 0 163 60q59 68 59 226v986h270v-750h425v750h270v-750h182v-213h-877zM1257 1159q-39 40 -39 98t39 99q40 41 96 41q57 0 96 -41q39 -40 39 -99q0 -57 -39 -98q-40 -41 -96 -41q-57 0 -96 41z
M917 1159q-39 40 -39 98t39 99q40 41 96 41q58 0 98 -41q39 -40 39 -99q0 -57 -39 -98q-40 -41 -98 -41q-57 0 -96 41z" />
    <glyph glyph-name="uniFC86" unicode="&#xfee0;&#xfef0;" horiz-adv-x="2727" arabic-form="final" 
d="M1644 0v508q0 148 -50 208t-177 60q-68 0 -135 -12v-764h-428q-401 0 -585 163q-167 147 -167 443q0 176 53 322l289 47q-70 -153 -70 -338q0 -223 111 -320q117 -104 397 -104h140v737q190 39 411 39q258 0 372 -121q101 -108 101 -331v-324h368v1231h270v-1231h205
v-213h-1105z" />
    <glyph glyph-name="uniFC87" unicode="&#xfee0;&#xfef2;" horiz-adv-x="2727" arabic-form="final" 
d="M1068 -405q-39 -41 -96 -41q-56 0 -96 40q-39 40 -39 99q0 57 39 98q40 41 96 41q57 0 96 -40q40 -41 40 -99q0 -57 -40 -98zM730 -405q-40 -41 -98 -41q-56 0 -96 40q-39 40 -39 99q0 57 39 98q40 41 96 41q59 0 98 -40q40 -41 40 -99t-40 -98zM1644 0v508
q0 148 -50 208t-177 60q-68 0 -135 -12v-764h-428q-401 0 -585 163q-167 147 -167 443q0 176 53 322l289 47q-70 -153 -70 -338q0 -223 111 -320q117 -104 397 -104h140v737q190 39 411 39q258 0 372 -121q101 -108 101 -331v-324h368v1231h270v-1231h205v-213h-1105z" />
    <glyph glyph-name="uniFCCC" unicode="&#xfedf;&#xfee4;" horiz-adv-x="2003" arabic-form="initial" 
d="M931 485q0 291 -219 291q-113 0 -180 -78q-64 -76 -64 -198q0 -287 307 -287h156v272zM775 0q-331 0 -459 160q-62 -160 -325 -160h-31v213q120 0 177 59q63 65 63 220q0 208 132 346q146 151 400 151q463 0 463 -471v-305h359v1231h270v-1444h-1049z" />
    <glyph glyph-name="uniFCFB" unicode="&#xfeb3;&#xfef0;" horiz-adv-x="3864" arabic-form="isolated" 
d="M1644 0v508q0 148 -50 208t-177 60q-68 0 -135 -12v-764h-428q-401 0 -585 163q-167 147 -167 443q0 176 53 322l289 47q-70 -153 -70 -338q0 -223 111 -320q117 -104 397 -104h140v737q190 39 411 39q258 0 372 -121q101 -108 101 -331v-324h216q102 0 142 52
q43 55 43 202v373h270v-379q0 -148 25 -201q29 -63 116 -63q164 0 164 262v463h260v-514q0 -120 50 -158q48 -37 192 -37h53q15 115 15 246q0 283 -60 549l264 36q66 -275 66 -567q0 -259 -31 -477h-338q-167 0 -248 28q-87 31 -131 113q-73 -157 -309 -157q-219 0 -272 159
q-63 -143 -273 -143h-476z" />
    <glyph glyph-name="uniFCFC" unicode="&#xfeb3;&#xfef2;" horiz-adv-x="3864" arabic-form="isolated" 
d="M1068 -405q-39 -41 -96 -41q-56 0 -96 40q-39 40 -39 99q0 57 39 98q40 41 96 41q57 0 96 -40q40 -41 40 -99q0 -57 -40 -98zM730 -405q-40 -41 -98 -41q-56 0 -96 40q-39 40 -39 99q0 57 39 98q40 41 96 41q59 0 98 -40q40 -41 40 -99t-40 -98zM1644 0v508
q0 148 -50 208t-177 60q-68 0 -135 -12v-764h-428q-401 0 -585 163q-167 147 -167 443q0 176 53 322l289 47q-70 -153 -70 -338q0 -223 111 -320q117 -104 397 -104h140v737q190 39 411 39q258 0 372 -121q101 -108 101 -331v-324h216q102 0 142 52q43 55 43 202v373h270
v-379q0 -148 25 -201q29 -63 116 -63q164 0 164 262v463h260v-514q0 -120 50 -158q48 -37 192 -37h53q15 115 15 246q0 283 -60 549l264 36q66 -275 66 -567q0 -259 -31 -477h-338q-167 0 -248 28q-87 31 -131 113q-73 -157 -309 -157q-219 0 -272 159q-63 -143 -273 -143
h-476z" />
    <glyph glyph-name="uniFCFD" unicode="&#xfeb7;&#xfef0;" horiz-adv-x="3864" arabic-form="isolated" 
d="M1644 0v508q0 148 -50 208t-177 60q-68 0 -135 -12v-764h-428q-401 0 -585 163q-167 147 -167 443q0 176 53 322l289 47q-70 -153 -70 -338q0 -223 111 -320q117 -104 397 -104h140v737q190 39 411 39q258 0 372 -121q101 -108 101 -331v-324h216q102 0 142 52
q43 55 43 202v373h270v-379q0 -148 25 -201q29 -63 116 -63q164 0 164 262v463h260v-514q0 -120 50 -158q48 -37 192 -37h53q15 115 15 246q0 283 -60 549l264 36q66 -275 66 -567q0 -259 -31 -477h-338q-167 0 -248 28q-87 31 -131 113q-73 -157 -309 -157q-219 0 -272 159
q-63 -143 -273 -143h-476zM2737 1159q-39 40 -39 98t39 99q40 41 96 41q57 0 96 -41q39 -40 39 -99q0 -57 -39 -98t-96 -41t-96 41zM3075 1159q-39 40 -39 98t39 99q40 41 98 41q57 0 96 -41q39 -40 39 -99q0 -57 -39 -98q-40 -41 -96 -41q-58 0 -98 41zM2912 1447
q-36 37 -36 91t36 91q37 38 89 38q54 0 90 -38q37 -37 37 -91t-37 -91q-36 -38 -90 -38q-52 0 -89 38z" />
    <glyph glyph-name="uniFCFE" unicode="&#xfeb7;&#xfef2;" horiz-adv-x="3864" arabic-form="isolated" 
d="M1068 -405q-39 -41 -96 -41q-56 0 -96 40q-39 40 -39 99q0 57 39 98q40 41 96 41q57 0 96 -40q40 -41 40 -99q0 -57 -40 -98zM730 -405q-40 -41 -98 -41q-56 0 -96 40q-39 40 -39 99q0 57 39 98q40 41 96 41q59 0 98 -40q40 -41 40 -99t-40 -98zM1644 0v508
q0 148 -50 208t-177 60q-68 0 -135 -12v-764h-428q-401 0 -585 163q-167 147 -167 443q0 176 53 322l289 47q-70 -153 -70 -338q0 -223 111 -320q117 -104 397 -104h140v737q190 39 411 39q258 0 372 -121q101 -108 101 -331v-324h216q102 0 142 52q43 55 43 202v373h270
v-379q0 -148 25 -201q29 -63 116 -63q164 0 164 262v463h260v-514q0 -120 50 -158q48 -37 192 -37h53q15 115 15 246q0 283 -60 549l264 36q66 -275 66 -567q0 -259 -31 -477h-338q-167 0 -248 28q-87 31 -131 113q-73 -157 -309 -157q-219 0 -272 159q-63 -143 -273 -143
h-476zM2737 1159q-39 40 -39 98t39 99q40 41 96 41q57 0 96 -41q39 -40 39 -99q0 -57 -39 -98t-96 -41t-96 41zM3075 1159q-39 40 -39 98t39 99q40 41 98 41q57 0 96 -41q39 -40 39 -99q0 -57 -39 -98q-40 -41 -96 -41q-58 0 -98 41zM2912 1447q-36 37 -36 91t36 91
q37 38 89 38q54 0 90 -38q37 -37 37 -91t-37 -91q-36 -38 -90 -38q-52 0 -89 38z" />
    <glyph glyph-name="uniFD05" unicode="&#xfebb;&#xfef0;" horiz-adv-x="3625" arabic-form="isolated" 
d="M2892 213q324 0 324 295q0 266 -209 266q-160 0 -290 -172q-123 -163 -156 -389h331zM1644 0v508q0 148 -50 208t-177 60q-68 0 -135 -12v-764h-428q-401 0 -585 163q-167 147 -167 443q0 176 53 322l289 47q-70 -153 -70 -338q0 -223 111 -320q117 -104 397 -104h140
v737q190 39 411 39q258 0 372 -121q101 -108 101 -331v-324h388v750h271v-52q0 -172 -25 -303h4q66 181 213 284q138 97 305 97q211 0 323 -124q110 -121 110 -341q0 -238 -143 -372q-160 -152 -484 -152h-1224z" />
    <glyph glyph-name="uniFD06" unicode="&#xfebb;&#xfef2;" horiz-adv-x="3621" arabic-form="isolated" 
d="M1068 -405q-39 -41 -96 -41q-56 0 -96 40q-39 40 -39 99q0 57 39 98q40 41 96 41q57 0 96 -40q40 -41 40 -99q0 -57 -40 -98zM730 -405q-40 -41 -98 -41q-56 0 -96 40q-39 40 -39 99q0 57 39 98q40 41 96 41q59 0 98 -40q40 -41 40 -99t-40 -98zM2892 213q324 0 324 295
q0 266 -209 266q-160 0 -290 -172q-123 -163 -156 -389h331zM1644 0v508q0 148 -50 208t-177 60q-68 0 -135 -12v-764h-428q-401 0 -585 163q-167 147 -167 443q0 176 53 322l289 47q-70 -153 -70 -338q0 -223 111 -320q117 -104 397 -104h140v737q190 39 411 39
q258 0 372 -121q101 -108 101 -331v-324h388v750h271v-52q0 -172 -25 -303h4q66 181 213 284q138 97 305 97q211 0 323 -124q110 -121 110 -341q0 -238 -143 -372q-160 -152 -484 -152h-1224z" />
    <glyph glyph-name="uniFD07" unicode="&#xfebf;&#xfef0;" horiz-adv-x="3629" arabic-form="isolated" 
d="M2892 213q324 0 324 295q0 266 -209 266q-160 0 -290 -172q-123 -163 -156 -389h331zM1644 0v508q0 148 -50 208t-177 60q-68 0 -135 -12v-764h-428q-401 0 -585 163q-167 147 -167 443q0 176 53 322l289 47q-70 -153 -70 -338q0 -223 111 -320q117 -104 397 -104h140
v737q190 39 411 39q258 0 372 -121q101 -108 101 -331v-324h388v750h271v-52q0 -172 -25 -303h4q66 181 213 284q138 97 305 97q211 0 323 -124q110 -121 110 -341q0 -238 -143 -372q-160 -152 -484 -152h-1224zM2911 1175q-41 41 -41 101q0 58 41 100q42 41 100 41
q59 0 100 -41q42 -42 42 -100t-42 -100q-41 -41 -100 -41q-58 0 -100 40z" />
    <glyph glyph-name="uniFD08" unicode="&#xfebf;&#xfef2;" horiz-adv-x="3629" arabic-form="isolated" 
d="M1068 -405q-39 -41 -96 -41q-56 0 -96 40q-39 40 -39 99q0 57 39 98q40 41 96 41q57 0 96 -40q40 -41 40 -99q0 -57 -40 -98zM730 -405q-40 -41 -98 -41q-56 0 -96 40q-39 40 -39 99q0 57 39 98q40 41 96 41q59 0 98 -40q40 -41 40 -99t-40 -98zM2892 213q324 0 324 295
q0 266 -209 266q-160 0 -290 -172q-123 -163 -156 -389h331zM1644 0v508q0 148 -50 208t-177 60q-68 0 -135 -12v-764h-428q-401 0 -585 163q-167 147 -167 443q0 176 53 322l289 47q-70 -153 -70 -338q0 -223 111 -320q117 -104 397 -104h140v737q190 39 411 39
q258 0 372 -121q101 -108 101 -331v-324h388v750h271v-52q0 -172 -25 -303h4q66 181 213 284q138 97 305 97q211 0 323 -124q110 -121 110 -341q0 -238 -143 -372q-160 -152 -484 -152h-1224zM2911 1175q-41 41 -41 101q0 58 41 100q42 41 100 41q59 0 100 -41
q42 -42 42 -100t-42 -100q-41 -41 -100 -41q-58 0 -100 40z" />
    <glyph glyph-name="uniFD0D" unicode="&#xfeb7;&#xfeae;" horiz-adv-x="2640" arabic-form="isolated" 
d="M1692 1447q-36 37 -36 91t36 91q37 38 89 38q54 0 90 -38q37 -37 37 -91t-37 -91q-36 -38 -90 -38q-52 0 -89 38zM1855 1159q-39 40 -39 98t39 99q40 41 98 41q57 0 96 -41q39 -40 39 -99q0 -57 -39 -98q-40 -41 -96 -41q-58 0 -98 41zM1517 1159q-39 40 -39 98t39 99
q40 41 96 41q57 0 96 -41q39 -40 39 -99q0 -57 -39 -98t-96 -41t-96 41zM662 0v-8q0 -512 -506 -512q-90 0 -172 20l20 215q85 -24 166 -24q111 0 163 60q59 68 59 226v986h270v-750h240q102 0 142 52q43 55 43 202v373h270v-379q0 -148 25 -201q29 -63 116 -63
q164 0 164 262v463h260v-514q0 -120 50 -158q48 -37 192 -37h53q15 115 15 246q0 283 -60 549l264 36q66 -275 66 -567q0 -259 -31 -477h-338q-167 0 -248 28q-87 31 -131 113q-73 -157 -309 -157q-219 0 -272 159q-63 -143 -273 -143h-238z" />
    <glyph glyph-name="uniFD0E" unicode="&#xfeb3;&#xfeae;" horiz-adv-x="2640" arabic-form="isolated" 
d="M662 0v-8q0 -512 -506 -512q-90 0 -172 20l20 215q85 -24 166 -24q111 0 163 60q59 68 59 226v986h270v-750h240q102 0 142 52q43 55 43 202v373h270v-379q0 -148 25 -201q29 -63 116 -63q164 0 164 262v463h260v-514q0 -120 50 -158q48 -37 192 -37h53q15 115 15 246
q0 283 -60 549l264 36q66 -275 66 -567q0 -259 -31 -477h-338q-167 0 -248 28q-87 31 -131 113q-73 -157 -309 -157q-219 0 -272 159q-63 -143 -273 -143h-238z" />
    <glyph glyph-name="uniFD0F" unicode="&#xfebb;&#xfeae;" horiz-adv-x="2372" arabic-form="isolated" 
d="M1672 213q324 0 324 295q0 266 -209 266q-160 0 -290 -172q-123 -163 -156 -389h331zM662 0v-8q0 -512 -506 -512q-90 0 -172 20l20 215q85 -24 166 -24q111 0 163 60q59 68 59 226v986h270v-750h412v750h271v-52q0 -172 -25 -303h4q66 181 213 284q138 97 305 97
q211 0 323 -124q110 -121 110 -341q0 -238 -143 -372q-160 -152 -484 -152h-986z" />
    <glyph glyph-name="uniFD10" unicode="&#xfebf;&#xfeae;" horiz-adv-x="2372" arabic-form="isolated" 
d="M1672 213q324 0 324 295q0 266 -209 266q-160 0 -290 -172q-123 -163 -156 -389h331zM662 0v-8q0 -512 -506 -512q-90 0 -172 20l20 215q85 -24 166 -24q111 0 163 60q59 68 59 226v986h270v-750h412v750h271v-52q0 -172 -25 -303h4q66 181 213 284q138 97 305 97
q211 0 323 -124q110 -121 110 -341q0 -238 -143 -372q-160 -152 -484 -152h-986zM1691 1175q-41 41 -41 101q0 58 41 100q42 41 100 41q59 0 100 -41q42 -42 42 -100t-42 -100q-41 -41 -100 -41q-58 0 -100 40z" />
    <glyph glyph-name="uniFD17" unicode="&#xfeb4;&#xfef0;" horiz-adv-x="3884" arabic-form="final" 
d="M1644 0v508q0 148 -50 208t-177 60q-68 0 -135 -12v-764h-428q-401 0 -585 163q-167 147 -167 443q0 176 53 322l289 47q-70 -153 -70 -338q0 -223 111 -320q117 -104 397 -104h140v737q190 39 411 39q258 0 372 -121q101 -108 101 -331v-324h216q102 0 142 52
q43 55 43 202v373h270v-379q0 -148 25 -201q29 -63 116 -63q164 0 164 262v463h260v-514q0 -120 50 -158q48 -37 192 -37h53q15 115 15 246q0 283 -60 549l264 36q66 -275 66 -567q0 -114 -10 -264h200v-213h-559q-167 0 -248 28q-87 31 -131 113q-73 -157 -309 -157
q-219 0 -272 159q-63 -143 -273 -143h-476z" />
    <glyph glyph-name="uniFD18" unicode="&#xfeb4;&#xfef2;" horiz-adv-x="3884" arabic-form="final" 
d="M1068 -405q-39 -41 -96 -41q-56 0 -96 40q-39 40 -39 99q0 57 39 98q40 41 96 41q57 0 96 -40q40 -41 40 -99q0 -57 -40 -98zM730 -405q-40 -41 -98 -41q-56 0 -96 40q-39 40 -39 99q0 57 39 98q40 41 96 41q59 0 98 -40q40 -41 40 -99t-40 -98zM1644 0v508
q0 148 -50 208t-177 60q-68 0 -135 -12v-764h-428q-401 0 -585 163q-167 147 -167 443q0 176 53 322l289 47q-70 -153 -70 -338q0 -223 111 -320q117 -104 397 -104h140v737q190 39 411 39q258 0 372 -121q101 -108 101 -331v-324h216q102 0 142 52q43 55 43 202v373h270
v-379q0 -148 25 -201q29 -63 116 -63q164 0 164 262v463h260v-514q0 -120 50 -158q48 -37 192 -37h53q15 115 15 246q0 283 -60 549l264 36q66 -275 66 -567q0 -114 -10 -264h200v-213h-559q-167 0 -248 28q-87 31 -131 113q-73 -157 -309 -157q-219 0 -272 159
q-63 -143 -273 -143h-476z" />
    <glyph glyph-name="uniFD19" unicode="&#xfeb8;&#xfef0;" horiz-adv-x="3884" arabic-form="final" 
d="M3075 1159q-39 40 -39 98t39 99q40 41 98 41q57 0 96 -41q39 -40 39 -99q0 -57 -39 -98q-40 -41 -96 -41q-58 0 -98 41zM2737 1159q-39 40 -39 98t39 99q40 41 96 41q57 0 96 -41q39 -40 39 -99q0 -57 -39 -98t-96 -41t-96 41zM2912 1447q-36 37 -36 91t36 91
q37 38 89 38q54 0 90 -38q37 -37 37 -91t-37 -91q-36 -38 -90 -38q-52 0 -89 38zM1644 0v508q0 148 -50 208t-177 60q-68 0 -135 -12v-764h-428q-401 0 -585 163q-167 147 -167 443q0 176 53 322l289 47q-70 -153 -70 -338q0 -223 111 -320q117 -104 397 -104h140v737
q190 39 411 39q258 0 372 -121q101 -108 101 -331v-324h216q102 0 142 52q43 55 43 202v373h270v-379q0 -148 25 -201q29 -63 116 -63q164 0 164 262v463h260v-514q0 -120 50 -158q48 -37 192 -37h53q15 115 15 246q0 283 -60 549l264 36q66 -275 66 -567q0 -114 -10 -264
h200v-213h-559q-167 0 -248 28q-87 31 -131 113q-73 -157 -309 -157q-219 0 -272 159q-63 -143 -273 -143h-476z" />
    <glyph glyph-name="uniFD1A" unicode="&#xfeb8;&#xfef2;" horiz-adv-x="3884" arabic-form="final" 
d="M1068 -405q-39 -41 -96 -41q-56 0 -96 40q-39 40 -39 99q0 57 39 98q40 41 96 41q57 0 96 -40q40 -41 40 -99q0 -57 -40 -98zM730 -405q-40 -41 -98 -41q-56 0 -96 40q-39 40 -39 99q0 57 39 98q40 41 96 41q59 0 98 -40q40 -41 40 -99t-40 -98zM3075 1159q-39 40 -39 98
t39 99q40 41 98 41q57 0 96 -41q39 -40 39 -99q0 -57 -39 -98q-40 -41 -96 -41q-58 0 -98 41zM2737 1159q-39 40 -39 98t39 99q40 41 96 41q57 0 96 -41q39 -40 39 -99q0 -57 -39 -98t-96 -41t-96 41zM2912 1447q-36 37 -36 91t36 91q37 38 89 38q54 0 90 -38q37 -37 37 -91
t-37 -91q-36 -38 -90 -38q-52 0 -89 38zM1644 0v508q0 148 -50 208t-177 60q-68 0 -135 -12v-764h-428q-401 0 -585 163q-167 147 -167 443q0 176 53 322l289 47q-70 -153 -70 -338q0 -223 111 -320q117 -104 397 -104h140v737q190 39 411 39q258 0 372 -121
q101 -108 101 -331v-324h216q102 0 142 52q43 55 43 202v373h270v-379q0 -148 25 -201q29 -63 116 -63q164 0 164 262v463h260v-514q0 -120 50 -158q48 -37 192 -37h53q15 115 15 246q0 283 -60 549l264 36q66 -275 66 -567q0 -114 -10 -264h200v-213h-559q-167 0 -248 28
q-87 31 -131 113q-73 -157 -309 -157q-219 0 -272 159q-63 -143 -273 -143h-476z" />
    <glyph glyph-name="uniFD21" unicode="&#xfebc;&#xfef0;" horiz-adv-x="3570" arabic-form="final" 
d="M2892 213q324 0 324 295q0 266 -209 266q-160 0 -290 -172q-123 -163 -156 -389h331zM2294 213v750h271v-52q0 -172 -25 -303h4q66 181 213 284q138 97 305 97q211 0 323 -124q110 -121 110 -341q0 -188 -89 -311h191v-213h-1953v508q0 148 -50 208t-177 60
q-68 0 -135 -12v-764h-428q-401 0 -585 163q-167 147 -167 443q0 176 53 322l289 47q-70 -153 -70 -338q0 -223 111 -320q117 -104 397 -104h140v737q190 39 411 39q258 0 372 -121q101 -108 101 -331v-324h388z" />
    <glyph glyph-name="uniFD22" unicode="&#xfebc;&#xfef2;" horiz-adv-x="3570" arabic-form="final" 
d="M2892 213q324 0 324 295q0 266 -209 266q-160 0 -290 -172q-123 -163 -156 -389h331zM1068 -405q-39 -41 -96 -41q-56 0 -96 40q-39 40 -39 99q0 57 39 98q40 41 96 41q57 0 96 -40q40 -41 40 -99q0 -57 -40 -98zM2294 213v750h271v-52q0 -172 -25 -303h4q66 181 213 284
q138 97 305 97q211 0 323 -124q110 -121 110 -341q0 -188 -89 -311h191v-213h-1953v508q0 148 -50 208t-177 60q-68 0 -135 -12v-764h-428q-401 0 -585 163q-167 147 -167 443q0 176 53 322l289 47q-70 -153 -70 -338q0 -223 111 -320q117 -104 397 -104h140v737
q190 39 411 39q258 0 372 -121q101 -108 101 -331v-324h388zM730 -405q-40 -41 -98 -41q-56 0 -96 40q-39 40 -39 99q0 57 39 98q40 41 96 41q59 0 98 -40q40 -41 40 -99t-40 -98z" />
    <glyph glyph-name="uniFD23" unicode="&#xfec0;&#xfef0;" horiz-adv-x="3570" arabic-form="final" 
d="M2892 213q324 0 324 295q0 266 -209 266q-160 0 -290 -172q-123 -163 -156 -389h331zM2294 213v750h271v-52q0 -172 -25 -303h4q66 181 213 284q138 97 305 97q211 0 323 -124q110 -121 110 -341q0 -188 -89 -311h191v-213h-1953v508q0 148 -50 208t-177 60
q-68 0 -135 -12v-764h-428q-401 0 -585 163q-167 147 -167 443q0 176 53 322l289 47q-70 -153 -70 -338q0 -223 111 -320q117 -104 397 -104h140v737q190 39 411 39q258 0 372 -121q101 -108 101 -331v-324h388zM2911 1175q-41 41 -41 101q0 58 41 100q42 41 100 41
q59 0 100 -41q42 -42 42 -100t-42 -100q-41 -41 -100 -41q-58 0 -100 40z" />
    <glyph glyph-name="uniFD24" unicode="&#xfec0;&#xfef2;" horiz-adv-x="3570" arabic-form="final" 
d="M2892 213q324 0 324 295q0 266 -209 266q-160 0 -290 -172q-123 -163 -156 -389h331zM1068 -405q-39 -41 -96 -41q-56 0 -96 40q-39 40 -39 99q0 57 39 98q40 41 96 41q57 0 96 -40q40 -41 40 -99q0 -57 -40 -98zM2294 213v750h271v-52q0 -172 -25 -303h4q66 181 213 284
q138 97 305 97q211 0 323 -124q110 -121 110 -341q0 -188 -89 -311h191v-213h-1953v508q0 148 -50 208t-177 60q-68 0 -135 -12v-764h-428q-401 0 -585 163q-167 147 -167 443q0 176 53 322l289 47q-70 -153 -70 -338q0 -223 111 -320q117 -104 397 -104h140v737
q190 39 411 39q258 0 372 -121q101 -108 101 -331v-324h388zM2911 1175q-41 41 -41 101q0 58 41 100q42 41 100 41q59 0 100 -41q42 -42 42 -100t-42 -100q-41 -41 -100 -41q-58 0 -100 40zM730 -405q-40 -41 -98 -41q-56 0 -96 40q-39 40 -39 99q0 57 39 98q40 41 96 41
q59 0 98 -40q40 -41 40 -99t-40 -98z" />
    <glyph glyph-name="uniFD29" unicode="&#xfeb8;&#xfeae;" horiz-adv-x="2669" arabic-form="final" 
d="M662 0v-8q0 -512 -506 -512q-90 0 -172 20l20 215q85 -24 166 -24q111 0 163 60q59 68 59 226v986h270v-750h240q102 0 142 52q43 55 43 202v373h270v-379q0 -148 25 -201q29 -63 116 -63q164 0 164 262v463h260v-514q0 -120 50 -158q48 -37 192 -37h53q15 115 15 246
q0 283 -60 549l264 36q66 -275 66 -567q0 -114 -10 -264h200v-213h-559q-167 0 -248 28q-87 31 -131 113q-73 -157 -309 -157q-219 0 -272 159q-63 -143 -273 -143h-238zM1692 1447q-36 37 -36 91t36 91q37 38 89 38q54 0 90 -38q37 -37 37 -91t-37 -91q-36 -38 -90 -38
q-52 0 -89 38zM1517 1159q-39 40 -39 98t39 99q40 41 96 41q57 0 96 -41q39 -40 39 -99q0 -57 -39 -98t-96 -41t-96 41zM1855 1159q-39 40 -39 98t39 99q40 41 98 41q57 0 96 -41q39 -40 39 -99q0 -57 -39 -98q-40 -41 -96 -41q-58 0 -98 41z" />
    <glyph glyph-name="uniFD2A" unicode="&#xfeb4;&#xfeae;" horiz-adv-x="2669" arabic-form="final" 
d="M662 0v-8q0 -512 -506 -512q-90 0 -172 20l20 215q85 -24 166 -24q111 0 163 60q59 68 59 226v986h270v-750h240q102 0 142 52q43 55 43 202v373h270v-379q0 -148 25 -201q29 -63 116 -63q164 0 164 262v463h260v-514q0 -120 50 -158q48 -37 192 -37h53q15 115 15 246
q0 283 -60 549l264 36q66 -275 66 -567q0 -114 -10 -264h200v-213h-559q-167 0 -248 28q-87 31 -131 113q-73 -157 -309 -157q-219 0 -272 159q-63 -143 -273 -143h-238z" />
    <glyph glyph-name="uniFD2B" unicode="&#xfebc;&#xfeae;" horiz-adv-x="2352" arabic-form="final" 
d="M1672 213q324 0 324 295q0 266 -209 266q-160 0 -290 -172q-123 -163 -156 -389h331zM662 0v-8q0 -512 -506 -512q-90 0 -172 20l20 215q85 -24 166 -24q111 0 163 60q59 68 59 226v986h270v-750h412v750h271v-52q0 -172 -25 -303h4q66 181 213 284q138 97 305 97
q211 0 323 -124q110 -121 110 -341q0 -188 -89 -311h191v-213h-1715z" />
    <glyph glyph-name="uniFD2C" unicode="&#xfec0;&#xfeae;" horiz-adv-x="2352" arabic-form="final" 
d="M1672 213q324 0 324 295q0 266 -209 266q-160 0 -290 -172q-123 -163 -156 -389h331zM662 0v-8q0 -512 -506 -512q-90 0 -172 20l20 215q85 -24 166 -24q111 0 163 60q59 68 59 226v986h270v-750h412v750h271v-52q0 -172 -25 -303h4q66 181 213 284q138 97 305 97
q211 0 323 -124q110 -121 110 -341q0 -188 -89 -311h191v-213h-1715zM1691 1175q-41 41 -41 101q0 58 41 100q42 41 100 41q59 0 100 -41q42 -42 42 -100t-42 -100q-41 -41 -100 -41q-58 0 -100 40z" />
    <glyph glyph-name="uniFEF5" unicode="&#xfedf;&#xfe82;" horiz-adv-x="1222" arabic-form="isolated" 
d="M631 367h-275l-293 1054l269 37zM147 0v213h633v1231h271v-1444h-904zM-43 1700l215 160q86 -80 193 -80q111 0 213 84v-197q-96 -78 -226 -78q-111 0 -182 66l-119 -84z" />
    <glyph glyph-name="uniFEF6" unicode="&#xfee0;&#xfe82;" horiz-adv-x="1222" arabic-form="final" 
d="M147 213h633v1231h271v-1231h202v-213h-1106v213zM631 367h-275l-293 1054l269 37zM-43 1700l215 160q86 -80 193 -80q111 0 213 84v-197q-96 -78 -226 -78q-111 0 -182 66l-119 -84z" />
    <glyph glyph-name="uniFEF7" unicode="&#xfedf;&#xfe84;" horiz-adv-x="1263" arabic-form="isolated" 
d="M671 367h-274l-219 747h278zM188 0v213h633v1196h270v-1409h-903zM28 1323q66 0 104 -8q-30 23 -30 74q0 85 69 140q77 60 215 60q78 0 121 -12l-24 -139q-36 10 -103 10q-92 0 -92 -59q0 -66 131 -66h125v-141h-516v141z" />
    <glyph glyph-name="uniFEF8" unicode="&#xfee0;&#xfe84;" horiz-adv-x="1263" arabic-form="final" 
d="M188 0v213h633v1196h270v-1196h203v-213h-1106zM671 367h-274l-219 747h278zM28 1323q66 0 104 -8q-30 23 -30 74q0 85 69 140q77 60 215 60q78 0 121 -12l-24 -139q-36 10 -103 10q-92 0 -92 -59q0 -66 131 -66h125v-141h-516v141z" />
    <glyph glyph-name="uniFEF9" unicode="&#xfedf;&#xfe88;" horiz-adv-x="1222" arabic-form="isolated" 
d="M630 367h-274l-293 1054l268 37zM147 0v213h633v1231h270v-1444h-903zM270 -395q73 0 108 -8q-34 26 -34 77q0 82 69 136q78 61 215 61q78 0 121 -12l-24 -140q-72 11 -103 11q-92 0 -92 -60q0 -65 131 -65h125v-144h-516v144z" />
    <glyph glyph-name="uniFEFA" unicode="&#xfee0;&#xfe88;" horiz-adv-x="1222" arabic-form="final" 
d="M147 213h633v1231h270v-1231h203v-213h-1106v213zM630 367h-274l-293 1054l268 37zM270 -395q73 0 108 -8q-34 26 -34 77q0 82 69 136q78 61 215 61q78 0 121 -12l-24 -140q-72 11 -103 11q-92 0 -92 -60q0 -65 131 -65h125v-144h-516v144z" />
    <glyph glyph-name="uniFEFB" unicode="&#xfedf;&#xfe8e;" horiz-adv-x="1222" arabic-form="isolated" 
d="M630 367h-274l-293 1054l268 37zM147 0v213h633v1231h270v-1444h-903z" />
    <glyph glyph-name="uniFEFC" unicode="&#xfee0;&#xfe8e;" horiz-adv-x="1222" arabic-form="final" 
d="M147 0v213h633v1231h270v-1231h203v-213h-1106zM630 367h-274l-293 1054l268 37z" />
    <glyph glyph-name="uniFE8B_uniFEE4.liga" unicode="&#xfe8b;&#xfee4;" horiz-adv-x="2023" 
d="M1417 1278q76 0 114 -8q-38 19 -38 80q0 96 67 157q79 72 229 72q50 0 121 -10l-24 -154q-51 10 -103 10q-98 0 -98 -69q0 -78 141 -78h117v-154h-526v154zM931 485q0 291 -219 291q-113 0 -180 -78q-64 -76 -64 -198q0 -287 307 -287h156v272zM775 0q-331 0 -459 160
q-62 -160 -325 -160h-31v213q120 0 177 59q63 65 63 220q0 208 132 346q146 151 400 151q463 0 463 -471v-305h392v750h270v-963h-1082z" />
    <glyph glyph-name="uniFE8B_uniFEF0.liga" unicode="&#xfe8b;&#xfef0;" horiz-adv-x="2744" 
d="M2137 1278q76 0 114 -8q-38 19 -38 80q0 96 67 157q79 72 229 72q50 0 121 -10l-24 -154q-51 10 -103 10q-98 0 -98 -69q0 -78 141 -78h117v-154h-526v154zM1644 0v508q0 148 -50 208t-177 60q-68 0 -135 -12v-764h-428q-401 0 -585 163q-167 147 -167 443q0 176 53 322
l289 47q-70 -153 -70 -338q0 -223 111 -320q117 -104 397 -104h140v737q190 39 411 39q258 0 372 -121q101 -108 101 -331v-324h401v750h270v-963h-933z" />
    <glyph glyph-name="uniFE8B_uniFEF2.liga" unicode="&#xfe8b;&#xfef2;" horiz-adv-x="2744" 
d="M1068 -405q-39 -41 -96 -41q-56 0 -96 40q-39 40 -39 99q0 57 39 98q40 41 96 41q57 0 96 -40q40 -41 40 -99q0 -57 -40 -98zM730 -405q-40 -41 -98 -41q-56 0 -96 40q-39 40 -39 99q0 57 39 98q40 41 96 41q59 0 98 -40q40 -41 40 -99t-40 -98zM2137 1278q76 0 114 -8
q-38 19 -38 80q0 96 67 157q79 72 229 72q50 0 121 -10l-24 -154q-51 10 -103 10q-98 0 -98 -69q0 -78 141 -78h117v-154h-526v154zM1644 0v508q0 148 -50 208t-177 60q-68 0 -135 -12v-764h-428q-401 0 -585 163q-167 147 -167 443q0 176 53 322l289 47q-70 -153 -70 -338
q0 -223 111 -320q117 -104 397 -104h140v737q190 39 411 39q258 0 372 -121q101 -108 101 -331v-324h401v750h270v-963h-933z" />
    <glyph glyph-name="uniFE91_uniFEE4.liga" unicode="&#xfe91;&#xfee4;" horiz-adv-x="2011" 
d="M1470 -408q-41 41 -41 101q0 58 41 100q42 41 100 41q59 0 100 -41q42 -41 42 -100t-42 -100q-41 -42 -100 -42q-58 0 -100 41zM931 485q0 291 -219 291q-113 0 -180 -78q-64 -76 -64 -198q0 -287 307 -287h156v272zM775 0q-331 0 -459 160q-62 -160 -325 -160h-31v213
q120 0 177 59q63 65 63 220q0 208 132 346q146 151 400 151q463 0 463 -471v-305h392v750h270v-963h-1082z" />
    <glyph glyph-name="uniFE92_uniFEE6.liga" unicode="&#xfe92;&#xfee6;" horiz-adv-x="2063" 
d="M504 747q-42 41 -42 101q0 58 42 100q41 41 99 41q59 0 100 -41q42 -42 42 -100t-42 -100q-41 -41 -100 -41q-58 0 -99 40zM1500 -408q-41 41 -41 101q0 58 41 100q42 41 100 41q59 0 100 -41q42 -41 42 -100t-42 -100q-41 -42 -100 -42q-58 0 -100 41zM1179 0
q-62 -471 -567 -471q-541 0 -541 582q0 188 49 366l279 51q-58 -204 -58 -393q0 -395 291 -395q287 0 287 389v834h270v-750h428v750h270v-750h201v-213h-909z" />
    <glyph glyph-name="uniFE91_uniFEF0.liga" unicode="&#xfe91;&#xfef0;" horiz-adv-x="2730" 
d="M2190 -408q-41 41 -41 101q0 58 41 100q42 41 100 41q59 0 100 -41q42 -41 42 -100t-42 -100q-41 -42 -100 -42q-58 0 -100 41zM1644 0v508q0 148 -50 208t-177 60q-68 0 -135 -12v-764h-428q-401 0 -585 163q-167 147 -167 443q0 176 53 322l289 47q-70 -153 -70 -338
q0 -223 111 -320q117 -104 397 -104h140v737q190 39 411 39q258 0 372 -121q101 -108 101 -331v-324h401v750h270v-963h-933z" />
    <glyph glyph-name="uniFE91_uniFEF2.liga" unicode="&#xfe91;&#xfef2;" horiz-adv-x="2730" 
d="M1068 -405q-39 -41 -96 -41q-56 0 -96 40q-39 40 -39 99q0 57 39 98q40 41 96 41q57 0 96 -40q40 -41 40 -99q0 -57 -40 -98zM730 -405q-40 -41 -98 -41q-56 0 -96 40q-39 40 -39 99q0 57 39 98q40 41 96 41q59 0 98 -40q40 -41 40 -99t-40 -98zM2190 -408
q-41 41 -41 101q0 58 41 100q42 41 100 41q59 0 100 -41q42 -41 42 -100t-42 -100q-41 -42 -100 -42q-58 0 -100 41zM1644 0v508q0 148 -50 208t-177 60q-68 0 -135 -12v-764h-428q-401 0 -585 163q-167 147 -167 443q0 176 53 322l289 47q-70 -153 -70 -338
q0 -223 111 -320q117 -104 397 -104h140v737q190 39 411 39q258 0 372 -121q101 -108 101 -331v-324h401v750h270v-963h-933z" />
    <glyph glyph-name="uniFE97_uniFEE4.liga" unicode="&#xfe97;&#xfee4;" horiz-adv-x="2014" 
d="M1757 1159q-39 40 -39 98t39 99q40 41 96 41q57 0 96 -41q39 -40 39 -99q0 -57 -39 -98q-40 -41 -96 -41q-57 0 -96 41zM1417 1159q-39 40 -39 98t39 99q40 41 96 41q58 0 98 -41q39 -40 39 -99q0 -57 -39 -98q-40 -41 -98 -41q-57 0 -96 41zM931 485q0 291 -219 291
q-113 0 -180 -78q-64 -76 -64 -198q0 -287 307 -287h156v272zM775 0q-331 0 -459 160q-62 -160 -325 -160h-31v213q120 0 177 59q63 65 63 220q0 208 132 346q146 151 400 151q463 0 463 -471v-305h392v750h270v-963h-1082z" />
    <glyph glyph-name="uniFE98_uniFEE6.liga" unicode="&#xfe98;&#xfee6;" horiz-adv-x="2043" 
d="M504 747q-42 41 -42 101q0 58 42 100q41 41 99 41q59 0 100 -41q42 -42 42 -100t-42 -100q-41 -41 -100 -41q-58 0 -99 40zM1787 1159q-39 40 -39 98t39 99q40 41 96 41q57 0 96 -41q39 -40 39 -99q0 -57 -39 -98q-40 -41 -96 -41q-57 0 -96 41zM1447 1159q-39 40 -39 98
t39 99q40 41 96 41q58 0 98 -41q39 -40 39 -99q0 -57 -39 -98q-40 -41 -98 -41q-57 0 -96 41zM1179 0q-62 -471 -567 -471q-541 0 -541 582q0 188 49 366l279 51q-58 -204 -58 -393q0 -395 291 -395q287 0 287 389v834h270v-750h428v750h270v-750h182v-213h-890z" />
    <glyph glyph-name="uniFE97_uniFEF0.liga" unicode="&#xfe97;&#xfef0;" horiz-adv-x="2730" 
d="M1644 0v508q0 148 -50 208t-177 60q-68 0 -135 -12v-764h-428q-401 0 -585 163q-167 147 -167 443q0 176 53 322l289 47q-70 -153 -70 -338q0 -223 111 -320q117 -104 397 -104h140v737q190 39 411 39q258 0 372 -121q101 -108 101 -331v-324h401v750h270v-963h-933z
M2137 1159q-39 40 -39 98t39 99q40 41 96 41q58 0 98 -41q39 -40 39 -99q0 -57 -39 -98q-40 -41 -98 -41q-57 0 -96 41zM2477 1159q-39 40 -39 98t39 99q40 41 96 41q57 0 96 -41q39 -40 39 -99q0 -57 -39 -98q-40 -41 -96 -41q-57 0 -96 41z" />
    <glyph glyph-name="uniFE97_uniFEF2.liga" unicode="&#xfe97;&#xfef2;" horiz-adv-x="2730" 
d="M1068 -405q-39 -41 -96 -41q-56 0 -96 40q-39 40 -39 99q0 57 39 98q40 41 96 41q57 0 96 -40q40 -41 40 -99q0 -57 -40 -98zM730 -405q-40 -41 -98 -41q-56 0 -96 40q-39 40 -39 99q0 57 39 98q40 41 96 41q59 0 98 -40q40 -41 40 -99t-40 -98zM1644 0v508
q0 148 -50 208t-177 60q-68 0 -135 -12v-764h-428q-401 0 -585 163q-167 147 -167 443q0 176 53 322l289 47q-70 -153 -70 -338q0 -223 111 -320q117 -104 397 -104h140v737q190 39 411 39q258 0 372 -121q101 -108 101 -331v-324h401v750h270v-963h-933zM2137 1159
q-39 40 -39 98t39 99q40 41 96 41q58 0 98 -41q39 -40 39 -99q0 -57 -39 -98q-40 -41 -98 -41q-57 0 -96 41zM2477 1159q-39 40 -39 98t39 99q40 41 96 41q57 0 96 -41q39 -40 39 -99q0 -57 -39 -98q-40 -41 -96 -41q-57 0 -96 41z" />
    <glyph glyph-name="uniFE9C_uniFEAE.liga" unicode="&#xfe9c;&#xfeae;" horiz-adv-x="1532" 
d="M662 0v-8q0 -512 -506 -512q-90 0 -172 20l20 215q85 -24 166 -24q111 0 163 60q59 68 59 226v986h270v-750h425v750h270v-750h201v-213h-896zM1092 1447q-36 37 -36 91t36 91q37 38 89 38q53 0 90 -38q37 -37 37 -91t-37 -91q-37 -38 -90 -38q-52 0 -89 38zM917 1159
q-39 40 -39 98t39 99q40 41 96 41q57 0 96 -41q39 -40 39 -99q0 -57 -39 -98q-40 -41 -96 -41q-57 0 -96 41zM1255 1159q-39 40 -39 98t39 99q40 41 98 41q57 0 96 -41q39 -40 39 -99q0 -57 -39 -98q-40 -41 -96 -41q-58 0 -98 41z" />
    <glyph glyph-name="uniFE9B_uniFEE4.liga" unicode="&#xfe9b;&#xfee4;" horiz-adv-x="2017" 
d="M1592 1447q-36 37 -36 91t36 91q37 38 89 38q53 0 90 -38q37 -37 37 -91t-37 -91q-37 -38 -90 -38q-52 0 -89 38zM1755 1159q-39 40 -39 98t39 99q40 41 98 41q57 0 96 -41q39 -40 39 -99q0 -57 -39 -98q-40 -41 -96 -41q-58 0 -98 41zM1417 1159q-39 40 -39 98t39 99
q40 41 96 41q57 0 96 -41q39 -40 39 -99q0 -57 -39 -98q-40 -41 -96 -41q-57 0 -96 41zM931 485q0 291 -219 291q-113 0 -180 -78q-64 -76 -64 -198q0 -287 307 -287h156v272zM775 0q-331 0 -459 160q-62 -160 -325 -160h-31v213q120 0 177 59q63 65 63 220q0 208 132 346
q146 151 400 151q463 0 463 -471v-305h392v750h270v-963h-1082z" />
    <glyph glyph-name="uniFE9C_uniFEE6.liga" unicode="&#xfe9c;&#xfee6;" horiz-adv-x="2066" 
d="M1785 1159q-39 40 -39 98t39 99q40 41 98 41q57 0 96 -41q39 -40 39 -99q0 -57 -39 -98q-40 -41 -96 -41q-58 0 -98 41zM1447 1159q-39 40 -39 98t39 99q40 41 96 41q57 0 96 -41q39 -40 39 -99q0 -57 -39 -98q-40 -41 -96 -41q-57 0 -96 41zM1622 1447q-36 37 -36 91
t36 91q37 38 89 38q53 0 90 -38q37 -37 37 -91t-37 -91q-37 -38 -90 -38q-52 0 -89 38zM504 747q-42 41 -42 101q0 58 42 100q41 41 99 41q59 0 100 -41q42 -42 42 -100t-42 -100q-41 -41 -100 -41q-58 0 -99 40zM1179 0q-62 -471 -567 -471q-541 0 -541 582q0 188 49 366
l279 51q-58 -204 -58 -393q0 -395 291 -395q287 0 287 389v834h270v-750h428v750h270v-750h201v-213h-909z" />
    <glyph glyph-name="uniFE9B_uniFEF0.liga" unicode="&#xfe9b;&#xfef0;" horiz-adv-x="2736" 
d="M2302 1447q-36 37 -36 91t36 91q37 38 89 38q53 0 90 -38q37 -37 37 -91t-37 -91q-37 -38 -90 -38q-52 0 -89 38zM2465 1159q-39 40 -39 98t39 99q40 41 98 41q57 0 96 -41q39 -40 39 -99q0 -57 -39 -98q-40 -41 -96 -41q-58 0 -98 41zM2127 1159q-39 40 -39 98t39 99
q40 41 96 41q57 0 96 -41q39 -40 39 -99q0 -57 -39 -98q-40 -41 -96 -41q-57 0 -96 41zM1644 0v508q0 148 -50 208t-177 60q-68 0 -135 -12v-764h-428q-401 0 -585 163q-167 147 -167 443q0 176 53 322l289 47q-70 -153 -70 -338q0 -223 111 -320q117 -104 397 -104h140v737
q190 39 411 39q258 0 372 -121q101 -108 101 -331v-324h391v750h270v-963h-923z" />
    <glyph glyph-name="uniFE9B_uniFEF2.liga" unicode="&#xfe9b;&#xfef2;" horiz-adv-x="2736" 
d="M1068 -405q-39 -41 -96 -41q-56 0 -96 40q-39 40 -39 99q0 57 39 98q40 41 96 41q57 0 96 -40q40 -41 40 -99q0 -57 -40 -98zM730 -405q-40 -41 -98 -41q-56 0 -96 40q-39 40 -39 99q0 57 39 98q40 41 96 41q59 0 98 -40q40 -41 40 -99t-40 -98zM2302 1447q-36 37 -36 91
t36 91q37 38 89 38q53 0 90 -38q37 -37 37 -91t-37 -91q-37 -38 -90 -38q-52 0 -89 38zM2465 1159q-39 40 -39 98t39 99q40 41 98 41q57 0 96 -41q39 -40 39 -99q0 -57 -39 -98q-40 -41 -96 -41q-58 0 -98 41zM2127 1159q-39 40 -39 98t39 99q40 41 96 41q57 0 96 -41
q39 -40 39 -99q0 -57 -39 -98q-40 -41 -96 -41q-57 0 -96 41zM1644 0v508q0 148 -50 208t-177 60q-68 0 -135 -12v-764h-428q-401 0 -585 163q-167 147 -167 443q0 176 53 322l289 47q-70 -153 -70 -338q0 -223 111 -320q117 -104 397 -104h140v737q190 39 411 39
q258 0 372 -121q101 -108 101 -331v-324h391v750h270v-963h-923z" />
    <glyph glyph-name="uniFEDB_uniFEF0.liga" unicode="&#xfedb;&#xfef0;" horiz-adv-x="3053" 
d="M1644 0v508q0 148 -50 208t-177 60q-68 0 -135 -12v-764h-428q-401 0 -585 163q-167 147 -167 443q0 176 53 322l289 47q-70 -153 -70 -338q0 -223 111 -320q117 -104 397 -104h140v737q190 39 411 39q258 0 372 -121q101 -108 101 -331v-324h712q-18 465 -502 578v198
l812 508v-268l-500 -301q454 -204 454 -791v-137h-1238z" />
    <glyph glyph-name="uniFEDC_uniFEF0.liga" unicode="&#xfedc;&#xfef0;" horiz-adv-x="3030" 
d="M1644 0v508q0 148 -50 208t-177 60q-68 0 -135 -12v-764h-428q-401 0 -585 163q-167 147 -167 443q0 176 53 322l289 47q-70 -153 -70 -338q0 -223 111 -320q117 -104 397 -104h140v737q190 39 411 39q258 0 372 -121q101 -108 101 -331v-324h722q-18 465 -502 578v198
l812 508v-268l-500 -301q425 -193 452 -715h166v-213h-1412z" />
    <glyph glyph-name="uniFEDB_uniFEF2.liga" unicode="&#xfedb;&#xfef2;" horiz-adv-x="3053" 
d="M1068 -405q-39 -41 -96 -41q-56 0 -96 40q-39 40 -39 99q0 57 39 98q40 41 96 41q57 0 96 -40q40 -41 40 -99q0 -57 -40 -98zM730 -405q-40 -41 -98 -41q-56 0 -96 40q-39 40 -39 99q0 57 39 98q40 41 96 41q59 0 98 -40q40 -41 40 -99t-40 -98zM1644 0v508
q0 148 -50 208t-177 60q-68 0 -135 -12v-764h-428q-401 0 -585 163q-167 147 -167 443q0 176 53 322l289 47q-70 -153 -70 -338q0 -223 111 -320q117 -104 397 -104h140v737q190 39 411 39q258 0 372 -121q101 -108 101 -331v-324h712q-18 465 -502 578v198l812 508v-268
l-500 -301q454 -204 454 -791v-137h-1238z" />
    <glyph glyph-name="uniFEDC_uniFEF2.liga" unicode="&#xfedc;&#xfef2;" horiz-adv-x="3030" 
d="M1068 -405q-39 -41 -96 -41q-56 0 -96 40q-39 40 -39 99q0 57 39 98q40 41 96 41q57 0 96 -40q40 -41 40 -99q0 -57 -40 -98zM730 -405q-40 -41 -98 -41q-56 0 -96 40q-39 40 -39 99q0 57 39 98q40 41 96 41q59 0 98 -40q40 -41 40 -99t-40 -98zM1644 0v508
q0 148 -50 208t-177 60q-68 0 -135 -12v-764h-428q-401 0 -585 163q-167 147 -167 443q0 176 53 322l289 47q-70 -153 -70 -338q0 -223 111 -320q117 -104 397 -104h140v737q190 39 411 39q258 0 372 -121q101 -108 101 -331v-324h722q-18 465 -502 578v198l812 508v-268
l-500 -301q425 -193 452 -715h166v-213h-1412z" />
    <glyph glyph-name="uniFEDF_uniFB51.rlig" unicode="&#xfedf;&#xfb51;" horiz-adv-x="1263" 
d="M671 367h-274l-219 747h278zM188 0v213h633v1196h270v-1409h-903zM498 1311v31q0 133 -74 133q-109 0 -155 -164h229zM27 1311h94q88 285 318 285q200 0 200 -242v-168h-612v125z" />
    <glyph glyph-name="uniFEE0_uniFB51.rlig" unicode="&#xfee0;&#xfb51;" horiz-adv-x="1263" 
d="M188 0v213h633v1196h270v-1196h203v-213h-1106zM671 367h-274l-219 747h278zM498 1311v31q0 133 -74 133q-109 0 -155 -164h229zM27 1311h94q88 285 318 285q200 0 200 -242v-168h-612v125z" />
    <glyph glyph-name="uniFEDF_uniFEE2.liga" unicode="&#xfedf;&#xfee2;" horiz-adv-x="2314" 
d="M1270 485q0 291 -220 291q-113 0 -179 -78q-64 -76 -64 -198q0 -287 307 -287h156v272zM1083 0q-497 0 -541 397h-45q-89 0 -116 -58t-4 -202l106 -669h-260l-104 649q-36 229 53 356q98 137 334 137h49q37 169 165 270q138 109 349 109q463 0 463 -471v-305h332v1231
h270v-1444h-1051z" />
    <glyph glyph-name="uniFEE4_uniFE8E.liga" unicode="&#xfee4;&#xfe8e;" horiz-adv-x="1971" 
d="M1561 485q0 291 -219 291q-113 0 -180 -78q-64 -76 -64 -198q0 -287 307 -287h156v272zM174 0v1444h270v-1231h146q120 0 177 59q63 65 63 220q0 208 132 346q146 151 400 151q463 0 463 -471v-305h172v-213h-592q-331 0 -459 160q-59 -151 -297 -160h-475z" />
    <glyph glyph-name="uniFEE4_uniFE82.liga" unicode="&#xfee4;&#xfe82;" horiz-adv-x="1961" 
d="M-40 1700l215 160q86 -80 193 -80q111 0 213 84v-197q-96 -78 -226 -78q-111 0 -182 66l-119 -84zM1551 485q0 291 -219 291q-113 0 -180 -78q-64 -76 -64 -198q0 -287 307 -287h156v272zM175 0v1444h270v-1231h135q120 0 177 59q63 65 63 220q0 208 132 346
q146 151 400 151q463 0 463 -471v-305h172v-213h-592q-331 0 -459 160q-57 -148 -286 -159v-1h-475z" />
    <glyph glyph-name="uniFEE4_uniFE84.liga" unicode="&#xfee4;&#xfe84;" horiz-adv-x="1962" 
d="M28 1634q85 0 123 -8q-47 25 -47 90q0 83 68 140q80 67 229 67q78 0 121 -12l-25 -139q-51 10 -104 10q-103 0 -103 -70q0 -78 146 -78h120v-141h-528v141zM1551 485q0 291 -219 291q-113 0 -180 -78q-64 -76 -64 -198q0 -287 307 -287h156v272zM173 0v1382h271v-1169
h136q120 0 177 59q63 65 63 220q0 208 132 346q146 151 400 151q463 0 463 -471v-305h172v-213h-592q-331 0 -459 160q-57 -148 -287 -159v-1h-476z" />
    <glyph glyph-name="uniFEE4_uniFE88.liga" unicode="&#xfee4;&#xfe88;" horiz-adv-x="1971" 
d="M10 -395q73 0 109 -8q-35 26 -35 77q0 82 69 136q78 61 215 61q78 0 121 -12l-24 -140q-72 11 -103 11q-92 0 -92 -60q0 -65 131 -65h125v-144h-516v144zM1561 485q0 291 -219 291q-113 0 -180 -78q-64 -76 -64 -198q0 -287 307 -287h156v272zM174 0v1444h270v-1231h146
q120 0 177 59q63 65 63 220q0 208 132 346q146 151 400 151q463 0 463 -471v-305h172v-213h-592q-331 0 -459 160q-59 -151 -297 -160h-475z" />
    <glyph glyph-name="uniFEE8_uniFEAE.liga" unicode="&#xfee8;&#xfeae;" horiz-adv-x="1532" 
d="M1122 1175q-41 41 -41 101q0 58 41 100q42 41 100 41t100 -41q41 -42 41 -100t-41 -100q-42 -41 -100 -41q-59 0 -100 40zM662 0v-8q0 -512 -506 -512q-90 0 -172 20l20 215q85 -24 166 -24q111 0 163 60q59 68 59 226v986h270v-750h425v750h270v-750h201v-213h-896z" />
    <glyph glyph-name="uniFEE7_uniFEE4.liga" unicode="&#xfee7;&#xfee4;" horiz-adv-x="2026" 
d="M931 485q0 291 -219 291q-113 0 -180 -78q-64 -76 -64 -198q0 -287 307 -287h156v272zM1622 1175q-41 41 -41 101q0 58 41 100q42 41 100 41t100 -41q41 -42 41 -100t-41 -100q-42 -41 -100 -41q-59 0 -100 40zM775 0q-331 0 -459 160q-62 -160 -325 -160h-31v213
q120 0 177 59q63 65 63 220q0 208 132 346q146 151 400 151q463 0 463 -471v-305h392v750h270v-963h-1082z" />
    <glyph glyph-name="uniFEE7_uniFEF0.liga" unicode="&#xfee7;&#xfef0;" horiz-adv-x="2733" 
d="M2342 1175q-41 41 -41 101q0 58 41 100q42 41 100 41t100 -41q41 -42 41 -100t-41 -100q-42 -41 -100 -41q-59 0 -100 40zM1644 0v508q0 148 -50 208t-177 60q-68 0 -135 -12v-764h-428q-401 0 -585 163q-167 147 -167 443q0 176 53 322l289 47q-70 -153 -70 -338
q0 -223 111 -320q117 -104 397 -104h140v737q190 39 411 39q258 0 372 -121q101 -108 101 -331v-324h401v750h270v-963h-933z" />
    <glyph glyph-name="uniFEE7_uniFEF2.liga" unicode="&#xfee7;&#xfef2;" horiz-adv-x="2733" 
d="M1068 -405q-39 -41 -96 -41q-56 0 -96 40q-39 40 -39 99q0 57 39 98q40 41 96 41q57 0 96 -40q40 -41 40 -99q0 -57 -40 -98zM730 -405q-40 -41 -98 -41q-56 0 -96 40q-39 40 -39 99q0 57 39 98q40 41 96 41q59 0 98 -40q40 -41 40 -99t-40 -98zM2342 1175
q-41 41 -41 101q0 58 41 100q42 41 100 41t100 -41q41 -42 41 -100t-41 -100q-42 -41 -100 -41q-59 0 -100 40zM1644 0v508q0 148 -50 208t-177 60q-68 0 -135 -12v-764h-428q-401 0 -585 163q-167 147 -167 443q0 176 53 322l289 47q-70 -153 -70 -338q0 -223 111 -320
q117 -104 397 -104h140v737q190 39 411 39q258 0 372 -121q101 -108 101 -331v-324h401v750h270v-963h-933z" />
    <glyph glyph-name="uniFEF4_uniFEAE.liga" unicode="&#xfef4;&#xfeae;" horiz-adv-x="1630" 
d="M662 0v-8q0 -512 -506 -512q-90 0 -172 20l20 215q85 -24 166 -24q111 0 163 60q59 68 59 226v986h270v-750h523v750h270v-750h201v-213h-994zM1410 -405q-40 -41 -96 -41q-57 0 -96 40t-39 99q0 57 39 98q40 41 96 41q57 0 96 -40q39 -41 39 -99q0 -57 -39 -98z
M1072 -405q-40 -41 -98 -41q-57 0 -96 40t-39 99q0 57 39 98q40 41 96 41q58 0 98 -40q39 -41 39 -99t-39 -98z" />
    <glyph glyph-name="uniFEF3_uniFEE4.liga" unicode="&#xfef3;&#xfee4;" horiz-adv-x="2115" 
d="M1910 -405q-40 -41 -96 -41q-57 0 -96 40t-39 99q0 57 39 98q40 41 96 41q57 0 96 -40q39 -41 39 -99q0 -57 -39 -98zM1572 -405q-40 -41 -98 -41q-57 0 -96 40t-39 99q0 57 39 98q40 41 96 41q58 0 98 -40q39 -41 39 -99t-39 -98zM931 485q0 291 -219 291
q-113 0 -180 -78q-64 -76 -64 -198q0 -287 307 -287h156v272zM775 0q-331 0 -459 160q-62 -160 -325 -160h-31v213q120 0 177 59q63 65 63 220q0 208 132 346q146 151 400 151q463 0 463 -471v-305h490v750h270v-963h-1180z" />
    <glyph glyph-name="uniFEF4_uniFEE6.liga" unicode="&#xfef4;&#xfee6;" horiz-adv-x="2161" 
d="M504 747q-42 41 -42 101q0 58 42 100q41 41 99 41q59 0 100 -41q42 -42 42 -100t-42 -100q-41 -41 -100 -41q-58 0 -99 40zM1940 -405q-40 -41 -96 -41q-57 0 -96 40t-39 99q0 57 39 98q40 41 96 41q57 0 96 -40q39 -41 39 -99q0 -57 -39 -98zM1602 -405q-40 -41 -98 -41
q-57 0 -96 40t-39 99q0 57 39 98q40 41 96 41q58 0 98 -40q39 -41 39 -99t-39 -98zM1179 0q-62 -471 -567 -471q-541 0 -541 582q0 188 49 366l279 51q-58 -204 -58 -393q0 -395 291 -395q287 0 287 389v834h270v-750h526v750h270v-750h201v-213h-1007z" />
    <glyph glyph-name="T_h.liga" unicode="Th" horiz-adv-x="2051" 
d="M1273 1382v-325q0 -128 -18 -207h4q99 188 334 188q303 0 303 -323v-715h-260v651q0 168 -127 168q-98 0 -167 -97t-69 -233v-489h-262v1155h-356v-1155h-267v1155h-358v227h1243z" />
    <glyph glyph-name="f_b.liga" unicode="fb" horiz-adv-x="1838" 
d="M1292 821q-99 0 -161 -100q-58 -94 -58 -227v-287q55 -19 137 -19q256 0 256 347q0 286 -174 286zM811 1287q-71 11 -138 11q-219 0 -219 -194v-86h224v-203h-224v-815h-260v815h-178v203h178v98q0 395 502 395q148 0 381 -34v-406h-4v-14q0 -114 -16 -199h2
q83 180 307 180q181 0 279 -125q96 -124 96 -352q0 -263 -144 -420q-149 -161 -407 -161q-204 0 -379 49v1258z" />
    <glyph glyph-name="f_f_b.liga" unicode="ffb" horiz-adv-x="2457" 
d="M814 1116q0 53 9 100q7 37 18 70q-63 10 -125 10q-262 0 -262 -225v-53h360v98zM1912 821q-99 0 -161 -100q-58 -94 -58 -227v-287q55 -19 137 -19q256 0 256 347q0 286 -174 286zM1431 1287q-71 11 -138 11q-219 0 -219 -194v-86h224v-203h-224v-815h-260v815h-360v-815
h-260v815h-178v203h178v37q0 456 502 456q147 0 347 -42q110 42 273 42q148 0 381 -34v-406h-4v-14q0 -114 -16 -199h2q83 180 307 180q181 0 279 -125q96 -124 96 -352q0 -263 -144 -420q-149 -161 -407 -161q-204 0 -379 49v1258z" />
    <glyph glyph-name="f_f.liga" unicode="ff" horiz-adv-x="1333" 
d="M841 1286q-63 10 -125 10q-262 0 -262 -225v-53h360v84q0 105 27 184zM454 815v-815h-260v815h-178v203h178v37q0 456 502 456q153 0 314 -38q86 38 210 38q95 0 166 -16l-19 -215q-53 18 -127 18q-166 0 -166 -194v-86h238v-203h-238v-815h-260v815h-360z" />
    <glyph glyph-name="f_h.liga" unicode="fh" horiz-adv-x="1855" 
d="M817 1286q-74 12 -144 12q-219 0 -219 -194v-86h224v-203h-224v-815h-260v815h-178v203h178v98q0 395 502 395q148 0 390 -42l-3 -412q0 -128 -18 -207h4q99 188 334 188q303 0 303 -323v-715h-260v651q0 168 -127 168q-98 0 -167 -97t-69 -233v-489h-262z" />
    <glyph glyph-name="f_f_h.liga" unicode="ffh" horiz-adv-x="2465" 
d="M814 1116q0 53 9 100q7 37 18 70q-63 10 -125 10q-262 0 -262 -225v-53h360v98zM1431 1287q-71 11 -138 11q-219 0 -219 -194v-86h224v-203h-224v-815h-260v815h-360v-815h-260v815h-178v203h178v37q0 456 502 456q147 0 347 -42q110 42 273 42q148 0 381 -34v-458h-4
q-3 -102 -18 -169h4q99 188 334 188q303 0 303 -323v-715h-260v651q0 168 -127 168q-98 0 -167 -97t-69 -233v-489h-262v1287z" />
    <glyph glyph-name="f_f_i.liga" unicode="ffi" horiz-adv-x="1842" 
d="M814 1102q0 105 27 184q-63 10 -125 10q-262 0 -262 -225v-53h360v84zM1051 1466q108 45 265 45q153 0 315 -38l-45 -218q-126 41 -250 41q-262 0 -262 -225v-53h623v-1018h-260v815h-363v-815h-260v815h-360v-815h-260v815h-178v203h178v37q0 456 502 456q143 0 355 -45
z" />
    <glyph glyph-name="f_j.liga" unicode="fj" horiz-adv-x="1218" 
d="M822 0h-5v815h-363v-815h-260v815h-178v203h178v37q0 456 502 456q153 0 315 -38l-45 -218q-126 41 -250 41q-262 0 -262 -225v-53h628v-1094q0 -216 -87 -319q-94 -113 -309 -113q-73 0 -145 21l18 223q64 -25 121 -25q81 0 112 42q30 40 30 145v102z" />
    <glyph glyph-name="f_f_j.liga" unicode="ffj" horiz-adv-x="1842" 
d="M814 1102q0 105 27 184q-63 10 -125 10q-262 0 -262 -225v-53h360v84zM1442 0h-5v815h-363v-815h-260v815h-360v-815h-260v815h-178v203h178v37q0 456 502 456q143 0 355 -45q108 45 265 45q153 0 315 -38l-45 -218q-126 41 -250 41q-262 0 -262 -225v-53h628v-1094
q0 -216 -87 -319q-94 -113 -309 -113q-73 0 -145 21l18 223q64 -25 121 -25q81 0 112 42q30 40 30 145v102z" />
    <glyph glyph-name="f_k.liga" unicode="fk" horiz-adv-x="1742" 
d="M1077 498v-498h-260v1286q-74 12 -144 12q-219 0 -219 -194v-86h224v-203h-224v-815h-260v815h-178v203h178v98q0 395 502 395q148 0 381 -34v-877l293 418h320l-357 -465l383 -553h-327z" />
    <glyph glyph-name="f_f_k.liga" unicode="ffk" horiz-adv-x="2365" 
d="M814 1116q0 53 9 100q7 37 18 70q-63 10 -125 10q-262 0 -262 -225v-53h360v98zM1697 498v-498h-260v1286q-74 12 -144 12q-219 0 -219 -194v-86h224v-203h-224v-815h-260v815h-360v-815h-260v815h-178v203h178v37q0 456 502 456q147 0 347 -42q110 42 273 42
q148 0 381 -34v-877l293 418h320l-357 -465l383 -553h-327z" />
    <glyph glyph-name="f_f_l.liga" unicode="ffl" horiz-adv-x="1847" 
d="M814 1116q0 53 9 100q7 37 18 70q-63 10 -125 10q-262 0 -262 -225v-53h360v98zM1043 1469q110 42 273 42q148 0 381 -34v-1477h-260v1286q-74 12 -144 12q-219 0 -219 -194v-86h224v-203h-224v-815h-260v815h-360v-815h-260v815h-178v203h178v37q0 456 502 456
q147 0 347 -42z" />
    <glyph glyph-name="f_t.liga" unicode="ft" horiz-adv-x="1450" 
d="M454 815v-815h-260v815h-178v203h178v84q0 409 406 409q95 0 166 -16l-19 -215q-53 18 -127 18q-166 0 -166 -194v-86h404v313l260 70v-383h248v-203h-248v-446q0 -98 27 -133q26 -35 94 -35t117 14l18 -207q-114 -28 -221 -28q-168 0 -232 70q-63 70 -63 249v516h-404z
" />
    <glyph glyph-name="f_f_t.liga" unicode="fft" horiz-adv-x="2073" 
d="M841 1286q-63 10 -125 10q-262 0 -262 -225v-53h360v84q0 105 27 184zM1074 815v-815h-260v815h-360v-815h-260v815h-178v203h178v37q0 456 502 456q153 0 314 -38q86 38 210 38q95 0 166 -16l-19 -215q-53 18 -127 18q-166 0 -166 -194v-86h404v313l260 70v-383h248
v-203h-248v-446q0 -98 27 -133q26 -35 94 -35t117 14l18 -207q-114 -28 -221 -28q-168 0 -232 70q-63 70 -63 249v516h-404z" />
    <glyph glyph-name="uni0647.fina" unicode="&#x647;" horiz-adv-x="1405" arabic-form="final" 
d="M1436 0h-188q-65 0 -160 16v-4q176 -50 176 -243q0 -192 -122 -308q-124 -116 -334 -116q-505 0 -543 655h-213v213h215q49 560 463 836q498 -254 498 -570q0 -200 -142 -274v-4q119 12 160 12h190v-213zM531 0q32 -442 291 -442q178 0 178 200q0 112 -81 176
q-85 66 -240 66h-148zM529 213h170q266 0 266 223q0 162 -217 303q-194 -181 -219 -526z" />
    <glyph glyph-name="uni0672.fina" unicode="&#x672;" horiz-adv-x="618" 
d="M175 1382h270v-1169h205v-213h-475v1382zM592 1669v-125h-612v125h94q88 285 318 285q175 0 197 -185h-145q-16 64 -67 64q-109 0 -155 -164h370z" />
    <glyph glyph-name="uni0673.fina" unicode="&#x673;" horiz-adv-x="618" 
d="M175 1382h270v-1169h205v-213h-475v1382zM592 -391v-125h-612v125h94q88 285 318 285q175 0 197 -185h-145q-16 64 -67 64q-109 0 -155 -164h370z" />
    <glyph glyph-name="uni0675.fina" unicode="&#x675;" horiz-adv-x="1032" 
d="M173 1382h270v-1169h615v-213h-885v1382zM438 1634q84 0 122 -8q-47 25 -47 90q0 83 68 140q81 67 229 67q78 0 121 -12l-24 -139q-52 10 -105 10q-102 0 -102 -70q0 -78 145 -78h121v-141h-528v141z" />
    <glyph glyph-name="uni0676.fina" unicode="&#x676;" horiz-adv-x="1400" 
d="M95 -489l17 221q160 -35 319 -35q355 0 355 272v31h-160q-549 0 -549 475q0 218 130 358q146 156 413 156q241 0 428 -71v-705h380v-213h-380v-4q0 -228 -149 -362q-166 -150 -492 -150q-154 0 -312 27zM786 739q-78 37 -195 37q-113 0 -179 -78q-65 -76 -65 -198
q0 -287 308 -287h131v526zM765 1276q76 0 114 -8q-38 19 -38 80q0 96 67 157q79 72 230 72q49 0 120 -10l-24 -154q-51 10 -103 10q-98 0 -98 -69q0 -78 141 -78h117v-154h-526v154z" />
    <glyph glyph-name="uni0677.fina" unicode="&#x677;" horiz-adv-x="1400" 
d="M95 -489l17 221q160 -35 319 -35q355 0 355 272v31h-160q-549 0 -549 475q0 218 130 358q146 156 413 156q241 0 428 -71v-705h380v-213h-380v-4q0 -228 -149 -362q-166 -150 -492 -150q-154 0 -312 27zM786 739q-78 37 -195 37q-113 0 -179 -78q-65 -76 -65 -198
q0 -287 308 -287h131v526zM765 1276q76 0 114 -8q-38 19 -38 80q0 96 67 157q79 72 230 72q49 0 120 -10l-24 -154q-51 10 -103 10q-98 0 -98 -69q0 -78 141 -78h117v-154h-526v154zM118 1229l176 37q-13 32 -13 76q0 91 66 150q65 58 161 58q89 0 141 -48q49 -46 49 -119
q0 -158 -218 -204l-334 -71zM469 1303q91 19 91 68q0 58 -62 58q-82 0 -82 -85q0 -30 11 -48z" />
    <glyph glyph-name="uni0678.init" unicode="&#x678;" horiz-adv-x="1076" 
d="M467 1278q76 0 114 -8q-38 19 -38 80q0 96 67 157q79 72 229 72q50 0 121 -10l-24 -154q-51 10 -103 10q-98 0 -98 -69q0 -78 141 -78h117v-154h-526v154zM0 213h287v750h270v-963h-557v213z" />
    <glyph glyph-name="uni0678.medi" unicode="&#x678;" horiz-adv-x="1075" 
d="M0 213h287v750h270v-750h551v-213h-1108v213zM467 1282q76 0 114 -8q-38 19 -38 80q0 96 67 157q79 72 229 72q50 0 121 -10l-24 -154q-51 11 -103 11q-98 0 -98 -70q0 -78 141 -78h117v-154h-526v154z" />
    <glyph glyph-name="uni0678.fina" unicode="&#x678;" horiz-adv-x="2048" 
d="M854 0q-401 0 -585 163q-167 147 -167 443q0 176 53 322l289 47q-70 -153 -70 -338q0 -223 111 -320q117 -104 397 -104h140v737q190 39 411 39q258 0 372 -121q101 -108 101 -331v-324h172v-213h-434v508q0 148 -50 208t-177 60q-68 0 -135 -12v-764h-428zM1450 1282
q76 0 114 -8q-39 19 -39 80q0 96 68 157q79 72 229 72q50 0 121 -10l-24 -154q-51 11 -103 11q-98 0 -98 -70q0 -78 141 -78h117v-154h-526v154z" />
    <glyph glyph-name="uni067C.init" unicode="&#x67c;" horiz-adv-x="806" 
d="M107 1159q-39 40 -39 98t39 99t96 41q58 0 98 -41q39 -40 39 -99q0 -57 -39 -98q-40 -41 -98 -41q-57 0 -96 41zM447 1159q-39 40 -39 98t39 99t96 41t96 -41q39 -40 39 -99q0 -57 -39 -98q-40 -41 -96 -41q-57 0 -96 41zM354 -125q0 125 -100 125q-52 0 -82 -34
q-29 -32 -29 -85q0 -123 140 -123h71v117zM58 0h-58v213h385v750h270v-963h-203q22 -47 22 -117v-236h-204q-250 0 -250 216q0 80 38 137z" />
    <glyph glyph-name="uni067C.medi" unicode="&#x67c;" horiz-adv-x="825" 
d="M107 1159q-39 40 -39 98t39 99t96 41q58 0 98 -41q39 -40 39 -99q0 -57 -39 -98q-40 -41 -98 -41q-57 0 -96 41zM447 1159q-39 40 -39 98t39 99t96 41t96 -41q39 -40 39 -99q0 -57 -39 -98q-40 -41 -96 -41q-57 0 -96 41zM354 -125q0 125 -100 125q-52 0 -82 -34
q-29 -32 -29 -85q0 -123 140 -123h71v117zM58 0h-58v213h385v750h270v-750h201v-213h-404q22 -47 22 -117v-236h-204q-250 0 -250 216q0 80 38 137z" />
    <glyph glyph-name="uni067C.fina" unicode="&#x67c;" horiz-adv-x="1601" 
d="M557 1159q-39 40 -39 98t39 99t96 41q58 0 98 -41q39 -40 39 -99q0 -57 -39 -98q-40 -41 -98 -41q-57 0 -96 41zM897 1159q-39 40 -39 98t39 99t96 41t96 -41q39 -40 39 -99q0 -57 -39 -98q-40 -41 -96 -41q-57 0 -96 41zM954 -125q0 125 -100 125q-52 0 -82 -34
q-29 -32 -29 -85q0 -123 140 -123h71v117zM665 10q-259 31 -396 153q-167 147 -167 443q0 176 53 322l289 47q-70 -153 -70 -338q0 -223 111 -320q117 -104 397 -104h279v750h270v-750h201v-213h-580q22 -47 22 -117v-236h-204q-250 0 -250 216q0 88 45 147z" />
    <glyph glyph-name="uni067D.init" unicode="&#x67d;" horiz-adv-x="708" 
d="M0 213h287v750h270v-963h-557v213zM381 1376q53 0 90 -37q37 -38 37 -92t-37 -91q-37 -38 -90 -38q-52 0 -89 38q-36 37 -36 91t36 92q37 37 89 37zM553 1667q56 0 96 -41q39 -41 39 -98q0 -59 -39 -99t-96 -40q-58 0 -98 41q-39 40 -39 98t39 99q40 40 98 40zM213 1667
q56 0 96 -41q39 -41 39 -98q0 -59 -39 -99t-96 -40q-56 0 -96 41q-39 41 -39 98q0 58 39 99q39 40 96 40z" />
    <glyph glyph-name="uni067D.medi" unicode="&#x67d;" horiz-adv-x="727" 
d="M0 213h287v750h270v-750h201v-213h-758v213zM553 1667q56 0 96 -41q39 -41 39 -98q0 -59 -39 -99t-96 -40q-58 0 -98 41q-39 40 -39 98t39 99q40 40 98 40zM213 1667q56 0 96 -41q39 -41 39 -98q0 -59 -39 -99t-96 -40q-56 0 -96 41q-39 41 -39 98q0 58 39 99
q39 40 96 40zM381 1376q53 0 90 -37q37 -38 37 -92t-37 -91q-37 -38 -90 -38q-52 0 -89 38q-36 37 -36 91t36 92q37 37 89 37z" />
    <glyph glyph-name="uni067D.fina" unicode="&#x67d;" horiz-adv-x="1601" 
d="M854 0q-401 0 -585 163q-167 147 -167 443q0 176 53 322l289 47q-70 -153 -70 -338q0 -223 111 -320q117 -104 397 -104h279v750h270v-750h201v-213h-778zM993 1667q56 0 96 -41q39 -41 39 -98q0 -59 -39 -99t-96 -40q-58 0 -98 41q-39 40 -39 98t39 99q40 40 98 40z
M653 1667q56 0 96 -41q39 -41 39 -98q0 -59 -39 -99t-96 -40t-96 41t-39 98q0 58 39 99q39 40 96 40zM821 1376q53 0 90 -37q37 -38 37 -92t-37 -91q-37 -38 -90 -38q-52 0 -89 38q-36 37 -36 91t36 92q37 37 89 37z" />
    <glyph glyph-name="uni0681.init" unicode="&#x681;" horiz-adv-x="1183" 
d="M0 213h793q10 82 10 156q0 200 -90 294q-96 99 -312 99q-114 0 -235 -17v211q144 19 262 19q339 0 494 -151q149 -144 149 -445q0 -170 -35 -379h-1036v213zM222 1276q85 0 123 -8q-47 25 -47 90q0 83 68 140q80 67 229 67q78 0 121 -12l-25 -139q-51 10 -104 10
q-103 0 -103 -70q0 -78 146 -78h120v-141h-528v141z" />
    <glyph glyph-name="uni0681.medi" unicode="&#x681;" horiz-adv-x="1191" 
d="M0 213h793q10 82 10 156q0 200 -90 294q-96 99 -312 99q-114 0 -235 -17v211q144 19 262 19q339 0 494 -151q149 -144 149 -445q0 -87 -8 -166h160v-213h-1223v213zM222 1276q85 0 123 -8q-47 25 -47 90q0 83 68 140q80 67 229 67q78 0 121 -12l-25 -139q-51 10 -104 10
q-103 0 -103 -70q0 -78 146 -78h120v-141h-528v141z" />
    <glyph glyph-name="uni0681.fina" unicode="&#x681;" horiz-adv-x="1212" 
d="M687 0q-387 0 -387 -221q0 -99 82 -157q91 -64 266 -64q160 0 351 36l18 -208q-215 -41 -395 -41q-292 0 -446 115q-144 108 -144 300q0 204 157 323q172 130 507 130h116q11 82 11 156q0 200 -91 294q-95 99 -311 99q-114 0 -235 -17v211q143 19 262 19q339 0 494 -151
q149 -144 149 -445q0 -87 -8 -166h159v-213h-555zM242 1276q85 0 123 -8q-47 25 -47 90q0 83 68 140q80 67 229 67q78 0 121 -12l-25 -139q-51 10 -104 10q-103 0 -103 -70q0 -78 146 -78h120v-141h-528v141z" />
    <glyph glyph-name="uni0682.init" unicode="&#x682;" horiz-adv-x="1183" 
d="M0 213h793q10 82 10 156q0 200 -90 294q-96 99 -312 99q-114 0 -235 -17v211q144 19 262 19q339 0 494 -151q149 -144 149 -445q0 -170 -35 -379h-1036v213zM583 1515q-41 -39 -99 -39q-57 0 -98 39q-41 40 -41 96q0 57 40 96q40 40 99 40q57 0 98 -40q41 -39 41 -96
q0 -56 -40 -96zM583 1175q-41 -39 -99 -39q-57 0 -98 39q-41 40 -41 96q0 59 40 98q40 40 99 40q57 0 98 -40t41 -98q0 -56 -40 -96z" />
    <glyph glyph-name="uni0682.medi" unicode="&#x682;" horiz-adv-x="1191" 
d="M0 213h793q10 82 10 156q0 200 -90 294q-96 99 -312 99q-114 0 -235 -17v211q144 19 262 19q339 0 494 -151q149 -144 149 -445q0 -87 -8 -166h160v-213h-1223v213zM583 1515q-41 -39 -99 -39q-57 0 -98 39q-41 40 -41 96q0 57 40 96q40 40 99 40q57 0 98 -40
q41 -39 41 -96q0 -56 -40 -96zM583 1175q-41 -39 -99 -39q-57 0 -98 39q-41 40 -41 96q0 59 40 98q40 40 99 40q57 0 98 -40t41 -98q0 -56 -40 -96z" />
    <glyph glyph-name="uni0682.fina" unicode="&#x682;" horiz-adv-x="1212" 
d="M687 0q-387 0 -387 -221q0 -99 82 -157q91 -64 266 -64q160 0 351 36l18 -208q-215 -41 -395 -41q-292 0 -446 115q-144 108 -144 300q0 204 157 323q172 130 507 130h116q11 82 11 156q0 200 -91 294q-95 99 -311 99q-114 0 -235 -17v211q143 19 262 19q339 0 494 -151
q149 -144 149 -445q0 -87 -8 -166h159v-213h-555zM603 1515q-41 -39 -99 -39q-57 0 -98 39q-41 40 -41 96q0 57 40 96q40 40 99 40q57 0 98 -40q41 -39 41 -96q0 -56 -40 -96zM603 1175q-41 -39 -99 -39q-57 0 -98 39q-41 40 -41 96q0 59 40 98q40 40 99 40q57 0 98 -40
t41 -98q0 -56 -40 -96z" />
    <glyph glyph-name="uni0685.init" unicode="&#x685;" horiz-adv-x="1183" 
d="M0 213h793q10 82 10 156q0 200 -90 294q-96 99 -312 99q-114 0 -235 -17v211q144 19 262 19q339 0 494 -151q149 -144 149 -445q0 -170 -35 -379h-1036v213zM388 1462q-36 37 -36 91t36 91q37 38 89 38q53 0 90 -38q37 -37 37 -91t-37 -91q-37 -38 -90 -38q-52 0 -89 38z
M551 1174q-39 40 -39 98t39 99q40 41 98 41q57 0 96 -41q39 -40 39 -99q0 -57 -39 -98q-40 -41 -96 -41q-58 0 -98 41zM213 1174q-39 40 -39 98t39 99t96 41t96 -41q39 -40 39 -99q0 -57 -39 -98q-40 -41 -96 -41q-57 0 -96 41z" />
    <glyph glyph-name="uni0685.medi" unicode="&#x685;" horiz-adv-x="1191" 
d="M0 213h793q10 82 10 156q0 200 -90 294q-96 99 -312 99q-114 0 -235 -17v211q144 19 262 19q339 0 494 -151q149 -144 149 -445q0 -87 -8 -166h160v-213h-1223v213zM388 1462q-36 37 -36 91t36 91q37 38 89 38q53 0 90 -38q37 -37 37 -91t-37 -91q-37 -38 -90 -38
q-52 0 -89 38zM551 1174q-39 40 -39 98t39 99q40 41 98 41q57 0 96 -41q39 -40 39 -99q0 -57 -39 -98q-40 -41 -96 -41q-58 0 -98 41zM213 1174q-39 40 -39 98t39 99t96 41t96 -41q39 -40 39 -99q0 -57 -39 -98q-40 -41 -96 -41q-57 0 -96 41z" />
    <glyph glyph-name="uni0685.fina" unicode="&#x685;" horiz-adv-x="1212" 
d="M687 0q-387 0 -387 -221q0 -99 82 -157q91 -64 266 -64q160 0 351 36l18 -208q-215 -41 -395 -41q-292 0 -446 115q-144 108 -144 300q0 204 157 323q172 130 507 130h116q11 82 11 156q0 200 -91 294q-95 99 -311 99q-114 0 -235 -17v211q143 19 262 19q339 0 494 -151
q149 -144 149 -445q0 -87 -8 -166h159v-213h-555zM418 1462q-36 37 -36 91t36 91q37 38 89 38q53 0 90 -38q37 -37 37 -91t-37 -91q-37 -38 -90 -38q-52 0 -89 38zM581 1174q-39 40 -39 98t39 99q40 41 98 41q57 0 96 -41q39 -40 39 -99q0 -57 -39 -98q-40 -41 -96 -41
q-58 0 -98 41zM243 1174q-39 40 -39 98t39 99t96 41t96 -41q39 -40 39 -99q0 -57 -39 -98q-40 -41 -96 -41q-57 0 -96 41z" />
    <glyph glyph-name="uni0689.fina" unicode="&#x689;" horiz-adv-x="1067" 
d="M636 -125q0 125 -100 125q-52 0 -82 -34q-29 -32 -29 -85q0 -123 140 -123h71v117zM341 0h-247v213h608q-18 455 -483 573l65 226q325 -86 489 -270q173 -195 191 -529h134v-213h-362q22 -47 22 -117v-236h-205q-250 0 -250 216q0 80 38 137z" />
    <glyph glyph-name="uni068A.fina" unicode="&#x68a;" horiz-adv-x="1067" 
d="M94 213h608q-18 455 -483 573l65 226q325 -86 489 -270q173 -195 191 -529h134v-213h-1004v213zM430 -408q-41 41 -41 101q0 58 41 100q42 41 100 41q59 0 100 -41q42 -41 42 -100t-42 -100q-41 -42 -100 -42t-100 41z" />
    <glyph glyph-name="uni068B.fina" unicode="&#x68b;" horiz-adv-x="1067" 
d="M94 213h608q-18 455 -483 573l65 226q325 -86 489 -270q173 -195 191 -529h134v-213h-1004v213zM370 1571q0 -44 -14 -119h2q86 141 242 141q205 0 205 -198q0 -116 -82 -182q-84 -68 -234 -68h-264v586h145v-160zM575 1479q-66 0 -127 -68q-59 -64 -80 -151h138
q147 0 147 120q0 99 -78 99zM430 -408q-41 41 -41 101q0 58 41 100q42 41 100 41q59 0 100 -41q42 -41 42 -100t-42 -100q-41 -42 -100 -42t-100 41z" />
    <glyph glyph-name="uni068F.fina" unicode="&#x68f;" horiz-adv-x="1067" 
d="M94 213h609q-19 455 -484 573l66 226q324 -86 488 -270q174 -195 192 -529h133v-213h-1004v213zM397 1391q54 0 90 -37q37 -38 37 -92t-37 -91q-36 -38 -90 -38q-52 0 -88 38q-37 37 -37 91t37 92q36 37 88 37zM569 1682q57 0 96 -41t39 -98q0 -59 -39 -99t-96 -40
q-58 0 -98 41q-39 40 -39 98t39 99q40 40 98 40zM229 1682q57 0 96 -41t39 -98q0 -59 -39 -99t-96 -40q-56 0 -96 41q-39 41 -39 98q0 58 39 99q39 40 96 40z" />
    <glyph glyph-name="uni0690.fina" unicode="&#x690;" horiz-adv-x="1067" 
d="M94 213h608q-18 455 -483 573l65 226q325 -86 489 -270q173 -195 191 -529h134v-213h-1004v213zM651 1171q-36 -37 -88 -37t-88 36q-35 37 -35 91q0 52 35 88q36 37 88 37t88 -37q37 -36 37 -88q0 -53 -37 -90zM322 1171q-37 -37 -89 -37t-89 36q-36 37 -36 91
q0 52 36 88q37 37 89 37t89 -37q36 -36 36 -88q0 -53 -36 -90zM648 1477q-36 -37 -88 -37t-88 36q-35 37 -35 91q0 52 35 88q36 37 88 37t88 -37q37 -36 37 -88q0 -53 -37 -90zM319 1477q-37 -37 -89 -37t-89 36q-36 37 -36 91q0 52 36 88q37 37 89 37t89 -37q36 -36 36 -88
q0 -53 -36 -90z" />
    <glyph glyph-name="uni0692.fina" unicode="&#x692;" horiz-adv-x="831" 
d="M-16 -500l20 215q85 -24 166 -24q111 0 163 60q59 68 59 226v986h270v-750h201v-213h-201v-8q0 -512 -506 -512q-90 0 -172 20zM795 1352l-289 -255l-289 257l93 109l194 -153l197 153z" />
    <glyph glyph-name="uni0693.fina" unicode="&#x693;" horiz-adv-x="831" 
d="M443 -629q0 125 -100 125q-52 0 -82 -34q-29 -32 -29 -85q0 -123 140 -123h71v117zM137 -520q-80 2 -153 20l20 215q85 -24 166 -24q111 0 163 60q59 68 59 226v986h270v-750h201v-213h-201v-8q0 -306 -180 -429q81 -50 81 -184v-236h-204q-250 0 -250 216q0 69 28 121z
" />
    <glyph glyph-name="uni0694.fina" unicode="&#x694;" horiz-adv-x="854" 
d="M7 -500l20 215q85 -24 166 -24q111 0 163 60q59 68 59 226v986h270v-750h201v-213h-201v-8q0 -512 -506 -512q-90 0 -172 20zM418 -845q-39 40 -39 98t39 99q40 41 98 41q57 0 96 -41q39 -40 39 -99q0 -57 -39 -98t-96 -41q-58 0 -98 41z" />
    <glyph glyph-name="uni0695.fina" unicode="&#x695;" horiz-adv-x="831" 
d="M-16 -500l20 215q85 -24 166 -24q111 0 163 60q59 68 59 226v986h270v-750h201v-213h-201v-8q0 -512 -506 -512q-90 0 -172 20zM685 -718l-289 -255l-289 257l93 109l194 -153l197 153z" />
    <glyph glyph-name="uni0696.fina" unicode="&#x696;" horiz-adv-x="932" 
d="M85 -500l20 215q85 -24 166 -24q111 0 163 60q58 68 58 226v986h271v-750h200v-213h-200v-8q0 -512 -506 -512q-90 0 -172 20zM496 -845q-39 40 -39 98t39 99q40 41 98 41q57 0 96 -41q39 -40 39 -99q0 -57 -39 -98t-96 -41q-58 0 -98 41zM117 -1q-39 40 -39 98t39 99
q40 41 96 41q57 0 96 -41q39 -40 39 -99q0 -57 -39 -98t-96 -41t-96 41z" />
    <glyph glyph-name="uni0697.fina" unicode="&#x697;" horiz-adv-x="831" 
d="M-16 -500l20 215q85 -24 166 -24q111 0 163 60q59 68 59 226v986h270v-750h201v-213h-201v-8q0 -512 -506 -512q-90 0 -172 20zM580 1159q-39 40 -39 98t39 99q40 41 98 41q57 0 96 -41q39 -40 39 -99q0 -57 -39 -98t-96 -41q-58 0 -98 41zM242 1159q-39 40 -39 98t39 99
q40 41 96 41q57 0 96 -41q39 -40 39 -99q0 -57 -39 -98t-96 -41q-56 0 -96 41z" />
    <glyph glyph-name="uni0699.fina" unicode="&#x699;" horiz-adv-x="831" 
d="M-16 -500l20 215q85 -24 166 -24q111 0 163 60q59 68 59 226v986h270v-750h201v-213h-201v-8q0 -512 -506 -512q-90 0 -172 20zM755 1157q-36 -37 -88 -37t-88 36q-35 37 -35 91q0 52 35 88q36 37 88 37t88 -37q37 -36 37 -88q0 -53 -37 -90zM426 1157q-37 -37 -89 -37
t-89 36q-36 37 -36 91q0 52 36 88q37 37 89 37t89 -37q36 -36 36 -88q0 -53 -36 -90zM752 1463q-36 -37 -88 -37t-88 36q-35 37 -35 91q0 52 35 88q36 37 88 37t88 -37q37 -36 37 -88q0 -53 -37 -90zM423 1463q-37 -37 -89 -37t-89 36q-36 37 -36 91q0 52 36 88q37 37 89 37
t89 -37q36 -36 36 -88q0 -53 -36 -90z" />
    <glyph glyph-name="uni069A.init" unicode="&#x69a;" horiz-adv-x="1843" 
d="M0 213h102q102 0 142 52q43 55 43 202v373h270v-379q0 -148 25 -201q29 -63 116 -63q164 0 164 262v463h260v-514q0 -120 50 -158q48 -37 192 -37h53q15 115 15 246q0 283 -60 549l264 36q66 -275 66 -567q0 -259 -31 -477h-338q-167 0 -248 28q-87 31 -131 113
q-73 -157 -309 -157q-219 0 -272 159q-63 -143 -273 -143h-100v213zM891 1157q-41 41 -41 101q0 58 41 100q42 41 100 41q59 0 100 -41q42 -41 42 -100t-42 -100q-41 -42 -100 -42t-100 41zM891 -408q-41 41 -41 101q0 58 41 100q42 41 100 41q59 0 100 -41q42 -41 42 -100
t-42 -100q-41 -42 -100 -42t-100 41z" />
    <glyph glyph-name="uni069A.medi" unicode="&#x69a;" horiz-adv-x="1861" 
d="M0 213h102q102 0 142 52q43 55 43 202v373h270v-379q0 -148 25 -201q29 -63 116 -63q164 0 164 262v463h260v-514q0 -120 50 -158q48 -37 192 -37h53q15 115 15 246q0 283 -60 549l264 36q66 -275 66 -567q0 -114 -10 -264h200v-213h-559q-167 0 -248 28q-87 31 -131 113
q-73 -157 -309 -157q-219 0 -272 159q-63 -143 -273 -143h-100v213zM891 1157q-41 41 -41 101q0 58 41 100q42 41 100 41q59 0 100 -41q42 -41 42 -100t-42 -100q-41 -42 -100 -42t-100 41zM891 -408q-41 41 -41 101q0 58 41 100q42 41 100 41q59 0 100 -41q42 -41 42 -100
t-42 -100q-41 -42 -100 -42t-100 41z" />
    <glyph glyph-name="uni069A.fina" unicode="&#x69a;" horiz-adv-x="2480" 
d="M96 111q0 188 49 366l279 51q-58 -204 -58 -393q0 -395 281 -395q256 0 256 387v713h270v-379q0 -144 35 -204t117 -60q155 0 155 262v463h258v-514q0 -119 52 -158q48 -37 192 -37h53q15 143 15 246q0 283 -60 549l265 36q65 -275 65 -567q0 -114 -10 -264h201v-213
h-560q-313 0 -380 141q-64 -153 -256 -153q-110 0 -154 63q1 -268 -159 -404q-139 -118 -378 -118q-528 0 -528 582zM1511 1157q-41 41 -41 101q0 58 41 100q42 41 100 41q59 0 100 -41q42 -41 42 -100t-42 -100q-41 -42 -100 -42t-100 41zM1511 -408q-41 41 -41 101
q0 58 41 100q42 41 100 41q59 0 100 -41q42 -41 42 -100t-42 -100q-41 -42 -100 -42t-100 41z" />
    <glyph glyph-name="uni069B.init" unicode="&#x69b;" horiz-adv-x="1843" 
d="M0 213h102q102 0 142 52q43 55 43 202v373h270v-379q0 -148 25 -201q29 -63 116 -63q164 0 164 262v463h260v-514q0 -120 50 -158q48 -37 192 -37h53q15 115 15 246q0 283 -60 549l264 36q66 -275 66 -567q0 -259 -31 -477h-338q-167 0 -248 28q-87 31 -131 113
q-73 -157 -309 -157q-219 0 -272 159q-63 -143 -273 -143h-100v213zM909 -313q-36 -37 -88 -37q-53 0 -89 36q-36 37 -36 91q0 52 36 88q36 37 89 37q52 0 88 -37q37 -36 37 -88q0 -53 -37 -90zM1239 -313q-37 -37 -89 -37t-87 36q-35 37 -35 91q0 52 35 88q35 37 87 37
q53 0 89 -37q36 -36 36 -88q0 -53 -36 -90zM1071 -562q-35 -34 -84 -34q-51 0 -85 34t-34 85q0 49 34 84t85 35q49 0 84 -35q34 -35 34 -84q0 -51 -34 -85z" />
    <glyph glyph-name="uni069B.medi" unicode="&#x69b;" horiz-adv-x="1861" 
d="M0 213h102q102 0 142 52q43 55 43 202v373h270v-379q0 -148 25 -201q29 -63 116 -63q164 0 164 262v463h260v-514q0 -120 50 -158q48 -37 192 -37h53q15 115 15 246q0 283 -60 549l264 36q66 -275 66 -567q0 -114 -10 -264h200v-213h-559q-167 0 -248 28q-87 31 -131 113
q-73 -157 -309 -157q-219 0 -272 159q-63 -143 -273 -143h-100v213zM909 -313q-36 -37 -88 -37q-53 0 -89 36q-36 37 -36 91q0 52 36 88q36 37 89 37q52 0 88 -37q37 -36 37 -88q0 -53 -37 -90zM1239 -313q-37 -37 -89 -37t-87 36q-35 37 -35 91q0 52 35 88q35 37 87 37
q53 0 89 -37q36 -36 36 -88q0 -53 -36 -90zM1071 -562q-35 -34 -84 -34q-51 0 -85 34t-34 85q0 49 34 84t85 35q49 0 84 -35q34 -35 34 -84q0 -51 -34 -85z" />
    <glyph glyph-name="uni069B.fina" unicode="&#x69b;" horiz-adv-x="2480" 
d="M96 111q0 188 49 366l279 51q-58 -204 -58 -393q0 -395 281 -395q256 0 256 387v713h270v-379q0 -144 35 -204t117 -60q155 0 155 262v463h258v-514q0 -119 52 -158q48 -37 192 -37h53q15 143 15 246q0 283 -60 549l265 36q65 -275 65 -567q0 -114 -10 -264h201v-213
h-560q-313 0 -380 141q-64 -153 -256 -153q-110 0 -154 63q1 -268 -159 -404q-139 -118 -378 -118q-528 0 -528 582zM1529 -313q-36 -37 -88 -37q-53 0 -89 36q-36 37 -36 91q0 52 36 88q36 37 89 37q52 0 88 -37q37 -36 37 -88q0 -53 -37 -90zM1859 -313q-37 -37 -89 -37
t-87 36q-35 37 -35 91q0 52 35 88q35 37 87 37q53 0 89 -37q36 -36 36 -88q0 -53 -36 -90zM1691 -562q-35 -34 -84 -34q-51 0 -85 34t-34 85q0 49 34 84t85 35q49 0 84 -35q34 -35 34 -84q0 -51 -34 -85z" />
    <glyph glyph-name="uni069C.init" unicode="&#x69c;" horiz-adv-x="1843" 
d="M0 213h102q102 0 142 52q43 55 43 202v373h270v-379q0 -148 25 -201q29 -63 116 -63q164 0 164 262v463h260v-514q0 -120 50 -158q48 -37 192 -37h53q15 115 15 246q0 283 -60 549l264 36q66 -275 66 -567q0 -259 -31 -477h-338q-167 0 -248 28q-87 31 -131 113
q-73 -157 -309 -157q-219 0 -272 159q-63 -143 -273 -143h-100v213zM892 1447q-36 37 -36 91t36 91q37 38 89 38q54 0 90 -38q37 -37 37 -91t-37 -91q-36 -38 -90 -38q-52 0 -89 38zM1055 1159q-39 40 -39 98t39 99q40 41 98 41q57 0 96 -41q39 -40 39 -99q0 -57 -39 -98
q-40 -41 -96 -41q-58 0 -98 41zM717 1159q-39 40 -39 98t39 99q40 41 96 41q57 0 96 -41q39 -40 39 -99q0 -57 -39 -98t-96 -41t-96 41zM909 -313q-36 -37 -88 -37q-53 0 -89 36q-36 37 -36 91q0 52 36 88q36 37 89 37q52 0 88 -37q37 -36 37 -88q0 -53 -37 -90zM1239 -313
q-37 -37 -89 -37t-87 36q-35 37 -35 91q0 52 35 88q35 37 87 37q53 0 89 -37q36 -36 36 -88q0 -53 -36 -90zM1071 -562q-35 -34 -84 -34q-51 0 -85 34t-34 85q0 49 34 84t85 35q49 0 84 -35q34 -35 34 -84q0 -51 -34 -85z" />
    <glyph glyph-name="uni069C.medi" unicode="&#x69c;" horiz-adv-x="1861" 
d="M0 213h102q102 0 142 52q43 55 43 202v373h270v-379q0 -148 25 -201q29 -63 116 -63q164 0 164 262v463h260v-514q0 -120 50 -158q48 -37 192 -37h53q15 115 15 246q0 283 -60 549l264 36q66 -275 66 -567q0 -114 -10 -264h200v-213h-559q-167 0 -248 28q-87 31 -131 113
q-73 -157 -309 -157q-219 0 -272 159q-63 -143 -273 -143h-100v213zM1055 1159q-39 40 -39 98t39 99q40 41 98 41q57 0 96 -41q39 -40 39 -99q0 -57 -39 -98q-40 -41 -96 -41q-58 0 -98 41zM717 1159q-39 40 -39 98t39 99q40 41 96 41q57 0 96 -41q39 -40 39 -99
q0 -57 -39 -98t-96 -41t-96 41zM892 1447q-36 37 -36 91t36 91q37 38 89 38q54 0 90 -38q37 -37 37 -91t-37 -91q-36 -38 -90 -38q-52 0 -89 38zM909 -313q-36 -37 -88 -37q-53 0 -89 36q-36 37 -36 91q0 52 36 88q36 37 89 37q52 0 88 -37q37 -36 37 -88q0 -53 -37 -90z
M1239 -313q-37 -37 -89 -37t-87 36q-35 37 -35 91q0 52 35 88q35 37 87 37q53 0 89 -37q36 -36 36 -88q0 -53 -36 -90zM1071 -562q-35 -34 -84 -34q-51 0 -85 34t-34 85q0 49 34 84t85 35q49 0 84 -35q34 -35 34 -84q0 -51 -34 -85z" />
    <glyph glyph-name="uni069C.fina" unicode="&#x69c;" horiz-adv-x="2480" 
d="M96 111q0 188 49 366l279 51q-58 -204 -58 -393q0 -395 281 -395q256 0 256 387v713h270v-379q0 -144 35 -204t117 -60q155 0 155 262v463h258v-514q0 -119 52 -158q48 -37 192 -37h53q15 143 15 246q0 283 -60 549l265 36q65 -275 65 -567q0 -114 -10 -264h201v-213
h-560q-313 0 -380 141q-64 -153 -256 -153q-110 0 -154 63q1 -268 -159 -404q-139 -118 -378 -118q-528 0 -528 582zM1676 1159q-40 40 -40 98t40 99q39 41 97 41q57 0 96 -41q39 -40 39 -99q0 -57 -39 -98t-96 -41q-58 0 -97 41zM1337 1159q-39 40 -39 98t39 99
q40 41 96 41q57 0 96 -41q40 -40 40 -99q0 -57 -40 -98q-39 -41 -96 -41q-56 0 -96 41zM1513 1447q-37 37 -37 91t37 91q36 38 88 38q54 0 91 -38q36 -37 36 -91t-36 -91q-37 -38 -91 -38q-52 0 -88 38zM1529 -313q-36 -37 -88 -37q-53 0 -89 36q-36 37 -36 91q0 52 36 88
q36 37 89 37q52 0 88 -37q37 -36 37 -88q0 -53 -37 -90zM1859 -313q-37 -37 -89 -37t-87 36q-35 37 -35 91q0 52 35 88q35 37 87 37q53 0 89 -37q36 -36 36 -88q0 -53 -36 -90zM1691 -562q-35 -34 -84 -34q-51 0 -85 34t-34 85q0 49 34 84t85 35q49 0 84 -35q34 -35 34 -84
q0 -51 -34 -85z" />
    <glyph glyph-name="uni069D.init" unicode="&#x69d;" horiz-adv-x="1564" 
d="M0 213h274v750h271v-52q0 -172 -25 -303h4q66 181 213 284q138 97 305 97q211 0 323 -124q110 -121 110 -341q0 -238 -143 -372q-160 -152 -484 -152h-848v213zM872 213q324 0 324 295q0 266 -209 266q-160 0 -290 -172q-123 -163 -156 -389h331zM1110 -405
q-40 -41 -96 -41q-57 0 -96 40t-39 99q0 57 39 98q40 41 96 41q57 0 96 -40q39 -41 39 -99q0 -57 -39 -98zM772 -405q-40 -41 -98 -41q-57 0 -96 40t-39 99q0 57 39 98q40 41 96 41q58 0 98 -40q39 -41 39 -99t-39 -98z" />
    <glyph glyph-name="uni069D.medi" unicode="&#x69d;" horiz-adv-x="1558" 
d="M0 213h274v750h271v-52q0 -172 -25 -303h4q66 181 213 284q138 97 305 97q211 0 323 -124q110 -121 110 -341q0 -188 -89 -311h216v-213h-1602v213zM872 213q324 0 324 295q0 266 -209 266q-160 0 -290 -172q-123 -163 -156 -389h331zM1110 -405q-40 -41 -96 -41
q-57 0 -96 40t-39 99q0 57 39 98q40 41 96 41q57 0 96 -40q39 -41 39 -99q0 -57 -39 -98zM772 -405q-40 -41 -98 -41q-57 0 -96 40t-39 99q0 57 39 98q40 41 96 41q58 0 98 -40q39 -41 39 -99t-39 -98z" />
    <glyph glyph-name="uni069D.fina" unicode="&#x69d;" horiz-adv-x="2187" 
d="M1161 0q-25 -239 -175 -360q-138 -111 -362 -111q-528 0 -528 582q0 188 49 366l279 51q-58 -204 -58 -393q0 -395 281 -395q256 0 256 387v836h270v-52q0 -168 -22 -303h2q65 181 212 284q139 97 306 97q212 0 325 -124q109 -121 109 -341q0 -185 -90 -311h215v-213
h-1069zM1501 213q326 0 326 295q0 266 -209 266q-162 0 -291 -172q-122 -162 -156 -389h330zM1870 -405q-40 -41 -96 -41q-57 0 -96 40t-39 99q0 57 39 98q40 41 96 41q57 0 96 -40q39 -41 39 -99q0 -57 -39 -98zM1532 -405q-40 -41 -98 -41q-57 0 -96 40t-39 99q0 57 39 98
q40 41 96 41q58 0 98 -40q39 -41 39 -99t-39 -98z" />
    <glyph glyph-name="uni069E.init" unicode="&#x69e;" horiz-adv-x="1548" 
d="M0 213h274v750h271v-52q0 -172 -25 -303h4q66 181 213 284q138 97 305 97q211 0 323 -124q110 -121 110 -341q0 -238 -143 -372q-160 -152 -484 -152h-848v213zM872 213q324 0 324 295q0 266 -209 266q-160 0 -290 -172q-123 -163 -156 -389h331zM1060 1176
q-39 40 -39 98t39 99q40 41 98 41q57 0 96 -41q39 -40 39 -99q0 -57 -39 -98t-96 -41q-58 0 -98 41zM722 1176q-39 40 -39 98t39 99q40 41 96 41q57 0 96 -41q39 -40 39 -99q0 -57 -39 -98t-96 -41q-56 0 -96 41zM898 1464q-37 37 -37 91t37 91q36 38 88 38q54 0 91 -38
q36 -37 36 -91t-36 -91q-37 -38 -91 -38q-52 0 -88 38z" />
    <glyph glyph-name="uni069E.medi" unicode="&#x69e;" horiz-adv-x="1533" 
d="M0 213h274v750h271v-52q0 -172 -25 -303h4q66 181 213 284q138 97 305 97q211 0 323 -124q110 -121 110 -341q0 -188 -89 -311h191v-213h-1577v213zM872 213q324 0 324 295q0 266 -209 266q-160 0 -290 -172q-123 -163 -156 -389h331zM1060 1176q-39 40 -39 98t39 99
q40 41 98 41q57 0 96 -41q39 -40 39 -99q0 -57 -39 -98t-96 -41q-58 0 -98 41zM722 1176q-39 40 -39 98t39 99q40 41 96 41q57 0 96 -41q39 -40 39 -99q0 -57 -39 -98t-96 -41q-56 0 -96 41zM898 1464q-37 37 -37 91t37 91q36 38 88 38q54 0 91 -38q36 -37 36 -91t-36 -91
q-37 -38 -91 -38q-52 0 -88 38z" />
    <glyph glyph-name="uni069E.fina" unicode="&#x69e;" horiz-adv-x="2187" 
d="M96 111q0 188 49 366l279 51q-58 -204 -58 -393q0 -395 281 -395q256 0 256 387v836h270v-52q0 -168 -22 -303h2q65 181 212 284q139 97 306 97q212 0 325 -124q109 -121 109 -341q0 -185 -90 -311h215v-213h-1069q-25 -239 -175 -360q-138 -111 -362 -111
q-528 0 -528 582zM1501 213q326 0 326 295q0 266 -209 266q-162 0 -291 -172q-122 -162 -156 -389h330zM1720 1176q-39 40 -39 98t39 99q40 41 98 41q57 0 96 -41q39 -40 39 -99q0 -57 -39 -98t-96 -41q-58 0 -98 41zM1382 1176q-39 40 -39 98t39 99q40 41 96 41
q57 0 96 -41q39 -40 39 -99q0 -57 -39 -98t-96 -41q-56 0 -96 41zM1558 1464q-37 37 -37 91t37 91q36 38 88 38q54 0 91 -38q36 -37 36 -91t-36 -91q-37 -38 -91 -38q-52 0 -88 38z" />
    <glyph glyph-name="uni069F.init" unicode="&#x69f;" horiz-adv-x="1523" 
d="M0 213h250v1231h270v-533q0 -168 -22 -303h2q65 181 212 284q139 97 306 97q212 0 324 -124q110 -121 110 -341q0 -238 -143 -372q-161 -152 -486 -152h-823v213zM848 213q326 0 326 295q0 266 -209 266q-162 0 -291 -172q-122 -162 -156 -389h330zM1060 1176
q-39 40 -39 98t39 99q40 41 98 41q57 0 96 -41q39 -40 39 -99q0 -57 -39 -98t-96 -41q-58 0 -98 41zM722 1176q-39 40 -39 98t39 99q40 41 96 41q57 0 96 -41q39 -40 39 -99q0 -57 -39 -98t-96 -41q-56 0 -96 41zM898 1464q-37 37 -37 91t37 91q36 38 88 38q54 0 91 -38
q36 -37 36 -91t-36 -91q-37 -38 -91 -38q-52 0 -88 38z" />
    <glyph glyph-name="uni069F.medi" unicode="&#x69f;" horiz-adv-x="1533" 
d="M0 213h250v1231h270v-533q0 -168 -22 -303h2q65 181 212 284q139 97 306 97q212 0 324 -124q110 -121 110 -341q0 -185 -90 -311h215v-213h-1577v213zM848 213q326 0 326 295q0 266 -209 266q-162 0 -291 -172q-122 -162 -156 -389h330zM1060 1176q-39 40 -39 98t39 99
q40 41 98 41q57 0 96 -41q39 -40 39 -99q0 -57 -39 -98t-96 -41q-58 0 -98 41zM722 1176q-39 40 -39 98t39 99q40 41 96 41q57 0 96 -41q39 -40 39 -99q0 -57 -39 -98t-96 -41q-56 0 -96 41zM898 1464q-37 37 -37 91t37 91q36 38 88 38q54 0 91 -38q36 -37 36 -91t-36 -91
q-37 -38 -91 -38q-52 0 -88 38z" />
    <glyph glyph-name="uni069F.fina" unicode="&#x69f;" horiz-adv-x="1533" 
d="M0 213h250v1231h270v-533q0 -168 -22 -303h2q65 181 212 284q139 97 306 97q212 0 324 -124q110 -121 110 -341q0 -185 -90 -311h215v-213h-1577v213zM848 213q326 0 326 295q0 266 -209 266q-162 0 -291 -172q-122 -162 -156 -389h330zM1060 1176q-39 40 -39 98t39 99
q40 41 98 41q57 0 96 -41q39 -40 39 -99q0 -57 -39 -98t-96 -41q-58 0 -98 41zM722 1176q-39 40 -39 98t39 99q40 41 96 41q57 0 96 -41q39 -40 39 -99q0 -57 -39 -98t-96 -41q-56 0 -96 41zM898 1464q-37 37 -37 91t37 91q36 38 88 38q54 0 91 -38q36 -37 36 -91t-36 -91
q-37 -38 -91 -38q-52 0 -88 38z" />
    <glyph glyph-name="uni06A0.init" unicode="&#x6a0;" horiz-adv-x="1124" 
d="M0 213h313q-159 94 -159 305q0 203 132 331q145 140 404 140q137 0 254 -39l-47 -215q-94 43 -213 43q-116 0 -187 -71t-71 -189q0 -138 111 -218q121 -87 354 -87h160v-213h-1051v213zM710 1176q-39 40 -39 98t39 99q40 41 98 41q57 0 96 -41q39 -40 39 -99
q0 -57 -39 -98t-96 -41q-58 0 -98 41zM372 1176q-39 40 -39 98t39 99q40 41 96 41q57 0 96 -41q39 -40 39 -99q0 -57 -39 -98t-96 -41q-56 0 -96 41zM548 1464q-37 37 -37 91t37 91q36 38 88 38q54 0 91 -38q36 -37 36 -91t-36 -91q-37 -38 -91 -38q-52 0 -88 38z" />
    <glyph glyph-name="uni06A0.medi" unicode="&#x6a0;" horiz-adv-x="1288" 
d="M0 213h72q283 0 477 63q-273 256 -430 299l22 193q315 227 592 227q216 0 331 -101q101 -90 101 -235q0 -218 -209 -393q110 -53 228 -53h135v-213h-166q-231 0 -422 127q-284 -127 -676 -127h-55v213zM770 391q127 100 127 234q0 76 -48 122q-52 50 -147 50
q-127 0 -311 -123q80 -32 379 -283zM770 1176q-39 40 -39 98t39 99q40 41 98 41q57 0 96 -41q39 -40 39 -99q0 -57 -39 -98t-96 -41q-58 0 -98 41zM432 1176q-39 40 -39 98t39 99q40 41 96 41q57 0 96 -41q39 -40 39 -99q0 -57 -39 -98t-96 -41q-56 0 -96 41zM608 1464
q-37 37 -37 91t37 91q36 38 88 38q54 0 91 -38q36 -37 36 -91t-36 -91q-37 -38 -91 -38q-52 0 -88 38z" />
    <glyph glyph-name="uni06A0.fina" unicode="&#x6a0;" horiz-adv-x="1288" 
d="M194 -416q-135 95 -135 254q0 166 150 286q89 71 319 173q-244 232 -410 278l23 193q315 227 592 227q216 0 330 -101q102 -90 102 -235q0 -220 -234 -380q125 -66 252 -66h136v-213h-166q-254 0 -455 152q-204 -100 -252 -132q-111 -74 -111 -155q0 -176 334 -176
q158 0 308 26l16 -204q-178 -33 -354 -33q-294 0 -445 106zM747 410q150 97 150 215q0 76 -48 122q-52 50 -147 50q-127 0 -311 -123q100 -40 356 -264zM770 1186q-39 40 -39 98t39 99q40 41 98 41q57 0 96 -41q39 -40 39 -99q0 -57 -39 -98t-96 -41q-58 0 -98 41zM432 1186
q-39 40 -39 98t39 99q40 41 96 41q57 0 96 -41q39 -40 39 -99q0 -57 -39 -98t-96 -41q-56 0 -96 41zM608 1474q-37 37 -37 91t37 91q36 38 88 38q54 0 91 -38q36 -37 36 -91t-36 -91q-37 -38 -91 -38q-52 0 -88 38z" />
    <glyph glyph-name="uni06A1.init" unicode="&#x6a1;" horiz-adv-x="1253" 
d="M0 0v213h117q71 0 114 -14q-114 83 -114 293q0 208 132 346q146 151 400 151q463 0 463 -471v-518h-1112zM848 485q0 291 -219 291q-113 0 -180 -78q-64 -76 -64 -198q0 -287 307 -287h156v272z" />
    <glyph glyph-name="uni06A1.medi" unicode="&#x6a1;" horiz-adv-x="1228" 
d="M0 213h86q64 0 125 -10q-94 97 -94 276q0 223 144 366q145 144 376 144q225 0 348 -116q129 -123 129 -361q0 -209 -119 -309q86 10 156 10h109v-213h-1260v213zM776 284q66 76 66 214q0 278 -224 278q-96 0 -159 -65q-72 -74 -72 -209q0 -289 227 -289q102 0 162 71z
" />
    <glyph glyph-name="uni06A1.fina" unicode="&#x6a1;" horiz-adv-x="1927" 
d="M1957 0h-1103q-401 0 -585 163q-167 147 -167 443q0 176 53 322l289 47q-70 -153 -70 -338q0 -219 108 -320q111 -104 355 -104h68q-90 84 -90 266q0 223 144 366q145 144 376 144q225 0 348 -116q129 -123 129 -361q0 -209 -119 -309q86 10 156 10h108v-213zM1316 776
q-96 0 -159 -65q-72 -74 -72 -209q0 -289 227 -289q101 0 162 71q66 76 66 214q0 278 -224 278z" />
    <glyph glyph-name="uni06A2.init" unicode="&#x6a2;" horiz-adv-x="1253" 
d="M0 0v213h117q71 0 114 -14q-114 83 -114 293q0 208 132 346q146 151 400 151q463 0 463 -471v-518h-1112zM848 485q0 291 -219 291q-113 0 -180 -78q-64 -76 -64 -198q0 -287 307 -287h156v272zM540 -408q-41 41 -41 101q0 58 41 100q42 41 100 41q59 0 100 -41
q42 -41 42 -100t-42 -100q-41 -42 -100 -42q-58 0 -100 41z" />
    <glyph glyph-name="uni06A2.medi" unicode="&#x6a2;" horiz-adv-x="1228" 
d="M0 213h86q64 0 125 -10q-94 97 -94 276q0 223 144 366q145 144 376 144q225 0 348 -116q129 -123 129 -361q0 -209 -119 -309q86 10 156 10h109v-213h-1260v213zM776 284q66 76 66 214q0 278 -224 278q-96 0 -159 -65q-72 -74 -72 -209q0 -289 227 -289q102 0 162 71z
M520 -408q-41 41 -41 101q0 58 41 100q42 41 100 41q59 0 100 -41q42 -41 42 -100t-42 -100q-41 -42 -100 -42q-58 0 -100 41z" />
    <glyph glyph-name="uni06A2.fina" unicode="&#x6a2;" horiz-adv-x="1927" 
d="M1957 0h-1103q-401 0 -585 163q-167 147 -167 443q0 176 53 322l289 47q-70 -153 -70 -338q0 -219 108 -320q111 -104 355 -104h68q-90 84 -90 266q0 223 144 366q145 144 376 144q225 0 348 -116q129 -123 129 -361q0 -209 -119 -309q86 10 156 10h108v-213zM1316 776
q-96 0 -159 -65q-72 -74 -72 -209q0 -289 227 -289q101 0 162 71q66 76 66 214q0 278 -224 278zM1260 -408q-41 41 -41 101q0 58 41 100q42 41 100 41q59 0 100 -41q42 -41 42 -100t-42 -100q-41 -42 -100 -42q-58 0 -100 41z" />
    <glyph glyph-name="uni06A3.init" unicode="&#x6a3;" horiz-adv-x="1253" 
d="M0 0v213h117q71 0 114 -14q-114 83 -114 293q0 208 132 346q146 151 400 151q463 0 463 -471v-518h-1112zM848 485q0 291 -219 291q-113 0 -180 -78q-64 -76 -64 -198q0 -287 307 -287h156v272zM523 1183q-42 42 -42 101q0 58 42 100q41 41 100 41q58 0 99 -41
q42 -42 42 -100t-42 -100q-41 -41 -99 -41q-59 0 -100 40zM540 -408q-41 41 -41 101q0 58 41 100q42 41 100 41q59 0 100 -41q42 -41 42 -100t-42 -100q-41 -42 -100 -42q-58 0 -100 41z" />
    <glyph glyph-name="uni06A3.medi" unicode="&#x6a3;" horiz-adv-x="1228" 
d="M0 213h86q64 0 125 -10q-94 97 -94 276q0 223 144 366q145 144 376 144q225 0 348 -116q129 -123 129 -361q0 -209 -119 -309q86 10 156 10h109v-213h-1260v213zM776 284q66 76 66 214q0 278 -224 278q-96 0 -159 -65q-72 -74 -72 -209q0 -289 227 -289q102 0 162 71z
M519 1183q-42 42 -42 101q0 58 42 100q41 41 99 41q59 0 100 -41q42 -42 42 -100t-42 -100q-41 -41 -100 -41q-58 0 -99 40zM520 -408q-41 41 -41 101q0 58 41 100q42 41 100 41q59 0 100 -41q42 -41 42 -100t-42 -100q-41 -42 -100 -42q-58 0 -100 41z" />
    <glyph glyph-name="uni06A3.fina" unicode="&#x6a3;" horiz-adv-x="1927" 
d="M1957 0h-1103q-401 0 -585 163q-167 147 -167 443q0 176 53 322l289 47q-70 -153 -70 -338q0 -219 108 -320q111 -104 355 -104h68q-90 84 -90 266q0 223 144 366q145 144 376 144q225 0 348 -116q129 -123 129 -361q0 -209 -119 -309q86 10 156 10h108v-213zM1316 776
q-96 0 -159 -65q-72 -74 -72 -209q0 -289 227 -289q101 0 162 71q66 76 66 214q0 278 -224 278zM1217 1183q-42 42 -42 101q0 58 42 100q41 41 99 41q59 0 100 -41q42 -42 42 -100t-42 -100q-41 -41 -100 -41q-58 0 -99 40zM840 -408q-41 41 -41 101q0 58 41 100
q42 41 100 41q59 0 100 -41q42 -41 42 -100t-42 -100q-41 -42 -100 -42q-58 0 -100 41z" />
    <glyph glyph-name="uni06A5.init" unicode="&#x6a5;" horiz-adv-x="1253" 
d="M0 0v213h117q71 0 114 -14q-114 83 -114 293q0 208 132 346q146 151 400 151q463 0 463 -471v-518h-1112zM848 485q0 291 -219 291q-113 0 -180 -78q-64 -76 -64 -198q0 -287 307 -287h156v272zM559 -313q-36 -37 -88 -37q-53 0 -89 36q-36 37 -36 91q0 52 36 88
q36 37 89 37q52 0 88 -37q37 -36 37 -88q0 -53 -37 -90zM889 -313q-37 -37 -89 -37t-87 36q-35 37 -35 91q0 52 35 88q35 37 87 37q53 0 89 -37q36 -36 36 -88q0 -53 -36 -90zM721 -562q-35 -34 -84 -34q-51 0 -85 34t-34 85q0 49 34 84t85 35q49 0 84 -35q34 -35 34 -84
q0 -51 -34 -85z" />
    <glyph glyph-name="uni06A5.medi" unicode="&#x6a5;" horiz-adv-x="1228" 
d="M0 213h86q64 0 125 -10q-94 97 -94 276q0 223 144 366q145 144 376 144q225 0 348 -116q129 -123 129 -361q0 -209 -119 -309q86 10 156 10h109v-213h-1260v213zM776 284q66 76 66 214q0 278 -224 278q-96 0 -159 -65q-72 -74 -72 -209q0 -289 227 -289q102 0 162 71z
M559 -313q-36 -37 -88 -37q-53 0 -89 36q-36 37 -36 91q0 52 36 88q36 37 89 37q52 0 88 -37q37 -36 37 -88q0 -53 -37 -90zM889 -313q-37 -37 -89 -37t-87 36q-35 37 -35 91q0 52 35 88q35 37 87 37q53 0 89 -37q36 -36 36 -88q0 -53 -36 -90zM721 -562q-35 -34 -84 -34
q-51 0 -85 34t-34 85q0 49 34 84t85 35q49 0 84 -35q34 -35 34 -84q0 -51 -34 -85z" />
    <glyph glyph-name="uni06A5.fina" unicode="&#x6a5;" horiz-adv-x="1927" 
d="M1957 0h-1103q-401 0 -585 163q-167 147 -167 443q0 176 53 322l289 47q-70 -153 -70 -338q0 -219 108 -320q111 -104 355 -104h68q-90 84 -90 266q0 223 144 366q145 144 376 144q225 0 348 -116q129 -123 129 -361q0 -209 -119 -309q86 10 156 10h108v-213zM1316 776
q-96 0 -159 -65q-72 -74 -72 -209q0 -289 227 -289q101 0 162 71q66 76 66 214q0 278 -224 278zM1259 -313q-36 -37 -88 -37q-53 0 -89 36q-36 37 -36 91q0 52 36 88q36 37 89 37q52 0 88 -37q37 -36 37 -88q0 -53 -37 -90zM1589 -313q-37 -37 -89 -37t-87 36q-35 37 -35 91
q0 52 35 88q35 37 87 37q53 0 89 -37q36 -36 36 -88q0 -53 -36 -90zM1421 -562q-35 -34 -84 -34q-51 0 -85 34t-34 85q0 49 34 84t85 35q49 0 84 -35q34 -35 34 -84q0 -51 -34 -85z" />
    <glyph glyph-name="uni06A7.init" unicode="&#x6a7;" horiz-adv-x="1253" 
d="M0 0v213h117q71 0 114 -14q-114 83 -114 293q0 208 132 346q146 151 400 151q463 0 463 -471v-518h-1112zM848 485q0 291 -219 291q-113 0 -180 -78q-64 -76 -64 -198q0 -287 307 -287h156v272zM523 1183q-42 42 -42 101q0 58 42 100q41 41 100 41q58 0 99 -41
q42 -42 42 -100t-42 -100q-41 -41 -99 -41q-59 0 -100 40z" />
    <glyph glyph-name="uni06A7.medi" unicode="&#x6a7;" horiz-adv-x="1228" 
d="M0 213h86q64 0 125 -10q-94 97 -94 276q0 223 144 366q145 144 376 144q225 0 348 -116q129 -123 129 -361q0 -209 -119 -309q86 10 156 10h109v-213h-1260v213zM776 284q66 76 66 214q0 278 -224 278q-96 0 -159 -65q-72 -74 -72 -209q0 -289 227 -289q102 0 162 71z
M523 1183q-42 42 -42 101q0 58 42 100q41 41 100 41q58 0 99 -41q42 -42 42 -100t-42 -100q-41 -41 -99 -41q-59 0 -100 40z" />
    <glyph glyph-name="uni06A7.fina" unicode="&#x6a7;" horiz-adv-x="1828" 
d="M1659 213h200v-213h-200v-489q-398 -23 -662 -23q-479 0 -693 154q-208 149 -208 473q0 184 49 362l279 51q-58 -204 -58 -387q0 -241 144 -339q150 -103 526 -103q147 0 338 12v289h-139q-547 0 -547 475q0 219 129 358q145 156 412 156q243 0 430 -71v-705zM1394 739
q-77 37 -192 37q-113 0 -181 -78q-65 -76 -65 -198q0 -287 307 -287h131v526zM1138 1159q-39 40 -39 98t39 99q40 41 96 41q57 0 96 -41q39 -40 39 -99q0 -57 -39 -98q-40 -41 -96 -41q-57 0 -96 41z" />
    <glyph glyph-name="uni06A8.init" unicode="&#x6a8;" horiz-adv-x="1253" 
d="M0 0v213h117q71 0 114 -14q-114 83 -114 293q0 208 132 346q146 151 400 151q463 0 463 -471v-518h-1112zM848 485q0 291 -219 291q-113 0 -180 -78q-64 -76 -64 -198q0 -287 307 -287h156v272zM534 1447q-36 37 -36 91t36 91q36 38 89 38t90 -38q37 -37 37 -91t-37 -91
q-37 -38 -90 -38t-89 38zM697 1159q-40 40 -40 98t40 99t98 41q56 0 96 -41q39 -40 39 -99q0 -57 -39 -98q-40 -41 -96 -41q-59 0 -98 41zM359 1159q-40 40 -40 98t40 99q39 41 96 41q56 0 96 -41q39 -40 39 -99q0 -57 -39 -98q-40 -41 -96 -41q-57 0 -96 41z" />
    <glyph glyph-name="uni06A8.medi" unicode="&#x6a8;" horiz-adv-x="1228" 
d="M0 213h86q64 0 125 -10q-94 97 -94 276q0 223 144 366q145 144 376 144q225 0 348 -116q129 -123 129 -361q0 -209 -119 -309q86 10 156 10h109v-213h-1260v213zM776 284q66 76 66 214q0 278 -224 278q-96 0 -159 -65q-72 -74 -72 -209q0 -289 227 -289q102 0 162 71z
M530 1447q-36 37 -36 91t36 91q36 38 88 38q54 0 91 -38q36 -37 36 -91t-36 -91q-37 -38 -91 -38q-52 0 -88 38zM693 1159q-40 40 -40 98t40 99t98 41q56 0 96 -41q39 -40 39 -99q0 -57 -39 -98q-40 -41 -96 -41q-59 0 -98 41zM355 1159q-40 40 -40 98t40 99q39 41 96 41
q56 0 96 -41q39 -40 39 -99q0 -57 -39 -98q-40 -41 -96 -41q-57 0 -96 41z" />
    <glyph glyph-name="uni06A8.fina" unicode="&#x6a8;" horiz-adv-x="1828" 
d="M1659 213h200v-213h-200v-489q-398 -23 -662 -23q-479 0 -693 154q-208 149 -208 473q0 184 49 362l279 51q-58 -204 -58 -387q0 -241 144 -339q150 -103 526 -103q147 0 338 12v289h-139q-547 0 -547 475q0 219 129 358q145 156 412 156q243 0 430 -71v-705zM1394 739
q-77 37 -192 37q-113 0 -181 -78q-65 -76 -65 -198q0 -287 307 -287h131v526zM1154 1447q-36 37 -36 91t36 91q36 38 89 38t90 -38q37 -37 37 -91t-37 -91q-37 -38 -90 -38t-89 38zM1317 1159q-40 40 -40 98t40 99t98 41q56 0 96 -41q39 -40 39 -99q0 -57 -39 -98
q-40 -41 -96 -41q-59 0 -98 41zM979 1159q-40 40 -40 98t40 99q39 41 96 41q56 0 96 -41q39 -40 39 -99q0 -57 -39 -98q-40 -41 -96 -41q-57 0 -96 41z" />
    <glyph glyph-name="uni06AA.init" unicode="&#x6aa;" horiz-adv-x="1005" 
d="M0 213h608q-18 465 -502 578v198l812 508v-268l-500 -301q454 -204 454 -791v-137h-872v213z" />
    <glyph glyph-name="uni06AA.medi" unicode="&#x6aa;" horiz-adv-x="1005" 
d="M0 213h608q-18 465 -502 578v198l812 508v-268l-500 -301q425 -193 452 -715h166v-213h-1036v213z" />
    <glyph glyph-name="uni06AA.fina" unicode="&#x6aa;" horiz-adv-x="1732" 
d="M854 0q-401 0 -585 163q-167 147 -167 443q0 176 53 322l289 47q-70 -153 -70 -338q0 -223 111 -320q117 -104 397 -104h453q-18 465 -500 578v198l809 508v-268l-500 -301q428 -194 455 -715h164v-213h-909z" />
    <glyph glyph-name="uni06AB.init" unicode="&#x6ab;" horiz-adv-x="1005" 
d="M0 213h608q-18 465 -502 578v174l812 510v-246l-500 -301q454 -204 454 -791v-137h-872v213zM106 1364l812 510v-234l-812 -507v231z" />
    <glyph glyph-name="uni06AB.medi" unicode="&#x6ab;" horiz-adv-x="1005" 
d="M0 213h608q-18 465 -502 578v174l812 510v-246l-500 -301q425 -193 452 -715h166v-213h-1036v213zM106 1364l812 510v-234l-812 -507v231z" />
    <glyph glyph-name="uni06AB.fina" unicode="&#x6ab;" horiz-adv-x="1732" 
d="M854 0q-401 0 -585 163q-167 147 -167 443q0 176 53 322l289 47q-70 -153 -70 -338q0 -223 111 -320q117 -104 397 -104h453q-18 465 -500 578v174l809 510v-246l-500 -301q428 -194 455 -715h164v-213h-909zM835 1364l809 510v-234l-809 -507v231z" />
    <glyph glyph-name="uni06AC.init" unicode="&#x6ac;" horiz-adv-x="1005" 
d="M0 213h608q-18 465 -502 578v198l812 508v-268l-500 -301q454 -204 454 -791v-137h-872v213zM243 1399q-40 40 -40 98t40 99q39 41 96 41q56 0 96 -41q39 -40 39 -99q0 -57 -39 -98q-40 -41 -96 -41q-57 0 -96 41z" />
    <glyph glyph-name="uni06AC.medi" unicode="&#x6ac;" horiz-adv-x="1005" 
d="M0 213h608q-18 465 -502 578v198l812 508v-268l-500 -301q425 -193 452 -715h166v-213h-1036v213zM243 1399q-40 40 -40 98t40 99q39 41 96 41q56 0 96 -41q39 -40 39 -99q0 -57 -39 -98q-40 -41 -96 -41q-57 0 -96 41z" />
    <glyph glyph-name="uni06AC.fina" unicode="&#x6ac;" horiz-adv-x="1755" 
d="M854 0q-401 0 -585 163q-167 147 -167 443q0 176 53 322l289 47q-70 -153 -70 -338q0 -223 111 -320q117 -104 397 -104h428v1231h271v-1231h204v-213h-931zM618 997q77 0 115 -8q-39 20 -39 80q0 96 68 158q79 71 229 71q49 0 121 -10l-25 -153q-51 10 -102 10
q-99 0 -99 -70q0 -78 142 -78h116v-153h-526v153zM1348 1580q-40 40 -40 98t40 99t97 41t96 -41q40 -40 40 -99q0 -57 -40 -98q-39 -41 -96 -41q-58 0 -97 41z" />
    <glyph glyph-name="uni06AE.init" unicode="&#x6ae;" horiz-adv-x="1005" 
d="M0 213h608q-18 465 -502 578v198l812 508v-268l-500 -301q454 -204 454 -791v-137h-872v213zM349 -313q-36 -37 -88 -37q-53 0 -89 36q-36 37 -36 91q0 52 36 88q36 37 89 37q52 0 88 -37q37 -36 37 -88q0 -53 -37 -90zM679 -313q-37 -37 -89 -37t-87 36q-35 37 -35 91
q0 52 35 88q35 37 87 37q53 0 89 -37q36 -36 36 -88q0 -53 -36 -90zM511 -562q-35 -34 -84 -34q-51 0 -85 34t-34 85q0 49 34 84t85 35q49 0 84 -35q34 -35 34 -84q0 -51 -34 -85z" />
    <glyph glyph-name="uni06AE.medi" unicode="&#x6ae;" horiz-adv-x="1005" 
d="M0 213h608q-18 465 -502 578v198l812 508v-268l-500 -301q425 -193 452 -715h166v-213h-1036v213zM349 -313q-36 -37 -88 -37q-53 0 -89 36q-36 37 -36 91q0 52 36 88q36 37 89 37q52 0 88 -37q37 -36 37 -88q0 -53 -37 -90zM679 -313q-37 -37 -89 -37t-87 36
q-35 37 -35 91q0 52 35 88q35 37 87 37q53 0 89 -37q36 -36 36 -88q0 -53 -36 -90zM511 -562q-35 -34 -84 -34q-51 0 -85 34t-34 85q0 49 34 84t85 35q49 0 84 -35q34 -35 34 -84q0 -51 -34 -85z" />
    <glyph glyph-name="uni06AE.fina" unicode="&#x6ae;" horiz-adv-x="1755" 
d="M854 0q-401 0 -585 163q-167 147 -167 443q0 176 53 322l289 47q-70 -153 -70 -338q0 -223 111 -320q117 -104 397 -104h428v1231h271v-1231h204v-213h-931zM618 997q77 0 115 -8q-39 20 -39 80q0 96 68 158q79 71 229 71q49 0 121 -10l-25 -153q-51 10 -102 10
q-99 0 -99 -70q0 -78 142 -78h116v-153h-526v153zM839 -313q-36 -37 -88 -37q-53 0 -89 36q-36 37 -36 91q0 52 36 88q36 37 89 37q52 0 88 -37q37 -36 37 -88q0 -53 -37 -90zM1169 -313q-37 -37 -89 -37t-87 36q-35 37 -35 91q0 52 35 88q35 37 87 37q53 0 89 -37
q36 -36 36 -88q0 -53 -36 -90zM1001 -562q-35 -34 -84 -34q-51 0 -85 34t-34 85q0 49 34 84t85 35q49 0 84 -35q34 -35 34 -84q0 -51 -34 -85z" />
    <glyph glyph-name="uni06B0.init" unicode="&#x6b0;" horiz-adv-x="1005" 
d="M737 973q0 112 -89 112q-46 0 -73 -30q-26 -29 -26 -76q0 -110 125 -110h63v104zM106 1364l812 510v-234l-812 -507v231zM450 886q14 -190 249 -190h15q158 -213 158 -559v-137h-872v213h608q-18 465 -502 578v174l812 510v-246l-143 -87q69 -46 69 -162v-210h-182
q-174 0 -212 116z" />
    <glyph glyph-name="uni06B0.medi" unicode="&#x6b0;" horiz-adv-x="1005" 
d="M737 973q0 112 -89 112q-46 0 -73 -30q-26 -29 -26 -76q0 -110 125 -110h63v104zM106 1364l812 510v-234l-812 -507v231zM450 886q14 -190 249 -190h15q141 -190 156 -483h166v-213h-1036v213h608q-18 465 -502 578v174l812 510v-246l-143 -87q69 -46 69 -162v-210h-182
q-174 0 -212 116z" />
    <glyph glyph-name="uni06B0.fina" unicode="&#x6b0;" horiz-adv-x="1732" 
d="M835 1364l809 510v-234l-809 -507v231zM1467 973q0 112 -89 112q-46 0 -73 -30q-26 -29 -26 -76q0 -110 125 -110h63v104zM1170 943q-1 -247 249 -247h22q143 -190 158 -483h164v-213h-909q-401 0 -585 163q-167 147 -167 443q0 176 53 322l289 47q-70 -153 -70 -338
q0 -223 111 -320q117 -104 397 -104h453q-18 465 -500 578v174l809 510v-246l-141 -85q71 -46 71 -164v-210h-182q-212 0 -222 173z" />
    <glyph glyph-name="uni06B2.init" unicode="&#x6b2;" horiz-adv-x="1005" 
d="M0 213h608q-18 465 -502 578v174l812 510v-246l-500 -301q454 -204 454 -791v-137h-872v213zM106 1364l812 510v-234l-812 -507v231zM349 -313q-36 -37 -88 -37q-53 0 -89 36q-36 37 -36 91q0 52 36 88q36 37 89 37q52 0 88 -37q37 -36 37 -88q0 -53 -37 -90zM679 -313
q-37 -37 -89 -37t-87 36q-35 37 -35 91q0 52 35 88q35 37 87 37q53 0 89 -37q36 -36 36 -88q0 -53 -36 -90z" />
    <glyph glyph-name="uni06B2.medi" unicode="&#x6b2;" horiz-adv-x="1005" 
d="M0 213h608q-18 465 -502 578v174l812 510v-246l-500 -301q425 -193 452 -715h166v-213h-1036v213zM106 1364l812 510v-234l-812 -507v231zM349 -313q-36 -37 -88 -37q-53 0 -89 36q-36 37 -36 91q0 52 36 88q36 37 89 37q52 0 88 -37q37 -36 37 -88q0 -53 -37 -90z
M679 -313q-37 -37 -89 -37t-87 36q-35 37 -35 91q0 52 35 88q35 37 87 37q53 0 89 -37q36 -36 36 -88q0 -53 -36 -90z" />
    <glyph glyph-name="uni06B2.fina" unicode="&#x6b2;" horiz-adv-x="1732" 
d="M854 0q-401 0 -585 163q-167 147 -167 443q0 176 53 322l289 47q-70 -153 -70 -338q0 -223 111 -320q117 -104 397 -104h453q-18 465 -500 578v174l809 510v-246l-500 -301q428 -194 455 -715h164v-213h-909zM835 1364l809 510v-234l-809 -507v231zM839 -313
q-36 -37 -88 -37q-53 0 -89 36q-36 37 -36 91q0 52 36 88q36 37 89 37q52 0 88 -37q37 -36 37 -88q0 -53 -37 -90zM1169 -313q-37 -37 -89 -37t-87 36q-35 37 -35 91q0 52 35 88q35 37 87 37q53 0 89 -37q36 -36 36 -88q0 -53 -36 -90z" />
    <glyph glyph-name="uni06B4.init" unicode="&#x6b4;" horiz-adv-x="1005" 
d="M0 213h608q-18 465 -502 578v174l812 510v-246l-500 -301q454 -204 454 -791v-137h-872v213zM312 1927q-36 37 -36 91t36 91q36 38 88 38q54 0 91 -38q36 -37 36 -91t-36 -91q-37 -38 -91 -38q-52 0 -88 38zM475 1639q-40 40 -40 98t40 99t97 41t96 -41q40 -40 40 -99
q0 -57 -40 -98q-39 -41 -96 -41q-58 0 -97 41zM137 1639q-40 40 -40 98t40 99q39 41 96 41q56 0 96 -41q39 -40 39 -99q0 -57 -39 -98q-40 -41 -96 -41q-57 0 -96 41zM758 1773l160 101v-234l-809 -507v231l347 219q49 -38 116 -38q79 0 134 58q55 56 55 136q0 18 -3 34z
" />
    <glyph glyph-name="uni06B4.medi" unicode="&#x6b4;" horiz-adv-x="1005" 
d="M0 213h608q-18 465 -502 578v174l812 510v-246l-500 -301q425 -193 452 -715h166v-213h-1036v213zM312 1927q-36 37 -36 91t36 91q36 38 88 38q54 0 91 -38q36 -37 36 -91t-36 -91q-37 -38 -91 -38q-52 0 -88 38zM475 1639q-40 40 -40 98t40 99t97 41t96 -41
q40 -40 40 -99q0 -57 -40 -98q-39 -41 -96 -41q-58 0 -97 41zM137 1639q-40 40 -40 98t40 99q39 41 96 41q56 0 96 -41q39 -40 39 -99q0 -57 -39 -98q-40 -41 -96 -41q-57 0 -96 41zM758 1773l160 101v-234l-809 -507v231l347 219q49 -38 116 -38q79 0 134 58q55 56 55 136
q0 18 -3 34z" />
    <glyph glyph-name="uni06B4.fina" unicode="&#x6b4;" horiz-adv-x="1732" 
d="M854 0q-401 0 -585 163q-167 147 -167 443q0 176 53 322l289 47q-70 -153 -70 -338q0 -223 111 -320q117 -104 397 -104h453q-18 465 -500 578v174l809 510v-246l-500 -301q428 -194 455 -715h164v-213h-909zM898 1877q-36 37 -36 91t36 91q36 38 88 38q54 0 91 -38
q36 -37 36 -91t-36 -91q-37 -38 -91 -38q-52 0 -88 38zM1061 1589q-40 40 -40 98t40 99t97 41t96 -41q40 -40 40 -99q0 -57 -40 -98q-39 -41 -96 -41q-58 0 -97 41zM723 1589q-40 40 -40 98t40 99q39 41 96 41q56 0 96 -41q39 -40 39 -99q0 -57 -39 -98q-40 -41 -96 -41
q-57 0 -96 41zM1347 1687l297 187v-234l-809 -507v231l237 150q39 -19 86 -19q79 0 134 58q54 55 55 134z" />
    <glyph glyph-name="uni06B5.init" unicode="&#x6b5;" horiz-adv-x="698" 
d="M0 213h254v1231h270v-1444h-524v213zM678 1795l-289 -255l-288 257l92 109l195 -153l196 153z" />
    <glyph glyph-name="uni06B5.medi" unicode="&#x6b5;" horiz-adv-x="698" 
d="M0 213h254v1231h270v-1231h205v-213h-729v213zM678 1795l-289 -255l-288 257l92 109l195 -153l196 153z" />
    <glyph glyph-name="uni06B5.fina" unicode="&#x6b5;" horiz-adv-x="1335" 
d="M903 1444h270v-1231h193v-213h-203q-66 -471 -539 -471q-528 0 -528 582q0 188 49 366l279 51q-58 -204 -58 -393q0 -395 281 -395q256 0 256 395v1309zM1318 1795l-289 -255l-288 257l92 109l195 -153l196 153z" />
    <glyph glyph-name="uni06B6.init" unicode="&#x6b6;" horiz-adv-x="698" 
d="M0 213h254v1231h270v-1444h-524v213zM291 1577q-40 40 -40 98t40 99t97 41t96 -41q40 -40 40 -99q0 -57 -40 -98q-39 -41 -96 -41q-58 0 -97 41z" />
    <glyph glyph-name="uni06B6.medi" unicode="&#x6b6;" horiz-adv-x="698" 
d="M0 213h254v1231h270v-1231h205v-213h-729v213zM301 1577q-40 40 -40 98t40 99t97 41t96 -41q40 -40 40 -99q0 -57 -40 -98q-39 -41 -96 -41q-58 0 -97 41z" />
    <glyph glyph-name="uni06B6.fina" unicode="&#x6b6;" horiz-adv-x="1335" 
d="M903 1444h270v-1231h193v-213h-203q-66 -471 -539 -471q-528 0 -528 582q0 188 49 366l279 51q-58 -204 -58 -393q0 -395 281 -395q256 0 256 395v1309zM941 1577q-40 40 -40 98t40 99t97 41t96 -41q40 -40 40 -99q0 -57 -40 -98q-39 -41 -96 -41q-58 0 -97 41z" />
    <glyph glyph-name="uni06B7.init" unicode="&#x6b7;" horiz-adv-x="698" 
d="M0 213h254v1231h270v-1444h-524v213zM278 1865q-36 37 -36 91t36 91q36 38 88 38q54 0 91 -38q36 -37 36 -91t-36 -91q-37 -38 -91 -38q-52 0 -88 38zM441 1577q-40 40 -40 98t40 99t97 41t96 -41q40 -40 40 -99q0 -57 -40 -98q-39 -41 -96 -41q-58 0 -97 41zM103 1577
q-40 40 -40 98t40 99q39 41 96 41q56 0 96 -41q39 -40 39 -99q0 -57 -39 -98q-40 -41 -96 -41q-57 0 -96 41z" />
    <glyph glyph-name="uni06B7.medi" unicode="&#x6b7;" horiz-adv-x="698" 
d="M0 213h254v1231h270v-1231h205v-213h-729v213zM278 1865q-36 37 -36 91t36 91q36 38 88 38q54 0 91 -38q36 -37 36 -91t-36 -91q-37 -38 -91 -38q-52 0 -88 38zM441 1577q-40 40 -40 98t40 99t97 41t96 -41q40 -40 40 -99q0 -57 -40 -98q-39 -41 -96 -41q-58 0 -97 41z
M103 1577q-40 40 -40 98t40 99q39 41 96 41q56 0 96 -41q39 -40 39 -99q0 -57 -39 -98q-40 -41 -96 -41q-57 0 -96 41z" />
    <glyph glyph-name="uni06B7.fina" unicode="&#x6b7;" horiz-adv-x="1335" 
d="M903 1444h270v-1231h193v-213h-203q-66 -471 -539 -471q-528 0 -528 582q0 188 49 366l279 51q-58 -204 -58 -393q0 -395 281 -395q256 0 256 395v1309zM938 1865q-36 37 -36 91t36 91q36 38 88 38q54 0 91 -38q36 -37 36 -91t-36 -91q-37 -38 -91 -38q-52 0 -88 38z
M1101 1577q-40 40 -40 98t40 99t97 41t96 -41q40 -40 40 -99q0 -57 -40 -98q-39 -41 -96 -41q-58 0 -97 41zM763 1577q-40 40 -40 98t40 99q39 41 96 41q56 0 96 -41q39 -40 39 -99q0 -57 -39 -98q-40 -41 -96 -41q-57 0 -96 41z" />
    <glyph glyph-name="uni06B8.init" unicode="&#x6b8;" horiz-adv-x="838" 
d="M0 213h394v1231h270v-1444h-664v213zM299 -313q-36 -37 -88 -37q-53 0 -89 36q-36 37 -36 91q0 52 36 88q36 37 89 37q52 0 88 -37q37 -36 37 -88q0 -53 -37 -90zM629 -313q-37 -37 -89 -37t-87 36q-35 37 -35 91q0 52 35 88q35 37 87 37q53 0 89 -37q36 -36 36 -88
q0 -53 -36 -90zM461 -562q-35 -34 -84 -34q-51 0 -85 34t-34 85q0 49 34 84t85 35q49 0 84 -35q34 -35 34 -84q0 -51 -34 -85z" />
    <glyph glyph-name="uni06B8.medi" unicode="&#x6b8;" horiz-adv-x="698" 
d="M0 213h254v1231h270v-1231h205v-213h-729v213zM279 -313q-36 -37 -88 -37q-53 0 -89 36q-36 37 -36 91q0 52 36 88q36 37 89 37q52 0 88 -37q37 -36 37 -88q0 -53 -37 -90zM609 -313q-37 -37 -89 -37t-87 36q-35 37 -35 91q0 52 35 88q35 37 87 37q53 0 89 -37
q36 -36 36 -88q0 -53 -36 -90zM441 -562q-35 -34 -84 -34q-51 0 -85 34t-34 85q0 49 34 84t85 35q49 0 84 -35q34 -35 34 -84q0 -51 -34 -85z" />
    <glyph glyph-name="uni06B8.fina" unicode="&#x6b8;" horiz-adv-x="1335" 
d="M903 1444h270v-1231h193v-213h-203q-66 -471 -539 -471q-528 0 -528 582q0 188 49 366l279 51q-58 -204 -58 -393q0 -395 281 -395q256 0 256 395v1309zM600 -755q-36 -37 -88 -37q-53 0 -89 36q-36 37 -36 91q0 52 36 88q36 37 89 37q52 0 88 -37q37 -36 37 -88
q0 -53 -37 -90zM930 -755q-37 -37 -89 -37t-87 36q-35 37 -35 91q0 52 35 88q35 37 87 37q53 0 89 -37q36 -36 36 -88q0 -53 -36 -90zM762 -1004q-35 -34 -84 -34q-51 0 -85 34t-34 85q0 49 34 84t85 35q49 0 84 -35q34 -35 34 -84q0 -51 -34 -85z" />
    <glyph glyph-name="uni06B9.init" unicode="&#x6b9;" horiz-adv-x="708" 
d="M322 1175q-41 41 -41 101q0 58 41 100q42 41 100 41t100 -41q41 -42 41 -100t-41 -100q-42 -41 -100 -41q-59 0 -100 40zM0 213h287v750h270v-963h-557v213zM170 -408q-41 41 -41 101q0 58 41 100q42 41 100 41q59 0 100 -41q42 -41 42 -100t-42 -100q-41 -42 -100 -42
q-58 0 -100 41z" />
    <glyph glyph-name="uni06B9.medi" unicode="&#x6b9;" horiz-adv-x="727" 
d="M0 213h287v750h270v-750h201v-213h-758v213zM322 1175q-41 41 -41 101q0 58 41 100q42 41 100 41t100 -41q41 -42 41 -100t-41 -100q-42 -41 -100 -41q-59 0 -100 40zM170 -408q-41 41 -41 101q0 58 41 100q42 41 100 41q59 0 100 -41q42 -41 42 -100t-42 -100
q-41 -42 -100 -42q-58 0 -100 41z" />
    <glyph glyph-name="uni06B9.fina" unicode="&#x6b9;" horiz-adv-x="1361" 
d="M1189 213h203v-213h-213q-62 -471 -567 -471q-541 0 -541 582q0 188 49 366l279 51q-58 -204 -58 -393q0 -395 291 -395q287 0 287 389v834h270v-750zM502 -843q-42 41 -42 101q0 58 42 100q41 41 100 41q58 0 100 -41q41 -42 41 -100t-41 -100q-42 -41 -100 -41
q-59 0 -100 40zM502 747q-42 41 -42 101q0 58 42 100q41 41 100 41q58 0 100 -41q41 -42 41 -100t-41 -100q-42 -41 -100 -41q-59 0 -100 40z" />
    <glyph glyph-name="uni06BC.init" unicode="&#x6bc;" horiz-adv-x="806" 
d="M354 -125q0 125 -100 125q-52 0 -82 -34q-29 -32 -29 -85q0 -123 140 -123h71v117zM58 0h-58v213h385v750h270v-963h-203q22 -47 22 -117v-236h-204q-250 0 -250 216q0 80 38 137zM427 1159q-39 40 -39 98t39 99t96 41t96 -41q39 -40 39 -99q0 -57 -39 -98
q-40 -41 -96 -41q-57 0 -96 41z" />
    <glyph glyph-name="uni06BC.medi" unicode="&#x6bc;" horiz-adv-x="825" 
d="M354 -125q0 125 -100 125q-52 0 -82 -34q-29 -32 -29 -85q0 -123 140 -123h71v117zM58 0h-58v213h385v750h270v-750h201v-213h-404q22 -47 22 -117v-236h-204q-250 0 -250 216q0 80 38 137zM427 1159q-39 40 -39 98t39 99t96 41t96 -41q39 -40 39 -99q0 -57 -39 -98
q-40 -41 -96 -41q-57 0 -96 41z" />
    <glyph glyph-name="uni06BC.fina" unicode="&#x6bc;" horiz-adv-x="1361" 
d="M725 -597q0 125 -100 125q-52 0 -82 -34q-29 -32 -29 -85q0 -123 140 -123h71v117zM502 747q-42 41 -42 101q0 58 42 100q41 41 100 41q58 0 100 -41q41 -42 41 -100t-41 -100q-42 -41 -100 -41q-59 0 -100 40zM442 -454q-371 83 -371 565q0 188 49 366l279 51
q-58 -204 -58 -393q0 -395 291 -395q287 0 287 389v834h270v-750h203v-213h-213q-49 -369 -369 -449q35 -52 35 -140v-236h-204q-250 0 -250 216q0 93 51 155z" />
    <glyph glyph-name="uni06BD.init" unicode="&#x6bd;" horiz-adv-x="708" 
d="M0 213h287v750h270v-963h-557v213zM292 1447q-36 37 -36 91t36 91q37 38 89 38q53 0 90 -38q37 -37 37 -91t-37 -91q-37 -38 -90 -38q-52 0 -89 38zM455 1159q-39 40 -39 98t39 99q40 41 98 41q57 0 96 -41q39 -40 39 -99q0 -57 -39 -98q-40 -41 -96 -41q-58 0 -98 41z
M117 1159q-39 40 -39 98t39 99q40 41 96 41q57 0 96 -41q39 -40 39 -99q0 -57 -39 -98q-40 -41 -96 -41q-57 0 -96 41z" />
    <glyph glyph-name="uni06BD.medi" unicode="&#x6bd;" horiz-adv-x="727" 
d="M0 213h287v750h270v-750h201v-213h-758v213zM455 1159q-39 40 -39 98t39 99q40 41 98 41q57 0 96 -41q39 -40 39 -99q0 -57 -39 -98q-40 -41 -96 -41q-58 0 -98 41zM117 1159q-39 40 -39 98t39 99q40 41 96 41q57 0 96 -41q39 -40 39 -99q0 -57 -39 -98q-40 -41 -96 -41
q-57 0 -96 41zM292 1447q-36 37 -36 91t36 91q37 38 89 38q53 0 90 -38q37 -37 37 -91t-37 -91q-37 -38 -90 -38q-52 0 -89 38z" />
    <glyph glyph-name="uni06BD.fina" unicode="&#x6bd;" horiz-adv-x="1361" 
d="M1189 213h203v-213h-213q-62 -471 -567 -471q-541 0 -541 582q0 188 49 366l279 51q-58 -204 -58 -393q0 -395 291 -395q287 0 287 389v834h270v-750zM511 1329q-36 37 -36 91t36 91q37 38 89 38q53 0 90 -38q37 -37 37 -91t-37 -91q-37 -38 -90 -38q-52 0 -89 38z
M674 1041q-39 40 -39 98t39 99q40 41 98 41q57 0 96 -41q39 -40 39 -99q0 -57 -39 -98q-40 -41 -96 -41q-58 0 -98 41zM336 1041q-39 40 -39 98t39 99q40 41 96 41q57 0 96 -41q39 -40 39 -99q0 -57 -39 -98q-40 -41 -96 -41q-57 0 -96 41z" />
    <glyph glyph-name="uni06BF.init" unicode="&#x6bf;" horiz-adv-x="1183" 
d="M0 213h793q10 82 10 156q0 200 -90 294q-96 99 -312 99q-114 0 -235 -17v211q144 19 262 19q339 0 494 -151q149 -144 149 -445q0 -170 -35 -379h-1036v213zM571 -562q-34 -34 -84 -34t-84 34t-34 85q0 49 34 84t84 35t84 -35q35 -35 35 -84q0 -51 -35 -85zM740 -313
q-37 -37 -89 -37t-87 36q-36 37 -36 91q0 52 36 88q35 37 87 37t89 -37q36 -36 36 -88q0 -53 -36 -90zM410 -313q-36 -37 -88 -37q-53 0 -89 36q-36 37 -36 91q0 52 36 88q36 37 89 37q52 0 88 -37q36 -36 36 -88q0 -53 -36 -90zM583 1175q-41 -39 -99 -39q-57 0 -98 39
q-41 40 -41 96q0 59 40 98q40 40 99 40q57 0 98 -40t41 -98q0 -56 -40 -96z" />
    <glyph glyph-name="uni06BF.medi" unicode="&#x6bf;" horiz-adv-x="1191" 
d="M0 213h793q10 82 10 156q0 200 -90 294q-96 99 -312 99q-114 0 -235 -17v211q144 19 262 19q339 0 494 -151q149 -144 149 -445q0 -87 -8 -166h160v-213h-1223v213zM410 -313q-36 -37 -88 -37q-53 0 -89 36q-36 37 -36 91q0 52 36 88q36 37 89 37q52 0 88 -37
q36 -36 36 -88q0 -53 -36 -90zM740 -313q-37 -37 -89 -37t-87 36q-36 37 -36 91q0 52 36 88q35 37 87 37t89 -37q36 -36 36 -88q0 -53 -36 -90zM571 -562q-34 -34 -84 -34t-84 34t-34 85q0 49 34 84t84 35t84 -35q35 -35 35 -84q0 -51 -35 -85zM583 1175q-41 -39 -99 -39
q-57 0 -98 39q-41 40 -41 96q0 59 40 98q40 40 99 40q57 0 98 -40t41 -98q0 -56 -40 -96z" />
    <glyph glyph-name="uni06BF.fina" unicode="&#x6bf;" horiz-adv-x="1271" 
d="M687 0q-387 0 -387 -229q0 -168 215 -205l-59 -217q-424 71 -424 405q0 209 157 328q172 131 507 131h174q10 61 10 156q0 201 -89 294q-95 99 -310 99q-118 0 -236 -17v211q144 19 262 19q339 0 493 -151q148 -143 148 -445q0 -74 -6 -166h160v-213h-615zM760 -313
q-37 -37 -89 -37t-89 36q-36 37 -36 91q0 52 36 88q37 37 89 37t89 -37q36 -36 36 -88q0 -53 -36 -90zM1089 -313q-36 -37 -88 -37t-88 36q-35 37 -35 91q0 52 35 88q36 37 88 37t88 -37q37 -36 37 -88q0 -53 -37 -90zM921 -562q-35 -34 -84 -34q-51 0 -85 34t-34 85
q0 49 34 84q35 35 85 35q49 0 84 -35t35 -84q0 -51 -35 -85zM723 1175q-41 -39 -99 -39q-57 0 -98 39q-41 40 -41 96q0 59 40 98q40 40 99 40q57 0 98 -40t41 -98q0 -56 -40 -96z" />
    <glyph glyph-name="uni06C2.fina" unicode="&#x6c2;" horiz-adv-x="1157" 
d="M1187 0h-55q-490 0 -490 432v62q-223 -47 -399 -314l-168 139q281 410 727 410q49 0 102 -4v-227q0 -159 57 -223q55 -62 191 -62h35v-213zM378 1008q77 0 115 -8q-39 19 -39 80q0 96 68 158q79 71 229 71q49 0 121 -10l-25 -154q-51 11 -102 11q-98 0 -98 -70
q0 -78 141 -78h117v-153h-527v153z" />
    <glyph glyph-name="uni06C3.fina" unicode="&#x6c3;" horiz-adv-x="1157" 
d="M1187 0h-55q-490 0 -490 432v62q-223 -47 -399 -314l-168 139q281 410 727 410q49 0 102 -4v-227q0 -159 57 -223q55 -62 191 -62h35v-213zM677 899q-39 40 -39 98t39 99q40 41 96 41q57 0 96 -41q39 -40 39 -99q0 -57 -39 -98t-96 -41t-96 41zM337 899q-39 40 -39 98
t39 99q40 41 96 41q58 0 98 -41q39 -40 39 -99q0 -57 -39 -98q-40 -41 -98 -41q-57 0 -96 41z" />
    <glyph glyph-name="uni06C4.fina" unicode="&#x6c4;" horiz-adv-x="1251" 
d="M819 739q-78 37 -195 37q-113 0 -179 -78q-65 -76 -65 -198q0 -287 308 -287h131v526zM840 -52q-29 149 -218 149q-123 0 -194 -68l-1 -1q-317 86 -317 447q0 218 130 358q146 156 413 156q241 0 428 -71v-705h200v-213h-200v-4q0 -228 -149 -362q-166 -150 -492 -150
q-154 0 -312 27l17 221q150 -33 300 -35q-30 43 -30 107q0 88 62 144q68 61 188 61q123 0 175 -61zM779 -197q0 110 -120 110q-62 0 -99 -29q-35 -29 -35 -76q0 -108 169 -108h85v103z" />
    <glyph glyph-name="uni06CA.fina" unicode="&#x6ca;" horiz-adv-x="1251" 
d="M128 -489l17 221q160 -35 319 -35q355 0 355 272v31h-160q-549 0 -549 475q0 218 130 358q146 156 413 156q241 0 428 -71v-705h200v-213h-200v-4q0 -228 -149 -362q-166 -150 -492 -150q-154 0 -312 27zM819 739q-78 37 -195 37q-113 0 -179 -78q-65 -76 -65 -198
q0 -287 308 -287h131v526zM695 1159q-39 40 -39 98t39 99q40 41 98 41q57 0 96 -41q39 -40 39 -99q0 -57 -39 -98q-40 -41 -96 -41q-58 0 -98 41zM357 1159q-39 40 -39 98t39 99q40 41 96 41q57 0 96 -41q39 -40 39 -99q0 -57 -39 -98q-40 -41 -96 -41q-57 0 -96 41z" />
    <glyph glyph-name="uni06CD.fina" unicode="&#x6cd;" horiz-adv-x="2443" 
d="M839 975q-70 -153 -70 -338q0 -223 111 -320q117 -104 397 -104h140v737q190 39 411 39q258 0 372 -121q101 -108 101 -331v-324h172v-213h-434v508q0 148 -50 208t-177 60q-68 0 -135 -12v-764h-428q-401 0 -585 163q-167 147 -167 443q0 44 3 86q1 6 1 11
q-116 -31 -243 -31q-74 0 -156 8v191q141 -19 442 56l6 1l288 47h1z" />
    <glyph glyph-name="uni06CE.init" unicode="&#x6ce;" horiz-adv-x="806" 
d="M0 213h385v750h270v-963h-655v213zM610 -405q-40 -41 -96 -41q-57 0 -96 40t-39 99q0 57 39 98q40 41 96 41q57 0 96 -40q39 -41 39 -99q0 -57 -39 -98zM272 -405q-40 -41 -98 -41q-57 0 -96 40t-39 99q0 57 39 98q40 41 96 41q58 0 98 -40q39 -41 39 -99t-39 -98z
M778 1373l-289 -255l-288 257l92 109l195 -153l196 153z" />
    <glyph glyph-name="uni06CE.medi" unicode="&#x6ce;" horiz-adv-x="825" 
d="M0 213h385v750h270v-750h201v-213h-856v213zM272 -405q-40 -41 -98 -41q-57 0 -96 40t-39 99q0 57 39 98q40 41 96 41q58 0 98 -40q39 -41 39 -99t-39 -98zM610 -405q-40 -41 -96 -41q-57 0 -96 40t-39 99q0 57 39 98q40 41 96 41q57 0 96 -40q39 -41 39 -99
q0 -57 -39 -98zM788 1373l-289 -255l-288 257l92 109l195 -153l196 153z" />
    <glyph glyph-name="uni06CE.fina" unicode="&#x6ce;" horiz-adv-x="2048" 
d="M854 0q-401 0 -585 163q-167 147 -167 443q0 176 53 322l289 47q-70 -153 -70 -338q0 -223 111 -320q117 -104 397 -104h140v737q190 39 411 39q258 0 372 -121q101 -108 101 -331v-324h172v-213h-434v508q0 148 -50 208t-177 60q-68 0 -135 -12v-764h-428zM898 1303
l-289 -255l-288 257l92 109l195 -153l196 153z" />
    <glyph glyph-name="uni06CF.fina" unicode="&#x6cf;" horiz-adv-x="1251" 
d="M128 -489l17 221q160 -35 319 -35q355 0 355 272v31h-160q-549 0 -549 475q0 218 130 358q146 156 413 156q241 0 428 -71v-705h200v-213h-200v-4q0 -228 -149 -362q-166 -150 -492 -150q-154 0 -312 27zM819 739q-78 37 -195 37q-113 0 -179 -78q-65 -76 -65 -198
q0 -287 308 -287h131v526zM525 1159q-39 40 -39 98t39 99q40 41 98 41q57 0 96 -41q39 -40 39 -99q0 -57 -39 -98q-40 -41 -96 -41q-58 0 -98 41z" />
    <glyph glyph-name="uni06D1.init" unicode="&#x6d1;" horiz-adv-x="806" 
d="M0 213h385v750h270v-963h-655v213zM451 -562q-35 -34 -84 -34q-51 0 -85 34t-34 85q0 49 34 84t85 35q49 0 84 -35q34 -35 34 -84q0 -51 -34 -85zM619 -313q-37 -37 -89 -37t-87 36q-35 37 -35 91q0 52 35 88q35 37 87 37q53 0 89 -37q36 -36 36 -88q0 -53 -36 -90z
M289 -313q-36 -37 -88 -37q-53 0 -89 36q-36 37 -36 91q0 52 36 88q36 37 89 37q52 0 88 -37q37 -36 37 -88q0 -53 -37 -90z" />
    <glyph glyph-name="uni06D1.medi" unicode="&#x6d1;" horiz-adv-x="825" 
d="M0 213h385v750h270v-750h201v-213h-856v213zM289 -313q-36 -37 -88 -37q-53 0 -89 36q-36 37 -36 91q0 52 36 88q36 37 89 37q52 0 88 -37q37 -36 37 -88q0 -53 -37 -90zM619 -313q-37 -37 -89 -37t-87 36q-35 37 -35 91q0 52 35 88q35 37 87 37q53 0 89 -37
q36 -36 36 -88q0 -53 -36 -90zM451 -562q-35 -34 -84 -34q-51 0 -85 34t-34 85q0 49 34 84t85 35q49 0 84 -35q34 -35 34 -84q0 -51 -34 -85z" />
    <glyph glyph-name="uni06D1.fina" unicode="&#x6d1;" horiz-adv-x="2048" 
d="M854 0q-401 0 -585 163q-167 147 -167 443q0 176 53 322l289 47q-70 -153 -70 -338q0 -223 111 -320q117 -104 397 -104h140v737q190 39 411 39q258 0 372 -121q101 -108 101 -331v-324h172v-213h-434v508q0 148 -50 208t-177 60q-68 0 -135 -12v-764h-428zM886 -634
q-35 -34 -84 -34q-51 0 -85 34t-34 85q0 49 34 84t85 35q49 0 84 -35q34 -35 34 -84q0 -51 -34 -85zM1054 -385q-37 -37 -89 -37t-87 36q-35 37 -35 91q0 52 35 88q35 37 87 37q53 0 89 -37q36 -36 36 -88q0 -53 -36 -90zM724 -385q-36 -37 -88 -37q-53 0 -89 36
q-36 37 -36 91q0 52 36 88q36 37 89 37q52 0 88 -37q37 -36 37 -88q0 -53 -37 -90z" />
    <glyph glyph-name="uni06D5.fina" unicode="&#x6d5;" horiz-adv-x="1218" 
d="M626 0q-549 0 -549 475q0 218 130 358q146 156 413 156q241 0 428 -71v-705h200v-213h-622zM786 739q-78 37 -195 37q-113 0 -179 -78q-65 -76 -65 -198q0 -287 308 -287h131v526z" />
    <glyph glyph-name="uni06EE.fina" unicode="&#x6ee;" horiz-adv-x="1067" 
d="M94 213h608q-18 455 -483 573l65 226q325 -86 489 -270q173 -195 191 -529h134v-213h-1004v213zM581 1097l-197 153l-194 -153l-93 109l289 257l289 -255z" />
    <glyph glyph-name="uni06EF.fina" unicode="&#x6ef;" horiz-adv-x="831" 
d="M-16 -500l20 215q85 -24 166 -24q111 0 163 60q59 68 59 226v986h270v-750h201v-213h-201v-8q0 -512 -506 -512q-90 0 -172 20zM701 1097l-197 153l-194 -153l-93 109l289 257l289 -255z" />
    <glyph glyph-name="uni06FA.init" unicode="&#x6fa;" horiz-adv-x="1843" 
d="M0 213h102q102 0 142 52q43 55 43 202v373h270v-379q0 -148 25 -201q29 -63 116 -63q164 0 164 262v463h260v-514q0 -120 50 -158q48 -37 192 -37h53q15 115 15 246q0 283 -60 549l264 36q66 -275 66 -567q0 -259 -31 -477h-338q-167 0 -248 28q-87 31 -131 113
q-73 -157 -309 -157q-219 0 -272 159q-63 -143 -273 -143h-100v213zM892 1447q-36 37 -36 91t36 91q37 38 89 38q54 0 90 -38q37 -37 37 -91t-37 -91q-36 -38 -90 -38q-52 0 -89 38zM1055 1159q-39 40 -39 98t39 99q40 41 98 41q57 0 96 -41q39 -40 39 -99q0 -57 -39 -98
q-40 -41 -96 -41q-58 0 -98 41zM717 1159q-39 40 -39 98t39 99q40 41 96 41q57 0 96 -41q39 -40 39 -99q0 -57 -39 -98t-96 -41t-96 41zM891 -408q-41 41 -41 101q0 58 41 100q42 41 100 41q59 0 100 -41q42 -41 42 -100t-42 -100q-41 -42 -100 -42t-100 41z" />
    <glyph glyph-name="uni06FA.medi" unicode="&#x6fa;" horiz-adv-x="1861" 
d="M0 213h102q102 0 142 52q43 55 43 202v373h270v-379q0 -148 25 -201q29 -63 116 -63q164 0 164 262v463h260v-514q0 -120 50 -158q48 -37 192 -37h53q15 115 15 246q0 283 -60 549l264 36q66 -275 66 -567q0 -114 -10 -264h200v-213h-559q-167 0 -248 28q-87 31 -131 113
q-73 -157 -309 -157q-219 0 -272 159q-63 -143 -273 -143h-100v213zM1055 1159q-39 40 -39 98t39 99q40 41 98 41q57 0 96 -41q39 -40 39 -99q0 -57 -39 -98q-40 -41 -96 -41q-58 0 -98 41zM717 1159q-39 40 -39 98t39 99q40 41 96 41q57 0 96 -41q39 -40 39 -99
q0 -57 -39 -98t-96 -41t-96 41zM892 1447q-36 37 -36 91t36 91q37 38 89 38q54 0 90 -38q37 -37 37 -91t-37 -91q-36 -38 -90 -38q-52 0 -89 38zM891 -408q-41 41 -41 101q0 58 41 100q42 41 100 41q59 0 100 -41q42 -41 42 -100t-42 -100q-41 -42 -100 -42t-100 41z" />
    <glyph glyph-name="uni06FA.fina" unicode="&#x6fa;" horiz-adv-x="2480" 
d="M96 111q0 188 49 366l279 51q-58 -204 -58 -393q0 -395 281 -395q256 0 256 387v713h270v-379q0 -144 35 -204t117 -60q155 0 155 262v463h258v-514q0 -119 52 -158q48 -37 192 -37h53q15 143 15 246q0 283 -60 549l265 36q65 -275 65 -567q0 -114 -10 -264h201v-213
h-560q-313 0 -380 141q-64 -153 -256 -153q-110 0 -154 63q1 -268 -159 -404q-139 -118 -378 -118q-528 0 -528 582zM1676 1159q-40 40 -40 98t40 99q39 41 97 41q57 0 96 -41q39 -40 39 -99q0 -57 -39 -98t-96 -41q-58 0 -97 41zM1337 1159q-39 40 -39 98t39 99
q40 41 96 41q57 0 96 -41q40 -40 40 -99q0 -57 -40 -98q-39 -41 -96 -41q-56 0 -96 41zM1513 1447q-37 37 -37 91t37 91q36 38 88 38q54 0 91 -38q36 -37 36 -91t-36 -91q-37 -38 -91 -38q-52 0 -88 38zM1511 -408q-41 41 -41 101q0 58 41 100q42 41 100 41q59 0 100 -41
q42 -41 42 -100t-42 -100q-41 -42 -100 -42t-100 41z" />
    <glyph glyph-name="uni06FB.init" unicode="&#x6fb;" horiz-adv-x="1548" 
d="M0 213h274v750h271v-52q0 -172 -25 -303h4q66 181 213 284q138 97 305 97q211 0 323 -124q110 -121 110 -341q0 -238 -143 -372q-160 -152 -484 -152h-848v213zM872 213q324 0 324 295q0 266 -209 266q-160 0 -290 -172q-123 -163 -156 -389h331zM891 1175
q-41 41 -41 101q0 58 41 100q42 41 100 41q59 0 100 -41q42 -42 42 -100t-42 -100q-41 -41 -100 -41q-58 0 -100 40zM881 -408q-41 41 -41 101q0 58 41 100q42 41 100 41q59 0 100 -41q42 -41 42 -100t-42 -100q-41 -42 -100 -42t-100 41z" />
    <glyph glyph-name="uni06FB.medi" unicode="&#x6fb;" horiz-adv-x="1533" 
d="M0 213h274v750h271v-52q0 -172 -25 -303h4q66 181 213 284q138 97 305 97q211 0 323 -124q110 -121 110 -341q0 -188 -89 -311h191v-213h-1577v213zM872 213q324 0 324 295q0 266 -209 266q-160 0 -290 -172q-123 -163 -156 -389h331zM891 1175q-41 41 -41 101
q0 58 41 100q42 41 100 41q59 0 100 -41q42 -42 42 -100t-42 -100q-41 -41 -100 -41q-58 0 -100 40zM881 -408q-41 41 -41 101q0 58 41 100q42 41 100 41q59 0 100 -41q42 -41 42 -100t-42 -100q-41 -42 -100 -42t-100 41z" />
    <glyph glyph-name="uni06FB.fina" unicode="&#x6fb;" horiz-adv-x="2187" 
d="M96 111q0 188 49 366l279 51q-58 -204 -58 -393q0 -395 281 -395q256 0 256 387v836h270v-52q0 -168 -22 -303h2q65 181 212 284q139 97 306 97q212 0 325 -124q109 -121 109 -341q0 -185 -90 -311h215v-213h-1069q-25 -239 -175 -360q-138 -111 -362 -111
q-528 0 -528 582zM1501 213q326 0 326 295q0 266 -209 266q-162 0 -291 -172q-122 -162 -156 -389h330zM1542 1175q-41 41 -41 101q0 58 41 100q42 41 100 41q59 0 100 -41q42 -42 42 -100t-42 -100q-41 -41 -100 -41q-58 0 -100 40zM1541 -408q-41 41 -41 101q0 58 41 100
q42 41 100 41q59 0 100 -41q42 -41 42 -100t-42 -100q-41 -42 -100 -42t-100 41z" />
    <glyph glyph-name="uni06FC.init" unicode="&#x6fc;" horiz-adv-x="1124" 
d="M0 213h313q-159 94 -159 305q0 203 132 331q145 140 404 140q137 0 254 -39l-47 -215q-94 43 -213 43q-116 0 -187 -71t-71 -189q0 -138 111 -218q121 -87 354 -87h160v-213h-1051v213zM533 1175q-41 41 -41 101q0 58 41 100q41 41 100 41q58 0 100 -41q41 -42 41 -100
t-41 -100q-42 -41 -100 -41q-59 0 -100 40zM506 -408q-42 41 -42 101q0 58 42 100q41 41 99 41q59 0 100 -41q42 -41 42 -100t-42 -100q-41 -42 -100 -42q-58 0 -99 41z" />
    <glyph glyph-name="uni06FC.medi" unicode="&#x6fc;" horiz-adv-x="1288" 
d="M0 213h72q283 0 477 63q-273 256 -430 299l22 193q315 227 592 227q216 0 331 -101q101 -90 101 -235q0 -218 -209 -393q110 -53 228 -53h135v-213h-166q-231 0 -422 127q-284 -127 -676 -127h-55v213zM770 391q127 100 127 234q0 76 -48 122q-52 50 -147 50
q-127 0 -311 -123q80 -32 379 -283zM601 1188q-42 41 -42 100t42 100q41 42 99 42q59 0 100 -42q42 -41 42 -100q0 -58 -42 -100q-41 -41 -100 -41q-58 0 -99 41zM596 -408q-42 41 -42 101q0 58 42 100q41 41 99 41q59 0 100 -41q42 -41 42 -100t-42 -100q-41 -42 -100 -42
q-58 0 -99 41z" />
    <glyph glyph-name="uni06FC.fina" unicode="&#x6fc;" horiz-adv-x="1288" 
d="M194 -416q-135 95 -135 254q0 166 150 286q89 71 319 173q-244 232 -410 278l23 193q315 227 592 227q216 0 330 -101q102 -90 102 -235q0 -220 -234 -380q125 -66 252 -66h136v-213h-166q-254 0 -455 152q-204 -100 -252 -132q-111 -74 -111 -155q0 -176 334 -176
q158 0 308 26l16 -204q-178 -33 -354 -33q-294 0 -445 106zM747 410q150 97 150 215q0 76 -48 122q-52 50 -147 50q-127 0 -311 -123q100 -40 356 -264zM600 1188q-41 41 -41 100t41 100q42 42 100 42t100 -42q41 -41 41 -100q0 -58 -41 -100q-42 -41 -100 -41
q-59 0 -100 41zM579 -209q-42 41 -42 101q0 58 42 100q41 41 100 41q58 0 100 -41q41 -42 41 -100t-41 -100q-42 -41 -100 -41q-59 0 -100 40z" />
    <glyph glyph-name="uni06FF.init" unicode="&#x6ff;" horiz-adv-x="1569" 
d="M0 0v213h170q55 0 96 -10q-53 49 -53 131q0 153 104 247q107 97 289 97q195 0 292 -122q85 -108 85 -296v-47h207v25q0 320 -137 471q-140 153 -443 153q-213 0 -438 -74l-25 193q247 80 496 80q805 0 805 -842v-219h-1448zM762 264q0 244 -174 244q-154 0 -154 -141
q0 -162 193 -162h135v59zM793 1196l-196 153l-195 -153l-92 109l288 257l289 -255z" />
    <glyph glyph-name="uni06FF.medi" unicode="&#x6ff;" horiz-adv-x="1353" 
d="M1384 0h-188q-65 0 -160 16v-4q176 -50 176 -243q0 -192 -122 -308q-124 -116 -334 -116q-505 0 -543 655h-213v213h215q49 560 463 836q498 -254 498 -570q0 -200 -142 -274v-4q119 12 160 12h190v-213zM479 0q32 -442 291 -442q178 0 178 200q0 112 -81 176
q-85 66 -240 66h-148zM477 213h170q266 0 266 223q0 162 -217 303q-194 -181 -219 -526zM873 1126l-196 153l-195 -153l-92 109l288 257l289 -255z" />
    <glyph glyph-name="uni06FF.fina" unicode="&#x6ff;" horiz-adv-x="1405" 
d="M1436 0h-188q-65 0 -160 16v-4q176 -50 176 -243q0 -192 -122 -308q-124 -116 -334 -116q-505 0 -543 655h-213v213h215q49 560 463 836q498 -254 498 -570q0 -200 -142 -274v-4q119 12 160 12h190v-213zM531 0q32 -442 291 -442q178 0 178 200q0 112 -81 176
q-85 66 -240 66h-148zM529 213h170q266 0 266 223q0 162 -217 303q-194 -181 -219 -526zM933 1126l-196 153l-195 -153l-92 109l288 257l289 -255z" />
    <glyph glyph-name="uniFB50" unicode="&#x671;" horiz-adv-x="618" arabic-form="isolated" 
d="M451 1669v31q0 133 -74 133q-109 0 -155 -164h229zM-20 1669h94q88 285 318 285q200 0 200 -242v-168h-612v125zM175 1382h270v-1382h-270v1382z" />
    <glyph glyph-name="uniFB51" unicode="&#x671;" horiz-adv-x="618" arabic-form="final" 
d="M175 1382h270v-1169h205v-213h-475v1382zM-20 1669h94q88 285 318 285q200 0 200 -242v-168h-612v125zM451 1669v31q0 133 -74 133q-109 0 -155 -164h229z" />
    <glyph glyph-name="uniFB52" unicode="&#x67b;" horiz-adv-x="1583" arabic-form="isolated" 
d="M854 0q-401 0 -585 163q-167 147 -167 443q0 176 53 322l289 47q-70 -153 -70 -338q0 -223 111 -320q117 -104 397 -104h279v750h270v-963h-577zM910 -400q-41 -39 -99 -39q-57 0 -98 39q-41 40 -41 96q0 57 40 96q40 40 99 40q57 0 98 -40q41 -39 41 -96q0 -56 -40 -96z
M910 -740q-41 -39 -99 -39q-57 0 -98 39q-41 40 -41 96q0 59 40 98q40 40 99 40q57 0 98 -40t41 -98q0 -56 -40 -96z" />
    <glyph glyph-name="uniFB53" unicode="&#x67b;" horiz-adv-x="1601" arabic-form="final" 
d="M854 0q-401 0 -585 163q-167 147 -167 443q0 176 53 322l289 47q-70 -153 -70 -338q0 -223 111 -320q117 -104 397 -104h279v750h270v-750h201v-213h-778zM910 -400q-41 -39 -99 -39q-57 0 -98 39q-41 40 -41 96q0 57 40 96q40 40 99 40q57 0 98 -40q41 -39 41 -96
q0 -56 -40 -96zM910 -740q-41 -39 -99 -39q-57 0 -98 39q-41 40 -41 96q0 59 40 98q40 40 99 40q57 0 98 -40t41 -98q0 -56 -40 -96z" />
    <glyph glyph-name="uniFB54" unicode="&#x67b;" horiz-adv-x="708" arabic-form="initial" 
d="M0 213h287v750h270v-963h-557v213zM370 -400q-41 -39 -99 -39q-57 0 -98 39q-41 40 -41 96q0 57 40 96q40 40 99 40q57 0 98 -40q41 -39 41 -96q0 -56 -40 -96zM370 -740q-41 -39 -99 -39q-57 0 -98 39q-41 40 -41 96q0 59 40 98q40 40 99 40q57 0 98 -40t41 -98
q0 -56 -40 -96z" />
    <glyph glyph-name="uniFB55" unicode="&#x67b;" horiz-adv-x="727" arabic-form="medial" 
d="M0 213h287v750h270v-750h201v-213h-758v213zM370 -400q-41 -39 -99 -39q-57 0 -98 39q-41 40 -41 96q0 57 40 96q40 40 99 40q57 0 98 -40q41 -39 41 -96q0 -56 -40 -96zM370 -740q-41 -39 -99 -39q-57 0 -98 39q-41 40 -41 96q0 59 40 98q40 40 99 40q57 0 98 -40
t41 -98q0 -56 -40 -96z" />
    <glyph glyph-name="uniFB56" unicode="&#x67e;" horiz-adv-x="1583" arabic-form="isolated" 
d="M854 0q-401 0 -585 163q-167 147 -167 443q0 176 53 322l289 47q-70 -153 -70 -338q0 -223 111 -320q117 -104 397 -104h279v750h270v-963h-577zM933 -562q-34 -34 -83 -34q-51 0 -85 34t-34 85q0 49 34 84t85 35q49 0 83 -35q35 -35 35 -84q0 -51 -35 -85zM1102 -313
q-37 -37 -89 -37t-87 36q-36 37 -36 91q0 52 36 88q35 37 87 37q53 0 89 -37q36 -36 36 -88q0 -53 -36 -90zM772 -313q-36 -37 -88 -37q-53 0 -89 36q-36 37 -36 91q0 52 36 88q36 37 89 37q52 0 88 -37q37 -36 37 -88q0 -53 -37 -90z" />
    <glyph glyph-name="uniFB57" unicode="&#x67e;" horiz-adv-x="1601" arabic-form="final" 
d="M854 0q-401 0 -585 163q-167 147 -167 443q0 176 53 322l289 47q-70 -153 -70 -338q0 -223 111 -320q117 -104 397 -104h279v750h270v-750h201v-213h-778zM772 -313q-36 -37 -88 -37q-53 0 -89 36q-36 37 -36 91q0 52 36 88q36 37 89 37q52 0 88 -37q37 -36 37 -88
q0 -53 -37 -90zM1102 -313q-37 -37 -89 -37t-87 36q-36 37 -36 91q0 52 36 88q35 37 87 37q53 0 89 -37q36 -36 36 -88q0 -53 -36 -90zM933 -562q-34 -34 -83 -34q-51 0 -85 34t-34 85q0 49 34 84t85 35q49 0 83 -35q35 -35 35 -84q0 -51 -35 -85z" />
    <glyph glyph-name="uniFB58" unicode="&#x67e;" horiz-adv-x="806" arabic-form="initial" 
d="M0 213h385v750h270v-963h-655v213zM451 -562q-35 -34 -84 -34q-51 0 -85 34t-34 85q0 49 34 84t85 35q49 0 84 -35q34 -35 34 -84q0 -51 -34 -85zM619 -313q-37 -37 -89 -37t-87 36q-35 37 -35 91q0 52 35 88q35 37 87 37q53 0 89 -37q36 -36 36 -88q0 -53 -36 -90z
M289 -313q-36 -37 -88 -37q-53 0 -89 36q-36 37 -36 91q0 52 36 88q36 37 89 37q52 0 88 -37q37 -36 37 -88q0 -53 -37 -90z" />
    <glyph glyph-name="uniFB59" unicode="&#x67e;" horiz-adv-x="825" arabic-form="medial" 
d="M0 213h385v750h270v-750h201v-213h-856v213zM289 -313q-36 -37 -88 -37q-53 0 -89 36q-36 37 -36 91q0 52 36 88q36 37 89 37q52 0 88 -37q37 -36 37 -88q0 -53 -37 -90zM619 -313q-37 -37 -89 -37t-87 36q-35 37 -35 91q0 52 35 88q35 37 87 37q53 0 89 -37
q36 -36 36 -88q0 -53 -36 -90zM451 -562q-35 -34 -84 -34q-51 0 -85 34t-34 85q0 49 34 84t85 35q49 0 84 -35q34 -35 34 -84q0 -51 -34 -85z" />
    <glyph glyph-name="uniFB5A" unicode="&#x680;" horiz-adv-x="1583" arabic-form="isolated" 
d="M854 0q-401 0 -585 163q-167 147 -167 443q0 176 53 322l289 47q-70 -153 -70 -338q0 -223 111 -320q117 -104 397 -104h279v750h270v-963h-577zM1096 -610q-37 -37 -89 -37t-87 36q-36 37 -36 91q0 52 36 88q35 37 87 37q53 0 89 -37q36 -36 36 -88q0 -53 -36 -90z
M766 -610q-36 -37 -88 -37q-53 0 -89 36q-36 37 -36 91q0 52 36 88q36 37 89 37q52 0 88 -37q37 -36 37 -88q0 -53 -37 -90zM1102 -313q-37 -37 -89 -37t-87 36q-36 37 -36 91q0 52 36 88q35 37 87 37q53 0 89 -37q36 -36 36 -88q0 -53 -36 -90zM772 -313q-36 -37 -88 -37
q-53 0 -89 36q-36 37 -36 91q0 52 36 88q36 37 89 37q52 0 88 -37q37 -36 37 -88q0 -53 -37 -90z" />
    <glyph glyph-name="uniFB5B" unicode="&#x680;" horiz-adv-x="1601" arabic-form="final" 
d="M854 0q-401 0 -585 163q-167 147 -167 443q0 176 53 322l289 47q-70 -153 -70 -338q0 -223 111 -320q117 -104 397 -104h279v750h270v-750h201v-213h-778zM1096 -610q-37 -37 -89 -37t-87 36q-36 37 -36 91q0 52 36 88q35 37 87 37q53 0 89 -37q36 -36 36 -88
q0 -53 -36 -90zM766 -610q-36 -37 -88 -37q-53 0 -89 36q-36 37 -36 91q0 52 36 88q36 37 89 37q52 0 88 -37q37 -36 37 -88q0 -53 -37 -90zM1102 -313q-37 -37 -89 -37t-87 36q-36 37 -36 91q0 52 36 88q35 37 87 37q53 0 89 -37q36 -36 36 -88q0 -53 -36 -90zM772 -313
q-36 -37 -88 -37q-53 0 -89 36q-36 37 -36 91q0 52 36 88q36 37 89 37q52 0 88 -37q37 -36 37 -88q0 -53 -37 -90z" />
    <glyph glyph-name="uniFB5C" unicode="&#x680;" horiz-adv-x="806" arabic-form="initial" 
d="M0 213h385v750h270v-963h-655v213zM616 -610q-37 -37 -89 -37t-87 36q-36 37 -36 91q0 52 36 88q35 37 87 37q53 0 89 -37q36 -36 36 -88q0 -53 -36 -90zM286 -610q-36 -37 -88 -37q-53 0 -89 36q-36 37 -36 91q0 52 36 88q36 37 89 37q52 0 88 -37q37 -36 37 -88
q0 -53 -37 -90zM622 -313q-37 -37 -89 -37t-87 36q-36 37 -36 91q0 52 36 88q35 37 87 37q53 0 89 -37q36 -36 36 -88q0 -53 -36 -90zM292 -313q-36 -37 -88 -37q-53 0 -89 36q-36 37 -36 91q0 52 36 88q36 37 89 37q52 0 88 -37q37 -36 37 -88q0 -53 -37 -90z" />
    <glyph glyph-name="uniFB5D" unicode="&#x680;" horiz-adv-x="825" arabic-form="medial" 
d="M0 213h385v750h270v-750h201v-213h-856v213zM616 -610q-37 -37 -89 -37t-87 36q-36 37 -36 91q0 52 36 88q35 37 87 37q53 0 89 -37q36 -36 36 -88q0 -53 -36 -90zM286 -610q-36 -37 -88 -37q-53 0 -89 36q-36 37 -36 91q0 52 36 88q36 37 89 37q52 0 88 -37
q37 -36 37 -88q0 -53 -37 -90zM622 -313q-37 -37 -89 -37t-87 36q-36 37 -36 91q0 52 36 88q35 37 87 37q53 0 89 -37q36 -36 36 -88q0 -53 -36 -90zM292 -313q-36 -37 -88 -37q-53 0 -89 36q-36 37 -36 91q0 52 36 88q36 37 89 37q52 0 88 -37q37 -36 37 -88q0 -53 -37 -90
z" />
    <glyph glyph-name="uniFB5E" unicode="&#x67a;" horiz-adv-x="1583" arabic-form="isolated" 
d="M854 0q-401 0 -585 163q-167 147 -167 443q0 176 53 322l289 47q-70 -153 -70 -338q0 -223 111 -320q117 -104 397 -104h279v750h270v-963h-577zM919 1498q-41 -39 -99 -39q-57 0 -98 39q-41 40 -41 96q0 57 40 96q40 40 99 40q57 0 98 -40q41 -39 41 -96q0 -56 -40 -96z
M919 1158q-41 -39 -99 -39q-57 0 -98 39q-41 40 -41 96q0 59 40 98q40 40 99 40q57 0 98 -40t41 -98q0 -56 -40 -96z" />
    <glyph glyph-name="uniFB5F" unicode="&#x67a;" horiz-adv-x="1601" arabic-form="final" 
d="M854 0q-401 0 -585 163q-167 147 -167 443q0 176 53 322l289 47q-70 -153 -70 -338q0 -223 111 -320q117 -104 397 -104h279v750h270v-750h201v-213h-778zM919 1498q-41 -39 -99 -39q-57 0 -98 39q-41 40 -41 96q0 57 40 96q40 40 99 40q57 0 98 -40q41 -39 41 -96
q0 -56 -40 -96zM919 1158q-41 -39 -99 -39q-57 0 -98 39q-41 40 -41 96q0 59 40 98q40 40 99 40q57 0 98 -40t41 -98q0 -56 -40 -96z" />
    <glyph glyph-name="uniFB60" unicode="&#x67a;" horiz-adv-x="708" arabic-form="initial" 
d="M0 213h287v750h270v-963h-557v213zM519 1498q-41 -39 -99 -39q-57 0 -98 39q-41 40 -41 96q0 57 40 96q40 40 99 40q57 0 98 -40q41 -39 41 -96q0 -56 -40 -96zM519 1158q-41 -39 -99 -39q-57 0 -98 39q-41 40 -41 96q0 59 40 98q40 40 99 40q57 0 98 -40t41 -98
q0 -56 -40 -96z" />
    <glyph glyph-name="uniFB61" unicode="&#x67a;" horiz-adv-x="708" arabic-form="medial" 
d="M0 213h287v750h270v-750h182v-213h-739v213zM519 1498q-41 -39 -99 -39q-57 0 -98 39q-41 40 -41 96q0 57 40 96q40 40 99 40q57 0 98 -40q41 -39 41 -96q0 -56 -40 -96zM519 1158q-41 -39 -99 -39q-57 0 -98 39q-41 40 -41 96q0 59 40 98q40 40 99 40q57 0 98 -40
t41 -98q0 -56 -40 -96z" />
    <glyph glyph-name="uniFB62" unicode="&#x67f;" horiz-adv-x="1583" arabic-form="isolated" 
d="M854 0q-401 0 -585 163q-167 147 -167 443q0 176 53 322l289 47q-70 -153 -70 -338q0 -223 111 -320q117 -104 397 -104h279v750h270v-963h-577zM1078 1157q-37 -37 -89 -37t-87 36q-36 37 -36 91q0 52 36 88q35 37 87 37q53 0 89 -37q36 -36 36 -88q0 -53 -36 -90z
M748 1157q-36 -37 -88 -37q-53 0 -89 36q-36 37 -36 91q0 52 36 88q36 37 89 37q52 0 88 -37q37 -36 37 -88q0 -53 -37 -90zM1084 1454q-37 -37 -89 -37t-87 36q-36 37 -36 91q0 52 36 88q35 37 87 37q53 0 89 -37q36 -36 36 -88q0 -53 -36 -90zM754 1454q-36 -37 -88 -37
q-53 0 -89 36q-36 37 -36 91q0 52 36 88q36 37 89 37q52 0 88 -37q37 -36 37 -88q0 -53 -37 -90z" />
    <glyph glyph-name="uniFB63" unicode="&#x67f;" horiz-adv-x="1601" arabic-form="final" 
d="M854 0q-401 0 -585 163q-167 147 -167 443q0 176 53 322l289 47q-70 -153 -70 -338q0 -223 111 -320q117 -104 397 -104h279v750h270v-750h201v-213h-778zM1078 1157q-37 -37 -89 -37t-87 36q-36 37 -36 91q0 52 36 88q35 37 87 37q53 0 89 -37q36 -36 36 -88
q0 -53 -36 -90zM748 1157q-36 -37 -88 -37q-53 0 -89 36q-36 37 -36 91q0 52 36 88q36 37 89 37q52 0 88 -37q37 -36 37 -88q0 -53 -37 -90zM1084 1454q-37 -37 -89 -37t-87 36q-36 37 -36 91q0 52 36 88q35 37 87 37q53 0 89 -37q36 -36 36 -88q0 -53 -36 -90zM754 1454
q-36 -37 -88 -37q-53 0 -89 36q-36 37 -36 91q0 52 36 88q36 37 89 37q52 0 88 -37q37 -36 37 -88q0 -53 -37 -90z" />
    <glyph glyph-name="uniFB64" unicode="&#x67f;" horiz-adv-x="708" arabic-form="initial" 
d="M0 213h287v750h270v-963h-557v213zM638 1157q-37 -37 -89 -37t-87 36q-36 37 -36 91q0 52 36 88q35 37 87 37q53 0 89 -37q36 -36 36 -88q0 -53 -36 -90zM308 1157q-36 -37 -88 -37q-53 0 -89 36q-36 37 -36 91q0 52 36 88q36 37 89 37q52 0 88 -37q37 -36 37 -88
q0 -53 -37 -90zM644 1454q-37 -37 -89 -37t-87 36q-36 37 -36 91q0 52 36 88q35 37 87 37q53 0 89 -37q36 -36 36 -88q0 -53 -36 -90zM314 1454q-36 -37 -88 -37q-53 0 -89 36q-36 37 -36 91q0 52 36 88q36 37 89 37q52 0 88 -37q37 -36 37 -88q0 -53 -37 -90z" />
    <glyph glyph-name="uniFB65" unicode="&#x67f;" horiz-adv-x="727" arabic-form="medial" 
d="M0 213h287v750h270v-750h201v-213h-758v213zM638 1157q-37 -37 -89 -37t-87 36q-36 37 -36 91q0 52 36 88q35 37 87 37q53 0 89 -37q36 -36 36 -88q0 -53 -36 -90zM308 1157q-36 -37 -88 -37q-53 0 -89 36q-36 37 -36 91q0 52 36 88q36 37 89 37q52 0 88 -37
q37 -36 37 -88q0 -53 -37 -90zM644 1454q-37 -37 -89 -37t-87 36q-36 37 -36 91q0 52 36 88q35 37 87 37q53 0 89 -37q36 -36 36 -88q0 -53 -36 -90zM314 1454q-36 -37 -88 -37q-53 0 -89 36q-36 37 -36 91q0 52 36 88q36 37 89 37q52 0 88 -37q37 -36 37 -88q0 -53 -37 -90
z" />
    <glyph glyph-name="uniFB66" unicode="&#x679;" horiz-adv-x="1583" arabic-form="isolated" 
d="M929 1417q-65 0 -127 -67q-59 -65 -79 -152h137q147 0 147 121q0 98 -78 98zM725 1509q0 -43 -15 -118h2q86 141 242 141q205 0 205 -199q0 -115 -82 -182q-84 -68 -234 -68h-264v586h146v-160zM854 0q-401 0 -585 163q-167 147 -167 443q0 176 53 322l289 47
q-70 -153 -70 -338q0 -223 111 -320q117 -104 397 -104h279v750h270v-963h-577z" />
    <glyph glyph-name="uniFB67" unicode="&#x679;" horiz-adv-x="1601" arabic-form="final" 
d="M854 0q-401 0 -585 163q-167 147 -167 443q0 176 53 322l289 47q-70 -153 -70 -338q0 -223 111 -320q117 -104 397 -104h279v750h270v-750h201v-213h-778zM725 1509q0 -43 -15 -118h2q86 141 242 141q205 0 205 -199q0 -115 -82 -182q-84 -68 -234 -68h-264v586h146v-160
zM929 1417q-65 0 -127 -67q-59 -65 -79 -152h137q147 0 147 121q0 98 -78 98z" />
    <glyph glyph-name="uniFB68" unicode="&#x679;" horiz-adv-x="806" arabic-form="initial" 
d="M506 1479q-66 0 -127 -68q-59 -64 -80 -151h137q148 0 148 120q0 99 -78 99zM301 1571q0 -44 -14 -119h2q86 141 241 141q205 0 205 -198q0 -116 -81 -182q-84 -68 -234 -68h-264v586h145v-160zM0 213h385v750h270v-963h-655v213z" />
    <glyph glyph-name="uniFB69" unicode="&#x679;" horiz-adv-x="825" arabic-form="medial" 
d="M0 213h385v750h270v-750h201v-213h-856v213zM301 1571q0 -44 -14 -119h2q86 141 241 141q205 0 205 -198q0 -116 -81 -182q-84 -68 -234 -68h-264v586h145v-160zM506 1479q-66 0 -127 -68q-59 -64 -80 -151h137q148 0 148 120q0 99 -78 99z" />
    <glyph glyph-name="uniFB6A" unicode="&#x6a4;" horiz-adv-x="1896" arabic-form="isolated" 
d="M1665 144q-146 -144 -375 -144h-436q-401 0 -585 163q-167 147 -167 443q0 176 53 322l289 47q-70 -153 -70 -338q0 -219 108 -320q111 -104 355 -104h68q-90 84 -90 266q0 223 144 366q145 144 376 144q225 0 348 -116q129 -123 129 -361q0 -224 -147 -368zM1316 776
q-96 0 -159 -65q-72 -74 -72 -209q0 -289 227 -289q101 0 162 71q66 76 66 214q0 278 -224 278zM1228 1447q-36 37 -36 91t36 91q36 38 88 38q54 0 91 -38q36 -37 36 -91t-36 -91q-37 -38 -91 -38q-52 0 -88 38zM1391 1159q-40 40 -40 98t40 99t97 41t96 -41q40 -40 40 -99
q0 -57 -40 -98q-39 -41 -96 -41q-58 0 -97 41zM1053 1159q-40 40 -40 98t40 99q39 41 96 41q56 0 96 -41q39 -40 39 -99q0 -57 -39 -98q-40 -41 -96 -41q-57 0 -96 41z" />
    <glyph glyph-name="uniFB6B" unicode="&#x6a4;" horiz-adv-x="1927" arabic-form="final" 
d="M1957 0h-1103q-401 0 -585 163q-167 147 -167 443q0 176 53 322l289 47q-70 -153 -70 -338q0 -219 108 -320q111 -104 355 -104h68q-90 84 -90 266q0 223 144 366q145 144 376 144q225 0 348 -116q129 -123 129 -361q0 -209 -119 -309q86 10 156 10h108v-213zM1316 776
q-96 0 -159 -65q-72 -74 -72 -209q0 -289 227 -289q101 0 162 71q66 76 66 214q0 278 -224 278zM1228 1447q-36 37 -36 91t36 91q36 38 88 38q54 0 91 -38q36 -37 36 -91t-36 -91q-37 -38 -91 -38q-52 0 -88 38zM1391 1159q-40 40 -40 98t40 99t97 41t96 -41q40 -40 40 -99
q0 -57 -40 -98q-39 -41 -96 -41q-58 0 -97 41zM1053 1159q-40 40 -40 98t40 99q39 41 96 41q56 0 96 -41q39 -40 39 -99q0 -57 -39 -98q-40 -41 -96 -41q-57 0 -96 41z" />
    <glyph glyph-name="uniFB6C" unicode="&#x6a4;" horiz-adv-x="1253" arabic-form="initial" 
d="M0 0v213h117q71 0 114 -14q-114 83 -114 293q0 208 132 346q146 151 400 151q463 0 463 -471v-518h-1112zM848 485q0 291 -219 291q-113 0 -180 -78q-64 -76 -64 -198q0 -287 307 -287h156v272zM534 1447q-36 37 -36 91t36 91q36 38 89 38t90 -38q37 -37 37 -91t-37 -91
q-37 -38 -90 -38t-89 38zM697 1159q-40 40 -40 98t40 99t98 41q56 0 96 -41q39 -40 39 -99q0 -57 -39 -98q-40 -41 -96 -41q-59 0 -98 41zM359 1159q-40 40 -40 98t40 99q39 41 96 41q56 0 96 -41q39 -40 39 -99q0 -57 -39 -98q-40 -41 -96 -41q-57 0 -96 41z" />
    <glyph glyph-name="uniFB6D" unicode="&#x6a4;" horiz-adv-x="1228" arabic-form="medial" 
d="M0 213h86q64 0 125 -10q-94 97 -94 276q0 223 144 366q145 144 376 144q225 0 348 -116q129 -123 129 -361q0 -209 -119 -309q86 10 156 10h109v-213h-1260v213zM776 284q66 76 66 214q0 278 -224 278q-96 0 -159 -65q-72 -74 -72 -209q0 -289 227 -289q102 0 162 71z
M530 1447q-36 37 -36 91t36 91q36 38 88 38q54 0 91 -38q36 -37 36 -91t-36 -91q-37 -38 -91 -38q-52 0 -88 38zM693 1159q-40 40 -40 98t40 99t98 41q56 0 96 -41q39 -40 39 -99q0 -57 -39 -98q-40 -41 -96 -41q-59 0 -98 41zM355 1159q-40 40 -40 98t40 99q39 41 96 41
q56 0 96 -41q39 -40 39 -99q0 -57 -39 -98q-40 -41 -96 -41q-57 0 -96 41z" />
    <glyph glyph-name="uniFB6E" unicode="&#x6a6;" horiz-adv-x="1896" arabic-form="isolated" 
d="M1665 144q-146 -144 -375 -144h-436q-401 0 -585 163q-167 147 -167 443q0 176 53 322l289 47q-70 -153 -70 -338q0 -219 108 -320q111 -104 355 -104h68q-90 84 -90 266q0 223 144 366q145 144 376 144q225 0 348 -116q129 -123 129 -361q0 -224 -147 -368zM1316 776
q-96 0 -159 -65q-72 -74 -72 -209q0 -289 227 -289q101 0 162 71q66 76 66 214q0 278 -224 278zM1563 1154q-36 -37 -88 -37t-88 36q-35 37 -35 91q0 52 35 88q36 37 88 37t88 -37q37 -36 37 -88q0 -53 -37 -90zM1234 1154q-37 -37 -89 -37t-89 36q-36 37 -36 91q0 52 36 88
q37 37 89 37t89 -37q36 -36 36 -88q0 -53 -36 -90zM1560 1460q-36 -37 -88 -37t-88 36q-35 37 -35 91q0 52 35 88q36 37 88 37t88 -37q37 -36 37 -88q0 -53 -37 -90zM1231 1460q-37 -37 -89 -37t-89 36q-36 37 -36 91q0 52 36 88q37 37 89 37t89 -37q36 -36 36 -88
q0 -53 -36 -90z" />
    <glyph glyph-name="uniFB6F" unicode="&#x6a6;" horiz-adv-x="1927" arabic-form="final" 
d="M1957 0h-1103q-401 0 -585 163q-167 147 -167 443q0 176 53 322l289 47q-70 -153 -70 -338q0 -219 108 -320q111 -104 355 -104h68q-90 84 -90 266q0 223 144 366q145 144 376 144q225 0 348 -116q129 -123 129 -361q0 -209 -119 -309q86 10 156 10h108v-213zM1316 776
q-96 0 -159 -65q-72 -74 -72 -209q0 -289 227 -289q101 0 162 71q66 76 66 214q0 278 -224 278zM1563 1154q-36 -37 -88 -37t-88 36q-35 37 -35 91q0 52 35 88q36 37 88 37t88 -37q37 -36 37 -88q0 -53 -37 -90zM1234 1154q-37 -37 -89 -37t-89 36q-36 37 -36 91q0 52 36 88
q37 37 89 37t89 -37q36 -36 36 -88q0 -53 -36 -90zM1560 1460q-36 -37 -88 -37t-88 36q-35 37 -35 91q0 52 35 88q36 37 88 37t88 -37q37 -36 37 -88q0 -53 -37 -90zM1231 1460q-37 -37 -89 -37t-89 36q-36 37 -36 91q0 52 36 88q37 37 89 37t89 -37q36 -36 36 -88
q0 -53 -36 -90z" />
    <glyph glyph-name="uniFB70" unicode="&#x6a6;" horiz-adv-x="1253" arabic-form="initial" 
d="M0 0v213h117q71 0 114 -14q-114 83 -114 293q0 208 132 346q146 151 400 151q463 0 463 -471v-518h-1112zM848 485q0 291 -219 291q-113 0 -180 -78q-64 -76 -64 -198q0 -287 307 -287h156v272zM877 1157q-36 -37 -88 -37t-88 36q-35 37 -35 91q0 52 35 88q36 37 88 37
t88 -37q37 -36 37 -88q0 -53 -37 -90zM548 1157q-37 -37 -89 -37t-89 36q-36 37 -36 91q0 52 36 88q37 37 89 37t89 -37q36 -36 36 -88q0 -53 -36 -90zM874 1463q-36 -37 -88 -37t-88 36q-35 37 -35 91q0 52 35 88q36 37 88 37t88 -37q37 -36 37 -88q0 -53 -37 -90z
M545 1463q-37 -37 -89 -37t-89 36q-36 37 -36 91q0 52 36 88q37 37 89 37t89 -37q36 -36 36 -88q0 -53 -36 -90z" />
    <glyph glyph-name="uniFB71" unicode="&#x6a6;" horiz-adv-x="1228" arabic-form="medial" 
d="M0 213h86q64 0 125 -10q-94 97 -94 276q0 223 144 366q145 144 376 144q225 0 348 -116q129 -123 129 -361q0 -209 -119 -309q86 10 156 10h109v-213h-1260v213zM776 284q66 76 66 214q0 278 -224 278q-96 0 -159 -65q-72 -74 -72 -209q0 -289 227 -289q102 0 162 71z
M877 1157q-36 -37 -88 -37t-88 36q-35 37 -35 91q0 52 35 88q36 37 88 37t88 -37q37 -36 37 -88q0 -53 -37 -90zM548 1157q-37 -37 -89 -37t-89 36q-36 37 -36 91q0 52 36 88q37 37 89 37t89 -37q36 -36 36 -88q0 -53 -36 -90zM874 1463q-36 -37 -88 -37t-88 36
q-35 37 -35 91q0 52 35 88q36 37 88 37t88 -37q37 -36 37 -88q0 -53 -37 -90zM545 1463q-37 -37 -89 -37t-89 36q-36 37 -36 91q0 52 36 88q37 37 89 37t89 -37q36 -36 36 -88q0 -53 -36 -90z" />
    <glyph glyph-name="uniFB72" unicode="&#x684;" horiz-adv-x="1263" arabic-form="isolated" 
d="M687 0q-387 0 -387 -229q0 -168 215 -205l-59 -217q-424 71 -424 405q0 209 157 328q172 131 507 131h174q10 61 10 156q0 201 -89 294q-95 99 -310 99q-118 0 -236 -17v211q144 19 262 19q339 0 493 -151q148 -143 148 -445q0 -182 -33 -379h-428zM852 -332
q-41 -39 -99 -39q-57 0 -98 39q-41 40 -41 96q0 57 40 96q40 40 99 40q57 0 98 -40q41 -39 41 -96q0 -56 -40 -96zM852 -672q-41 -39 -99 -39q-57 0 -98 39q-41 40 -41 96q0 59 40 98q40 40 99 40q57 0 98 -40t41 -98q0 -56 -40 -96z" />
    <glyph glyph-name="uniFB73" unicode="&#x684;" horiz-adv-x="1271" arabic-form="final" 
d="M687 0q-387 0 -387 -229q0 -168 215 -205l-59 -217q-424 71 -424 405q0 209 157 328q172 131 507 131h174q10 61 10 156q0 201 -89 294q-95 99 -310 99q-118 0 -236 -17v211q144 19 262 19q339 0 493 -151q148 -143 148 -445q0 -74 -6 -166h160v-213h-615zM852 -332
q-41 -39 -99 -39q-57 0 -98 39q-41 40 -41 96q0 57 40 96q40 40 99 40q57 0 98 -40q41 -39 41 -96q0 -56 -40 -96zM852 -672q-41 -39 -99 -39q-57 0 -98 39q-41 40 -41 96q0 59 40 98q40 40 99 40q57 0 98 -40t41 -98q0 -56 -40 -96z" />
    <glyph glyph-name="uniFB74" unicode="&#x684;" horiz-adv-x="1183" arabic-form="initial" 
d="M0 213h793q10 82 10 156q0 200 -90 294q-96 99 -312 99q-114 0 -235 -17v211q144 19 262 19q339 0 494 -151q149 -144 149 -445q0 -170 -35 -379h-1036v213zM586 -401q-41 -39 -99 -39q-57 0 -98 39q-41 40 -41 96q0 57 40 96q40 40 99 40q57 0 98 -40q41 -39 41 -96
q0 -56 -40 -96zM586 -741q-41 -39 -99 -39q-57 0 -98 39q-41 40 -41 96q0 59 40 98q40 40 99 40q57 0 98 -40t41 -98q0 -56 -40 -96z" />
    <glyph glyph-name="uniFB75" unicode="&#x684;" horiz-adv-x="1191" arabic-form="medial" 
d="M0 213h793q10 82 10 156q0 200 -90 294q-96 99 -312 99q-114 0 -235 -17v211q144 19 262 19q339 0 494 -151q149 -144 149 -445q0 -87 -8 -166h160v-213h-1223v213zM586 -401q-41 -39 -99 -39q-57 0 -98 39q-41 40 -41 96q0 57 40 96q40 40 99 40q57 0 98 -40
q41 -39 41 -96q0 -56 -40 -96zM586 -741q-41 -39 -99 -39q-57 0 -98 39q-41 40 -41 96q0 59 40 98q40 40 99 40q57 0 98 -40t41 -98q0 -56 -40 -96z" />
    <glyph glyph-name="uniFB76" unicode="&#x683;" horiz-adv-x="1263" arabic-form="isolated" 
d="M687 0q-387 0 -387 -229q0 -168 215 -205l-59 -217q-424 71 -424 405q0 209 157 328q172 131 507 131h174q10 61 10 156q0 201 -89 294q-95 99 -310 99q-118 0 -236 -17v211q144 19 262 19q339 0 493 -151q148 -143 148 -445q0 -182 -33 -379h-428zM1089 -313
q-36 -37 -88 -37t-88 36q-35 37 -35 91q0 52 35 88q36 37 88 37t88 -37q37 -36 37 -88q0 -53 -37 -90zM760 -313q-37 -37 -89 -37t-89 36q-36 37 -36 91q0 52 36 88q37 37 89 37t89 -37q36 -36 36 -88q0 -53 -36 -90z" />
    <glyph glyph-name="uniFB77" unicode="&#x683;" horiz-adv-x="1271" arabic-form="final" 
d="M687 0q-387 0 -387 -229q0 -168 215 -205l-59 -217q-424 71 -424 405q0 209 157 328q172 131 507 131h174q10 61 10 156q0 201 -89 294q-95 99 -310 99q-118 0 -236 -17v211q144 19 262 19q339 0 493 -151q148 -143 148 -445q0 -74 -6 -166h160v-213h-615zM760 -313
q-37 -37 -89 -37t-89 36q-36 37 -36 91q0 52 36 88q37 37 89 37t89 -37q36 -36 36 -88q0 -53 -36 -90zM1089 -313q-36 -37 -88 -37t-88 36q-35 37 -35 91q0 52 35 88q36 37 88 37t88 -37q37 -36 37 -88q0 -53 -37 -90z" />
    <glyph glyph-name="uniFB78" unicode="&#x683;" horiz-adv-x="1183" arabic-form="initial" 
d="M0 213h793q10 82 10 156q0 200 -90 294q-96 99 -312 99q-114 0 -235 -17v211q144 19 262 19q339 0 494 -151q149 -144 149 -445q0 -170 -35 -379h-1036v213zM740 -313q-37 -37 -89 -37t-87 36q-36 37 -36 91q0 52 36 88q35 37 87 37t89 -37q36 -36 36 -88q0 -53 -36 -90z
M410 -313q-36 -37 -88 -37q-53 0 -89 36q-36 37 -36 91q0 52 36 88q36 37 89 37q52 0 88 -37q36 -36 36 -88q0 -53 -36 -90z" />
    <glyph glyph-name="uniFB79" unicode="&#x683;" horiz-adv-x="1191" arabic-form="medial" 
d="M0 213h793q10 82 10 156q0 200 -90 294q-96 99 -312 99q-114 0 -235 -17v211q144 19 262 19q339 0 494 -151q149 -144 149 -445q0 -87 -8 -166h160v-213h-1223v213zM410 -313q-36 -37 -88 -37q-53 0 -89 36q-36 37 -36 91q0 52 36 88q36 37 89 37q52 0 88 -37
q36 -36 36 -88q0 -53 -36 -90zM740 -313q-37 -37 -89 -37t-87 36q-36 37 -36 91q0 52 36 88q35 37 87 37t89 -37q36 -36 36 -88q0 -53 -36 -90z" />
    <glyph glyph-name="uniFB7A" unicode="&#x686;" horiz-adv-x="1263" arabic-form="isolated" 
d="M687 0q-387 0 -387 -229q0 -168 215 -205l-59 -217q-424 71 -424 405q0 209 157 328q172 131 507 131h174q10 61 10 156q0 201 -89 294q-95 99 -310 99q-118 0 -236 -17v211q144 19 262 19q339 0 493 -151q148 -143 148 -445q0 -182 -33 -379h-428zM921 -562
q-35 -34 -84 -34q-51 0 -85 34t-34 85q0 49 34 84q35 35 85 35q49 0 84 -35t35 -84q0 -51 -35 -85zM1089 -313q-36 -37 -88 -37t-88 36q-35 37 -35 91q0 52 35 88q36 37 88 37t88 -37q37 -36 37 -88q0 -53 -37 -90zM760 -313q-37 -37 -89 -37t-89 36q-36 37 -36 91
q0 52 36 88q37 37 89 37t89 -37q36 -36 36 -88q0 -53 -36 -90z" />
    <glyph glyph-name="uniFB7B" unicode="&#x686;" horiz-adv-x="1271" arabic-form="final" 
d="M687 0q-387 0 -387 -229q0 -168 215 -205l-59 -217q-424 71 -424 405q0 209 157 328q172 131 507 131h174q10 61 10 156q0 201 -89 294q-95 99 -310 99q-118 0 -236 -17v211q144 19 262 19q339 0 493 -151q148 -143 148 -445q0 -74 -6 -166h160v-213h-615zM760 -313
q-37 -37 -89 -37t-89 36q-36 37 -36 91q0 52 36 88q37 37 89 37t89 -37q36 -36 36 -88q0 -53 -36 -90zM1089 -313q-36 -37 -88 -37t-88 36q-35 37 -35 91q0 52 35 88q36 37 88 37t88 -37q37 -36 37 -88q0 -53 -37 -90zM921 -562q-35 -34 -84 -34q-51 0 -85 34t-34 85
q0 49 34 84q35 35 85 35q49 0 84 -35t35 -84q0 -51 -35 -85z" />
    <glyph glyph-name="uniFB7C" unicode="&#x686;" horiz-adv-x="1183" arabic-form="initial" 
d="M0 213h793q10 82 10 156q0 200 -90 294q-96 99 -312 99q-114 0 -235 -17v211q144 19 262 19q339 0 494 -151q149 -144 149 -445q0 -170 -35 -379h-1036v213zM571 -562q-34 -34 -84 -34t-84 34t-34 85q0 49 34 84t84 35t84 -35q35 -35 35 -84q0 -51 -35 -85zM740 -313
q-37 -37 -89 -37t-87 36q-36 37 -36 91q0 52 36 88q35 37 87 37t89 -37q36 -36 36 -88q0 -53 -36 -90zM410 -313q-36 -37 -88 -37q-53 0 -89 36q-36 37 -36 91q0 52 36 88q36 37 89 37q52 0 88 -37q36 -36 36 -88q0 -53 -36 -90z" />
    <glyph glyph-name="uniFB7D" unicode="&#x686;" horiz-adv-x="1191" arabic-form="medial" 
d="M0 213h793q10 82 10 156q0 200 -90 294q-96 99 -312 99q-114 0 -235 -17v211q144 19 262 19q339 0 494 -151q149 -144 149 -445q0 -87 -8 -166h160v-213h-1223v213zM410 -313q-36 -37 -88 -37q-53 0 -89 36q-36 37 -36 91q0 52 36 88q36 37 89 37q52 0 88 -37
q36 -36 36 -88q0 -53 -36 -90zM740 -313q-37 -37 -89 -37t-87 36q-36 37 -36 91q0 52 36 88q35 37 87 37t89 -37q36 -36 36 -88q0 -53 -36 -90zM571 -562q-34 -34 -84 -34t-84 34t-34 85q0 49 34 84t84 35t84 -35q35 -35 35 -84q0 -51 -35 -85z" />
    <glyph glyph-name="uniFB7E" unicode="&#x687;" horiz-adv-x="1263" arabic-form="isolated" 
d="M32 -246q0 209 157 328q172 131 507 131h174q10 61 10 156q0 201 -89 294q-95 99 -310 99q-118 0 -236 -17v211q144 19 262 19q339 0 493 -151q148 -143 148 -445q0 -182 -33 -379h-428q-387 0 -387 -229q0 -156 186 -199l-63 -217q-391 78 -391 399zM1092 -619
q-36 -37 -88 -37t-88 36q-35 37 -35 91q0 52 35 88q36 37 88 37t88 -37q37 -36 37 -88q0 -53 -37 -90zM763 -619q-37 -37 -89 -37t-89 36q-36 37 -36 91q0 52 36 88q37 37 89 37t89 -37q36 -36 36 -88q0 -53 -36 -90zM1089 -313q-36 -37 -88 -37t-88 36q-35 37 -35 91
q0 52 35 88q36 37 88 37t88 -37q37 -36 37 -88q0 -53 -37 -90zM760 -313q-37 -37 -89 -37t-89 36q-36 37 -36 91q0 52 36 88q37 37 89 37t89 -37q36 -36 36 -88q0 -53 -36 -90z" />
    <glyph glyph-name="uniFB7F" unicode="&#x687;" horiz-adv-x="1271" arabic-form="final" 
d="M32 -246q0 209 157 328q172 131 507 131h174q10 61 10 156q0 201 -89 294q-95 99 -310 99q-118 0 -236 -17v211q144 19 262 19q339 0 493 -151q148 -143 148 -445q0 -74 -6 -166h160v-213h-615q-387 0 -387 -229q0 -156 186 -199l-60 -218q-394 78 -394 400zM1092 -619
q-36 -37 -88 -37t-88 36q-35 37 -35 91q0 52 35 88q36 37 88 37t88 -37q37 -36 37 -88q0 -53 -37 -90zM763 -619q-37 -37 -89 -37t-89 36q-36 37 -36 91q0 52 36 88q37 37 89 37t89 -37q36 -36 36 -88q0 -53 -36 -90zM1089 -313q-36 -37 -88 -37t-88 36q-35 37 -35 91
q0 52 35 88q36 37 88 37t88 -37q37 -36 37 -88q0 -53 -37 -90zM760 -313q-37 -37 -89 -37t-89 36q-36 37 -36 91q0 52 36 88q37 37 89 37t89 -37q36 -36 36 -88q0 -53 -36 -90z" />
    <glyph glyph-name="uniFB80" unicode="&#x687;" horiz-adv-x="1183" arabic-form="initial" 
d="M0 213h793q10 82 10 156q0 200 -90 294q-96 99 -312 99q-114 0 -235 -17v211q144 19 262 19q339 0 494 -151q149 -144 149 -445q0 -170 -35 -379h-1036v213zM743 -619q-36 -37 -88 -37t-88 36q-35 37 -35 91q0 52 35 88q36 37 88 37t88 -37q37 -36 37 -88q0 -53 -37 -90z
M414 -619q-37 -37 -89 -37t-89 36q-36 37 -36 91q0 52 36 88q37 37 89 37t89 -37q36 -36 36 -88q0 -53 -36 -90zM740 -313q-36 -37 -88 -37t-88 36q-35 37 -35 91q0 52 35 88q36 37 88 37t88 -37q37 -36 37 -88q0 -53 -37 -90zM411 -313q-37 -37 -89 -37t-89 36
q-36 37 -36 91q0 52 36 88q37 37 89 37t89 -37q36 -36 36 -88q0 -53 -36 -90z" />
    <glyph glyph-name="uniFB81" unicode="&#x687;" horiz-adv-x="1191" arabic-form="medial" 
d="M0 213h793q10 82 10 156q0 200 -90 294q-96 99 -312 99q-114 0 -235 -17v211q144 19 262 19q339 0 494 -151q149 -144 149 -445q0 -87 -8 -166h160v-213h-1223v213zM743 -619q-36 -37 -88 -37t-88 36q-35 37 -35 91q0 52 35 88q36 37 88 37t88 -37q37 -36 37 -88
q0 -53 -37 -90zM414 -619q-37 -37 -89 -37t-89 36q-36 37 -36 91q0 52 36 88q37 37 89 37t89 -37q36 -36 36 -88q0 -53 -36 -90zM740 -313q-36 -37 -88 -37t-88 36q-35 37 -35 91q0 52 35 88q36 37 88 37t88 -37q37 -36 37 -88q0 -53 -37 -90zM411 -313q-37 -37 -89 -37
t-89 36q-36 37 -36 91q0 52 36 88q37 37 89 37t89 -37q36 -36 36 -88q0 -53 -36 -90z" />
    <glyph glyph-name="uniFB82" unicode="&#x68d;" horiz-adv-x="1067" arabic-form="isolated" 
d="M94 213h608q-18 455 -483 573l65 226q344 -91 508 -292q174 -214 174 -585v-135h-872v213zM601 -402q-39 40 -39 98t39 99q40 41 98 41q57 0 96 -41q39 -40 39 -99q0 -57 -39 -98t-96 -41q-58 0 -98 41zM263 -402q-39 40 -39 98t39 99q40 41 96 41q57 0 96 -41
q39 -40 39 -99q0 -57 -39 -98t-96 -41t-96 41z" />
    <glyph glyph-name="uniFB83" unicode="&#x68d;" horiz-adv-x="1067" arabic-form="final" 
d="M94 213h608q-18 455 -483 573l65 226q325 -86 489 -270q173 -195 191 -529h134v-213h-1004v213zM601 -402q-39 40 -39 98t39 99q40 41 98 41q57 0 96 -41q39 -40 39 -99q0 -57 -39 -98t-96 -41q-58 0 -98 41zM263 -402q-39 40 -39 98t39 99q40 41 96 41q57 0 96 -41
q39 -40 39 -99q0 -57 -39 -98t-96 -41t-96 41z" />
    <glyph glyph-name="uniFB84" unicode="&#x68c;" horiz-adv-x="1067" arabic-form="isolated" 
d="M94 213h609q-19 455 -484 573l66 226q343 -91 507 -292q175 -214 175 -585v-135h-873v213zM471 1174q-39 40 -39 98t39 99q40 41 98 41q57 0 96 -41q39 -40 39 -99q0 -57 -39 -98t-96 -41q-58 0 -98 41zM133 1174q-39 40 -39 98t39 99q40 41 96 41q57 0 96 -41
q39 -40 39 -99q0 -57 -39 -98t-96 -41t-96 41z" />
    <glyph glyph-name="uniFB85" unicode="&#x68c;" horiz-adv-x="1067" arabic-form="final" 
d="M94 213h609q-19 455 -484 573l66 226q324 -86 488 -270q174 -195 192 -529h133v-213h-1004v213zM471 1174q-39 40 -39 98t39 99q40 41 98 41q57 0 96 -41q39 -40 39 -99q0 -57 -39 -98t-96 -41q-58 0 -98 41zM133 1174q-39 40 -39 98t39 99q40 41 96 41q57 0 96 -41
q39 -40 39 -99q0 -57 -39 -98t-96 -41t-96 41z" />
    <glyph glyph-name="uniFB86" unicode="&#x68e;" horiz-adv-x="1067" arabic-form="isolated" 
d="M94 213h609q-19 455 -484 573l66 226q343 -91 507 -292q175 -214 175 -585v-135h-873v213zM309 1462q-37 37 -37 91t37 91q36 38 88 38q54 0 90 -38q37 -37 37 -91t-37 -91q-36 -38 -90 -38q-52 0 -88 38zM471 1174q-39 40 -39 98t39 99q40 41 98 41q57 0 96 -41
q39 -40 39 -99q0 -57 -39 -98t-96 -41q-58 0 -98 41zM133 1174q-39 40 -39 98t39 99q40 41 96 41q57 0 96 -41q39 -40 39 -99q0 -57 -39 -98t-96 -41t-96 41z" />
    <glyph glyph-name="uniFB87" unicode="&#x68e;" horiz-adv-x="1067" arabic-form="final" 
d="M94 213h609q-19 455 -484 573l66 226q324 -86 488 -270q174 -195 192 -529h133v-213h-1004v213zM309 1462q-37 37 -37 91t37 91q36 38 88 38q54 0 90 -38q37 -37 37 -91t-37 -91q-36 -38 -90 -38q-52 0 -88 38zM471 1174q-39 40 -39 98t39 99q40 41 98 41q57 0 96 -41
q39 -40 39 -99q0 -57 -39 -98t-96 -41q-58 0 -98 41zM133 1174q-39 40 -39 98t39 99q40 41 96 41q57 0 96 -41q39 -40 39 -99q0 -57 -39 -98t-96 -41t-96 41z" />
    <glyph glyph-name="uniFB88" unicode="&#x688;" horiz-adv-x="1067" arabic-form="isolated" 
d="M94 213h608q-18 455 -483 573l65 226q344 -91 508 -292q174 -214 174 -585v-135h-872v213zM575 1479q-66 0 -127 -68q-59 -64 -80 -151h138q147 0 147 120q0 99 -78 99zM370 1571q0 -44 -14 -119h2q86 141 242 141q205 0 205 -198q0 -116 -82 -182q-84 -68 -234 -68h-264
v586h145v-160z" />
    <glyph glyph-name="uniFB89" unicode="&#x688;" horiz-adv-x="1067" arabic-form="final" 
d="M94 213h608q-18 455 -483 573l65 226q325 -86 489 -270q173 -195 191 -529h134v-213h-1004v213zM370 1571q0 -44 -14 -119h2q86 141 242 141q205 0 205 -198q0 -116 -82 -182q-84 -68 -234 -68h-264v586h145v-160zM575 1479q-66 0 -127 -68q-59 -64 -80 -151h138
q147 0 147 120q0 99 -78 99z" />
    <glyph glyph-name="uniFB8A" unicode="&#x698;" horiz-adv-x="813" arabic-form="isolated" 
d="M-16 -500l20 215q85 -24 166 -24q111 0 163 60q59 68 59 226v986h270v-971q0 -512 -506 -512q-90 0 -172 20zM418 1447q-37 37 -37 91t37 91q36 38 88 38q54 0 91 -38q36 -37 36 -91t-36 -91q-37 -38 -91 -38q-52 0 -88 38zM580 1159q-39 40 -39 98t39 99q40 41 98 41
q57 0 96 -41q39 -40 39 -99q0 -57 -39 -98t-96 -41q-58 0 -98 41zM242 1159q-39 40 -39 98t39 99q40 41 96 41q57 0 96 -41q39 -40 39 -99q0 -57 -39 -98t-96 -41q-56 0 -96 41z" />
    <glyph glyph-name="uniFB8B" unicode="&#x698;" horiz-adv-x="831" arabic-form="final" 
d="M-16 -500l20 215q85 -24 166 -24q111 0 163 60q59 68 59 226v986h270v-750h201v-213h-201v-8q0 -512 -506 -512q-90 0 -172 20zM580 1159q-39 40 -39 98t39 99q40 41 98 41q57 0 96 -41q39 -40 39 -99q0 -57 -39 -98t-96 -41q-58 0 -98 41zM242 1159q-39 40 -39 98t39 99
q40 41 96 41q57 0 96 -41q39 -40 39 -99q0 -57 -39 -98t-96 -41q-56 0 -96 41zM418 1447q-37 37 -37 91t37 91q36 38 88 38q54 0 91 -38q36 -37 36 -91t-36 -91q-37 -38 -91 -38q-52 0 -88 38z" />
    <glyph glyph-name="uniFB8C" unicode="&#x691;" horiz-adv-x="813" arabic-form="isolated" 
d="M-16 -500l20 215q85 -24 166 -24q111 0 163 60q59 68 59 226v986h270v-971q0 -512 -506 -512q-90 0 -172 20zM586 1479q-66 0 -127 -68q-59 -64 -80 -151h137q148 0 148 120q0 99 -78 99zM381 1571q0 -44 -14 -119h2q86 141 242 141q204 0 204 -198q0 -116 -81 -182
q-84 -68 -234 -68h-264v586h145v-160z" />
    <glyph glyph-name="uniFB8D" unicode="&#x691;" horiz-adv-x="831" arabic-form="final" 
d="M-16 -500l20 215q85 -24 166 -24q111 0 163 60q59 68 59 226v986h270v-750h201v-213h-201v-8q0 -512 -506 -512q-90 0 -172 20zM381 1571q0 -44 -14 -119h2q86 141 242 141q204 0 204 -198q0 -116 -81 -182q-84 -68 -234 -68h-264v586h145v-160zM586 1479q-66 0 -127 -68
q-59 -64 -80 -151h137q148 0 148 120q0 99 -78 99z" />
    <glyph glyph-name="uniFB8E" unicode="&#x6a9;" horiz-adv-x="1732" arabic-form="isolated" 
d="M854 0q-401 0 -585 163q-167 147 -167 443q0 176 53 322l289 47q-70 -153 -70 -338q0 -223 111 -320q117 -104 397 -104h453q-18 465 -500 578v198l809 508v-268l-500 -301q457 -205 457 -791v-137h-747z" />
    <glyph glyph-name="uniFB8F" unicode="&#x6a9;" horiz-adv-x="1732" arabic-form="final" 
d="M854 0q-401 0 -585 163q-167 147 -167 443q0 176 53 322l289 47q-70 -153 -70 -338q0 -223 111 -320q117 -104 397 -104h453q-18 465 -500 578v198l809 508v-268l-500 -301q428 -194 455 -715h164v-213h-909z" />
    <glyph glyph-name="uniFB90" unicode="&#x6a9;" horiz-adv-x="1005" arabic-form="initial" 
d="M0 213h608q-18 465 -502 578v198l812 508v-268l-500 -301q454 -204 454 -791v-137h-872v213z" />
    <glyph glyph-name="uniFB91" unicode="&#x6a9;" horiz-adv-x="1005" arabic-form="medial" 
d="M0 213h608q-18 465 -502 578v198l812 508v-268l-500 -301q425 -193 452 -715h166v-213h-1036v213z" />
    <glyph glyph-name="uniFB92" unicode="&#x6af;" horiz-adv-x="1732" arabic-form="isolated" 
d="M854 0q-401 0 -585 163q-167 147 -167 443q0 176 53 322l289 47q-70 -153 -70 -338q0 -223 111 -320q117 -104 397 -104h453q-18 465 -500 578v174l809 510v-246l-500 -301q457 -205 457 -791v-137h-747zM835 1364l809 510v-234l-809 -507v231z" />
    <glyph glyph-name="uniFB93" unicode="&#x6af;" horiz-adv-x="1732" arabic-form="final" 
d="M854 0q-401 0 -585 163q-167 147 -167 443q0 176 53 322l289 47q-70 -153 -70 -338q0 -223 111 -320q117 -104 397 -104h453q-18 465 -500 578v174l809 510v-246l-500 -301q428 -194 455 -715h164v-213h-909zM835 1364l809 510v-234l-809 -507v231z" />
    <glyph glyph-name="uniFB94" unicode="&#x6af;" horiz-adv-x="1005" arabic-form="initial" 
d="M0 213h608q-18 465 -502 578v174l812 510v-246l-500 -301q454 -204 454 -791v-137h-872v213zM106 1364l812 510v-234l-812 -507v231z" />
    <glyph glyph-name="uniFB95" unicode="&#x6af;" horiz-adv-x="1005" arabic-form="medial" 
d="M0 213h608q-18 465 -502 578v174l812 510v-246l-500 -301q425 -193 452 -715h166v-213h-1036v213zM106 1364l812 510v-234l-812 -507v231z" />
    <glyph glyph-name="uniFB96" unicode="&#x6b3;" horiz-adv-x="1732" arabic-form="isolated" 
d="M854 0q-401 0 -585 163q-167 147 -167 443q0 176 53 322l289 47q-70 -153 -70 -338q0 -223 111 -320q117 -104 397 -104h453q-18 465 -500 578v174l809 510v-246l-500 -301q457 -205 457 -791v-137h-747zM835 1364l809 510v-234l-809 -507v231zM1008 -438q38 -36 38 -88
t-37 -89q-37 -36 -90 -36t-89 36q-36 37 -36 89t36 88q36 37 89 37q52 0 89 -37zM1008 -138q38 -36 38 -88q0 -53 -37 -88t-90 -35t-89 35q-36 36 -36 88t36 88q36 37 89 37q52 0 89 -37z" />
    <glyph glyph-name="uniFB97" unicode="&#x6b3;" horiz-adv-x="1732" arabic-form="final" 
d="M854 0q-401 0 -585 163q-167 147 -167 443q0 176 53 322l289 47q-70 -153 -70 -338q0 -223 111 -320q117 -104 397 -104h453q-18 465 -500 578v174l809 510v-246l-500 -301q428 -194 455 -715h164v-213h-909zM835 1364l809 510v-234l-809 -507v231zM1008 -438
q38 -36 38 -88t-37 -89q-37 -36 -90 -36t-89 36q-36 37 -36 89t36 88q36 37 89 37q52 0 89 -37zM1008 -138q38 -36 38 -88q0 -53 -37 -88t-90 -35t-89 35q-36 36 -36 88t36 88q36 37 89 37q52 0 89 -37z" />
    <glyph glyph-name="uniFB98" unicode="&#x6b3;" horiz-adv-x="1005" arabic-form="initial" 
d="M0 213h608q-18 465 -502 578v174l812 510v-246l-500 -301q454 -204 454 -791v-137h-872v213zM106 1364l812 510v-234l-812 -507v231zM508 -438q38 -36 38 -88t-37 -89q-37 -36 -90 -36t-89 36q-36 37 -36 89t36 88q36 37 89 37q52 0 89 -37zM508 -138q38 -36 38 -88
q0 -53 -37 -88t-90 -35t-89 35q-36 36 -36 88t36 88q36 37 89 37q52 0 89 -37z" />
    <glyph glyph-name="uniFB99" unicode="&#x6b3;" horiz-adv-x="1005" arabic-form="medial" 
d="M0 213h608q-18 465 -502 578v174l812 510v-246l-500 -301q425 -193 452 -715h166v-213h-1036v213zM106 1364l812 510v-234l-812 -507v231zM508 -438q38 -36 38 -88t-37 -89q-37 -36 -90 -36t-89 36q-36 37 -36 89t36 88q36 37 89 37q52 0 89 -37zM508 -138q38 -36 38 -88
q0 -53 -37 -88t-90 -35t-89 35q-36 36 -36 88t36 88q36 37 89 37q52 0 89 -37z" />
    <glyph glyph-name="uniFB9A" unicode="&#x6b1;" horiz-adv-x="1732" arabic-form="isolated" 
d="M854 0q-401 0 -585 163q-167 147 -167 443q0 176 53 322l289 47q-70 -153 -70 -338q0 -223 111 -320q117 -104 397 -104h453q-18 465 -500 578v174l809 510v-246l-500 -301q457 -205 457 -791v-137h-747zM1061 1589q-40 40 -40 98t40 99t97 41t96 -41q40 -40 40 -99
q0 -57 -40 -98q-39 -41 -96 -41q-58 0 -97 41zM723 1589q-40 40 -40 98t40 99q39 41 96 41q56 0 96 -41q39 -40 39 -99q0 -57 -39 -98q-40 -41 -96 -41q-57 0 -96 41zM1347 1687l297 187v-234l-809 -507v231l237 150q39 -19 86 -19q79 0 134 58q54 55 55 134z" />
    <glyph glyph-name="uniFB9B" unicode="&#x6b1;" horiz-adv-x="1732" arabic-form="final" 
d="M854 0q-401 0 -585 163q-167 147 -167 443q0 176 53 322l289 47q-70 -153 -70 -338q0 -223 111 -320q117 -104 397 -104h453q-18 465 -500 578v174l809 510v-246l-500 -301q428 -194 455 -715h164v-213h-909zM1061 1589q-40 40 -40 98t40 99t97 41t96 -41q40 -40 40 -99
q0 -57 -40 -98q-39 -41 -96 -41q-58 0 -97 41zM723 1589q-40 40 -40 98t40 99q39 41 96 41q56 0 96 -41q39 -40 39 -99q0 -57 -39 -98q-40 -41 -96 -41q-57 0 -96 41zM1347 1687l297 187v-234l-809 -507v231l237 150q39 -19 86 -19q79 0 134 58q54 55 55 134z" />
    <glyph glyph-name="uniFB9C" unicode="&#x6b1;" horiz-adv-x="1005" arabic-form="initial" 
d="M0 213h608q-18 465 -502 578v174l812 510v-246l-500 -301q454 -204 454 -791v-137h-872v213zM475 1639q-40 40 -40 98t40 99t97 41t96 -41q40 -40 40 -99q0 -57 -40 -98q-39 -41 -96 -41q-58 0 -97 41zM137 1639q-40 40 -40 98t40 99q39 41 96 41q56 0 96 -41
q39 -40 39 -99q0 -57 -39 -98q-40 -41 -96 -41q-57 0 -96 41zM758 1773l160 101v-234l-809 -507v231l347 219q49 -38 116 -38q79 0 134 58q55 56 55 136q0 18 -3 34z" />
    <glyph glyph-name="uniFB9D" unicode="&#x6b1;" horiz-adv-x="1005" arabic-form="medial" 
d="M0 213h608q-18 465 -502 578v174l812 510v-246l-500 -301q425 -193 452 -715h166v-213h-1036v213zM475 1639q-40 40 -40 98t40 99t97 41t96 -41q40 -40 40 -99q0 -57 -40 -98q-39 -41 -96 -41q-58 0 -97 41zM137 1639q-40 40 -40 98t40 99q39 41 96 41q56 0 96 -41
q39 -40 39 -99q0 -57 -39 -98q-40 -41 -96 -41q-57 0 -96 41zM758 1773l160 101v-234l-809 -507v231l347 219q49 -38 116 -38q79 0 134 58q55 56 55 136q0 18 -3 34z" />
    <glyph glyph-name="uniFB9E" unicode="&#x6ba;" horiz-adv-x="1366" arabic-form="isolated" 
d="M1214 145q0 -616 -577 -616q-541 0 -541 582q0 188 49 366l279 51q-58 -204 -58 -393q0 -395 291 -395q287 0 287 389v834h270v-818z" />
    <glyph glyph-name="uniFB9F" unicode="&#x6ba;" horiz-adv-x="1361" arabic-form="final" 
d="M1189 213h203v-213h-213q-62 -471 -567 -471q-541 0 -541 582q0 188 49 366l279 51q-58 -204 -58 -393q0 -395 291 -395q287 0 287 389v834h270v-750z" />
    <glyph glyph-name="uniFBA0" unicode="&#x6bb;" horiz-adv-x="1343" arabic-form="isolated" 
d="M1189 145q0 -616 -577 -616q-541 0 -541 582q0 188 49 366l279 51q-58 -204 -58 -393q0 -395 291 -395q287 0 287 389v834h270v-818zM676 1299q-66 0 -127 -68q-59 -64 -80 -151h137q148 0 148 120q0 99 -78 99zM471 1391q0 -44 -14 -119h2q86 141 241 141
q205 0 205 -198q0 -116 -81 -182q-84 -68 -234 -68h-264v586h145v-160z" />
    <glyph glyph-name="uniFBA1" unicode="&#x6bb;" horiz-adv-x="1361" arabic-form="final" 
d="M1189 213h203v-213h-213q-62 -471 -567 -471q-541 0 -541 582q0 188 49 366l279 51q-58 -204 -58 -393q0 -395 291 -395q287 0 287 389v834h270v-750zM676 1299q-66 0 -127 -68q-59 -64 -80 -151h137q148 0 148 120q0 99 -78 99zM471 1391q0 -44 -14 -119h2
q86 141 241 141q205 0 205 -198q0 -116 -81 -182q-84 -68 -234 -68h-264v586h145v-160z" />
    <glyph glyph-name="uniFBA2" unicode="&#x6bb;" horiz-adv-x="806" arabic-form="initial" 
d="M506 1479q-66 0 -127 -68q-59 -64 -80 -151h137q148 0 148 120q0 99 -78 99zM301 1571q0 -44 -14 -119h2q86 141 241 141q205 0 205 -198q0 -116 -81 -182q-84 -68 -234 -68h-264v586h145v-160zM0 213h385v750h270v-963h-655v213z" />
    <glyph glyph-name="uniFBA3" unicode="&#x6bb;" horiz-adv-x="825" arabic-form="medial" 
d="M0 213h385v750h270v-750h201v-213h-856v213zM301 1571q0 -44 -14 -119h2q86 141 241 141q205 0 205 -198q0 -116 -81 -182q-84 -68 -234 -68h-264v586h145v-160zM506 1479q-66 0 -127 -68q-59 -64 -80 -151h137q148 0 148 120q0 99 -78 99z" />
    <glyph glyph-name="uniFBA4" unicode="&#x6c0;" horiz-adv-x="1216" arabic-form="isolated" 
d="M626 0q-549 0 -549 473q0 221 134 363q145 153 401 153q462 0 462 -471v-518h-448zM810 485q0 291 -219 291q-113 0 -179 -78q-65 -76 -65 -198q0 -287 308 -287h155v272zM308 1288q77 0 115 -8q-39 19 -39 80q0 96 68 158q79 71 229 71q49 0 121 -10l-25 -154
q-51 11 -102 11q-98 0 -98 -70q0 -78 141 -78h117v-153h-527v153z" />
    <glyph glyph-name="uniFBA5" unicode="&#x6c0;" horiz-adv-x="1218" arabic-form="final" 
d="M626 0q-549 0 -549 475q0 218 130 358q146 156 413 156q241 0 428 -71v-705h200v-213h-622zM786 739q-78 37 -195 37q-113 0 -179 -78q-65 -76 -65 -198q0 -287 308 -287h131v526zM308 1288q77 0 115 -8q-39 19 -39 80q0 96 68 158q79 71 229 71q49 0 121 -10l-25 -154
q-51 11 -102 11q-98 0 -98 -70q0 -78 141 -78h117v-153h-527v153z" />
    <glyph glyph-name="uniFBA6" unicode="&#x6c1;" horiz-adv-x="1216" arabic-form="isolated" 
d="M626 0q-549 0 -549 473q0 221 134 363q145 153 401 153q462 0 462 -471v-518h-448zM810 485q0 291 -219 291q-113 0 -179 -78q-65 -76 -65 -198q0 -287 308 -287h155v272z" />
    <glyph glyph-name="uniFBA7" unicode="&#x6c1;" horiz-adv-x="1157" arabic-form="final" 
d="M1187 0h-55q-490 0 -490 432v62q-223 -47 -399 -314l-168 139q281 410 727 410q49 0 102 -4v-227q0 -159 57 -223q55 -62 191 -62h35v-213z" />
    <glyph glyph-name="uniFBA8" unicode="&#x6c1;" horiz-adv-x="708" arabic-form="initial" 
d="M0 213h287v750h270v-963h-557v213zM106 -360q0 191 287 264l43 -94q-102 -53 -102 -111q0 -18 8 -41t8 -39q0 -47 -31 -80q-34 -35 -90 -35q-123 0 -123 136z" />
    <glyph glyph-name="uniFBA9" unicode="&#x6c1;" horiz-adv-x="1472" arabic-form="medial" 
d="M1503 0h-229v-532h-248q-282 0 -438 140q-154 138 -154 386q0 119 23 203l-4 2q-95 -199 -322 -199h-131v213h152q126 0 202 100q74 96 74 248v197h260v-703q0 -373 324 -377v535h491v-213zM99 -504q-36 41 -36 105q0 166 205 305l76 -76q-74 -71 -74 -129q0 -23 23 -59
q22 -36 22 -74q0 -45 -32 -79q-35 -36 -86 -36q-62 0 -98 43z" />
    <glyph glyph-name="uniFBAA" unicode="&#x6be;" horiz-adv-x="1609" arabic-form="isolated" 
d="M40 0v213h170q55 0 96 -10q-53 49 -53 131q0 153 104 247q107 97 289 97q195 0 292 -122q85 -108 85 -296v-47h207v25q0 320 -137 471q-140 153 -443 153q-213 0 -438 -74l-25 193q247 80 496 80q805 0 805 -842v-219h-1448zM802 264q0 244 -174 244q-154 0 -154 -141
q0 -162 193 -162h135v59z" />
    <glyph glyph-name="uniFBAB" unicode="&#x6be;" horiz-adv-x="1405" arabic-form="final" 
d="M1436 0h-188q-65 0 -160 16v-4q176 -50 176 -243q0 -192 -122 -308q-124 -116 -334 -116q-505 0 -543 655h-213v213h215q49 560 463 836q498 -254 498 -570q0 -200 -142 -274v-4q119 12 160 12h190v-213zM531 0q32 -442 291 -442q178 0 178 200q0 112 -81 176
q-85 66 -240 66h-148zM529 213h170q266 0 266 223q0 162 -217 303q-194 -181 -219 -526z" />
    <glyph glyph-name="uniFBAC" unicode="&#x6be;" horiz-adv-x="1569" arabic-form="initial" 
d="M0 0v213h170q55 0 96 -10q-53 49 -53 131q0 153 104 247q107 97 289 97q195 0 292 -122q85 -108 85 -296v-47h207v25q0 320 -137 471q-140 153 -443 153q-213 0 -438 -74l-25 193q247 80 496 80q805 0 805 -842v-219h-1448zM762 264q0 244 -174 244q-154 0 -154 -141
q0 -162 193 -162h135v59z" />
    <glyph glyph-name="uniFBAD" unicode="&#x6be;" horiz-adv-x="1353" arabic-form="medial" 
d="M1384 0h-188q-65 0 -160 16v-4q176 -50 176 -243q0 -192 -122 -308q-124 -116 -334 -116q-505 0 -543 655h-213v213h215q49 560 463 836q498 -254 498 -570q0 -200 -142 -274v-4q119 12 160 12h190v-213zM479 0q32 -442 291 -442q178 0 178 200q0 112 -81 176
q-85 66 -240 66h-148zM477 213h170q266 0 266 223q0 162 -217 303q-194 -181 -219 -526z" />
    <glyph glyph-name="uniFBAE" unicode="&#x6d2;" horiz-adv-x="1536" arabic-form="isolated" 
d="M170 0q-50 375 151 678q206 311 529 311q338 0 338 -356v-121h-260v76q0 182 -127 182q-142 0 -260 -190q-111 -180 -111 -367h1030v-213h-1290z" />
    <glyph glyph-name="uniFBAF" unicode="&#x6d2;" horiz-adv-x="1619" arabic-form="final" 
d="M166 -655q-42 358 170 604q226 264 641 264h709v-213h-744q-242 0 -389 -150q-127 -129 -127 -292h1030v-213h-1290z" />
    <glyph glyph-name="uniFBB0" unicode="&#x6d3;" horiz-adv-x="1536" arabic-form="isolated" 
d="M170 0q-50 375 151 678q206 311 529 311q338 0 338 -356v-121h-260v76q0 182 -127 182q-142 0 -260 -190q-111 -180 -111 -367h1030v-213h-1290zM426 1288q77 0 115 -8q-39 19 -39 80q0 96 68 158q79 71 229 71q49 0 121 -10l-25 -154q-51 11 -102 11q-99 0 -99 -70
q0 -78 142 -78h117v-153h-527v153z" />
    <glyph glyph-name="uniFBB1" unicode="&#x6d3;" horiz-adv-x="1619" arabic-form="final" 
d="M132 -655q-42 358 170 604q226 264 641 264h709v-213h-744q-242 0 -389 -150q-127 -129 -127 -292h1030v-213h-1290zM91 543q76 0 115 -8q-39 19 -39 79q0 96 68 158q79 72 229 72q49 0 121 -10l-25 -154q-51 10 -102 10q-99 0 -99 -69q0 -78 142 -78h116v-154h-526v154z
" />
    <glyph glyph-name="uniFBD3" unicode="&#x6ad;" horiz-adv-x="1755" arabic-form="isolated" 
d="M618 997q77 0 115 -8q-39 20 -39 80q0 96 68 158q79 71 229 71q49 0 121 -10l-25 -153q-51 10 -102 10q-99 0 -99 -70q0 -78 142 -78h116v-153h-526v153zM854 0q-401 0 -585 163q-167 147 -167 443q0 176 53 322l289 47q-70 -153 -70 -338q0 -223 111 -320
q117 -104 397 -104h428v1231h271v-1444h-727zM1335 1868q-36 37 -36 91t36 91q36 38 88 38q54 0 91 -38q36 -37 36 -91t-36 -91q-37 -38 -91 -38q-52 0 -88 38zM1498 1580q-40 40 -40 98t40 99t97 41t96 -41q40 -40 40 -99q0 -57 -40 -98q-39 -41 -96 -41q-58 0 -97 41z
M1160 1580q-40 40 -40 98t40 99q39 41 96 41q56 0 96 -41q39 -40 39 -99q0 -57 -39 -98q-40 -41 -96 -41q-57 0 -96 41z" />
    <glyph glyph-name="uniFBD4" unicode="&#x6ad;" horiz-adv-x="1755" arabic-form="final" 
d="M854 0q-401 0 -585 163q-167 147 -167 443q0 176 53 322l289 47q-70 -153 -70 -338q0 -223 111 -320q117 -104 397 -104h428v1231h271v-1231h204v-213h-931zM618 997q77 0 115 -8q-39 20 -39 80q0 96 68 158q79 71 229 71q49 0 121 -10l-25 -153q-51 10 -102 10
q-99 0 -99 -70q0 -78 142 -78h116v-153h-526v153zM1335 1868q-36 37 -36 91t36 91q36 38 88 38q54 0 91 -38q36 -37 36 -91t-36 -91q-37 -38 -91 -38q-52 0 -88 38zM1498 1580q-40 40 -40 98t40 99t97 41t96 -41q40 -40 40 -99q0 -57 -40 -98q-39 -41 -96 -41q-58 0 -97 41z
M1160 1580q-40 40 -40 98t40 99q39 41 96 41q56 0 96 -41q39 -40 39 -99q0 -57 -39 -98q-40 -41 -96 -41q-57 0 -96 41z" />
    <glyph glyph-name="uniFBD5" unicode="&#x6ad;" horiz-adv-x="1005" arabic-form="initial" 
d="M0 213h608q-18 465 -502 578v198l812 508v-268l-500 -301q454 -204 454 -791v-137h-872v213zM308 1727q-36 37 -36 91t36 91q36 38 88 38q54 0 91 -38q36 -37 36 -91t-36 -91q-37 -38 -91 -38q-52 0 -88 38zM471 1439q-40 40 -40 98t40 99t97 41t96 -41q40 -40 40 -99
q0 -57 -40 -98q-39 -41 -96 -41q-58 0 -97 41zM133 1439q-40 40 -40 98t40 99q39 41 96 41q56 0 96 -41q39 -40 39 -99q0 -57 -39 -98q-40 -41 -96 -41q-57 0 -96 41z" />
    <glyph glyph-name="uniFBD6" unicode="&#x6ad;" horiz-adv-x="1005" arabic-form="medial" 
d="M0 213h608q-18 465 -502 578v198l812 508v-268l-500 -301q425 -193 452 -715h166v-213h-1036v213zM308 1727q-36 37 -36 91t36 91q36 38 88 38q54 0 91 -38q36 -37 36 -91t-36 -91q-37 -38 -91 -38q-52 0 -88 38zM471 1439q-40 40 -40 98t40 99t97 41t96 -41
q40 -40 40 -99q0 -57 -40 -98q-39 -41 -96 -41q-58 0 -97 41zM133 1439q-40 40 -40 98t40 99q39 41 96 41q56 0 96 -41q39 -40 39 -99q0 -57 -39 -98q-40 -41 -96 -41q-57 0 -96 41z" />
    <glyph glyph-name="uniFBD7" unicode="&#x6c7;" horiz-adv-x="1200" arabic-form="isolated" 
d="M95 -489l17 221q160 -35 319 -35q355 0 355 272v31h-160q-549 0 -549 475q0 218 130 358q146 156 413 156q241 0 428 -71v-922q0 -228 -149 -362q-166 -150 -492 -150q-154 0 -312 27zM786 739q-78 37 -195 37q-113 0 -179 -78q-65 -76 -65 -198q0 -287 308 -287h131v526
zM320 1206l158 33q-13 29 -13 68q0 81 60 134q57 52 143 52q80 0 127 -43q43 -41 43 -106q0 -142 -194 -183l-299 -63zM633 1272q82 17 82 61q0 51 -55 51q-74 0 -74 -75q0 -27 10 -43z" />
    <glyph glyph-name="uniFBD8" unicode="&#x6c7;" horiz-adv-x="1251" arabic-form="final" 
d="M128 -489l17 221q160 -35 319 -35q355 0 355 272v31h-160q-549 0 -549 475q0 218 130 358q146 156 413 156q241 0 428 -71v-705h200v-213h-200v-4q0 -228 -149 -362q-166 -150 -492 -150q-154 0 -312 27zM819 739q-78 37 -195 37q-113 0 -179 -78q-65 -76 -65 -198
q0 -287 308 -287h131v526zM360 1206l158 33q-13 29 -13 68q0 81 60 134q57 52 143 52q80 0 127 -43q43 -41 43 -106q0 -142 -194 -183l-299 -63zM673 1272q82 17 82 61q0 51 -55 51q-74 0 -74 -75q0 -27 10 -43z" />
    <glyph glyph-name="uniFBD9" unicode="&#x6c6;" horiz-adv-x="1200" arabic-form="isolated" 
d="M95 -489l17 221q160 -35 319 -35q355 0 355 272v31h-160q-549 0 -549 475q0 218 130 358q146 156 413 156q241 0 428 -71v-922q0 -228 -149 -362q-166 -150 -492 -150q-154 0 -312 27zM786 739q-78 37 -195 37q-113 0 -179 -78q-65 -76 -65 -198q0 -287 308 -287h131v526
zM888 1373l-289 -255l-288 257l92 109l195 -153l196 153z" />
    <glyph glyph-name="uniFBDA" unicode="&#x6c6;" horiz-adv-x="1251" arabic-form="final" 
d="M128 -489l17 221q160 -35 319 -35q355 0 355 272v31h-160q-549 0 -549 475q0 218 130 358q146 156 413 156q241 0 428 -71v-705h200v-213h-200v-4q0 -228 -149 -362q-166 -150 -492 -150q-154 0 -312 27zM819 739q-78 37 -195 37q-113 0 -179 -78q-65 -76 -65 -198
q0 -287 308 -287h131v526zM918 1373l-289 -255l-288 257l92 109l195 -153l196 153z" />
    <glyph glyph-name="uniFBDB" unicode="&#x6c8;" horiz-adv-x="1200" arabic-form="isolated" 
d="M95 -489l17 221q160 -35 319 -35q355 0 355 272v31h-160q-549 0 -549 475q0 218 130 358q146 156 413 156q241 0 428 -71v-922q0 -228 -149 -362q-166 -150 -492 -150q-154 0 -312 27zM786 739q-78 37 -195 37q-113 0 -179 -78q-65 -76 -65 -198q0 -287 308 -287h131v526
zM507 1106v483h195v-455z" />
    <glyph glyph-name="uniFBDC" unicode="&#x6c8;" horiz-adv-x="1251" arabic-form="final" 
d="M128 -489l17 221q160 -35 319 -35q355 0 355 272v31h-160q-549 0 -549 475q0 218 130 358q146 156 413 156q241 0 428 -71v-705h200v-213h-200v-4q0 -228 -149 -362q-166 -150 -492 -150q-154 0 -312 27zM819 739q-78 37 -195 37q-113 0 -179 -78q-65 -76 -65 -198
q0 -287 308 -287h131v526zM527 1106v483h195v-455z" />
    <glyph glyph-name="uniFBDD" unicode="&#x677;" horiz-adv-x="1382" arabic-form="isolated" 
d="M95 -489l17 221q160 -35 319 -35q355 0 355 272v31h-160q-549 0 -549 475q0 218 130 358q146 156 413 156q241 0 428 -71v-922q0 -228 -149 -362q-166 -150 -492 -150q-154 0 -312 27zM786 739q-78 37 -195 37q-113 0 -179 -78q-65 -76 -65 -198q0 -287 308 -287h131v526
zM765 1276q76 0 114 -8q-38 19 -38 80q0 96 67 157q79 72 230 72q49 0 120 -10l-24 -154q-51 10 -103 10q-98 0 -98 -69q0 -78 141 -78h117v-154h-526v154zM118 1229l176 37q-13 32 -13 76q0 91 66 150q65 58 161 58q89 0 141 -48q49 -46 49 -119q0 -158 -218 -204l-334 -71
zM469 1303q91 19 91 68q0 58 -62 58q-82 0 -82 -85q0 -30 11 -48z" />
    <glyph glyph-name="uniFBDE" unicode="&#x6cb;" horiz-adv-x="1200" arabic-form="isolated" 
d="M95 -489l17 221q160 -35 319 -35q355 0 355 272v31h-160q-549 0 -549 475q0 218 130 358q146 156 413 156q241 0 428 -71v-922q0 -228 -149 -362q-166 -150 -492 -150q-154 0 -312 27zM786 739q-78 37 -195 37q-113 0 -179 -78q-65 -76 -65 -198q0 -287 308 -287h131v526
zM512 1447q-36 37 -36 91t36 91q37 38 89 38q53 0 90 -38q37 -37 37 -91t-37 -91q-37 -38 -90 -38q-52 0 -89 38zM675 1159q-39 40 -39 98t39 99q40 41 98 41q57 0 96 -41q39 -40 39 -99q0 -57 -39 -98q-40 -41 -96 -41q-58 0 -98 41zM337 1159q-39 40 -39 98t39 99
q40 41 96 41q57 0 96 -41q39 -40 39 -99q0 -57 -39 -98q-40 -41 -96 -41q-57 0 -96 41z" />
    <glyph glyph-name="uniFBDF" unicode="&#x6cb;" horiz-adv-x="1251" arabic-form="final" 
d="M128 -489l17 221q160 -35 319 -35q355 0 355 272v31h-160q-549 0 -549 475q0 218 130 358q146 156 413 156q241 0 428 -71v-705h200v-213h-200v-4q0 -228 -149 -362q-166 -150 -492 -150q-154 0 -312 27zM819 739q-78 37 -195 37q-113 0 -179 -78q-65 -76 -65 -198
q0 -287 308 -287h131v526zM532 1447q-36 37 -36 91t36 91q37 38 89 38q53 0 90 -38q37 -37 37 -91t-37 -91q-37 -38 -90 -38q-52 0 -89 38zM695 1159q-39 40 -39 98t39 99q40 41 98 41q57 0 96 -41q39 -40 39 -99q0 -57 -39 -98q-40 -41 -96 -41q-58 0 -98 41zM357 1159
q-39 40 -39 98t39 99q40 41 96 41q57 0 96 -41q39 -40 39 -99q0 -57 -39 -98q-40 -41 -96 -41q-57 0 -96 41z" />
    <glyph glyph-name="uniFBE0" unicode="&#x6c5;" horiz-adv-x="1200" arabic-form="isolated" 
d="M786 739q-78 37 -195 37q-113 0 -179 -78q-65 -76 -65 -198q0 -287 308 -287h131v526zM791 -3v76h-511q-203 113 -203 402q0 218 130 358q146 156 413 156q241 0 428 -71v-922q0 -228 -149 -362q-166 -150 -492 -150q-154 0 -312 27l17 221q160 -35 319 -35
q268 0 334 156h-483v144h509z" />
    <glyph glyph-name="uniFBE1" unicode="&#x6c5;" horiz-adv-x="1251" arabic-form="final" 
d="M819 739q-78 37 -195 37q-113 0 -179 -78q-65 -76 -65 -198q0 -287 308 -287h131v526zM831 -3v76h-518q-203 113 -203 402q0 218 130 358q146 156 413 156q241 0 428 -71v-705h200v-213h-200v-4q0 -228 -149 -362q-166 -150 -492 -150q-154 0 -312 27l17 221
q160 -35 319 -35q268 0 334 156h-486v144h519z" />
    <glyph glyph-name="uniFBE2" unicode="&#x6c9;" horiz-adv-x="1200" arabic-form="isolated" 
d="M95 -489l17 221q160 -35 319 -35q355 0 355 272v31h-160q-549 0 -549 475q0 218 130 358q146 156 413 156q241 0 428 -71v-922q0 -228 -149 -362q-166 -150 -492 -150q-154 0 -312 27zM786 739q-78 37 -195 37q-113 0 -179 -78q-65 -76 -65 -198q0 -287 308 -287h131v526
zM794 1118l-196 153l-195 -153l-92 109l288 257l289 -255z" />
    <glyph glyph-name="uniFBE3" unicode="&#x6c9;" horiz-adv-x="1251" arabic-form="final" 
d="M128 -489l17 221q160 -35 319 -35q355 0 355 272v31h-160q-549 0 -549 475q0 218 130 358q146 156 413 156q241 0 428 -71v-705h200v-213h-200v-4q0 -228 -149 -362q-166 -150 -492 -150q-154 0 -312 27zM819 739q-78 37 -195 37q-113 0 -179 -78q-65 -76 -65 -198
q0 -287 308 -287h131v526zM824 1118l-196 153l-195 -153l-92 109l288 257l289 -255z" />
    <glyph glyph-name="uniFBE4" unicode="&#x6d0;" horiz-adv-x="2048" arabic-form="isolated" 
d="M854 0q-401 0 -585 163q-167 147 -167 443q0 176 53 322l289 47q-70 -153 -70 -338q0 -223 111 -320q117 -104 397 -104h140v737q190 39 411 39q258 0 372 -121q101 -108 101 -331v-291h-262v262q0 148 -50 208t-177 60q-68 0 -135 -12v-764h-428zM900 -398
q-41 -39 -99 -39q-57 0 -98 39q-41 40 -41 96q0 57 40 96q40 40 99 40q57 0 98 -40q41 -39 41 -96q0 -56 -40 -96zM900 -738q-41 -39 -99 -39q-57 0 -98 39q-41 40 -41 96q0 59 40 98q40 40 99 40q57 0 98 -40t41 -98q0 -56 -40 -96z" />
    <glyph glyph-name="uniFBE5" unicode="&#x6d0;" horiz-adv-x="2048" arabic-form="final" 
d="M854 0q-401 0 -585 163q-167 147 -167 443q0 176 53 322l289 47q-70 -153 -70 -338q0 -223 111 -320q117 -104 397 -104h140v737q190 39 411 39q258 0 372 -121q101 -108 101 -331v-324h172v-213h-434v508q0 148 -50 208t-177 60q-68 0 -135 -12v-764h-428zM900 -398
q-41 -39 -99 -39q-57 0 -98 39q-41 40 -41 96q0 57 40 96q40 40 99 40q57 0 98 -40q41 -39 41 -96q0 -56 -40 -96zM900 -738q-41 -39 -99 -39q-57 0 -98 39q-41 40 -41 96q0 59 40 98q40 40 99 40q57 0 98 -40t41 -98q0 -56 -40 -96z" />
    <glyph glyph-name="uniFBE6" unicode="&#x6d0;" horiz-adv-x="708" arabic-form="initial" 
d="M0 213h287v750h270v-963h-557v213zM370 -400q-41 -39 -99 -39q-57 0 -98 39q-41 40 -41 96q0 57 40 96q40 40 99 40q57 0 98 -40q41 -39 41 -96q0 -56 -40 -96zM370 -740q-41 -39 -99 -39q-57 0 -98 39q-41 40 -41 96q0 59 40 98q40 40 99 40q57 0 98 -40t41 -98
q0 -56 -40 -96z" />
    <glyph glyph-name="uniFBE7" unicode="&#x6d0;" horiz-adv-x="727" arabic-form="medial" 
d="M0 213h287v750h270v-750h201v-213h-758v213zM370 -400q-41 -39 -99 -39q-57 0 -98 39q-41 40 -41 96q0 57 40 96q40 40 99 40q57 0 98 -40q41 -39 41 -96q0 -56 -40 -96zM370 -740q-41 -39 -99 -39q-57 0 -98 39q-41 40 -41 96q0 59 40 98q40 40 99 40q57 0 98 -40
t41 -98q0 -56 -40 -96z" />
    <glyph glyph-name="uniFBE8" unicode="&#x649;" horiz-adv-x="806" arabic-form="initial" 
d="M0 213h385v750h270v-963h-655v213z" />
    <glyph glyph-name="uniFBE9" unicode="&#x649;" horiz-adv-x="804" arabic-form="medial" 
d="M0 213h287v750h270v-750h279v-213h-836v213z" />
    <glyph glyph-name="uniFBFC" unicode="&#x6cc;" horiz-adv-x="2048" arabic-form="isolated" 
d="M854 0q-401 0 -585 163q-167 147 -167 443q0 176 53 322l289 47q-70 -153 -70 -338q0 -223 111 -320q117 -104 397 -104h140v737q190 39 411 39q258 0 372 -121q101 -108 101 -331v-291h-262v262q0 148 -50 208t-177 60q-68 0 -135 -12v-764h-428z" />
    <glyph glyph-name="uniFBFD" unicode="&#x6cc;" horiz-adv-x="2048" arabic-form="final" 
d="M854 0q-401 0 -585 163q-167 147 -167 443q0 176 53 322l289 47q-70 -153 -70 -338q0 -223 111 -320q117 -104 397 -104h140v737q190 39 411 39q258 0 372 -121q101 -108 101 -331v-324h172v-213h-434v508q0 148 -50 208t-177 60q-68 0 -135 -12v-764h-428z" />
    <glyph glyph-name="uniFBFE" unicode="&#x6cc;" horiz-adv-x="806" arabic-form="initial" 
d="M0 213h385v750h270v-963h-655v213zM610 -405q-40 -41 -96 -41q-57 0 -96 40t-39 99q0 57 39 98q40 41 96 41q57 0 96 -40q39 -41 39 -99q0 -57 -39 -98zM272 -405q-40 -41 -98 -41q-57 0 -96 40t-39 99q0 57 39 98q40 41 96 41q58 0 98 -40q39 -41 39 -99t-39 -98z" />
    <glyph glyph-name="uniFBFF" unicode="&#x6cc;" horiz-adv-x="825" arabic-form="medial" 
d="M0 213h385v750h270v-750h201v-213h-856v213zM272 -405q-40 -41 -98 -41q-57 0 -96 40t-39 99q0 57 39 98q40 41 96 41q58 0 98 -40q39 -41 39 -99t-39 -98zM610 -405q-40 -41 -96 -41q-57 0 -96 40t-39 99q0 57 39 98q40 41 96 41q57 0 96 -40q39 -41 39 -99
q0 -57 -39 -98z" />
    <glyph glyph-name="uniFC5E" unicode="&#xfc5e;" arabic-form="isolated" 
d="M-67 2090l106 23l37 -172l88 18q-12 31 -12 62q0 81 56 134q55 52 137 52q153 0 153 -141q0 -143 -172 -176l-336 -70zM316 1990q70 16 70 72q0 45 -52 45q-69 0 -69 -76q0 -27 8 -49zM154 1523q-86 0 -112 133l-17 76l105 20l14 -71q9 -45 39 -45q46 0 35 63l-13 78
l101 20l16 -75q11 -52 43 -52q47 0 37 76l-14 82l102 19l14 -76q19 -93 -18 -150t-121 -57q-53 0 -84 37q-30 -78 -127 -78z" />
    <glyph glyph-name="uniFC5F" unicode="&#xfc5f;" arabic-form="isolated" 
d="M82 1789l430 66l16 -100l-430 -66zM106 1632l432 67l15 -100l-431 -68zM145 1882q-91 0 -115 135l-14 76l102 18l15 -72q5 -45 39 -45q45 -3 34 62l-10 78l101 18l14 -76q12 -53 43 -53q47 3 37 76l-13 82l103 16l14 -76q16 -94 -21 -148q-38 -55 -120 -57q-54 0 -86 39
q-32 -73 -123 -73z" />
    <glyph glyph-name="uniFC60" unicode="&#xfc60;" arabic-form="isolated" 
d="M61 1962l422 65l16 -100l-422 -68zM208 1527q-90 0 -114 135l-15 78l105 19l12 -74q9 -43 41 -43q43 0 33 61l-10 76l102 21l14 -76q9 -53 41 -53q48 0 37 75l-12 80l104 19l13 -76q17 -94 -21 -148q-38 -55 -121 -57q-53 0 -86 39q-28 -76 -123 -76z" />
    <glyph glyph-name="uniFC61" unicode="&#xfc61;" arabic-form="isolated" 
d="M154 1523q-87 0 -113 133l-16 76l104 20l15 -71q9 -45 38 -45q46 0 35 63l-12 78l100 20l17 -75q11 -52 43 -52q47 0 37 76l-15 82l103 19l14 -76q19 -93 -18 -150q-38 -57 -121 -57q-54 0 -84 37q-31 -78 -127 -78zM-8 1926l143 31q-10 29 -10 68q0 82 56 132
q55 50 141 50q170 0 170 -147q0 -136 -195 -177l-282 -61zM287 1990q82 17 82 61q0 52 -55 52q-70 0 -70 -74q0 -29 10 -45z" />
    <glyph glyph-name="uniFC62" unicode="&#xfc62;" arabic-form="isolated" 
d="M64 1626l433 65l16 -100l-430 -66zM132 1712q-91 0 -115 135l-14 76l102 18l15 -72q5 -45 39 -45q45 -3 34 62l-10 78l101 18l14 -76q12 -53 43 -53q47 3 37 76l-13 82l105 16l12 -76q16 -94 -21 -148q-38 -55 -120 -57q-54 0 -86 39q-32 -73 -123 -73z" />
    <glyph glyph-name="uniFC63" unicode="&#xfc63;" arabic-form="isolated" 
d="M135 1527q-92 -3 -119 121l-16 72l102 18l15 -66q8 -43 41 -43q45 0 35 62l-13 70l101 20l16 -72q12 -50 43 -47q49 0 35 70l-15 76l105 16l14 -68q19 -86 -18 -137q-36 -52 -119 -55q-56 0 -86 33q-32 -66 -121 -70zM164 1828v249h108v-224z" />
    <glyph glyph-name="uniFDF2" unicode="&#xfdf2;" horiz-adv-x="3238" arabic-form="isolated" 
d="M626 0q-549 0 -549 475q0 218 130 358q146 156 413 156q241 0 428 -71v-705h426v1081h270v-1081h428v1231h270v-1444h-1816zM786 739q-78 37 -195 37q-113 0 -179 -78q-65 -76 -65 -198q0 -287 308 -287h131v526zM1490 1447q-92 -3 -119 121l-16 72l102 18l15 -66
q8 -43 41 -43q45 0 35 62l-13 70l101 20l16 -72q12 -50 43 -47q49 0 35 70l-15 76l105 16l14 -68q19 -86 -18 -137q-36 -52 -119 -55q-56 0 -86 33q-32 -66 -121 -70zM1519 1748v249h108v-224zM2773 1444h270v-1444h-270v1444z" />
    <glyph glyph-name="uniFDFA" unicode="&#xfdfa;" horiz-adv-x="2164" arabic-form="isolated" 
d="M2082 895q0 -29 -31.5 -79t-64.5 -64q-94 -43 -238 -43q-47 0 -98 4q-49 -97 -78 -97q-8 0 -8 13q0 30 45 96q-86 33 -98 53q-80 -53 -103 -53q15 -287 51.5 -360.5t172.5 -81.5l4 4q-43 32 -43 88q0 69 65 155q49 66 125 66q60 0 109 -35q49 -33 49 -63q-51 18 -107 18
q-73 0 -133 -29q-53 -28 -53 -55q0 -29 51 -80t90 -59q37 4 139.5 36.5t137.5 51.5l-35 -76q-207 -108 -391 -108q-197 0 -244 149q-61 -133 -117 -133q-53 0 -137 90q-131 -115 -403 -115q-82 0 -144 11q8 -68 19 -107q18 -74 47 -102q90 -90 360 -90q234 0 338 65
q31 76 58 76q8 0 8 -16q0 -29 -25 -91q12 -26 55 -26q54 0 101 24q43 136 67 136q9 0 9 -23q0 -37 -21 -88q64 -27 90 -27q15 0 17 7q2 6 -17 79l35 74q25 -74 25 -106q0 -138 -91 -138q-47 0 -98 39q-31 -53 -121 -53q-98 0 -98 53q-39 -28 -131 -49q-104 -22 -248 -22
q-198 0 -293 57q-118 72 -123 258l-45 -66q-34 -51 -53 -53q25 -43 25 -84q0 -51 -33 -86q-16 -16 -43 -16q-41 0 -125 47q-27 -64 -86 -96q-14 -8 -48 -9.5t-44 -5.5l-23 -8q-12 0 -12 10q0 11 49 31q62 25 80 39l70 53q-21 37 -21 82q0 43 37 85t70 42q6 0 12 -4
q37 -20 59 -20q37 0 74 47l47 86q-78 24 -112 55q-62 55 -80 174h-4q-60 -102 -162 -102q-41 0 -80 16q-33 14 -33 25q0 51 88 118q84 64 174 91l-4 34l41 68q17 -221 44.5 -287.5t113.5 -93.5l-27 270l39 88l35 -368q108 -12 195 -12q213 0 362 81q27 78 39 78q8 0 8 -18
q0 -19 -8 -51q74 -72 121 -72q53 0 86 88l-27 330q-151 -6 -180 151h-4q-17 -61 -29 -86q-22 -51 -55 -61l4 -4q143 10 143 -80q0 -60 -51 -94q-174 -121 -328 -121q-94 0 -151 48t-57 134q0 64 32 137q-57 17 -78 88h-4q-30 -104 -112 -104q-101 0 -97 158l-55 -50
q-16 -14 -80 -14q-100 0 -100 37q0 20 27.5 64.5t50.5 54.5l155 76v20l35 74l8 -246q5 -86 66 -86q31 0 60.5 21.5t33.5 46.5l-33 233l37 80l58 -330q18 -43 67 -43q47 0 47 27q0 41 -32 151q-21 66 -41 133l26 68q82 -258 82 -321q0 -41 -20 -91q-23 -57 -52 -57
q-10 0 -18 6q-14 -43 -14 -80q0 -153 186 -153q145 0 291 98q4 4 4 6q0 12 -78 25q-117 18 -125 20q-24 19 27 82q123 51 131 109q2 10 2 28q0 199 -41 473l35 115q49 -434 78 -524q37 -117 147 -135l-10 196l43 92l16 -286q60 20 123 73q51 -36 62 -43q38 -24 79 -30
q43 47 134 112q104 78 143 78q37 0 84 -28q53 -31 53 -68zM2064 4q0 -100 -80 -221q-86 -131 -182 -131q-45 0 -121 32.5t-76 47.5q0 8 10 8q8 0 55.5 -15.5t71.5 -15.5q139 -4 287 217l-14 45q-37 -53 -76 -53q-29 0 -50.5 26.5t-23.5 57.5q-2 47 32 110.5t56 63.5
q27 0 66 -49q45 -55 45 -123zM1986 1309q-72 -25 -238 -105q-196 -96 -196 -125q0 -24 53 -51l-18 -49q-68 22 -68 82q0 61 53 90q260 149 432 209zM974 915q-6 -135 -26 -149l-52 496l45 116zM1232 76l-53 -64l-98 72l-58 -74l-102 74l59 72l97 -72l55 68zM2025 860
q0 14 -36 32.5t-54 18.5q-43 0 -123 -49q-64 -39 -96 -69q12 -2 41 -2q83 0 167 16q101 20 101 53zM1294 -248q0 -47 -4 -61q-13 -27 -52 -27q-18 0 -28 8q-31 -32 -62 -32q-16 0 -33.5 17t-25.5 17q-17 0 -76 -35.5t-143 -35.5q-90 0 -90 16q0 14 65 14q72 0 94 5
q29 6 72 32q61 39 82 39q16 0 38.5 -16.5t26.5 -16.5q31 0 37 35q4 27 23 27q8 0 8 -12q0 -9 -2 -19q4 -8 23 -12q24 0 24 24q0 33 23 33zM1668 1444l-12 -45l-399 -197l8 51zM345 539q-180 -72 -180 -107q0 -20 64 -20q67 0 121 49zM663 1362q0 -66 -43 -66q-27 0 -43 17
q-37 -31 -62 -31q-43 0 -43 55q0 41 7 56l12 12q-4 -76 35 -76q22 0 39 33l-5 47l19 29l8 -62q4 -33 31 -33q26 0 22 31l-6 45l15 21q14 -39 14 -78zM386 997q-41 -18 -84 -34q-67 -31 -69 -50q-2 -22 51 -22q57 0 104 27zM438 -78q-9 41 -50 70q-36 28 -69 28
q-29 0 -29 -24q0 -27 53 -55q50 -31 80 -31q17 0 15 12zM2004 20q-12 66 -53 66q-31 0 -41 -51q8 -37 64 -37q26 0 30 22z" />
    <glyph glyph-name="uniFDFB" unicode="&#xfdfb;" horiz-adv-x="2558" arabic-form="isolated" 
d="M1505 31q82 -18 333 72q195 71 178 70q8 1 37 -7q41 -14 94 -24l-10 -6q0 -4 -9 -4q-10 -11 -16 -11l-101 -47q-325 -135 -476 -130zM1085 1069q21 104 -41 209q-33 51 -54 51l-6 -66q-1 -10 15 -33q73 -91 73 -199q10 4 13 38zM340 1078q-13 13 0 22q21 15 31 -5
q8 -19 0 -37q-26 17 -31 20zM61 661q-5 -1 -5 -7q12 -9 55 26q149 147 271 322q12 -1 25 -8q1 -3 4 -5t4 -4q22 -13 18 16q-2 17 -35 47q13 104 -40 107q-22 0 -44 -35q-22 -32 -9 -56q6 -13 23 -27q25 -19 29 -25q-114 -165 -296 -351zM821 2095q21 -3 18 -50q-7 2 -42 26
q5 28 24 24zM519 1638q-17 -14 -5 -16t28 11q174 126 303 345q4 4 7 6q37 -23 47 -19q12 22 -6 42l-24 25q13 108 -45 108q-20 0 -43 -32q-26 -35 -13 -60q9 -17 40 -41q2 0 8 -3q5 -4 8 -6q-50 -106 -305 -360zM1293 2120q-24 19 -5 28t31 -8q5 -10 1 -39q-5 1 -27 19z
M1001 1694q-7 -7 -7 -12q26 -24 167 143q96 113 174 217q53 -16 48 -18q6 27 -20 52q-3 3 -7 5q-5 2 -7 6q6 53 2 70q-4 40 -42 44q-25 2 -48 -33q-25 -33 -14 -59q10 -22 59 -51q-76 -131 -305 -364zM1970 817l4 -1l17 -30q26 -44 30 -81q1 -19 13 -17q6 7 36 126
q15 67 37 60q7 -3 15 -14q12 -13 14 -17q19 20 13 53q-6 39 -45 31q-26 -5 -43 -67q-6 -18 -14 -52q-7 -33 -10 -45q-31 108 -78 130q-40 16 -45 -22q-6 -36 25 -57q27 -15 29 -1zM1758 1658l2 13l-3 -2q-244 -96 -321 -173l-2 -51l323 173zM1539 933q23 11 37 18
q13 7 35 21q23 12 36 19q184 106 363 188q9 5 39 20q33 14 36 17l2 50q-12 -2 -39 -16q-31 -16 -39 -20q-189 -90 -386 -199q-107 -55 -114 -63q-4 -13 -4 -55q18 8 34 20zM1633 1354q-2 14 -22 18q-9 -21 1 -58q11 -36 2 -55q-3 -11 -19 -13q-16 -1 -23 7q-7 10 -7 58
q0 46 -22 56q-14 -80 10 -141q12 -36 49 -28q27 6 35 43q56 -28 47 -28q46 1 29 74q-8 44 -35 94q-19 -12 -12 -43q-3 8 20 -59q12 -34 -15 -21q-25 10 -32 52q-1 5 -6 44zM1353 -296q-12 29 -127 86l-10 -15q-30 -90 -23 -101q44 -47 124 -72q44 82 36 102zM2049 -323
q20 45 -2 68q-24 17 -118 62q-4 -8 -12 -30q-7 -21 -11 -32l-11 -35q-1 -14 15 -27q22 -27 106 -63q18 17 33 57zM1670 161q-153 -26 -185 0q-28 19 -20 52q11 36 64 59q69 33 343 -44q-58 -41 -202 -67zM521 392q-3 -2 -48 -36q-36 -29 -53 -32q-35 -14 -68 -9
q-41 8 -28 48q7 27 75 88q67 59 99 72zM1437 377q0 54 58 87q129 88 458 -33l218 -68q-13 -7 -43 -25q-32 -15 -45 -23q-33 -17 -48 -14q-1 0 -48 18l-202 58q-139 47 -212 11q-30 -16 -72 -58q-20 -29 -24 -43q-29 -44 -26 -40q-14 64 -14 130zM521 1458q0 19 -14 34
q-168 121 -203 125v-120q8 0 268 -304q259 -303 267 -323q14 -30 43 -287q29 -251 25 -282q-14 -47 -97 -84q-121 -43 -180 55q-35 59 -62 218q-9 81 -6 90q0 3 37 39q82 82 82 97q-30 9 -126 -88q-12 83 -15 92q-29 59 -53 43q-18 -29 0 -183q-26 -27 -66 -59
q-48 -37 -61 -50q-68 -60 -100 -152q-42 -93 10 -119q-59 -107 -78 -232q-23 -149 30 -251q51 -105 163 -140q110 -34 256 10q196 50 397 203q174 138 251 342q10 -26 24 -96q11 -55 38 -108q53 -95 150 -115q0 -73 9 -87q13 0 15 3l10 21l10 56q1 1 57 7q125 16 387 134
q261 120 389 132q33 3 43 50q10 35 5 75q-94 11 -223 47q23 16 194 59q22 2 37 51q12 37 12 70q-127 16 -334 85q-278 94 -332 108q-168 44 -309 -83q-63 -57 -77 -139q-10 -67 10 -188q-68 55 -68 124l-10 562q0 514 -72 684q-31 -6 -53 -92q-13 -50 22 -415
q37 -390 22 -520q-13 -153 -64 -238q-25 -44 -130 -149q-4 -6 -20 -17q-12 -10 -19 -17q-23 -17 -100 -80q-77 -59 -102 -79q-67 -33 -67 -63q24 6 92 39q200 79 260 154q58 64 101 180q69 179 69 197q3 -21 3 -300q-3 -57 -47 -101q-197 -188 -438 -313q-284 -153 -469 -30
q-55 38 -72 79q-19 45 -16 134q11 87 26 126l32 115q69 -25 156 29q25 15 48 49q33 43 42 52q51 -204 126 -236q68 -39 145 5q88 41 129 158q37 105 24 218q-2 22 -21 162q-14 109 -17 156q171 -248 213 -443q0 -21 15 -29q81 109 -74 380q-49 83 -117 175q-56 79 -56 77
q-31 136 -53 438q12 -7 27 -30q12 -17 32 -22q0 40 -47 148q-44 101 -65 121q-10 -11 -24 -61q-12 -52 -10 -73q27 -76 26 -62q1 -69 36 -382q-22 22 -164 200q-152 189 -202 244z" />
    <glyph glyph-name="uniFDFC" unicode="&#xfdfc;" horiz-adv-x="3350" arabic-form="isolated" 
d="M903 1444h270v-1288q0 -627 -549 -627q-528 0 -528 582q0 188 49 366l279 51q-58 -204 -58 -393q0 -395 281 -395q256 0 256 395v1309zM2310 -405q-40 -41 -96 -41q-57 0 -96 40t-39 99q0 57 39 98q40 41 96 41q57 0 96 -40q39 -41 39 -99q0 -57 -39 -98zM1972 -405
q-40 -41 -98 -41q-57 0 -96 40t-39 99q0 57 39 98q40 41 96 41q58 0 98 -40q39 -41 39 -99t-39 -98zM1494 0v1444h270v-1231h491v750h270v-963h-1031zM2524 -500l20 215q85 -24 166 -24q111 0 163 60q59 68 59 226v986h270v-971q0 -512 -506 -512q-90 0 -172 20z" />
    <glyph glyph-name="uniFE80" unicode="&#x621;" horiz-adv-x="1007" arabic-form="isolated" 
d="M86 211q121 0 188 -12q-71 35 -71 139q0 144 101 235q118 107 343 107q106 0 184 -14l-32 -213q-74 16 -164 16q-162 0 -162 -121q0 -137 234 -137h182v-211h-803v211z" />
    <glyph glyph-name="uniFE81" unicode="&#x622;" horiz-adv-x="618" arabic-form="isolated" 
d="M175 1444h270v-1444h-270v1444zM-40 1700l215 160q86 -80 193 -80q111 0 213 84v-197q-96 -78 -226 -78q-111 0 -182 66l-119 -84z" />
    <glyph glyph-name="uniFE82" unicode="&#x622;" horiz-adv-x="618" arabic-form="final" 
d="M175 1444h270v-1231h205v-213h-475v1444zM-40 1700l215 160q86 -80 193 -80q111 0 213 84v-197q-96 -78 -226 -78q-111 0 -182 66l-119 -84z" />
    <glyph glyph-name="uniFE83" unicode="&#x623;" horiz-adv-x="618" arabic-form="isolated" 
d="M173 1382h271v-1382h-271v1382zM28 1634q85 0 123 -8q-47 25 -47 90q0 83 68 140q80 67 229 67q78 0 121 -12l-25 -139q-51 10 -104 10q-103 0 -103 -70q0 -78 146 -78h120v-141h-528v141z" />
    <glyph glyph-name="uniFE84" unicode="&#x623;" horiz-adv-x="618" arabic-form="final" 
d="M173 1382h271v-1169h205v-213h-476v1382zM28 1634q85 0 123 -8q-47 25 -47 90q0 83 68 140q80 67 229 67q78 0 121 -12l-25 -139q-51 10 -104 10q-103 0 -103 -70q0 -78 146 -78h120v-141h-528v141z" />
    <glyph glyph-name="uniFE85" unicode="&#x624;" horiz-adv-x="1200" arabic-form="isolated" 
d="M95 -489l17 221q160 -35 319 -35q355 0 355 272v31h-160q-549 0 -549 475q0 218 130 358q146 156 413 156q241 0 428 -71v-922q0 -228 -149 -362q-166 -150 -492 -150q-154 0 -312 27zM786 739q-78 37 -195 37q-113 0 -179 -78q-65 -76 -65 -198q0 -287 308 -287h131v526
zM325 1276q76 0 114 -8q-38 19 -38 80q0 96 67 157q79 72 230 72q49 0 120 -10l-24 -154q-51 10 -103 10q-98 0 -98 -69q0 -78 141 -78h117v-154h-526v154z" />
    <glyph glyph-name="uniFE86" unicode="&#x624;" horiz-adv-x="1218" arabic-form="final" 
d="M95 -489l17 221q160 -35 319 -35q355 0 355 272v31h-160q-549 0 -549 475q0 218 130 358q146 156 413 156q241 0 428 -71v-705h200v-213h-200v-4q0 -228 -149 -362q-166 -150 -492 -150q-154 0 -312 27zM786 739q-78 37 -195 37q-113 0 -179 -78q-65 -76 -65 -198
q0 -287 308 -287h131v526zM325 1276q76 0 114 -8q-38 19 -38 80q0 96 67 157q79 72 230 72q49 0 120 -10l-24 -154q-51 10 -103 10q-98 0 -98 -69q0 -78 141 -78h117v-154h-526v154z" />
    <glyph glyph-name="uniFE87" unicode="&#x625;" horiz-adv-x="618" arabic-form="isolated" 
d="M173 1444h271v-1444h-271v1444zM34 -395q73 0 109 -8q-35 26 -35 77q0 82 69 136q78 61 215 61q78 0 121 -12l-24 -140q-72 11 -103 11q-92 0 -92 -60q0 -65 131 -65h125v-144h-516v144z" />
    <glyph glyph-name="uniFE88" unicode="&#x625;" horiz-adv-x="618" arabic-form="final" 
d="M174 1444h270v-1231h205v-213h-475v1444zM10 -395q73 0 109 -8q-35 26 -35 77q0 82 69 136q78 61 215 61q78 0 121 -12l-24 -140q-72 11 -103 11q-92 0 -92 -60q0 -65 131 -65h125v-144h-516v144z" />
    <glyph glyph-name="uniFE89" unicode="&#x626;" horiz-adv-x="2048" arabic-form="isolated" 
d="M854 0q-401 0 -585 163q-167 147 -167 443q0 176 54 322l288 47q-69 -153 -69 -338q0 -223 110 -320q117 -104 398 -104h139v737q190 39 411 39q259 0 372 -121q102 -108 102 -331v-291h-263v262q0 148 -49 208q-51 60 -178 60q-67 0 -135 -12v-764h-428zM90 1282
q76 0 115 -8q-39 19 -39 80q0 96 68 157q79 72 229 72q49 0 121 -10l-25 -154q-51 11 -102 11q-99 0 -99 -70q0 -78 142 -78h116v-154h-526v154z" />
    <glyph glyph-name="uniFE8A" unicode="&#x626;" horiz-adv-x="2048" arabic-form="final" 
d="M90 1282q76 0 115 -8q-39 19 -39 80q0 96 68 157q79 72 229 72q49 0 121 -10l-25 -154q-51 11 -102 11q-99 0 -99 -70q0 -78 142 -78h116v-154h-526v154zM854 0q-401 0 -585 163q-167 147 -167 443q0 176 54 322l288 47q-69 -153 -69 -338q0 -223 110 -320
q117 -104 398 -104h139v737q190 39 411 39q259 0 372 -121q102 -108 102 -331v-324h172v-213h-435v508q0 148 -49 208q-51 60 -178 60q-67 0 -135 -12v-764h-428z" />
    <glyph glyph-name="uniFE8B" unicode="&#x626;" horiz-adv-x="708" arabic-form="initial" 
d="M117 1278q76 0 114 -8q-38 19 -38 80q0 96 67 157q79 72 229 72q50 0 121 -10l-24 -154q-51 10 -103 10q-98 0 -98 -69q0 -78 141 -78h117v-154h-526v154zM0 213h287v750h270v-963h-557v213z" />
    <glyph glyph-name="uniFE8C" unicode="&#x626;" horiz-adv-x="727" arabic-form="medial" 
d="M0 213h287v750h270v-750h201v-213h-758v213zM117 1282q76 0 114 -8q-38 19 -38 80q0 96 67 157q79 72 229 72q50 0 121 -10l-24 -154q-51 11 -103 11q-98 0 -98 -70q0 -78 141 -78h117v-154h-526v154z" />
    <glyph glyph-name="uniFE8D" unicode="&#x627;" horiz-adv-x="618" arabic-form="isolated" 
d="M174 1444h270v-1444h-270v1444z" />
    <glyph glyph-name="uniFE8E" unicode="&#x627;" horiz-adv-x="618" arabic-form="final" 
d="M174 1444h270v-1231h205v-213h-475v1444z" />
    <glyph glyph-name="uniFE8F" unicode="&#x628;" horiz-adv-x="1583" arabic-form="isolated" 
d="M854 0q-401 0 -585 163q-167 147 -167 443q0 176 53 322l289 47q-70 -153 -70 -338q0 -223 111 -320q117 -104 397 -104h279v750h270v-963h-577zM709 -408q-42 41 -42 101q0 58 42 100q41 41 100 41q58 0 99 -41q42 -41 42 -100t-42 -100q-41 -42 -99 -42q-59 0 -100 41z
" />
    <glyph glyph-name="uniFE90" unicode="&#x628;" horiz-adv-x="1601" arabic-form="final" 
d="M854 0q-401 0 -585 163q-167 147 -167 443q0 176 53 322l289 47q-70 -153 -70 -338q0 -223 111 -320q117 -104 397 -104h279v750h270v-750h201v-213h-778zM709 -408q-42 41 -42 101q0 58 42 100q41 41 100 41q58 0 99 -41q42 -41 42 -100t-42 -100q-41 -42 -99 -42
q-59 0 -100 41z" />
    <glyph glyph-name="uniFE91" unicode="&#x628;" horiz-adv-x="708" arabic-form="initial" 
d="M0 213h287v750h270v-963h-557v213zM170 -408q-41 41 -41 101q0 58 41 100q42 41 100 41q59 0 100 -41q42 -41 42 -100t-42 -100q-41 -42 -100 -42q-58 0 -100 41z" />
    <glyph glyph-name="uniFE92" unicode="&#x628;" horiz-adv-x="727" arabic-form="medial" 
d="M0 213h287v750h270v-750h201v-213h-758v213zM170 -408q-41 41 -41 101q0 58 41 100q42 41 100 41q59 0 100 -41q42 -41 42 -100t-42 -100q-41 -42 -100 -42q-58 0 -100 41z" />
    <glyph glyph-name="uniFE93" unicode="&#x629;" horiz-adv-x="1216" arabic-form="isolated" 
d="M626 0q-549 0 -549 473q0 221 134 363q145 153 401 153q462 0 462 -471v-518h-448zM810 485q0 291 -219 291q-113 0 -179 -78q-65 -76 -65 -198q0 -287 308 -287h155v272zM667 1159q-39 40 -39 98t39 99q40 41 96 41q57 0 96 -41q39 -40 39 -99q0 -57 -39 -98t-96 -41
t-96 41zM327 1159q-39 40 -39 98t39 99q40 41 96 41q58 0 98 -41q39 -40 39 -99q0 -57 -39 -98q-40 -41 -98 -41q-57 0 -96 41z" />
    <glyph glyph-name="uniFE94" unicode="&#x629;" horiz-adv-x="1218" arabic-form="final" 
d="M626 0q-549 0 -549 475q0 218 130 358q146 156 413 156q241 0 428 -71v-705h200v-213h-622zM786 739q-78 37 -195 37q-113 0 -179 -78q-65 -76 -65 -198q0 -287 308 -287h131v526zM667 1159q-39 40 -39 98t39 99q40 41 96 41q57 0 96 -41q39 -40 39 -99q0 -57 -39 -98
t-96 -41t-96 41zM327 1159q-39 40 -39 98t39 99q40 41 96 41q58 0 98 -41q39 -40 39 -99q0 -57 -39 -98q-40 -41 -98 -41q-57 0 -96 41z" />
    <glyph glyph-name="uniFE95" unicode="&#x62a;" horiz-adv-x="1583" arabic-form="isolated" 
d="M854 0q-401 0 -585 163q-167 147 -167 443q0 176 53 322l289 47q-70 -153 -70 -338q0 -223 111 -320q117 -104 397 -104h279v750h270v-963h-577zM897 1159q-39 40 -39 98t39 99t96 41t96 -41q39 -40 39 -99q0 -57 -39 -98q-40 -41 -96 -41q-57 0 -96 41zM557 1159
q-39 40 -39 98t39 99t96 41q58 0 98 -41q39 -40 39 -99q0 -57 -39 -98q-40 -41 -98 -41q-57 0 -96 41z" />
    <glyph glyph-name="uniFE96" unicode="&#x62a;" horiz-adv-x="1601" arabic-form="final" 
d="M854 0q-401 0 -585 163q-167 147 -167 443q0 176 53 322l289 47q-70 -153 -70 -338q0 -223 111 -320q117 -104 397 -104h279v750h270v-750h201v-213h-778zM557 1159q-39 40 -39 98t39 99t96 41q58 0 98 -41q39 -40 39 -99q0 -57 -39 -98q-40 -41 -98 -41q-57 0 -96 41z
M897 1159q-39 40 -39 98t39 99t96 41t96 -41q39 -40 39 -99q0 -57 -39 -98q-40 -41 -96 -41q-57 0 -96 41z" />
    <glyph glyph-name="uniFE97" unicode="&#x62a;" horiz-adv-x="708" arabic-form="initial" 
d="M0 213h287v750h270v-963h-557v213zM457 1159q-39 40 -39 98t39 99q40 41 96 41q57 0 96 -41q39 -40 39 -99q0 -57 -39 -98q-40 -41 -96 -41q-57 0 -96 41zM117 1159q-39 40 -39 98t39 99q40 41 96 41q58 0 98 -41q39 -40 39 -99q0 -57 -39 -98q-40 -41 -98 -41
q-57 0 -96 41z" />
    <glyph glyph-name="uniFE98" unicode="&#x62a;" horiz-adv-x="708" arabic-form="medial" 
d="M0 213h287v750h270v-750h182v-213h-739v213zM117 1159q-39 40 -39 98t39 99q40 41 96 41q58 0 98 -41q39 -40 39 -99q0 -57 -39 -98q-40 -41 -98 -41q-57 0 -96 41zM457 1159q-39 40 -39 98t39 99q40 41 96 41q57 0 96 -41q39 -40 39 -99q0 -57 -39 -98q-40 -41 -96 -41
q-57 0 -96 41z" />
    <glyph glyph-name="uniFE99" unicode="&#x62b;" horiz-adv-x="1583" arabic-form="isolated" 
d="M854 0q-401 0 -585 163q-167 147 -167 443q0 176 53 322l289 47q-70 -153 -70 -338q0 -223 111 -320q117 -104 397 -104h279v750h270v-963h-577zM732 1447q-36 37 -36 91t36 91q37 38 89 38q53 0 90 -38q37 -37 37 -91t-37 -91q-37 -38 -90 -38q-52 0 -89 38zM895 1159
q-39 40 -39 98t39 99q40 41 98 41q57 0 96 -41q39 -40 39 -99q0 -57 -39 -98q-40 -41 -96 -41q-58 0 -98 41zM557 1159q-39 40 -39 98t39 99t96 41t96 -41q39 -40 39 -99q0 -57 -39 -98q-40 -41 -96 -41q-57 0 -96 41z" />
    <glyph glyph-name="uniFE9A" unicode="&#x62b;" horiz-adv-x="1601" arabic-form="final" 
d="M854 0q-401 0 -585 163q-167 147 -167 443q0 176 53 322l289 47q-70 -153 -70 -338q0 -223 111 -320q117 -104 397 -104h279v750h270v-750h201v-213h-778zM895 1159q-39 40 -39 98t39 99q40 41 98 41q57 0 96 -41q39 -40 39 -99q0 -57 -39 -98q-40 -41 -96 -41
q-58 0 -98 41zM557 1159q-39 40 -39 98t39 99t96 41t96 -41q39 -40 39 -99q0 -57 -39 -98q-40 -41 -96 -41q-57 0 -96 41zM732 1447q-36 37 -36 91t36 91q37 38 89 38q53 0 90 -38q37 -37 37 -91t-37 -91q-37 -38 -90 -38q-52 0 -89 38z" />
    </font>
</defs>
</svg>
