<svg xmlns="http://www.w3.org/2000/svg">
<defs>
<font id="FrutigerLTArabic-75Black" horiz-adv-x="1251" >
  <font-face 
    font-family="Frutiger LT Arabic 55 Roman"
    font-weight="800"
    font-stretch="normal"
    units-per-em="2048"
    panose-1="1 0 0 0 0 0 0 0 0 0"
    ascent="1577"
    descent="-471"
    x-height="1067"
    cap-height="1430"
    bbox="-498 -1121 3253 2786"
    underline-thickness="50"
    underline-position="-175"
    unicode-range="U+000D-FEFC"
  />
<missing-glyph horiz-adv-x="1021" 
d="M443 234v133h111v-133h-111zM449 466l-4 34q0 109 25 162q28 53 93 118q64 63 80 94q19 34 19 71q0 72 -45 120q-45 50 -107 50q-31 0 -58 -10.5t-48.5 -33.5t-36 -59t-20.5 -87l-100 16q13 141 88 207t181 66q105 0 176 -72q71 -71 71 -189q0 -62 -25 -117
q-26 -54 -100 -122q-73 -65 -86 -104q-12 -38 -12 -144h-91zM921 99v1231h-822v-1231h822zM1021 1431v-1431h-1021v1431h1021z" />
    <glyph glyph-name="uniFEF5" unicode="&#xfedf;&#xfe82;" horiz-adv-x="1618" arabic-form="isolated" 
d="M1468 1440v-1440h-1348v285h363v732h360v-732h263v1155h362zM83 1390q35 46 70.5 76t69 47t62.5 24t51 7q24 0 51 -6.5t56.5 -17t59.5 -23.5t59 -26q28 -13 56 -25t54 -21.5t50 -15.5t43 -6q56 0 96 27.5t61 73.5l133 -74q-41 -71 -78 -112t-72 -63t-70 -28t-72 -6
q-68 0 -128.5 24.5t-114.5 51.5q-51 26 -97.5 44t-88.5 18q-29 0 -69 -17.5t-73 -54.5z" />
    <glyph glyph-name="uniFEF6" unicode="&#xfee0;&#xfe82;" horiz-adv-x="1695" arabic-form="final" 
d="M1454 363v-12t-1 -11q54 -31 116.5 -43t119.5 -12h5q24 0 37 -6.5t20 -20t8.5 -35.5t1.5 -52v-53q0 -39 -3.5 -62.5t-11 -35.5t-20.5 -16t-32 -4h-8q-76 0 -155 32t-145 90q-39 -55 -106.5 -88.5t-171.5 -33.5h-988v285h335v732h360v-732h201q41 0 59 20t18 76v1059h361
v-1077zM55 1390q35 46 70.5 76t69 47t62.5 24t51 7q24 0 51 -6.5t56.5 -17t59.5 -23.5t59 -26q28 -13 56 -25t54 -21.5t50 -15.5t43 -6q56 0 96 27.5t61 73.5l133 -74q-41 -71 -78 -112t-72 -63t-70 -28t-72 -6q-68 0 -128.5 24.5t-114.5 51.5q-51 26 -97.5 44t-88.5 18
q-29 0 -69 -17.5t-73 -54.5z" />
    <glyph glyph-name="uniFEF7" unicode="&#xfedf;&#xfe84;" horiz-adv-x="1618" arabic-form="isolated" 
d="M1468 1440v-1440h-1348v285h363v732h360v-732h263v1155h362zM854 1495q-23 8 -47 11t-47 3q-36 0 -56.5 -14t-20.5 -33q0 -17 10 -28.5t25.5 -19t34.5 -11t37 -3.5h87v-159h-424v159h67q-23 40 -23 74q0 49 19.5 85t51.5 59.5t71.5 35t80.5 11.5q13 0 27 -0.5t31.5 -1.5
t39.5 -4t51 -7z" />
    <glyph glyph-name="uniFEF8" unicode="&#xfee0;&#xfe84;" horiz-adv-x="1695" arabic-form="final" 
d="M1454 363v-12t-1 -11q54 -31 116.5 -43t119.5 -12h5q24 0 37 -6.5t20 -20t8.5 -35.5t1.5 -52v-53q0 -39 -3.5 -62.5t-11 -35.5t-20.5 -16t-32 -4h-8q-76 0 -155 32t-145 90q-39 -55 -106.5 -88.5t-171.5 -33.5h-988v285h335v732h360v-732h201q41 0 59 20t18 76v1059h361
v-1077zM826 1495q-23 8 -47 11t-47 3q-36 0 -56.5 -14t-20.5 -33q0 -17 10 -28.5t25.5 -19t34.5 -11t37 -3.5h87v-159h-424v159h67q-23 40 -23 74q0 49 19.5 85t51.5 59.5t71.5 35t80.5 11.5q13 0 27 -0.5t31.5 -1.5t39.5 -4t51 -7z" />
    <glyph glyph-name="uniFEF9" unicode="&#xfedf;&#xfe88;" horiz-adv-x="1618" arabic-form="isolated" 
d="M1468 1440v-1440h-1348v285h363v732h360v-732h263v1155h362zM833 -347q-23 8 -47 10.5t-47 2.5q-36 0 -56.5 -13.5t-20.5 -33.5q0 -17 10 -28.5t25.5 -19t34.5 -10.5t37 -3h87v-160h-424v160h67q-23 38 -23 73q0 49 19.5 85t51.5 59.5t71.5 35t80.5 11.5q13 0 27 -0.5
t31.5 -1.5t39.5 -4t51 -7z" />
    <glyph glyph-name="uniFEFA" unicode="&#xfee0;&#xfe88;" horiz-adv-x="1695" arabic-form="final" 
d="M1454 363v-12t-1 -11q54 -31 116.5 -43t119.5 -12h5q24 0 37 -6.5t20 -20t8.5 -35.5t1.5 -52v-53q0 -39 -3.5 -62.5t-11 -35.5t-20.5 -16t-32 -4h-8q-76 0 -155 32t-145 90q-39 -55 -106.5 -88.5t-171.5 -33.5h-988v285h335v732h360v-732h201q41 0 59 20t18 76v1059h361
v-1077zM805 -347q-23 8 -47 10.5t-47 2.5q-36 0 -56.5 -13.5t-20.5 -33.5q0 -17 10 -28.5t25.5 -19t34.5 -10.5t37 -3h87v-160h-424v160h67q-23 38 -23 73q0 49 19.5 85t51.5 59.5t71.5 35t80.5 11.5q13 0 27 -0.5t31.5 -1.5t39.5 -4t51 -7z" />
    <glyph glyph-name="uniFEFB" unicode="&#xfedf;&#xfe8e;" horiz-adv-x="1618" arabic-form="isolated" 
d="M1468 1440v-1440h-1348v285h363v732h360v-732h263v1155h362z" />
    <glyph glyph-name="uniFEFC" unicode="&#xfee0;&#xfe8e;" horiz-adv-x="1695" arabic-form="final" 
d="M1454 363v-12t-1 -11q54 -31 116.5 -43t119.5 -12h5q24 0 37 -6.5t20 -20t8.5 -35.5t1.5 -52v-53q0 -39 -3.5 -62.5t-11 -35.5t-20.5 -16t-32 -4h-8q-76 0 -155 32t-145 90q-39 -55 -106.5 -88.5t-171.5 -33.5h-988v285h335v732h360v-732h201q41 0 59 20t18 76v1059h361
v-1077z" />
    <glyph glyph-name="uni06440671" unicode="&#xfedf;&#xfb51;" horiz-adv-x="1618" 
d="M1468 1440v-1440h-1348v285h363v732h360v-732h263v1155h362zM341 1186v132h86v226h131v-45q28 21 56 33.5t52.5 19t45.5 8.5t36 2q44 0 80.5 -13t63 -39t41 -64.5t14.5 -90.5v-169h-606zM787 1357q0 53 -23 73t-59 20q-20 0 -43 -11t-42.5 -29t-32 -41.5t-12.5 -49.5h212
v38z" />
    <glyph glyph-name="uni06440671.fina" unicode="&#xfee0;&#xfb51;" horiz-adv-x="1695" 
d="M1454 363v-12t-1 -11q54 -31 116.5 -43t119.5 -12h5q24 0 37 -6.5t20 -20t8.5 -35.5t1.5 -52v-53q0 -39 -3.5 -62.5t-11 -35.5t-20.5 -16t-32 -4h-8q-76 0 -155 32t-145 90q-39 -55 -106.5 -88.5t-171.5 -33.5h-988v285h335v732h360v-732h201q41 0 59 20t18 76v1059h361
v-1077zM313 1186v132h86v226h131v-45q28 21 56 33.5t52.5 19t45.5 8.5t36 2q44 0 80.5 -13t63 -39t41 -64.5t14.5 -90.5v-169h-606zM759 1357q0 53 -23 73t-59 20q-20 0 -43 -11t-42.5 -29t-32 -41.5t-12.5 -49.5h212v38z" />
    <glyph glyph-name="uni0621" unicode="&#x621;" horiz-adv-x="980" arabic-form="isolated" 
d="M862 495q-48 15 -94.5 21.5t-94.5 6.5q-69 0 -107 -25.5t-38 -63.5q0 -32 18.5 -54.5t48 -36.5t66 -20t72.5 -6h173v-317h-839v317h129q-20 36 -31 72t-11 71q0 95 39 166t102 117.5t141.5 69.5t158.5 23q26 0 54 -1t63 -3.5t78.5 -8t101.5 -14.5z" />
    <glyph glyph-name="uni0622" unicode="&#x622;" horiz-adv-x="661" arabic-form="isolated" 
d="M150 1440h361v-1440h-361v1440zM-164 1754q35 46 70.5 76t69 47t62.5 24t51 7q24 0 51 -6.5t56.5 -17t59.5 -23.5t59 -26q28 -13 56 -25t54 -21.5t50 -15.5t43 -6q56 0 96 27.5t61 73.5l133 -74q-41 -71 -78 -112t-72 -63t-70 -28t-72 -6q-68 0 -128.5 24.5t-114.5 51.5
q-51 26 -97.5 44t-88.5 18q-29 0 -69 -17.5t-73 -54.5z" />
    <glyph glyph-name="uni0623" unicode="&#x623;" horiz-adv-x="661" arabic-form="isolated" 
d="M150 1440h361v-1440h-361v1440zM521 1947q-23 8 -47 11t-47 3q-36 0 -56.5 -14t-20.5 -33q0 -17 10 -28.5t25.5 -19t34.5 -11t37 -3.5h87v-159h-424v159h67q-23 40 -23 74q0 49 19.5 85t51.5 59.5t71.5 35t80.5 11.5q13 0 27 -0.5t31.5 -1.5t39.5 -4t51 -7z" />
    <glyph glyph-name="uni0624" unicode="&#x624;" horiz-adv-x="1216" arabic-form="isolated" 
d="M207 -126q110 4 194 16.5t147.5 37.5t109.5 63.5t79 95.5q-63 -21 -123 -31.5t-112 -10.5q-90 0 -166 27.5t-130.5 79.5t-85 125t-30.5 165q0 99 37 185t105.5 150t166 100.5t217.5 36.5q49 0 103.5 -8.5t106.5 -30.5t99 -59t83 -93.5t57 -135t21 -182.5v-163
q0 -118 -28 -210t-80.5 -162.5t-127 -121t-168.5 -85.5t-204.5 -56t-234.5 -32zM425 456q0 -43 13 -76t36.5 -55t55.5 -33t71 -11q29 0 63 6t68 19v96q0 114 -41.5 168t-113.5 54q-32 0 -59.5 -12.5t-48 -34.5t-32.5 -53t-12 -68zM837 1539q-34 11 -68.5 16t-68.5 5
q-50 0 -78 -19t-28 -45q0 -24 13.5 -40t35 -26t48 -14.5t52.5 -4.5h127v-232h-609v232h93q-14 26 -22 52t-8 51q0 69 28.5 120.5t74 85t102.5 50t114 16.5q19 0 39.5 -0.5t45 -3t56 -6.5t73.5 -10z" />
    <glyph glyph-name="uni0625" unicode="&#x625;" horiz-adv-x="661" arabic-form="isolated" 
d="M150 1440h361v-1440h-361v1440zM529 -347q-23 8 -47 10.5t-47 2.5q-36 0 -56.5 -13.5t-20.5 -33.5q0 -17 10 -28.5t25.5 -19t34.5 -10.5t37 -3h87v-160h-424v160h67q-23 38 -23 73q0 49 19.5 85t51.5 59.5t71.5 35t80.5 11.5q13 0 27 -0.5t31.5 -1.5t39.5 -4t51 -7z" />
    <glyph glyph-name="uni0626" unicode="&#x626;" horiz-adv-x="1817" arabic-form="isolated" 
d="M1248 54q0 14 -9.5 29.5t-24.5 31t-34.5 31.5t-39.5 31q-39 30 -79.5 64t-73.5 75t-54.5 90t-21.5 109q0 64 21 116t57 92.5t84.5 70t102 49t110 28.5t109.5 9t109.5 -9.5t104 -21.5t80 -22.5t38.5 -13.5l-84 -307q-53 21 -104 39q-44 15 -91.5 27.5t-83.5 12.5
q-17 0 -33.5 -2.5t-30 -9.5t-22 -19.5t-8.5 -31.5q0 -18 9.5 -35t25.5 -33.5t37 -32t43 -30.5q45 -31 85.5 -64t72 -70t50 -78t18.5 -87q0 -60 -22 -121.5t-64.5 -119t-104.5 -108t-141.5 -88t-176 -59t-207.5 -21.5q-148 0 -263.5 26.5t-202 71t-146 103t-96.5 123
t-53.5 130.5t-16.5 126q0 57 13.5 116.5t37.5 119t57 116.5t73 108l300 -156q-61 -74 -90.5 -150t-29.5 -139q0 -61 24.5 -114t75 -92.5t128.5 -62t186 -22.5q73 0 137.5 13.5t113 37.5t77 56t28.5 68zM577 1035q-34 11 -68.5 16t-68.5 5q-50 0 -78 -19t-28 -45
q0 -24 13.5 -40t35 -26t48 -14.5t52.5 -4.5h127v-232h-609v232h93q-14 26 -22 52t-8 51q0 69 28.5 120.5t74 85t102.5 50t114 16.5q19 0 39.5 -0.5t45 -3t56 -6.5t73.5 -10z" />
    <glyph glyph-name="uni0627" unicode="&#x627;" horiz-adv-x="661" arabic-form="isolated" 
d="M150 1440h361v-1440h-361v1440z" />
    <glyph glyph-name="uni0628" unicode="&#x628;" horiz-adv-x="1996" arabic-form="isolated" 
d="M1486 285v595h360v-880h-1217q-131 0 -228.5 15t-167 42.5t-115 66t-71.5 85t-36.5 99.5t-10.5 110q0 20 2.5 50t7 65.5t10.5 73t13 71.5q81 -7 162 -14.5t162 -14.5q-10 -53 -14 -99.5t-4 -72.5q0 -50 14 -86t53 -59.5t109 -35t182 -11.5h789zM803 -375q0 36 13.5 67
t36.5 54.5t54 37t66 13.5t65.5 -13.5t53.5 -37t36 -54.5t13 -67t-13 -67t-36 -54t-53.5 -36.5t-65.5 -13.5t-66 13.5t-54 36.5t-36.5 54t-13.5 67z" />
    <glyph glyph-name="uni0629" unicode="&#x629;" horiz-adv-x="1073" arabic-form="isolated" 
d="M461 0q-110 0 -195.5 31.5t-144.5 86.5t-90 128.5t-31 157.5q0 89 21 163.5t57.5 134.5t85 105t102.5 75.5t110.5 46t110.5 15.5q85 0 170.5 -33t153 -100.5t110 -169t42.5 -237.5q0 -78 -31.5 -151t-90 -129.5t-141.5 -90t-186 -33.5h-53zM324 437q0 -35 8.5 -63
t27 -47.5t48 -30.5t72.5 -11q42 0 70.5 13t45 34.5t23.5 49t7 55.5q0 55 -11.5 97.5t-32 71t-48 43t-58.5 14.5q-27 0 -54.5 -14t-49 -42t-35 -70.5t-13.5 -99.5zM88 1327q0 36 13.5 67t36.5 54.5t54 37t66 13.5t65.5 -13.5t53.5 -37t36.5 -54.5t13.5 -67t-13.5 -67
t-36.5 -54t-53.5 -36.5t-65.5 -13.5t-66 13.5t-54 36.5t-36.5 54t-13.5 67zM499 1327q0 36 13.5 67t36.5 54.5t53.5 37t65.5 13.5t65.5 -13.5t53.5 -37t36.5 -54.5t13.5 -67t-13.5 -67t-36.5 -54t-53.5 -36.5t-65.5 -13.5t-65.5 13.5t-53.5 36.5t-36.5 54t-13.5 67z" />
    <glyph glyph-name="uni062A" unicode="&#x62a;" horiz-adv-x="1996" arabic-form="isolated" 
d="M1486 285v595h360v-880h-1217q-131 0 -228.5 15t-167 42.5t-115 66t-71.5 85t-36.5 99.5t-10.5 110q0 20 2.5 50t7 65.5t10.5 73t13 71.5q81 -7 162 -14.5t162 -14.5q-10 -53 -14 -99.5t-4 -72.5q0 -50 14 -86t53 -59.5t109 -35t182 -11.5h789zM624 1327q0 36 13.5 67
t36.5 54.5t54 37t66 13.5t65.5 -13.5t53.5 -37t36.5 -54.5t13.5 -67t-13.5 -67t-36.5 -54t-53.5 -36.5t-65.5 -13.5t-66 13.5t-54 36.5t-36.5 54t-13.5 67zM1035 1327q0 36 13.5 67t36.5 54.5t53.5 37t65.5 13.5t65.5 -13.5t53.5 -37t36.5 -54.5t13.5 -67t-13.5 -67
t-36.5 -54t-53.5 -36.5t-65.5 -13.5t-65.5 13.5t-53.5 36.5t-36.5 54t-13.5 67z" />
    <glyph glyph-name="uni062B" unicode="&#x62b;" horiz-adv-x="1996" arabic-form="isolated" 
d="M1486 285v595h360v-880h-1217q-131 0 -228.5 15t-167 42.5t-115 66t-71.5 85t-36.5 99.5t-10.5 110q0 20 2.5 50t7 65.5t10.5 73t13 71.5q81 -7 162 -14.5t162 -14.5q-10 -53 -14 -99.5t-4 -72.5q0 -50 14 -86t53 -59.5t109 -35t182 -11.5h789zM576 1327q0 36 13.5 67
t36.5 54.5t54 37t66 13.5t65.5 -13.5t53.5 -37t36.5 -54.5t13.5 -67t-13.5 -67t-36.5 -54t-53.5 -36.5t-65.5 -13.5t-66 13.5t-54 36.5t-36.5 54t-13.5 67zM987 1327q0 36 13.5 67t36.5 54.5t53.5 37t65.5 13.5t65.5 -13.5t53.5 -37t36.5 -54.5t13.5 -67t-13.5 -67
t-36.5 -54t-53.5 -36.5t-65.5 -13.5t-65.5 13.5t-53.5 36.5t-36.5 54t-13.5 67zM780 1713q0 36 13.5 67t36.5 54.5t53.5 37t65.5 13.5t65.5 -13.5t53.5 -37t36.5 -54.5t13.5 -67t-13.5 -67t-36.5 -54t-53.5 -36.5t-65.5 -13.5t-65.5 13.5t-53.5 36.5t-36.5 54t-13.5 67z" />
    <glyph glyph-name="uni062C" unicode="&#x62c;" horiz-adv-x="1268" arabic-form="isolated" 
d="M742 285q-11 19 -16.5 45t-10.5 51q-9 52 -19 100t-32.5 84.5t-62.5 58.5t-108 22q-11 0 -35.5 -1.5t-58.5 -5.5t-76 -11.5t-88 -20.5v267q89 24 173.5 42.5t176.5 18.5q97 0 174.5 -26t134 -74.5t91 -117t45.5 -153.5q6 -48 15 -97.5t24.5 -89.5t41.5 -65.5t67 -26.5
v-285h-599q-52 0 -95 -13.5t-73.5 -41.5t-47.5 -69.5t-17 -96.5q0 -44 16.5 -83.5t51.5 -69.5t90.5 -47.5t133.5 -17.5q16 0 42.5 1t60 4t72.5 8t81 13v-273q-48 -11 -87.5 -19t-75 -13t-69 -8t-69.5 -3q-162 0 -274.5 44.5t-183.5 117.5t-103 164.5t-32 186.5
q0 121 42.5 214t120.5 157t188 97t244 33h147zM542.371 -216.998q0 32.2559 12.1768 60.0312t32.9229 48.832q20.7451 21.0557 48.7061 33.1514q27.9619 12.0967 59.5312 12.0967t59.0791 -12.0967q27.5107 -12.0957 48.2559 -33.1514q20.7451 -21.0566 32.4707 -48.832
q11.7266 -27.7754 11.7266 -60.0312t-11.7266 -60.0322q-11.7256 -27.7764 -32.4707 -48.3838t-48.2559 -32.7041q-27.5098 -12.0957 -59.0791 -12.0957t-59.5312 12.0957q-27.9609 12.0967 -48.7061 32.7041q-20.7461 20.6074 -32.9229 48.3838t-12.1768 60.0322z" />
    <glyph glyph-name="uni062D" unicode="&#x62d;" horiz-adv-x="1268" arabic-form="isolated" 
d="M742 285q-11 19 -16.5 45t-10.5 51q-9 52 -19 100t-32.5 84.5t-62.5 58.5t-108 22q-11 0 -35.5 -1.5t-58.5 -5.5t-76 -11.5t-88 -20.5v267q89 24 173.5 42.5t176.5 18.5q97 0 174.5 -26t134 -74.5t91 -117t45.5 -153.5q6 -48 15 -97.5t24.5 -89.5t41.5 -65.5t67 -26.5
v-285h-599q-52 0 -95 -13.5t-73.5 -41.5t-47.5 -69.5t-17 -96.5q0 -44 16.5 -83.5t51.5 -69.5t90.5 -47.5t133.5 -17.5q16 0 42.5 1t60 4t72.5 8t81 13v-273q-48 -11 -87.5 -19t-75 -13t-69 -8t-69.5 -3q-162 0 -274.5 44.5t-183.5 117.5t-103 164.5t-32 186.5
q0 121 42.5 214t120.5 157t188 97t244 33h147z" />
    <glyph glyph-name="uni062E" unicode="&#x62e;" horiz-adv-x="1268" arabic-form="isolated" 
d="M742 285q-11 19 -16.5 45t-10.5 51q-9 52 -19 100t-32.5 84.5t-62.5 58.5t-108 22q-11 0 -35.5 -1.5t-58.5 -5.5t-76 -11.5t-88 -20.5v267q89 24 173.5 42.5t176.5 18.5q97 0 174.5 -26t134 -74.5t91 -117t45.5 -153.5q6 -48 15 -97.5t24.5 -89.5t41.5 -65.5t67 -26.5
v-285h-599q-52 0 -95 -13.5t-73.5 -41.5t-47.5 -69.5t-17 -96.5q0 -44 16.5 -83.5t51.5 -69.5t90.5 -47.5t133.5 -17.5q16 0 42.5 1t60 4t72.5 8t81 13v-273q-48 -11 -87.5 -19t-75 -13t-69 -8t-69.5 -3q-162 0 -274.5 44.5t-183.5 117.5t-103 164.5t-32 186.5
q0 121 42.5 214t120.5 157t188 97t244 33h147zM400 1327q0 36 13.5 67t36.5 54.5t54 37t66 13.5t65.5 -13.5t53.5 -37t36.5 -54.5t13.5 -67t-13.5 -67t-36.5 -54t-53.5 -36.5t-65.5 -13.5t-66 13.5t-54 36.5t-36.5 54t-13.5 67z" />
    <glyph glyph-name="uni062F" unicode="&#x62f;" horiz-adv-x="1048" arabic-form="isolated" 
d="M43 0v285h413q46 0 76 10t47 26t24 35.5t7 39.5q0 33 -31.5 80t-82.5 101t-115.5 110t-130.5 106l250 245q101 -86 182 -170t138 -164t87.5 -156t30.5 -146q0 -80 -24 -152.5t-81 -128t-150.5 -88.5t-231.5 -33h-408z" />
    <glyph glyph-name="uni0630" unicode="&#x630;" horiz-adv-x="1048" arabic-form="isolated" 
d="M43 0v285h413q46 0 76 10t47 26t24 35.5t7 39.5q0 33 -31.5 80t-82.5 101t-115.5 110t-130.5 106l250 245q101 -86 182 -170t138 -164t87.5 -156t30.5 -146q0 -80 -24 -152.5t-81 -128t-150.5 -88.5t-231.5 -33h-408zM311 1327q0 36 13.5 67t36.5 54.5t54 37t66 13.5
t65.5 -13.5t53.5 -37t36.5 -54.5t13.5 -67t-13.5 -67t-36.5 -54t-53.5 -36.5t-65.5 -13.5t-66 13.5t-54 36.5t-36.5 54t-13.5 67z" />
    <glyph glyph-name="uni0631" unicode="&#x631;" horiz-adv-x="747" arabic-form="isolated" 
d="M-3 -156q87 18 135 50t71 74t28 93t5 109v710h361v-661q0 -145 -27.5 -259t-92 -198.5t-171.5 -139.5t-266 -80z" />
    <glyph glyph-name="uni0632" unicode="&#x632;" horiz-adv-x="747" arabic-form="isolated" 
d="M-3 -156q87 18 135 50t71 74t28 93t5 109v710h361v-661q0 -145 -27.5 -259t-92 -198.5t-171.5 -139.5t-266 -80zM256 1327q0 36 13.5 67t36.5 54.5t54 37t66 13.5t65.5 -13.5t53.5 -37t36.5 -54.5t13.5 -67t-13.5 -67t-36.5 -54t-53.5 -36.5t-65.5 -13.5t-66 13.5
t-54 36.5t-36.5 54t-13.5 67z" />
    <glyph glyph-name="uni0633" unicode="&#x633;" horiz-adv-x="2787" arabic-form="isolated" 
d="M1537 285q21 0 40 4.5t33.5 15.5t23 29.5t8.5 46.5v392h362v-410q0 -11 -0.5 -22.5t-1.5 -22.5q42 -15 84.5 -24t83.5 -9h105v595h362v-880h-347q-67 0 -121.5 7t-100 19.5t-83 30t-70.5 39.5q-41 -44 -104 -70t-154 -26q-110 0 -188 17.5t-138 49.5
q-25 -110 -82.5 -201.5t-144 -157.5t-200 -102.5t-251.5 -36.5q-172 0 -295.5 49t-203 131t-117 189t-37.5 222q0 52 9.5 112t27.5 121.5t44.5 122t60.5 113.5q75 -41 149 -79.5t149 -78.5q-43 -68 -68 -145.5t-25 -142.5q0 -64 21 -118.5t62 -94.5t102 -63t141 -23
q74 0 132.5 23.5t99.5 68.5t63 110.5t22 149.5q0 26 -6.5 68t-18.5 91.5t-30.5 103.5t-42.5 105l352 94q15 -39 30 -85t28 -94.5t24 -97.5t17 -94q48 -19 97 -30.5t97 -11.5z" />
    <glyph glyph-name="uni0634" unicode="&#x634;" horiz-adv-x="2787" arabic-form="isolated" 
d="M1537 285q21 0 40 4.5t33.5 15.5t23 29.5t8.5 46.5v392h362v-410q0 -11 -0.5 -22.5t-1.5 -22.5q42 -15 84.5 -24t83.5 -9h105v595h362v-880h-347q-67 0 -121.5 7t-100 19.5t-83 30t-70.5 39.5q-41 -44 -104 -70t-154 -26q-110 0 -188 17.5t-138 49.5
q-25 -110 -82.5 -201.5t-144 -157.5t-200 -102.5t-251.5 -36.5q-172 0 -295.5 49t-203 131t-117 189t-37.5 222q0 52 9.5 112t27.5 121.5t44.5 122t60.5 113.5q75 -41 149 -79.5t149 -78.5q-43 -68 -68 -145.5t-25 -142.5q0 -64 21 -118.5t62 -94.5t102 -63t141 -23
q74 0 132.5 23.5t99.5 68.5t63 110.5t22 149.5q0 26 -6.5 68t-18.5 91.5t-30.5 103.5t-42.5 105l352 94q15 -39 30 -85t28 -94.5t24 -97.5t17 -94q48 -19 97 -30.5t97 -11.5zM1433 1327q0 36 13.5 67t36.5 54.5t54 37t66 13.5t65.5 -13.5t53.5 -37t36.5 -54.5t13.5 -67
t-13.5 -67t-36.5 -54t-53.5 -36.5t-65.5 -13.5t-66 13.5t-54 36.5t-36.5 54t-13.5 67zM1844 1327q0 36 13.5 67t36.5 54.5t53.5 37t65.5 13.5t65.5 -13.5t53.5 -37t36.5 -54.5t13.5 -67t-13.5 -67t-36.5 -54t-53.5 -36.5t-65.5 -13.5t-65.5 13.5t-53.5 36.5t-36.5 54
t-13.5 67zM1637 1713q0 36 13.5 67t36.5 54.5t53.5 37t65.5 13.5t65.5 -13.5t53.5 -37t36.5 -54.5t13.5 -67t-13.5 -67t-36.5 -54t-53.5 -36.5t-65.5 -13.5t-65.5 13.5t-53.5 36.5t-36.5 54t-13.5 67z" />
    <glyph glyph-name="uni0635" unicode="&#x635;" horiz-adv-x="2962" arabic-form="isolated" 
d="M990 236q0 26 -6.5 68t-18.5 91.5t-30.5 103.5t-42.5 105l352 94q15 -40 29.5 -86t28 -94.5t24.5 -97t17 -93.5q48 -18 95 -27.5t83 -11.5q28 64 68.5 138t94 148t120.5 142t147 120.5t173.5 84t201.5 31.5q131 0 226.5 -42t157.5 -115.5t92 -173.5t30 -216v-405h-1173
q-86 0 -170.5 17.5t-157.5 48.5q-25 -110 -82.5 -201.5t-144.5 -157t-200.5 -102t-251.5 -36.5q-171 0 -294.5 49t-203 131t-117 189t-37.5 222q0 52 9 112t27 121.5t44.5 122t60.5 113.5q75 -41 149 -79.5t149 -78.5q-42 -68 -67.5 -145.5t-25.5 -142.5q0 -64 21 -118.5
t62 -94.5t102 -63t142 -23q74 0 132.5 23.5t99.5 68.5t63 110.5t22 149.5zM2471 386q0 78 -15.5 129.5t-44.5 83t-71 44.5t-96 13t-113.5 -25.5t-116.5 -73.5t-107.5 -117t-86.5 -155h651v101z" />
    <glyph glyph-name="uni0636" unicode="&#x636;" horiz-adv-x="2962" arabic-form="isolated" 
d="M990 236q0 26 -6.5 68t-18.5 91.5t-30.5 103.5t-42.5 105l352 94q15 -40 29.5 -86t28 -94.5t24.5 -97t17 -93.5q48 -18 95 -27.5t83 -11.5q28 64 68.5 138t94 148t120.5 142t147 120.5t173.5 84t201.5 31.5q131 0 226.5 -42t157.5 -115.5t92 -173.5t30 -216v-405h-1173
q-86 0 -170.5 17.5t-157.5 48.5q-25 -110 -82.5 -201.5t-144.5 -157t-200.5 -102t-251.5 -36.5q-171 0 -294.5 49t-203 131t-117 189t-37.5 222q0 52 9 112t27 121.5t44.5 122t60.5 113.5q75 -41 149 -79.5t149 -78.5q-42 -68 -67.5 -145.5t-25.5 -142.5q0 -64 21 -118.5
t62 -94.5t102 -63t142 -23q74 0 132.5 23.5t99.5 68.5t63 110.5t22 149.5zM2471 386q0 78 -15.5 129.5t-44.5 83t-71 44.5t-96 13t-113.5 -25.5t-116.5 -73.5t-107.5 -117t-86.5 -155h651v101zM2020 1327q0 36 13.5 67t36.5 54.5t54 37t66 13.5t65.5 -13.5t53.5 -37
t36.5 -54.5t13.5 -67t-13.5 -67t-36.5 -54t-53.5 -36.5t-65.5 -13.5t-66 13.5t-54 36.5t-36.5 54t-13.5 67z" />
    <glyph glyph-name="uni0637" unicode="&#x637;" horiz-adv-x="1721" arabic-form="isolated" 
d="M0 0v285h280q14 33 32 70t40 75v1011h360v-604q81 52 173.5 83.5t200.5 31.5q130 0 225 -42t157.5 -115.5t92.5 -173.5t30 -216v-405h-1591zM1233 386q0 78 -16 129.5t-45.5 83t-72.5 44.5t-97 13q-59 0 -120.5 -29t-118 -79.5t-104.5 -118t-81 -144.5h655v101z" />
    <glyph glyph-name="uni0638" unicode="&#x638;" horiz-adv-x="1721" arabic-form="isolated" 
d="M0 0v285h280q14 33 32 70t40 75v1011h360v-604q81 52 173.5 83.5t200.5 31.5q130 0 225 -42t157.5 -115.5t92.5 -173.5t30 -216v-405h-1591zM1233 386q0 78 -16 129.5t-45.5 83t-72.5 44.5t-97 13q-59 0 -120.5 -29t-118 -79.5t-104.5 -118t-81 -144.5h655v101zM959 1327
q0 36 13.5 67t36.5 54.5t54 37t66 13.5t65.5 -13.5t53.5 -37t36.5 -54.5t13.5 -67t-13.5 -67t-36.5 -54t-53.5 -36.5t-65.5 -13.5t-66 13.5t-54 36.5t-36.5 54t-13.5 67z" />
    <glyph glyph-name="uni0639" unicode="&#x639;" horiz-adv-x="1174" arabic-form="isolated" 
d="M0 -239q0 83 19.5 153t55.5 128t87 104t115 81q-35 66 -48 125t-13 106q0 95 36.5 180t102 149t157 101.5t201.5 37.5q25 0 62 -3.5t77.5 -10t81.5 -15.5t73 -21l-41 -295q-46 12 -79.5 19.5t-59 12t-47 6.5t-43.5 2q-37 0 -68.5 -8.5t-55 -27.5t-36.5 -48t-13 -70
q0 -39 13.5 -72.5t37.5 -58t57.5 -38t74.5 -13.5h337v-285h-517q-48 0 -88.5 -15t-70 -43t-45.5 -69.5t-16 -93.5q0 -41 16.5 -80t51.5 -69.5t89.5 -49.5t129.5 -19q42 0 109.5 6t152.5 21v-286q-47 -11 -87 -17t-75 -9t-68 -4t-66 -1q-157 0 -270.5 42t-186.5 111t-108 157
t-35 180z" />
    <glyph glyph-name="uni063A" unicode="&#x63a;" horiz-adv-x="1174" arabic-form="isolated" 
d="M0 -239q0 83 19.5 153t55.5 128t87 104t115 81q-35 66 -48 125t-13 106q0 95 36.5 180t102 149t157 101.5t201.5 37.5q25 0 62 -3.5t77.5 -10t81.5 -15.5t73 -21l-41 -295q-46 12 -79.5 19.5t-59 12t-47 6.5t-43.5 2q-37 0 -68.5 -8.5t-55 -27.5t-36.5 -48t-13 -70
q0 -39 13.5 -72.5t37.5 -58t57.5 -38t74.5 -13.5h337v-285h-517q-48 0 -88.5 -15t-70 -43t-45.5 -69.5t-16 -93.5q0 -41 16.5 -80t51.5 -69.5t89.5 -49.5t129.5 -19q42 0 109.5 6t152.5 21v-286q-47 -11 -87 -17t-75 -9t-68 -4t-66 -1q-157 0 -270.5 42t-186.5 111t-108 157
t-35 180zM536 1327q0 36 13.5 67t36.5 54.5t54 37t66 13.5t65.5 -13.5t53.5 -37t36.5 -54.5t13.5 -67t-13.5 -67t-36.5 -54t-53.5 -36.5t-65.5 -13.5t-66 13.5t-54 36.5t-36.5 54t-13.5 67z" />
    <glyph glyph-name="uni0641" unicode="&#x641;" horiz-adv-x="2279" arabic-form="isolated" 
d="M1788 285v136q0 58 -13 97t-34 62.5t-47 33.5t-51 10q-28 0 -55 -9.5t-48 -30t-33.5 -51.5t-12.5 -73q0 -36 13 -67.5t37 -55.5t58 -38t76 -14h110zM628 0q-130 0 -227.5 15t-167 42.5t-115 66t-71.5 85t-36.5 99.5t-10.5 110q0 20 3 50t7.5 65.5t10.5 73t12 71.5
q83 -7 165 -14.5t165 -14.5l-3 -14q-9 -48 -16 -93t-7 -79q0 -44 14 -77.5t53.5 -56t110 -33.5t182.5 -11h480q-7 19 -13 41t-10.5 45t-7 45t-2.5 40q0 112 40.5 198.5t111 145t166.5 89t206 30.5q109 0 198 -31.5t152 -90.5t97 -143.5t34 -191.5v-462h-1521zM1467 1327
q0 36 13.5 67t36.5 54.5t54 37t66 13.5t65.5 -13.5t53.5 -37t36.5 -54.5t13.5 -67t-13.5 -67t-36.5 -54t-53.5 -36.5t-65.5 -13.5t-66 13.5t-54 36.5t-36.5 54t-13.5 67z" />
    <glyph glyph-name="uni0642" unicode="&#x642;" horiz-adv-x="1650" arabic-form="isolated" 
d="M1156 84q-117 -39 -220 -39q-91 0 -166.5 27.5t-130 79.5t-85 125t-30.5 165q0 99 37 185t105.5 150t166 100.5t217.5 36.5q49 0 103.5 -8.5t106.5 -30.5t99 -59t83 -93.5t57 -135t21 -182.5v-261q0 -177 -60 -315t-166 -232.5t-249.5 -143.5t-311.5 -49
q-173 0 -309 40.5t-230.5 115.5t-144 182.5t-49.5 241.5q0 107 27.5 219t96.5 228q74 -38 146 -76t146 -76q-32 -72 -44 -137.5t-12 -119.5q0 -72 27.5 -131t78 -101t121.5 -65t159 -23q75 0 146 19.5t128 64.5t94.5 117t46.5 177zM859 456q0 -43 13 -76t36.5 -55t55.5 -33
t71 -11q29 0 60.5 6t64.5 19v96q0 114 -38.5 168t-110.5 54q-32 0 -59.5 -12.5t-48 -34.5t-32.5 -53t-12 -68zM635 1327q0 36 13.5 67t36.5 54.5t54 37t66 13.5t65.5 -13.5t53.5 -37t36.5 -54.5t13.5 -67t-13.5 -67t-36.5 -54t-53.5 -36.5t-65.5 -13.5t-66 13.5t-54 36.5
t-36.5 54t-13.5 67zM1046 1327q0 36 13.5 67t36.5 54.5t53.5 37t65.5 13.5t65.5 -13.5t53.5 -37t36.5 -54.5t13.5 -67t-13.5 -67t-36.5 -54t-53.5 -36.5t-65.5 -13.5t-65.5 13.5t-53.5 36.5t-36.5 54t-13.5 67z" />
    <glyph glyph-name="uni0643" unicode="&#x643;" horiz-adv-x="1996" arabic-form="isolated" 
d="M1486 285v1154h360v-1439h-1217q-131 0 -228.5 15t-167 42.5t-115 66t-71.5 85t-36.5 99.5t-10.5 110q0 20 2.5 50t7 65.5t10.5 73t13 71.5q81 -7 162 -14.5t162 -14.5q-10 -53 -14 -99.5t-4 -72.5q0 -50 14 -86t53 -59.5t109 -35t182 -11.5h789zM1116 806
q-23 8 -47 10.5t-48 2.5q-36 0 -56.5 -13.5t-20.5 -32.5q0 -17 10 -28.5t25.5 -19t34.5 -11t38 -3.5h86v-159h-424v159h67q-22 41 -22 74q0 48 19.5 84t51 60t71.5 35.5t80 11.5q13 0 27 -0.5t31.5 -1.5t39.5 -4t51 -7z" />
    <glyph glyph-name="uni0644" unicode="&#x644;" horiz-adv-x="1500" arabic-form="isolated" 
d="M990 1440h360v-1204q0 -144 -48.5 -266t-138.5 -211t-219.5 -139.5t-291.5 -50.5t-284 46t-203.5 124t-123 181.5t-41.5 218.5q0 52 9 115.5t26.5 129t44 129t61.5 116.5l298 -158q-21 -33 -38 -70t-29.5 -75t-19 -75t-6.5 -68q0 -64 22 -118.5t64 -94.5t102.5 -63
t138.5 -23q81 0 140.5 27t98.5 76.5t58.5 118.5t19.5 154v1180z" />
    <glyph glyph-name="uni0645" unicode="&#x645;" horiz-adv-x="1494" arabic-form="isolated" 
d="M915 -11q-68 0 -127.5 10.5t-110 27.5t-92 38.5t-73.5 44.5q-30 -7 -57.5 -22t-49.5 -40.5t-35 -63.5t-13 -92q0 -48 8.5 -109t26 -131.5t43 -149.5t60.5 -161l-340 -106q-30 81 -57.5 174t-49.5 181.5t-35 165.5t-13 127q0 120 34.5 205t87 144t115 96.5t119.5 61.5
q51 157 120.5 256t145 154.5t150 75.5t135.5 20q81 0 148 -20t120 -55t92.5 -81t65 -97.5t38.5 -106.5t13 -106q0 -77 -28 -155.5t-85.5 -142t-146 -103.5t-209.5 -40zM1061 438q0 32 -11 62t-32 53t-52 37t-70 14q-74 0 -136 -62t-104 -202q22 -13 50 -24.5t57.5 -20.5
t59 -14t54.5 -5q39 0 72.5 8.5t58.5 27.5t39 50t14 76z" />
    <glyph glyph-name="uni0646" unicode="&#x646;" horiz-adv-x="1460" arabic-form="isolated" 
d="M990 236q0 26 -6.5 68t-19 91.5t-30.5 103.5t-42 105l351 94q19 -50 38 -110.5t34.5 -122.5t25 -121.5t9.5 -107.5q0 -144 -48 -266t-138 -211t-219.5 -139.5t-292.5 -50.5q-171 0 -294.5 49t-203 131t-117 189t-37.5 222q0 52 9 112t27 121.5t44.5 122t60.5 113.5
q75 -41 149 -79.5t149 -78.5q-42 -68 -67.5 -145.5t-25.5 -142.5q0 -64 21 -118.5t62 -94.5t102 -63t142 -23q74 0 132.5 23.5t99.5 68.5t63 110.5t22 149.5zM508 1079q0 36 13.5 67t36.5 54.5t54 37t66 13.5t65.5 -13.5t53.5 -37t36.5 -54.5t13.5 -67t-13.5 -67t-36.5 -54
t-53.5 -36.5t-65.5 -13.5t-66 13.5t-54 36.5t-36.5 54t-13.5 67z" />
    <glyph glyph-name="uni0648" unicode="&#x648;" horiz-adv-x="1216" arabic-form="isolated" 
d="M207 -126q110 4 194 16.5t147.5 37.5t109.5 63.5t79 95.5q-63 -21 -123 -31.5t-112 -10.5q-90 0 -166 27.5t-130.5 79.5t-85 125t-30.5 165q0 99 37 185t105.5 150t166 100.5t217.5 36.5q49 0 103.5 -8.5t106.5 -30.5t99 -59t83 -93.5t57 -135t21 -182.5v-163
q0 -118 -28 -210t-80.5 -162.5t-127 -121t-168.5 -85.5t-204.5 -56t-234.5 -32zM425 456q0 -43 13 -76t36.5 -55t55.5 -33t71 -11q29 0 63 6t68 19v96q0 114 -41.5 168t-113.5 54q-32 0 -59.5 -12.5t-48 -34.5t-32.5 -53t-12 -68z" />
    <glyph glyph-name="uni0649" unicode="&#x649;" horiz-adv-x="1700" arabic-form="isolated" 
d="M1131 54q0 14 -9.5 29.5t-24.5 31t-34.5 31.5t-39.5 31q-39 30 -79.5 64t-73.5 75t-54.5 90t-21.5 109q0 64 21 116t57 92.5t84.5 70t102 49t110 28.5t109.5 9t109.5 -9.5t104 -21.5t80 -22.5t38.5 -13.5l-84 -307q-53 21 -104 39q-44 15 -91.5 27.5t-83.5 12.5
q-17 0 -33.5 -2.5t-30 -9.5t-22 -19.5t-8.5 -31.5q0 -18 9.5 -35t25.5 -33.5t37 -32t43 -30.5q45 -31 85.5 -64t72 -70t50 -78t18.5 -87q0 -60 -22 -121.5t-64.5 -119t-104.5 -108t-141.5 -88t-176 -59t-207.5 -21.5q-148 0 -263.5 26.5t-202 71t-146 103t-96.5 123
t-53.5 130.5t-16.5 126q0 57 13.5 116.5t37.5 119t57 116.5t73 108l300 -156q-61 -74 -90.5 -150t-29.5 -139q0 -61 24.5 -114t75 -92.5t128.5 -62t186 -22.5q73 0 137.5 13.5t113 37.5t77 56t28.5 68z" />
    <glyph glyph-name="uni064A" unicode="&#x64a;" horiz-adv-x="1700" arabic-form="isolated" 
d="M1131 54q0 14 -9.5 29.5t-24.5 31t-34.5 31.5t-39.5 31q-39 30 -79.5 64t-73.5 75t-54.5 90t-21.5 109q0 64 21 116t57 92.5t84.5 70t102 49t110 28.5t109.5 9t109.5 -9.5t104 -21.5t80 -22.5t38.5 -13.5l-84 -307q-53 21 -104 39q-44 15 -91.5 27.5t-83.5 12.5
q-17 0 -33.5 -2.5t-30 -9.5t-22 -19.5t-8.5 -31.5q0 -18 9.5 -35t25.5 -33.5t37 -32t43 -30.5q45 -31 85.5 -64t72 -70t50 -78t18.5 -87q0 -60 -22 -121.5t-64.5 -119t-104.5 -108t-141.5 -88t-176 -59t-207.5 -21.5q-148 0 -263.5 26.5t-202 71t-146 103t-96.5 123
t-53.5 130.5t-16.5 126q0 57 13.5 116.5t37.5 119t57 116.5t73 108l300 -156q-61 -74 -90.5 -150t-29.5 -139q0 -61 24.5 -114t75 -92.5t128.5 -62t186 -22.5q73 0 137.5 13.5t113 37.5t77 56t28.5 68zM398 -794q0 36 13.5 67t36.5 54.5t54 37t66 13.5t65.5 -13.5t53.5 -37
t36.5 -54.5t13.5 -67t-13.5 -67t-36.5 -54t-53.5 -36.5t-65.5 -13.5t-66 13.5t-54 36.5t-36.5 54t-13.5 67zM809 -794q0 36 13.5 67t36.5 54.5t53.5 37t65.5 13.5t65.5 -13.5t53.5 -37t36.5 -54.5t13.5 -67t-13.5 -67t-36.5 -54t-53.5 -36.5t-65.5 -13.5t-65.5 13.5
t-53.5 36.5t-36.5 54t-13.5 67z" />
    <glyph glyph-name="uni0671" unicode="&#x671;" horiz-adv-x="661" arabic-form="isolated" 
d="M150 1440h361v-1440h-361v1440zM24 1512v132h86v226h131v-45q28 21 56 33.5t52.5 19t45.5 8.5t36 2q44 0 80.5 -13t63 -39t41 -64.5t14.5 -90.5v-169h-606zM470 1683q0 53 -23 73t-59 20q-20 0 -43 -11t-42.5 -29t-32 -41.5t-12.5 -49.5h212v38z" />
    <glyph glyph-name="uni0679" unicode="&#x679;" horiz-adv-x="1996" arabic-form="isolated" 
d="M1486 285v595h360v-880h-1217q-131 0 -228.5 15t-167 42.5t-115 66t-71.5 85t-36.5 99.5t-10.5 110q0 20 2.5 50t7 65.5t10.5 73t13 71.5q81 -7 162 -14.5t162 -14.5q-10 -53 -14 -99.5t-4 -72.5q0 -50 14 -86t53 -59.5t109 -35t182 -11.5h789zM635 949v140h105v551h169
v-297q38 24 81 38t94 14q60 0 104.5 -20t73.5 -54.5t43 -81t14 -100.5v-190h-684zM1152 1130q0 36 -7.5 60.5t-21.5 39t-34 20.5t-45 6q-28 0 -56.5 -12.5t-55 -34.5t-49 -53t-37.5 -67h306v41z" />
    <glyph glyph-name="uni067E" unicode="&#x67e;" horiz-adv-x="1996" arabic-form="isolated" 
d="M1486 285v595h360v-880h-1217q-131 0 -228.5 15t-167 42.5t-115 66t-71.5 85t-36.5 99.5t-10.5 110q0 20 2.5 50t7 65.5t10.5 73t13 71.5q81 -7 162 -14.5t162 -14.5q-10 -53 -14 -99.5t-4 -72.5q0 -50 14 -86t53 -59.5t109 -35t182 -11.5h789zM608 -371q0 36 13.5 67
t36.5 54.5t54 37t66 13.5t65.5 -13.5t53.5 -37t36.5 -54.5t13.5 -67t-13.5 -67t-36.5 -54t-53.5 -36.5t-65.5 -13.5t-66 13.5t-54 36.5t-36.5 54t-13.5 67zM1019 -371q0 36 13.5 67t36.5 54.5t53.5 37t65.5 13.5t65.5 -13.5t53.5 -37t36.5 -54.5t13.5 -67t-13.5 -67
t-36.5 -54t-53.5 -36.5t-65.5 -13.5t-65.5 13.5t-53.5 36.5t-36.5 54t-13.5 67zM812 -755q0 36 13.5 67t36.5 54.5t53.5 37t65.5 13.5t65.5 -13.5t53.5 -37t36.5 -54.5t13.5 -67t-13.5 -67t-36.5 -54t-53.5 -36.5t-65.5 -13.5t-65.5 13.5t-53.5 36.5t-36.5 54t-13.5 67z" />
    <glyph glyph-name="uni0686" unicode="&#x686;" horiz-adv-x="1268" arabic-form="isolated" 
d="M742 300q-11 19 -16.5 37.5t-10.5 43.5q-9 52 -19 100t-32.5 84.5t-62.5 58.5t-108 22q-11 0 -35.5 -1.5t-58.5 -5.5t-76 -11.5t-88 -20.5v267q89 24 173.5 42.5t176.5 18.5q97 0 174.5 -26t134 -74.5t91 -117t45.5 -153.5q6 -48 15 -95t24.5 -84.5t41.5 -60.5t67 -24
v-300h-599q-52 0 -95 -13.5t-73.5 -41.5t-47.5 -69.5t-17 -96.5q0 -44 16.5 -83.5t51.5 -69.5t90.5 -47.5t133.5 -17.5h12t15 1l10 -287q-20 -2 -40.5 -3t-41.5 -1q-162 0 -274.5 44.5t-183.5 117.5t-103 164.5t-32 186.5q0 121 42.5 216.5t120.5 162t188 102t244 35.5h147z
M540 -229q0 28 10.5 53.5t29 44t43.5 29.5t53 11t52.5 -11t43 -29.5t29 -44t10.5 -53.5q0 -29 -10.5 -53.5t-29 -43.5t-43 -29.5t-52.5 -10.5t-53 10.5t-43.5 29.5t-29 43.5t-10.5 53.5zM869 -229q0 28 10.5 53.5t29 44t43 29.5t52.5 11t52.5 -11t43 -29.5t29 -44
t10.5 -53.5q0 -29 -10.5 -53.5t-29 -43.5t-43 -29.5t-52.5 -10.5t-52.5 10.5t-43 29.5t-29 43.5t-10.5 53.5zM703 -536q0 28 10.5 53.5t29 44t43 29.5t52.5 11t52.5 -11t43 -29.5t29 -44t10.5 -53.5q0 -29 -10.5 -53.5t-29 -43.5t-43 -29.5t-52.5 -10.5t-52.5 10.5t-43 29.5
t-29 43.5t-10.5 53.5z" />
    <glyph glyph-name="uni0688" unicode="&#x688;" horiz-adv-x="1048" arabic-form="isolated" 
d="M43 0v285h413q46 0 76 10t47 26t24 35.5t7 39.5q0 33 -31.5 80t-82.5 101t-115.5 110t-130.5 106l250 245q101 -86 182 -170t138 -164t87.5 -156t30.5 -146q0 -80 -24 -152.5t-81 -128t-150.5 -88.5t-231.5 -33h-408zM121 1129v140h105v551h169v-297q38 24 81 38t94 14
q60 0 104.5 -20t73.5 -54.5t43 -81t14 -100.5v-190h-684zM638 1310q0 36 -7.5 60.5t-21.5 39t-34 20.5t-45 6q-28 0 -56.5 -12.5t-55 -34.5t-49 -53t-37.5 -67h306v41z" />
    <glyph glyph-name="uni0691" unicode="&#x691;" horiz-adv-x="747" arabic-form="isolated" 
d="M-3 -156q87 18 135 50t71 74t28 93t5 109v710h361v-661q0 -145 -27.5 -259t-92 -198.5t-171.5 -139.5t-266 -80zM24 1145v140h105v551h169v-297q38 24 81 38t94 14q60 0 104.5 -20t73.5 -54.5t43 -81t14 -100.5v-190h-684zM541 1326q0 36 -7.5 60.5t-21.5 39t-34 20.5
t-45 6q-28 0 -56.5 -12.5t-55 -34.5t-49 -53t-37.5 -67h306v41z" />
    <glyph glyph-name="uni0698" unicode="&#x698;" horiz-adv-x="747" arabic-form="isolated" 
d="M-3 -156q87 18 135 50t71 74t28 93t5 109v710h361v-661q0 -145 -27.5 -259t-92 -198.5t-171.5 -139.5t-266 -80zM49 1327q0 36 13.5 67t36.5 54.5t54 37t66 13.5t65.5 -13.5t53.5 -37t36.5 -54.5t13.5 -67t-13.5 -67t-36.5 -54t-53.5 -36.5t-65.5 -13.5t-66 13.5
t-54 36.5t-36.5 54t-13.5 67zM460 1327q0 36 13.5 67t36.5 54.5t53.5 37t65.5 13.5t65.5 -13.5t53.5 -37t36.5 -54.5t13.5 -67t-13.5 -67t-36.5 -54t-53.5 -36.5t-65.5 -13.5t-65.5 13.5t-53.5 36.5t-36.5 54t-13.5 67zM253 1713q0 36 13.5 67t36.5 54.5t53.5 37t65.5 13.5
t65.5 -13.5t53.5 -37t36.5 -54.5t13.5 -67t-13.5 -67t-36.5 -54t-53.5 -36.5t-65.5 -13.5t-65.5 13.5t-53.5 36.5t-36.5 54t-13.5 67z" />
    <glyph glyph-name="uni06A4" unicode="&#x6a4;" horiz-adv-x="2279" arabic-form="isolated" 
d="M1788 285v136q0 58 -13 97t-34 62.5t-47 33.5t-51 10q-28 0 -55 -9.5t-48 -30t-33.5 -51.5t-12.5 -73q0 -36 13 -67.5t37 -55.5t58 -38t76 -14h110zM628 0q-130 0 -227.5 15t-167 42.5t-115 66t-71.5 85t-36.5 99.5t-10.5 110q0 20 3 50t7.5 65.5t10.5 73t12 71.5
q83 -7 165 -14.5t165 -14.5l-3 -14q-9 -48 -16 -93t-7 -79q0 -44 14 -77.5t53.5 -56t110 -33.5t182.5 -11h480q-7 19 -13 41t-10.5 45t-7 45t-2.5 40q0 112 40.5 198.5t111 145t166.5 89t206 30.5q109 0 198 -31.5t152 -90.5t97 -143.5t34 -191.5v-462h-1521zM1261 1327
q0 36 13.5 67t36.5 54.5t54 37t66 13.5t65.5 -13.5t53.5 -37t36.5 -54.5t13.5 -67t-13.5 -67t-36.5 -54t-53.5 -36.5t-65.5 -13.5t-66 13.5t-54 36.5t-36.5 54t-13.5 67zM1672 1327q0 36 13.5 67t36.5 54.5t53.5 37t65.5 13.5t65.5 -13.5t53.5 -37t36.5 -54.5t13.5 -67
t-13.5 -67t-36.5 -54t-53.5 -36.5t-65.5 -13.5t-65.5 13.5t-53.5 36.5t-36.5 54t-13.5 67zM1465 1713q0 36 13.5 67t36.5 54.5t53.5 37t65.5 13.5t65.5 -13.5t53.5 -37t36.5 -54.5t13.5 -67t-13.5 -67t-36.5 -54t-53.5 -36.5t-65.5 -13.5t-65.5 13.5t-53.5 36.5t-36.5 54
t-13.5 67z" />
    <glyph glyph-name="uni06A9" unicode="&#x6a9;" horiz-adv-x="1892" arabic-form="isolated" 
d="M629 0q-131 0 -228.5 15t-167 42.5t-115 66t-71.5 85t-36.5 99.5t-10.5 110q0 20 2.5 50t7 65.5t10.5 73t13 71.5q81 -7 162 -14.5t162 -14.5q-10 -53 -14 -99.5t-4 -72.5q0 -50 14 -86t53 -59.5t109 -35t182 -11.5h578q46 0 76 8t47 21t23.5 30t6.5 35q0 69 -102.5 158
t-298.5 200l480 770l275 -171l-315 -519q71 -44 128 -94t96.5 -105t60.5 -115.5t21 -126.5q0 -77 -26.5 -145.5t-83.5 -119.5t-146.5 -81t-215.5 -30h-672z" />
    <glyph glyph-name="uni06AF" unicode="&#x6af;" horiz-adv-x="1892" arabic-form="isolated" 
d="M657 936l491 777l255 -154l-480 -770zM629 0q-131 0 -228.5 15t-167 42.5t-115 66t-71.5 85t-36.5 99.5t-10.5 110q0 20 2.5 50t7 65.5t10.5 73t13 71.5q81 -7 162 -14.5t162 -14.5q-10 -53 -14 -99.5t-4 -72.5q0 -50 14 -86t53 -59.5t109 -35t182 -11.5h578q46 0 76 8
t47 21t23.5 30t6.5 35q0 69 -102.5 158t-298.5 200l480 770l275 -171l-315 -519q71 -44 128 -94t96.5 -105t60.5 -115.5t21 -126.5q0 -77 -26.5 -145.5t-83.5 -119.5t-146.5 -81t-215.5 -30h-672z" />
    <glyph glyph-name="uni06BA" unicode="&#x6ba;" horiz-adv-x="1460" arabic-form="isolated" 
d="M990 236q0 26 -6.5 68t-19 91.5t-30.5 103.5t-42 105l351 94q19 -50 38 -110.5t34.5 -122.5t25 -121.5t9.5 -107.5q0 -144 -48 -266t-138 -211t-219.5 -139.5t-292.5 -50.5q-171 0 -294.5 49t-203 131t-117 189t-37.5 222q0 52 9 112t27 121.5t44.5 122t60.5 113.5
q75 -41 149 -79.5t149 -78.5q-42 -68 -67.5 -145.5t-25.5 -142.5q0 -64 21 -118.5t62 -94.5t102 -63t142 -23q74 0 132.5 23.5t99.5 68.5t63 110.5t22 149.5z" />
    <glyph glyph-name="uni06BE" unicode="&#x6be;" horiz-adv-x="1642" arabic-form="isolated" 
d="M779 285q10 19 18 43t12.5 50.5t7 53.5t2.5 52q0 45 -8.5 87.5t-25 75t-41.5 52.5t-58 20q-35 0 -60 -17.5t-41.5 -47t-24.5 -67t-8 -77.5q0 -31 4.5 -64t13 -63.5t21 -56t28.5 -41.5h160zM1195 285q5 15 6 35t1 32q0 47 -13.5 91t-43.5 82.5t-79 69.5t-119 52
q20 -32 31.5 -75t17.5 -91t7.5 -98.5t1.5 -97.5h190zM72 -190q-30 54 -51 117.5t-21 123.5q0 73 24.5 119t66.5 71.5t97 34.5t117 9h12q-8 22 -14 46t-10 46.5t-6 43.5t-2 37q0 82 36.5 167t96.5 157l-62 13q16 43 33 77.5t36.5 64.5t41.5 57.5t49 54.5q262 -50 450 -110.5
t309.5 -143.5t179 -194t57.5 -262q0 -5 -0.5 -23.5t-2 -57.5t-4 -102t-6.5 -156h-1169q-30 0 -48 -13.5t-27 -38.5t-12.5 -60t-5.5 -78h-165z" />
    <glyph glyph-name="uni06C1" unicode="&#x6c1;" horiz-adv-x="1073" arabic-form="isolated" 
d="M461 0q-110 0 -195.5 31.5t-144.5 86.5t-90 128.5t-31 157.5q0 89 21 163.5t57.5 134.5t85 105t102.5 75.5t110.5 46t110.5 15.5q85 0 170.5 -33t153 -100.5t110 -169t42.5 -237.5q0 -78 -31.5 -151t-90 -129.5t-141.5 -90t-186 -33.5h-53zM324 437q0 -35 8.5 -63
t27 -47.5t48 -30.5t72.5 -11q42 0 70.5 13t45 34.5t23.5 49t7 55.5q0 55 -11.5 97.5t-32 71t-48 43t-58.5 14.5q-27 0 -54.5 -14t-49 -42t-35 -70.5t-13.5 -99.5z" />
    <glyph glyph-name="uni06C2.fina" unicode="&#x6c2;" horiz-adv-x="864" 
d="M635 1176q-34 11 -68.5 16t-68.5 5q-50 0 -78 -19t-28 -45q0 -24 13.5 -40t35 -26t48 -14.5t52.5 -4.5h127v-232h-609v232h93q-14 26 -22 52t-8 51q0 69 28.5 120.5t74 85t102.5 50t114 16.5q19 0 39.5 -0.5t45 -3t56 -6.5t73.5 -10zM20 -57q-8 31 -12 53t-5.5 42.5
t-2 43.5t-0.5 56q0 94 30.5 176.5t82 143.5t119.5 96.5t143 35.5q60 0 105.5 -14t81.5 -38t66 -55t60 -65q22 -26 44 -49.5t44 -42.5t44 -30t45 -11t36.5 -6.5t20 -20t8 -35.5t1.5 -52v-53q0 -39 -3.5 -62.5t-11 -35.5t-20 -16t-31.5 -4h-45q-60 0 -105.5 22t-81.5 54.5
t-65 71t-56.5 71t-56 54.5t-63.5 22q-16 0 -36 -10t-37.5 -33.5t-29.5 -62t-12 -95.5q0 -65 19 -151h-276z" />
    <glyph glyph-name="uni06C3.fina" unicode="&#x6c3;" horiz-adv-x="1205" 
d="M633 638q-65 -17 -117.5 -37.5t-89 -45.5t-56.5 -55t-20 -66q0 -43 35 -68t92 -25q41 0 80.5 8.5t74.5 24.5zM992 361q0 -22 2 -36.5t7.5 -23.5t15 -12.5t25.5 -3.5h163q23 0 36.5 -6.5t20 -20t8 -35.5t1.5 -52v-53q0 -39 -3.5 -62.5t-11 -35.5t-20 -16t-31.5 -4h-209
q-66 0 -117 8t-88.5 22t-64.5 34.5t-45 46.5q-63 -23 -121 -34t-118 -11q-77 0 -155.5 20.5t-142.5 63.5t-104 110.5t-40 161.5q0 77 29 139.5t77.5 113.5t112.5 90.5t134 69.5t142 52t136 37q0 29 1 59.5t1 60.5h359v-683zM274 1383q0 36 13.5 67t36.5 54.5t54 37t66 13.5
t65.5 -13.5t53.5 -37t36.5 -54.5t13.5 -67t-13.5 -67t-36.5 -54t-53.5 -36.5t-65.5 -13.5t-66 13.5t-54 36.5t-36.5 54t-13.5 67zM685 1383q0 36 13.5 67t36.5 54.5t53.5 37t65.5 13.5t65.5 -13.5t53.5 -37t36.5 -54.5t13.5 -67t-13.5 -67t-36.5 -54t-53.5 -36.5
t-65.5 -13.5t-65.5 13.5t-53.5 36.5t-36.5 54t-13.5 67z" />
    <glyph glyph-name="uni06CC" unicode="&#x6cc;" horiz-adv-x="1700" arabic-form="isolated" 
d="M1131 54q0 14 -9.5 29.5t-24.5 31t-34.5 31.5t-39.5 31q-39 30 -79.5 64t-73.5 75t-54.5 90t-21.5 109q0 64 21 116t57 92.5t84.5 70t102 49t110 28.5t109.5 9t109.5 -9.5t104 -21.5t80 -22.5t38.5 -13.5l-84 -307q-53 21 -104 39q-44 15 -91.5 27.5t-83.5 12.5
q-17 0 -33.5 -2.5t-30 -9.5t-22 -19.5t-8.5 -31.5q0 -18 9.5 -35t25.5 -33.5t37 -32t43 -30.5q45 -31 85.5 -64t72 -70t50 -78t18.5 -87q0 -60 -22 -121.5t-64.5 -119t-104.5 -108t-141.5 -88t-176 -59t-207.5 -21.5q-148 0 -263.5 26.5t-202 71t-146 103t-96.5 123
t-53.5 130.5t-16.5 126q0 57 13.5 116.5t37.5 119t57 116.5t73 108l300 -156q-61 -74 -90.5 -150t-29.5 -139q0 -61 24.5 -114t75 -92.5t128.5 -62t186 -22.5q73 0 137.5 13.5t113 37.5t77 56t28.5 68z" />
    <glyph glyph-name="uni06D2" unicode="&#x6d2;" horiz-adv-x="2174" arabic-form="isolated" 
d="M902 552q-290 -71 -427.5 -132t-137.5 -109q0 -21 25.5 -35t87 -22.5t164.5 -12t257 -3.5q78 0 169 3.5t186.5 10t193 15.5t189 19.5t174 22.5t148.5 25l-24 -313q-88 -16 -184.5 -28.5t-194.5 -22.5t-194 -17t-184 -11.5t-164 -6.5t-133 -2q-249 0 -413.5 26t-262 71
t-137.5 107t-40 134q0 70 32.5 131t89 114t134 99t167 85t187 72t195.5 61z" />
    <glyph glyph-name="uni06D3" unicode="&#x6d3;" horiz-adv-x="2174" arabic-form="isolated" 
d="M902 552q-290 -71 -427.5 -132t-137.5 -109q0 -21 25.5 -35t87 -22.5t164.5 -12t257 -3.5q78 0 169 3.5t186.5 10t193 15.5t189 19.5t174 22.5t148.5 25l-24 -313q-88 -16 -184.5 -28.5t-194.5 -22.5t-194 -17t-184 -11.5t-164 -6.5t-133 -2q-249 0 -413.5 26t-262 71
t-137.5 107t-40 134q0 70 32.5 131t89 114t134 99t167 85t187 72t195.5 61zM596 1313q-34 11 -68.5 16t-68.5 5q-50 0 -78 -19t-28 -45q0 -24 13.5 -40t35 -26t48 -14.5t52.5 -4.5h127v-232h-609v232h93q-14 26 -22 52t-8 51q0 69 28.5 120.5t74 85t102.5 50t114 16.5
q19 0 39.5 -0.5t45 -3t56 -6.5t73.5 -10z" />
    <glyph glyph-name="uni06D5.fina" unicode="&#x6d5;" horiz-adv-x="1205" 
d="M633 638q-65 -17 -117.5 -37.5t-89 -45.5t-56.5 -55t-20 -66q0 -43 35 -68t92 -25q41 0 80.5 8.5t74.5 24.5zM992 361q0 -22 2 -36.5t7.5 -23.5t15 -12.5t25.5 -3.5h163q23 0 36.5 -6.5t20 -20t8 -35.5t1.5 -52v-53q0 -39 -3.5 -62.5t-11 -35.5t-20 -16t-31.5 -4h-209
q-66 0 -117 8t-88.5 22t-64.5 34.5t-45 46.5q-63 -23 -121 -34t-118 -11q-77 0 -155.5 20.5t-142.5 63.5t-104 110.5t-40 161.5q0 77 29 139.5t77.5 113.5t112.5 90.5t134 69.5t142 52t136 37q0 29 1 59.5t1 60.5h359v-683z" />
    <glyph glyph-name="uniFB51" unicode="&#x671;" horiz-adv-x="734" arabic-form="final" 
d="M150 1440h361v-1022q0 -70 25 -101.5t83 -31.5h115q24 0 37 -6.5t20 -20t8.5 -35.5t1.5 -52v-53q0 -39 -3.5 -62.5t-11 -35.5t-20.5 -16t-32 -4h-215q-97 0 -167 24t-115 70.5t-66 114.5t-21 156v1075zM11 1512v132h86v226h131v-45q28 21 56 33.5t52.5 19t45.5 8.5t36 2
q44 0 80.5 -13t63 -39t41 -64.5t14.5 -90.5v-169h-606zM457 1683q0 53 -23 73t-59 20q-20 0 -43 -11t-42.5 -29t-32 -41.5t-12.5 -49.5h212v38z" />
    <glyph glyph-name="uniFB57" unicode="&#x67e;" horiz-adv-x="1988" arabic-form="final" 
d="M628 0q-130 0 -227.5 15t-167.5 42.5t-115 66t-71 85t-36.5 99.5t-10.5 110q0 20 2.5 50t7 65.5t10 73t12.5 71.5q81 -7 162 -14.5t162 -14.5q-10 -53 -14 -99.5t-4 -72.5q0 -50 14 -86t53.5 -59.5t109.5 -35t182 -11.5h599q63 0 92 31t29 87v477h362v-517v-19.5
t-1 -19.5q49 -22 102.5 -30.5t102.5 -8.5h5q24 0 37 -6.5t20 -20t8.5 -35.5t1.5 -52v-53q0 -39 -3.5 -62.5t-11 -35.5t-20.5 -16t-32 -4h-8q-70 0 -143 27t-136 77q-41 -48 -106 -76t-163 -28h-804zM593 -371q0 36 13.5 67t36.5 54.5t54 37t66 13.5t65.5 -13.5t53.5 -37
t36.5 -54.5t13.5 -67t-13.5 -67t-36.5 -54t-53.5 -36.5t-65.5 -13.5t-66 13.5t-54 36.5t-36.5 54t-13.5 67zM1004 -371q0 36 13.5 67t36.5 54.5t53.5 37t65.5 13.5t65.5 -13.5t53.5 -37t36.5 -54.5t13.5 -67t-13.5 -67t-36.5 -54t-53.5 -36.5t-65.5 -13.5t-65.5 13.5
t-53.5 36.5t-36.5 54t-13.5 67zM797 -755q0 36 13.5 67t36.5 54.5t53.5 37t65.5 13.5t65.5 -13.5t53.5 -37t36.5 -54.5t13.5 -67t-13.5 -67t-36.5 -54t-53.5 -36.5t-65.5 -13.5t-65.5 13.5t-53.5 36.5t-36.5 54t-13.5 67z" />
    <glyph glyph-name="uniFB58" unicode="&#x67e;" horiz-adv-x="819" arabic-form="initial" 
d="M-2 0q-19 0 -32 4t-20.5 16t-11 35.5t-3.5 62.5v53q0 30 1.5 52t8.5 35.5t20 20t37 6.5h308v595h362v-880h-670zM47 -371q0 36 13.5 67t36.5 54.5t54 37t66 13.5t65.5 -13.5t53.5 -37t36.5 -54.5t13.5 -67t-13.5 -67t-36.5 -54t-53.5 -36.5t-65.5 -13.5t-66 13.5
t-54 36.5t-36.5 54t-13.5 67zM458 -371q0 36 13.5 67t36.5 54.5t53.5 37t65.5 13.5t65.5 -13.5t53.5 -37t36.5 -54.5t13.5 -67t-13.5 -67t-36.5 -54t-53.5 -36.5t-65.5 -13.5t-65.5 13.5t-53.5 36.5t-36.5 54t-13.5 67zM251 -755q0 36 13.5 67t36.5 54.5t53.5 37t65.5 13.5
t65.5 -13.5t53.5 -37t36.5 -54.5t13.5 -67t-13.5 -67t-36.5 -54t-53.5 -36.5t-65.5 -13.5t-65.5 13.5t-53.5 36.5t-36.5 54t-13.5 67z" />
    <glyph glyph-name="uniFB59" unicode="&#x67e;" horiz-adv-x="817" arabic-form="medial" 
d="M577 363v-12t-1 -11q54 -31 116.5 -43t119.5 -12h5q24 0 37 -6.5t20 -20t8.5 -35.5t1.5 -52v-53q0 -39 -3.5 -62.5t-11 -35.5t-20.5 -16t-32 -4h-8q-76 0 -155 32t-145 90q-40 -55 -107.5 -88.5t-171.5 -33.5h-232q-19 0 -32 4t-20.5 16t-11 35.5t-3.5 62.5v53
q0 30 1.5 52t8.5 35.5t20 20t37 6.5h140q42 0 59.5 20t17.5 76v499h362v-517zM19 -371q0 36 13.5 67t36.5 54.5t54 37t66 13.5t65.5 -13.5t53.5 -37t36.5 -54.5t13.5 -67t-13.5 -67t-36.5 -54t-53.5 -36.5t-65.5 -13.5t-66 13.5t-54 36.5t-36.5 54t-13.5 67zM430 -371
q0 36 13.5 67t36.5 54.5t53.5 37t65.5 13.5t65.5 -13.5t53.5 -37t36.5 -54.5t13.5 -67t-13.5 -67t-36.5 -54t-53.5 -36.5t-65.5 -13.5t-65.5 13.5t-53.5 36.5t-36.5 54t-13.5 67zM223 -755q0 36 13.5 67t36.5 54.5t53.5 37t65.5 13.5t65.5 -13.5t53.5 -37t36.5 -54.5
t13.5 -67t-13.5 -67t-36.5 -54t-53.5 -36.5t-65.5 -13.5t-65.5 13.5t-53.5 36.5t-36.5 54t-13.5 67z" />
    <glyph glyph-name="uniFB67" unicode="&#x679;" horiz-adv-x="1988" arabic-form="final" 
d="M628 0q-130 0 -227.5 15t-167.5 42.5t-115 66t-71 85t-36.5 99.5t-10.5 110q0 20 2.5 50t7 65.5t10 73t12.5 71.5q81 -7 162 -14.5t162 -14.5q-10 -53 -14 -99.5t-4 -72.5q0 -50 14 -86t53.5 -59.5t109.5 -35t182 -11.5h599q63 0 92 31t29 87v477h362v-517v-19.5
t-1 -19.5q49 -22 102.5 -30.5t102.5 -8.5h5q24 0 37 -6.5t20 -20t8.5 -35.5t1.5 -52v-53q0 -39 -3.5 -62.5t-11 -35.5t-20.5 -16t-32 -4h-8q-70 0 -143 27t-136 77q-41 -48 -106 -76t-163 -28h-804zM625 949v140h105v551h169v-297q38 24 81 38t94 14q60 0 104.5 -20
t73.5 -54.5t43 -81t14 -100.5v-190h-684zM1142 1130q0 36 -7.5 60.5t-21.5 39t-34 20.5t-45 6q-28 0 -56.5 -12.5t-55 -34.5t-49 -53t-37.5 -67h306v41z" />
    <glyph glyph-name="uniFB68" unicode="&#x679;" horiz-adv-x="731" arabic-form="initial" 
d="M-2 0q-19 0 -32 4t-20.5 16t-11 35.5t-3.5 62.5v53q0 30 1.5 52t8.5 35.5t20 20t37 6.5h221v595h362v-880h-583zM15 1060v140h105v551h169v-297q38 24 81 38t94 14q60 0 104.5 -20t73.5 -54.5t43 -81t14 -100.5v-190h-684zM532 1241q0 36 -7.5 60.5t-21.5 39t-34 20.5
t-45 6q-28 0 -56.5 -12.5t-55 -34.5t-49 -53t-37.5 -67h306v41z" />
    <glyph glyph-name="uniFB69" unicode="&#x679;" horiz-adv-x="817" arabic-form="medial" 
d="M577 363v-12t-1 -11q54 -31 116.5 -43t119.5 -12h5q24 0 37 -6.5t20 -20t8.5 -35.5t1.5 -52v-53q0 -39 -3.5 -62.5t-11 -35.5t-20.5 -16t-32 -4h-8q-76 0 -155 32t-145 90q-40 -55 -107.5 -88.5t-171.5 -33.5h-232q-19 0 -32 4t-20.5 16t-11 35.5t-3.5 62.5v53
q0 30 1.5 52t8.5 35.5t20 20t37 6.5h140q42 0 59.5 20t17.5 76v499h362v-517zM49 1060v140h105v551h169v-297q38 24 81 38t94 14q60 0 104.5 -20t73.5 -54.5t43 -81t14 -100.5v-190h-684zM566 1241q0 36 -7.5 60.5t-21.5 39t-34 20.5t-45 6q-28 0 -56.5 -12.5t-55 -34.5
t-49 -53t-37.5 -67h306v41z" />
    <glyph glyph-name="uniFB6B" unicode="&#x6a4;" horiz-adv-x="2272" arabic-form="final" 
d="M2272 285q24 0 37 -6.5t20 -20t8.5 -35.5t1.5 -52v-53q0 -39 -3.5 -62.5t-11 -35.5t-20.5 -16t-32 -4h-162q-51 0 -105.5 2.5t-107 6.5t-101.5 9t-89 11q-45 -5 -108 -9t-134.5 -7t-147.5 -5.5t-147.5 -4t-133.5 -2.5t-106 -1h-301q-131 0 -228.5 15t-167.5 42.5t-115 66
t-71.5 85t-36.5 99.5t-10 110q0 20 2.5 50t7 65.5t10.5 73t13 71.5q84 -7 166 -14.5t165 -14.5q-10 -51 -17.5 -101t-7.5 -85q0 -44 14 -77.5t53 -56t109 -33.5t183 -11h484q-24 51 -35 103t-11 84q0 90 37 171t106 142.5t167 97.5t220 36q123 0 211.5 -32.5t145.5 -88.5
t84 -130.5t27 -158.5q0 -26 -4 -55.5t-10 -59t-14 -57.5t-16 -52h182zM1485 492q0 -43 17 -81t46.5 -66t68.5 -44t83 -16h22q9 17 17.5 40t15 49t11 52.5t4.5 50.5q0 78 -39.5 119t-99.5 41q-27 0 -53 -8.5t-46.5 -26.5t-33.5 -45.5t-13 -64.5zM1252 1327q0 36 13.5 67
t36.5 54.5t54 37t66 13.5t65.5 -13.5t53.5 -37t36.5 -54.5t13.5 -67t-13.5 -67t-36.5 -54t-53.5 -36.5t-65.5 -13.5t-66 13.5t-54 36.5t-36.5 54t-13.5 67zM1663 1327q0 36 13.5 67t36.5 54.5t53.5 37t65.5 13.5t65.5 -13.5t53.5 -37t36.5 -54.5t13.5 -67t-13.5 -67
t-36.5 -54t-53.5 -36.5t-65.5 -13.5t-65.5 13.5t-53.5 36.5t-36.5 54t-13.5 67zM1456 1713q0 36 13.5 67t36.5 54.5t53.5 37t65.5 13.5t65.5 -13.5t53.5 -37t36.5 -54.5t13.5 -67t-13.5 -67t-36.5 -54t-53.5 -36.5t-65.5 -13.5t-65.5 13.5t-53.5 36.5t-36.5 54t-13.5 67z
" />
    <glyph glyph-name="uniFB6C" unicode="&#x6a4;" horiz-adv-x="1282" arabic-form="initial" 
d="M180 285q-6 19 -12 41t-10.5 45t-7 45t-2.5 40q0 112 40.5 198.5t111 145t166 89t205.5 30.5q109 0 198 -31.5t152 -90.5t97 -143.5t34 -191.5v-462h-1154q-19 0 -31.5 4t-20.5 16t-11.5 35.5t-3.5 62.5v53q0 30 1.5 52t8.5 35.5t20.5 20t36.5 6.5h182zM791 285v136
q0 58 -13 97t-33.5 62.5t-46.5 33.5t-51 10q-29 0 -56 -9.5t-48 -30t-33.5 -51.5t-12.5 -73q0 -36 13 -67.5t37 -55.5t58 -38t76 -14h110zM297 1327q0 36 13.5 67t36.5 54.5t54 37t66 13.5t65.5 -13.5t53.5 -37t36.5 -54.5t13.5 -67t-13.5 -67t-36.5 -54t-53.5 -36.5
t-65.5 -13.5t-66 13.5t-54 36.5t-36.5 54t-13.5 67zM708 1327q0 36 13.5 67t36.5 54.5t53.5 37t65.5 13.5t65.5 -13.5t53.5 -37t36.5 -54.5t13.5 -67t-13.5 -67t-36.5 -54t-53.5 -36.5t-65.5 -13.5t-65.5 13.5t-53.5 36.5t-36.5 54t-13.5 67zM501 1713q0 36 13.5 67
t36.5 54.5t53.5 37t65.5 13.5t65.5 -13.5t53.5 -37t36.5 -54.5t13.5 -67t-13.5 -67t-36.5 -54t-53.5 -36.5t-65.5 -13.5t-65.5 13.5t-53.5 36.5t-36.5 54t-13.5 67z" />
    <glyph glyph-name="uniFB6D" unicode="&#x6a4;" horiz-adv-x="1278" arabic-form="medial" 
d="M1121 0q-115 0 -220.5 8.5t-185.5 20.5q-59 -7 -128.5 -12t-143 -9t-147 -6t-140.5 -2h-156q-19 0 -32 4t-20.5 16t-11 35.5t-3.5 62.5v53q0 30 1.5 52t8.5 35.5t20 20t37 6.5h188q-24 51 -35 103t-11 84q0 90 37 171t106 142.5t167 97.5t220 36q123 0 211.5 -32.5
t145.5 -88.5t84 -130.5t27 -158.5q0 -26 -4 -55.5t-10 -59t-14 -57.5t-16 -52h182q24 0 37 -6.5t20 -20t8.5 -35.5t1.5 -52v-53q0 -39 -3.5 -62.5t-11 -35.5t-20.5 -16t-32 -4h-157zM492 492q0 -43 17 -81t46 -66t68 -44t83 -16h22q9 17 17.5 40t15 49t11 52.5t4.5 50.5
q0 78 -39.5 119t-99.5 41q-27 0 -53 -8.5t-46.5 -26.5t-33 -45.5t-12.5 -64.5zM245 1327q0 36 13.5 67t36.5 54.5t54 37t66 13.5t65.5 -13.5t53.5 -37t36.5 -54.5t13.5 -67t-13.5 -67t-36.5 -54t-53.5 -36.5t-65.5 -13.5t-66 13.5t-54 36.5t-36.5 54t-13.5 67zM656 1327
q0 36 13.5 67t36.5 54.5t53.5 37t65.5 13.5t65.5 -13.5t53.5 -37t36.5 -54.5t13.5 -67t-13.5 -67t-36.5 -54t-53.5 -36.5t-65.5 -13.5t-65.5 13.5t-53.5 36.5t-36.5 54t-13.5 67zM449 1713q0 36 13.5 67t36.5 54.5t53.5 37t65.5 13.5t65.5 -13.5t53.5 -37t36.5 -54.5
t13.5 -67t-13.5 -67t-36.5 -54t-53.5 -36.5t-65.5 -13.5t-65.5 13.5t-53.5 36.5t-36.5 54t-13.5 67z" />
    <glyph glyph-name="uniFB7B" unicode="&#x686;" horiz-adv-x="1190" arabic-form="final" 
d="M1178 300q27 0 42.5 -6.5t24 -20t10.5 -35.5t2 -52v-68q0 -39 -3.5 -62.5t-11 -35.5t-20.5 -16t-32 -4h-607q-53 0 -96.5 -13.5t-75 -41.5t-49 -69.5t-17.5 -96.5q0 -44 16 -83.5t50.5 -69.5t88 -47.5t128.5 -17.5h15.5t21.5 1l12 -287q-20 -2 -39.5 -3t-40.5 -1
q-107 0 -193 20.5t-152.5 56t-114 84t-78 104.5t-45 116.5t-14.5 121.5q0 129 43 227.5t122 165t189.5 100t244.5 33.5h143q-11 19 -16.5 37.5t-10.5 43.5q-9 52 -19 100t-32.5 84.5t-62.5 58.5t-108 22q-11 0 -35.5 -1.5t-58.5 -5.5t-76 -11.5t-88 -20.5v267
q89 24 173.5 42.5t176.5 18.5q97 0 174.5 -26t134 -74.5t91 -117t45.5 -153.5q6 -48 15 -95t24.5 -84.5t41.5 -60.5t67 -24zM553 -229q0 28 10.5 53.5t29 44t43.5 29.5t53 11t52.5 -11t43 -29.5t29 -44t10.5 -53.5q0 -29 -10.5 -53.5t-29 -43.5t-43 -29.5t-52.5 -10.5
t-53 10.5t-43.5 29.5t-29 43.5t-10.5 53.5zM882 -229q0 28 10.5 53.5t29 44t43 29.5t52.5 11t52.5 -11t43 -29.5t29 -44t10.5 -53.5q0 -29 -10.5 -53.5t-29 -43.5t-43 -29.5t-52.5 -10.5t-52.5 10.5t-43 29.5t-29 43.5t-10.5 53.5zM716 -536q0 28 10.5 53.5t29 44t43 29.5
t52.5 11t52.5 -11t43 -29.5t29 -44t10.5 -53.5q0 -29 -10.5 -53.5t-29 -43.5t-43 -29.5t-52.5 -10.5t-52.5 10.5t-43 29.5t-29 43.5t-10.5 53.5z" />
    <glyph glyph-name="uniFB7C" unicode="&#x686;" horiz-adv-x="1162" arabic-form="initial" 
d="M636 285q-11 19 -16.5 45t-10.5 51q-9 52 -19 100t-32.5 84.5t-62.5 58.5t-108 22q-11 0 -35.5 -1.5t-58.5 -5.5t-76 -11.5t-88 -20.5v267q89 24 173.5 42.5t176.5 18.5q97 0 174.5 -26t134 -74.5t91 -117t45.5 -153.5q6 -48 15 -97.5t24.5 -89.5t41.5 -65.5t67 -26.5
v-285h-1075q-19 0 -31.5 4t-20 16t-11 35.5t-3.5 62.5v53q0 30 1.5 52t8 35.5t20 20t36.5 6.5h639zM153 -371q0 36 13.5 67t36.5 54.5t54 37t66 13.5t65.5 -13.5t53.5 -37t36.5 -54.5t13.5 -67t-13.5 -67t-36.5 -54t-53.5 -36.5t-65.5 -13.5t-66 13.5t-54 36.5t-36.5 54
t-13.5 67zM564 -371q0 36 13.5 67t36.5 54.5t53.5 37t65.5 13.5t65.5 -13.5t53.5 -37t36.5 -54.5t13.5 -67t-13.5 -67t-36.5 -54t-53.5 -36.5t-65.5 -13.5t-65.5 13.5t-53.5 36.5t-36.5 54t-13.5 67zM357 -755q0 36 13.5 67t36.5 54.5t53.5 37t65.5 13.5t65.5 -13.5
t53.5 -37t36.5 -54.5t13.5 -67t-13.5 -67t-36.5 -54t-53.5 -36.5t-65.5 -13.5t-65.5 13.5t-53.5 36.5t-36.5 54t-13.5 67z" />
    <glyph glyph-name="uniFB7D" unicode="&#x686;" horiz-adv-x="1084" arabic-form="medial" 
d="M638 285q-11 19 -16.5 45t-10.5 51q-9 52 -19 100t-32.5 84.5t-62.5 58.5t-108 22q-11 0 -35.5 -1.5t-58.5 -5.5t-76 -11.5t-88 -20.5v267q89 24 173.5 42.5t176.5 18.5q97 0 174.5 -26t134 -74.5t91 -117t45.5 -153.5q6 -48 15 -98t26 -90t44.5 -65.5t72.5 -25.5
q24 0 37 -6.5t20 -20t8.5 -35.5t1.5 -52v-53q0 -39 -3.5 -62.5t-11 -35.5t-20.5 -16t-32 -4h-1086q-19 0 -31.5 4t-20.5 16t-11.5 35.5t-3.5 62.5v53q0 30 1.5 52t8.5 35.5t20.5 20t36.5 6.5h640zM152 -371q0 36 13.5 67t36.5 54.5t54 37t66 13.5t65.5 -13.5t53.5 -37
t36.5 -54.5t13.5 -67t-13.5 -67t-36.5 -54t-53.5 -36.5t-65.5 -13.5t-66 13.5t-54 36.5t-36.5 54t-13.5 67zM563 -371q0 36 13.5 67t36.5 54.5t53.5 37t65.5 13.5t65.5 -13.5t53.5 -37t36.5 -54.5t13.5 -67t-13.5 -67t-36.5 -54t-53.5 -36.5t-65.5 -13.5t-65.5 13.5
t-53.5 36.5t-36.5 54t-13.5 67zM356 -755q0 36 13.5 67t36.5 54.5t53.5 37t65.5 13.5t65.5 -13.5t53.5 -37t36.5 -54.5t13.5 -67t-13.5 -67t-36.5 -54t-53.5 -36.5t-65.5 -13.5t-65.5 13.5t-53.5 36.5t-36.5 54t-13.5 67z" />
    <glyph glyph-name="uniFB89" unicode="&#x688;" horiz-adv-x="1168" arabic-form="final" 
d="M42 0v285h413q46 0 76 10t47.5 26t24 35.5t6.5 39.5q0 33 -31.5 80t-82.5 101t-115.5 110t-130.5 106l250 245q102 -86 183 -170t137.5 -164t87 -156t30.5 -146q0 -17 -1 -33t-3 -33q53 -29 113.5 -40t115.5 -11h5q24 0 37 -6.5t20 -20t8.5 -35.5t1.5 -52v-53
q0 -39 -3.5 -62.5t-11 -35.5t-20.5 -16t-32 -4h-8q-81 0 -164 35.5t-150 99.5q-57 -62 -152.5 -98.5t-242.5 -36.5h-408zM95 1129v140h105v551h169v-297q38 24 81 38t94 14q60 0 104.5 -20t73.5 -54.5t43 -81t14 -100.5v-190h-684zM612 1310q0 36 -7.5 60.5t-21.5 39
t-34 20.5t-45 6q-28 0 -56.5 -12.5t-55 -34.5t-49 -53t-37.5 -67h306v41z" />
    <glyph glyph-name="uniFB8B" unicode="&#x698;" horiz-adv-x="815" arabic-form="final" 
d="M-6 -156q88 18 136.5 49.5t72 73.5t28.5 93.5t5 109.5v710h361v-595h218q24 0 37 -6.5t20 -20t8.5 -35.5t1.5 -52v-53q0 -39 -3.5 -62.5t-11 -35.5t-20.5 -16t-32 -4h-237q-18 -95 -56.5 -170.5t-103 -132.5t-157 -96t-218.5 -59zM49 1327q0 36 13.5 67t36.5 54.5t54 37
t66 13.5t65.5 -13.5t53.5 -37t36.5 -54.5t13.5 -67t-13.5 -67t-36.5 -54t-53.5 -36.5t-65.5 -13.5t-66 13.5t-54 36.5t-36.5 54t-13.5 67zM460 1327q0 36 13.5 67t36.5 54.5t53.5 37t65.5 13.5t65.5 -13.5t53.5 -37t36.5 -54.5t13.5 -67t-13.5 -67t-36.5 -54t-53.5 -36.5
t-65.5 -13.5t-65.5 13.5t-53.5 36.5t-36.5 54t-13.5 67zM253 1713q0 36 13.5 67t36.5 54.5t53.5 37t65.5 13.5t65.5 -13.5t53.5 -37t36.5 -54.5t13.5 -67t-13.5 -67t-36.5 -54t-53.5 -36.5t-65.5 -13.5t-65.5 13.5t-53.5 36.5t-36.5 54t-13.5 67z" />
    <glyph glyph-name="uniFB8D" unicode="&#x691;" horiz-adv-x="815" arabic-form="final" 
d="M-6 -156q88 18 136.5 49.5t72 73.5t28.5 93.5t5 109.5v710h361v-595h218q24 0 37 -6.5t20 -20t8.5 -35.5t1.5 -52v-53q0 -39 -3.5 -62.5t-11 -35.5t-20.5 -16t-32 -4h-237q-18 -95 -56.5 -170.5t-103 -132.5t-157 -96t-218.5 -59zM24 1145v140h105v551h169v-297
q38 24 81 38t94 14q60 0 104.5 -20t73.5 -54.5t43 -81t14 -100.5v-190h-684zM541 1326q0 36 -7.5 60.5t-21.5 39t-34 20.5t-45 6q-28 0 -56.5 -12.5t-55 -34.5t-49 -53t-37.5 -67h306v41z" />
    <glyph glyph-name="uniFB8F" unicode="&#x6a9;" horiz-adv-x="2002" arabic-form="final" 
d="M629 0q-131 0 -228.5 15t-167 42.5t-115 66t-71.5 85t-36.5 99.5t-10.5 110q0 20 2.5 50t7 65.5t10.5 73t13 71.5q81 -7 162 -14.5t162 -14.5q-10 -53 -14 -99.5t-4 -72.5q0 -50 14 -86t53 -59.5t109 -35t182 -11.5h578q46 0 76 8t47 21t23.5 30t6.5 35q0 69 -102.5 158
t-298.5 200l480 770l275 -171l-315 -519q71 -44 128 -94t96.5 -105t60.5 -115.5t21 -126.5q0 -11 -0.5 -21t-1.5 -21q53 -27 112 -38t113 -11h5q24 0 37 -6.5t20 -20t8.5 -35.5t1.5 -52v-53q0 -39 -3.5 -62.5t-11 -35.5t-20.5 -16t-32 -4h-8q-79 0 -161 34.5t-149 96.5
q-56 -60 -149.5 -95.5t-232.5 -35.5h-672z" />
    <glyph glyph-name="uniFB90" unicode="&#x6a9;" horiz-adv-x="942" arabic-form="initial" 
d="M-2 0q-19 0 -32 4t-20.5 16t-11 35.5t-3.5 62.5v53q0 30 1.5 52t8.5 35.5t20 20t37 6.5h327q46 0 76 8t47 21t23.5 30t6.5 35q0 69 -102.5 158t-298.5 200l480 770l275 -171l-315 -519q71 -44 128 -94t96.5 -105t60.5 -115.5t21 -126.5q0 -77 -26.5 -145.5t-83.5 -119.5
t-146.5 -81t-215.5 -30h-353z" />
    <glyph glyph-name="uniFB91" unicode="&#x6a9;" horiz-adv-x="1061" arabic-form="medial" 
d="M-3 0q-19 0 -31.5 4t-20 16t-11 35.5t-3.5 62.5v53q0 30 1.5 52t8 35.5t20 20t36.5 6.5h339q46 0 75.5 8t46.5 21t23.5 30t6.5 35q0 69 -102.5 158t-297.5 200l479 770l273 -171l-314 -519q72 -44 128.5 -94t96.5 -105t61 -115.5t21 -126.5q0 -11 -0.5 -21t-1.5 -21
q52 -27 111 -38t113 -11h5q24 0 37 -6.5t20 -20t8.5 -35.5t1.5 -52v-53q0 -39 -3.5 -62.5t-11 -35.5t-20.5 -16t-32 -4h-8q-79 0 -160.5 34t-148.5 96q-56 -59 -150.5 -94.5t-233.5 -35.5h-362z" />
    <glyph glyph-name="uniFB93" unicode="&#x6af;" horiz-adv-x="2002" arabic-form="final" 
d="M657 936l491 777l255 -154l-480 -770zM629 0q-131 0 -228.5 15t-167 42.5t-115 66t-71.5 85t-36.5 99.5t-10.5 110q0 20 2.5 50t7 65.5t10.5 73t13 71.5q81 -7 162 -14.5t162 -14.5q-10 -53 -14 -99.5t-4 -72.5q0 -50 14 -86t53 -59.5t109 -35t182 -11.5h578q46 0 76 8
t47 21t23.5 30t6.5 35q0 69 -102.5 158t-298.5 200l480 770l275 -171l-315 -519q71 -44 128 -94t96.5 -105t60.5 -115.5t21 -126.5q0 -11 -0.5 -21t-1.5 -21q53 -27 112 -38t113 -11h5q24 0 37 -6.5t20 -20t8.5 -35.5t1.5 -52v-53q0 -39 -3.5 -62.5t-11 -35.5t-20.5 -16
t-32 -4h-8q-79 0 -161 34.5t-149 96.5q-56 -60 -149.5 -95.5t-232.5 -35.5h-672z" />
    <glyph glyph-name="uniFB94" unicode="&#x6af;" horiz-adv-x="1140" arabic-form="initial" 
d="M-69 936l491 777l255 -154l-480 -770zM15 0q-19 0 -32 4t-20.5 16t-11 35.5t-3.5 62.5v53q0 30 1.5 52t8.5 35.5t20 20t37 6.5h508q46 0 76 8t47 21t23.5 30t6.5 35q0 69 -102.5 158t-298.5 200l480 770l275 -171l-315 -519q71 -44 128 -94t96.5 -105t60.5 -115.5
t21 -126.5q0 -77 -26.5 -145.5t-83.5 -119.5t-146.5 -81t-215.5 -30h-534z" />
    <glyph glyph-name="uniFB95" unicode="&#x6af;" horiz-adv-x="1185" arabic-form="medial" 
d="M15 0q-19 0 -32 4t-20.5 16t-11 35.5t-3.5 62.5v53q0 30 1.5 52t8.5 35.5t20 20t37 6.5h508q46 0 76 8t47 21t23.5 30t6.5 35q0 69 -102.5 158t-298.5 200l480 770l275 -171l-315 -519q71 -44 128 -94t96.5 -105t60.5 -115.5t21 -126.5q0 -17 -1.5 -33.5t-3.5 -33.5
q41 -13 82.5 -18.5t80.5 -5.5h5q24 0 37 -6.5t20 -20t8.5 -35.5t1.5 -52v-53q0 -39 -3.5 -62.5t-11 -35.5t-20.5 -16t-32 -4h-8q-69 0 -141 26.5t-135 75.5q-57 -48 -143.5 -75t-207.5 -27h-534zM-69 936l491 777l255 -154l-480 -770z" />
    <glyph glyph-name="uniFB9F" unicode="&#x6ba;" horiz-adv-x="1596" arabic-form="final" 
d="M1014 236q0 26 -6.5 68t-18.5 91.5t-30 103.5t-42 105l352 94q14 -39 28.5 -84t28 -92.5t24 -95.5t17.5 -92q52 -27 111 -38t113 -11h5q24 0 37 -6.5t20 -20t8.5 -35.5t1.5 -52v-53q0 -39 -3.5 -62.5t-11 -35.5t-20.5 -16t-32 -4h-8q-57 0 -116 18t-114 52
q-24 -110 -80.5 -200t-142 -154.5t-198.5 -100t-251 -35.5q-178 0 -307.5 47.5t-213.5 127.5t-124.5 185t-40.5 220q0 52 13 112t35.5 121.5t52.5 122t64 113.5l298 -158q-22 -34 -39 -71t-29 -74.5t-18 -74t-6 -68.5q0 -64 23.5 -118.5t67.5 -94.5t107 -63t143 -23
q149 0 225.5 91t76.5 261z" />
    <glyph glyph-name="uniFBA5" unicode="&#x6c0;" horiz-adv-x="1205" arabic-form="final" 
d="M633 638q-65 -17 -117.5 -37.5t-89 -45.5t-56.5 -55t-20 -66q0 -43 35 -68t92 -25q41 0 80.5 8.5t74.5 24.5zM992 361q0 -22 2 -36.5t7.5 -23.5t15 -12.5t25.5 -3.5h163q23 0 36.5 -6.5t20 -20t8 -35.5t1.5 -52v-53q0 -39 -3.5 -62.5t-11 -35.5t-20 -16t-31.5 -4h-209
q-66 0 -117 8t-88.5 22t-64.5 34.5t-45 46.5q-63 -23 -121 -34t-118 -11q-77 0 -155.5 20.5t-142.5 63.5t-104 110.5t-40 161.5q0 77 29 139.5t77.5 113.5t112.5 90.5t134 69.5t142 52t136 37q0 29 1 59.5t1 60.5h359v-683zM801 1611q-34 11 -68.5 16t-68.5 5q-50 0 -78 -19
t-28 -45q0 -24 13.5 -40t35 -26t48 -14.5t52.5 -4.5h127v-232h-609v232h93q-14 26 -22 52t-8 51q0 69 28.5 120.5t74 85t102.5 50t114 16.5q19 0 39.5 -0.5t45 -3t56 -6.5t73.5 -10z" />
    <glyph glyph-name="uniFBA7" unicode="&#x6c1;" horiz-adv-x="864" arabic-form="final" 
d="M20 -57q-8 31 -12 53t-5.5 42.5t-2 43.5t-0.5 56q0 94 30.5 176.5t82 143.5t119.5 96.5t143 35.5q60 0 105.5 -14t81.5 -38t66 -55t60 -65q22 -26 44 -49.5t44 -42.5t44 -30t45 -11t36.5 -6.5t20 -20t8 -35.5t1.5 -52v-53q0 -39 -3.5 -62.5t-11 -35.5t-20 -16t-31.5 -4
h-45q-60 0 -105.5 22t-81.5 54.5t-65 71t-56.5 71t-56 54.5t-63.5 22q-16 0 -36 -10t-37.5 -33.5t-29.5 -62t-12 -95.5q0 -65 19 -151h-276z" />
    <glyph glyph-name="uniFBA8" unicode="&#x6c1;" horiz-adv-x="731" arabic-form="initial" 
d="M462 0q-32 -39 -41 -74.5t-9 -61.5q0 -14 4 -28t13.5 -25t25 -18t39.5 -7q27 0 69 12q-41 -94 -101.5 -143.5t-151.5 -49.5q-27 0 -58 8t-57.5 27.5t-44 53.5t-17.5 85q0 24 3 48.5t10.5 51t20 56.5t31.5 65h-200q-19 0 -32 4t-20.5 16t-11 35.5t-3.5 62.5v53
q0 30 1.5 52t8.5 35.5t20 20t37 6.5h221v595h362v-880h-119z" />
    <glyph glyph-name="uniFBA9" unicode="&#x6c1;" horiz-adv-x="1054" arabic-form="medial" 
d="M1121 118q0 -39 -3.5 -62.5t-11 -35.5t-20 -16t-31.5 -4h-54q-63 0 -120.5 -34t-105.5 -117t-85 -221.5t-59 -346.5q-135 35 -231.5 98.5t-159 142.5t-91.5 166.5t-29 171.5q0 30 3 64.5t10 75.5h-136q-19 0 -31.5 4t-20 16t-11 35.5t-3.5 62.5v53q0 30 1.5 52t8 35.5
t20 20t36.5 6.5h474q-23 -52 -37.5 -104.5t-22.5 -98.5t-11.5 -81.5t-3.5 -52.5q0 -39 6 -78.5t17 -75t28 -66.5t40 -54h10q30 146 73.5 260t106.5 192t147.5 118.5t194.5 40.5h36q23 0 36.5 -6.5t20 -20t8 -35.5t1.5 -52v-53z" />
    <glyph glyph-name="uniFBAB" unicode="&#x6be;" horiz-adv-x="1407" arabic-form="final" 
d="M980 447q0 29 -8 56.5t-22 49t-33 34.5t-40 13q-32 0 -63.5 -27t-59.5 -71.5t-51 -101t-38 -115.5h168q33 0 60 13.5t46.5 36t30 51.5t10.5 61zM665 0q10 -72 31.5 -126t49 -89.5t58 -53t57.5 -17.5q22 0 41 9.5t32.5 25t21 36t7.5 43.5q0 33 -10 64t-28 55t-43.5 38.5
t-56.5 14.5h-160zM358 285q26 111 66 200t88 158t101.5 118t106.5 80.5t103 46.5t92 15q77 0 143.5 -37t116 -96.5t77.5 -135t28 -151.5q0 -47 -13.5 -100.5t-36.5 -97.5h178q23 0 36.5 -6.5t20 -20t8 -35.5t1.5 -52v-53q0 -39 -3.5 -62.5t-11 -35.5t-20 -16t-31.5 -4h-198
q23 -42 39 -90.5t16 -99.5q0 -93 -37.5 -166t-96 -123t-129 -76t-136.5 -26q-47 0 -101 13t-108.5 41t-106.5 73t-94 110t-71.5 150t-39.5 194h-15q-30 0 -48 -13.5t-27 -38.5t-12.5 -60t-5.5 -78h-165q-30 54 -51 117.5t-21 123.5q0 73 24.5 119t66.5 71.5t97 34.5t117 9
h53z" />
    <glyph glyph-name="uniFBAC" unicode="&#x6be;" horiz-adv-x="1530" arabic-form="initial" 
d="M-2 0q-19 0 -32 4t-20.5 16t-11 35.5t-3.5 62.5v53q0 30 1.5 52t8.5 35.5t20 20t37 6.5h207q-8 22 -14 46t-10 46.5t-6 43.5t-2 37q0 82 36.5 167t96.5 157l-62 13q16 43 33 77.5t36.5 64.5t41.5 57.5t49 54.5q262 -50 450 -110.5t309.5 -143.5t179 -194t57.5 -262
q0 -5 -0.5 -23.5t-2 -57.5t-4 -102t-6.5 -156h-1389zM556 719q-35 0 -60 -17.5t-41.5 -47t-24.5 -67t-8 -77.5q0 -31 4.5 -64t13 -63.5t21 -56t28.5 -41.5h160q10 19 18 43t12.5 50.5t7 53.5t2.5 52q0 45 -8.5 87.5t-25 75t-41.5 52.5t-58 20zM1087 289q2 12 2.5 31.5
t0.5 31.5q0 47 -13.5 91t-43.5 82.5t-79 69.5t-119 52q20 -32 31.5 -75t17.5 -91t7.5 -98.5t1.5 -97.5h190z" />
    <glyph glyph-name="uniFBAD" unicode="&#x6be;" horiz-adv-x="1325" arabic-form="medial" 
d="M1391 118q0 -39 -3.5 -62.5t-11 -35.5t-20 -16t-31.5 -4h-278q23 -42 39 -90.5t16 -99.5q0 -93 -37.5 -166t-96 -123t-129 -76t-136.5 -26q-47 0 -101 13t-108.5 41t-106.5 73t-94 110t-71.5 150t-39.5 194h-184q-19 0 -32 4t-20.5 16t-11 35.5t-3.5 62.5v53q0 30 1.5 52
t8.5 35.5t20 20t37 6.5h197q26 111 66 200t88 158t101.5 118t106.5 80.5t103 46.5t92 15q77 0 143.5 -37t116 -96.5t77.5 -135t28 -151.5q0 -47 -13.5 -100.5t-36.5 -97.5h258q23 0 36.5 -6.5t20 -20t8 -35.5t1.5 -52v-53zM670 285q33 0 60 13.5t46.5 36t30 51.5t10.5 61
q0 29 -8 56.5t-22 49t-33 34.5t-40 13q-32 0 -63.5 -27t-59.5 -71.5t-51 -101t-38 -115.5h168zM502 0q10 -72 31.5 -126t49 -89.5t58 -53t57.5 -17.5q22 0 41 9.5t32.5 25t21 36t7.5 43.5q0 33 -10 64t-28 55t-43.5 38.5t-56.5 14.5h-160z" />
    <glyph glyph-name="uniFBAF" unicode="&#x6d2;" horiz-adv-x="1014" arabic-form="final" 
d="M1016 285q23 0 36.5 -6.5t20 -20t8 -35.5t1.5 -52v-53q0 -39 -3.5 -62.5t-11 -35.5t-20 -16t-31.5 -4h-372q-104 0 -165.5 -7t-93.5 -18t-41.5 -24.5t-9.5 -26.5q0 -20 18 -37.5t69 -31.5t142.5 -22t239.5 -8q134 0 261 5t255.5 15t262.5 25t281 35q-8 -74 -13.5 -146
t-12.5 -146q-219 -37 -492 -61t-581 -24q-216 0 -362.5 29.5t-236 81t-127.5 121t-38 149.5q0 100 52 171.5t150.5 117t240 66.5t320.5 21h253z" />
    <glyph glyph-name="uniFBB1" unicode="&#x6d3;" horiz-adv-x="1040" arabic-form="final" 
d="M1016 285q23 0 36.5 -6.5t20 -20t8 -35.5t1.5 -52v-53q0 -39 -3.5 -62.5t-11 -35.5t-20 -16t-31.5 -4h-372q-104 0 -165.5 -7t-93.5 -18t-41.5 -24.5t-9.5 -26.5q0 -20 18 -37.5t69 -31.5t142.5 -22t239.5 -8q134 0 261 5t255.5 15t262.5 25t281 35q-8 -74 -13.5 -146
t-12.5 -146q-219 -37 -492 -61t-581 -24q-216 0 -362.5 29.5t-236 81t-127.5 121t-38 149.5q0 100 52 171.5t150.5 117t240 66.5t320.5 21h253zM606 892q-34 11 -68.5 16t-68.5 5q-50 0 -78 -19t-28 -45q0 -24 13.5 -40t35 -26t48 -14.5t52.5 -4.5h127v-232h-609v232h93
q-14 26 -22 52t-8 51q0 69 28.5 120.5t74 85t102.5 50t114 16.5q19 0 39.5 -0.5t45 -3t56 -6.5t73.5 -10z" />
    <glyph glyph-name="uniFBE8" unicode="&#x649;" horiz-adv-x="731" arabic-form="initial" 
d="M-2 0q-19 0 -32 4t-20.5 16t-11 35.5t-3.5 62.5v53q0 30 1.5 52t8.5 35.5t20 20t37 6.5h221v595h362v-880h-583z" />
    <glyph glyph-name="uniFBE9" unicode="&#x649;" horiz-adv-x="817" arabic-form="medial" 
d="M577 363v-12t-1 -11q54 -31 116.5 -43t119.5 -12h5q24 0 37 -6.5t20 -20t8.5 -35.5t1.5 -52v-53q0 -39 -3.5 -62.5t-11 -35.5t-20.5 -16t-32 -4h-8q-76 0 -155 32t-145 90q-40 -55 -107.5 -88.5t-171.5 -33.5h-232q-19 0 -32 4t-20.5 16t-11 35.5t-3.5 62.5v53
q0 30 1.5 52t8.5 35.5t20 20t37 6.5h140q42 0 59.5 20t17.5 76v499h362v-517z" />
    <glyph glyph-name="uniFBFD" unicode="&#x6cc;" horiz-adv-x="2260" arabic-form="final" 
d="M1131 429q0 227 134 339.5t397 112.5h384v-479q0 -63 30.5 -90t81.5 -27h102q23 0 36.5 -6.5t20 -20t8 -35.5t1.5 -52v-53q0 -39 -3.5 -62.5t-11 -35.5t-20 -16t-31.5 -4h-223q-66 0 -129 17.5t-112.5 58t-79.5 107t-30 163.5v241h-50q-67 0 -105.5 -40.5t-38.5 -137.5
v-289q0 -103 -48.5 -201t-140.5 -174.5t-225 -123t-302 -46.5q-158 0 -277.5 30t-205.5 78.5t-142.5 110.5t-90 126.5t-47 126t-13.5 108.5q0 58 14 119t38 120t57.5 114.5t72.5 103.5l292 -151q-25 -33 -45.5 -71t-35.5 -76.5t-23 -75.5t-8 -68q0 -28 6.5 -60t23.5 -64.5
t46.5 -62.5t75.5 -53t110.5 -37t151.5 -14q84 0 149.5 18.5t111.5 51.5t70 78t24 98v304z" />
    <glyph glyph-name="uniFBFE" unicode="&#x6cc;" horiz-adv-x="818" arabic-form="initial" 
d="M-2 0q-19 0 -32 4t-20.5 16t-11 35.5t-3.5 62.5v53q0 30 1.5 52t8.5 35.5t20 20t37 6.5h308v595h362v-880h-670zM56 -371q0 36 13.5 67t36.5 54.5t54 37t66 13.5t65.5 -13.5t53.5 -37t36.5 -54.5t13.5 -67t-13.5 -67t-36.5 -54t-53.5 -36.5t-65.5 -13.5t-66 13.5
t-54 36.5t-36.5 54t-13.5 67zM467 -371q0 36 13.5 67t36.5 54.5t53.5 37t65.5 13.5t65.5 -13.5t53.5 -37t36.5 -54.5t13.5 -67t-13.5 -67t-36.5 -54t-53.5 -36.5t-65.5 -13.5t-65.5 13.5t-53.5 36.5t-36.5 54t-13.5 67z" />
    <glyph glyph-name="uniFBFF" unicode="&#x6cc;" horiz-adv-x="817" arabic-form="medial" 
d="M577 363v-12t-1 -11q54 -31 116.5 -43t119.5 -12h5q24 0 37 -6.5t20 -20t8.5 -35.5t1.5 -52v-53q0 -39 -3.5 -62.5t-11 -35.5t-20.5 -16t-32 -4h-8q-76 0 -155 32t-145 90q-40 -55 -107.5 -88.5t-171.5 -33.5h-232q-19 0 -32 4t-20.5 16t-11 35.5t-3.5 62.5v53
q0 30 1.5 52t8.5 35.5t20 20t37 6.5h140q42 0 59.5 20t17.5 76v499h362v-517zM4 -371q0 36 13.5 67t36.5 54.5t54 37t66 13.5t65.5 -13.5t53.5 -37t36.5 -54.5t13.5 -67t-13.5 -67t-36.5 -54t-53.5 -36.5t-65.5 -13.5t-66 13.5t-54 36.5t-36.5 54t-13.5 67zM415 -371
q0 36 13.5 67t36.5 54.5t53.5 37t65.5 13.5t65.5 -13.5t53.5 -37t36.5 -54.5t13.5 -67t-13.5 -67t-36.5 -54t-53.5 -36.5t-65.5 -13.5t-65.5 13.5t-53.5 36.5t-36.5 54t-13.5 67z" />
    <glyph glyph-name="uni064C0651" unicode="&#xfc5e;" horiz-adv-x="0" arabic-form="isolated" 
d="M139 1693q-40 0 -76.5 17.5t-62.5 43.5q-27 -26 -64.5 -43.5t-77.5 -17.5q-48 0 -87 15.5t-66.5 44t-42.5 68.5t-15 89v201h141v-205q0 -38 21 -55t51 -17q29 0 50.5 21t21.5 51v178h134v-178q0 -30 21 -51t51 -21t51 17t21 55v206h140v-202q0 -49 -16 -89t-44.5 -68.5
t-67 -44t-83.5 -15.5zM28 2348q11 0 22 1t24 4q-34 36 -50.5 75.5t-16.5 77.5q0 41 15 76.5t40.5 61t58.5 40t70 14.5t69.5 -11t56.5 -33.5t37.5 -57.5t13.5 -82q0 -71 -35 -126t-87 -93t-111 -58t-108 -20q-29 0 -58.5 5t-58 18t-56.5 35t-54 55l-101 -97l-82 90l190 192
q24 -34 50.5 -64t54.5 -53t57 -36.5t59 -13.5zM133 2509q0 -21 11.5 -45t44.5 -56q23 20 38.5 45t15.5 56q0 29 -16 45t-36 16q-25 0 -41.5 -17t-16.5 -44z" />
    <glyph glyph-name="uni064D0651" unicode="&#xfc5f;" horiz-adv-x="0" arabic-form="isolated" 
d="M139 2213q-40 0 -76.5 17.5t-62.5 43.5q-27 -26 -64.5 -43.5t-77.5 -17.5q-48 0 -87 15.5t-66.5 44t-42.5 68.5t-15 89v201h141v-205q0 -38 21 -55t51 -17q29 0 50.5 21t21.5 51v178h134v-178q0 -30 21 -51t51 -21t51 17t21 55v206h140v-202q0 -49 -16 -89t-44.5 -68.5
t-67 -44t-83.5 -15.5zM-287 1838h568v-145h-568v145zM-287 2063h568v-145h-568v145z" />
    <glyph glyph-name="uni064E0651" unicode="&#xfc60;" horiz-adv-x="0" arabic-form="isolated" 
d="M139 1693q-40 0 -76.5 17.5t-62.5 43.5q-27 -26 -64.5 -43.5t-77.5 -17.5q-48 0 -87 15.5t-66.5 44t-42.5 68.5t-15 89v201h141v-205q0 -38 21 -55t51 -17q29 0 50.5 21t21.5 51v178h134v-178q0 -30 21 -51t51 -21t51 17t21 55v206h140v-202q0 -49 -16 -89t-44.5 -68.5
t-67 -44t-83.5 -15.5zM-287 2388h568v-145h-568v145z" />
    <glyph glyph-name="uni064F0651" unicode="&#xfc61;" horiz-adv-x="0" arabic-form="isolated" 
d="M139 1693q-40 0 -76.5 17.5t-62.5 43.5q-27 -26 -64.5 -43.5t-77.5 -17.5q-48 0 -87 15.5t-66.5 44t-42.5 68.5t-15 89v201h141v-205q0 -38 21 -55t51 -17q29 0 50.5 21t21.5 51v178h134v-178q0 -30 21 -51t51 -21t51 17t21 55v206h140v-202q0 -49 -16 -89t-44.5 -68.5
t-67 -44t-83.5 -15.5zM-11 2394q24 0 51 6q-33 36 -49.5 75t-16.5 77q0 41 15 76.5t40.5 61t58.5 40t70 14.5t69.5 -11t56.5 -33.5t37.5 -57.5t13.5 -82t-16.5 -87.5t-43.5 -73.5t-63 -58.5t-75 -42.5t-78.5 -26t-74.5 -9q-69 0 -138 12.5t-134 34.5l30 128
q66 -21 123 -32.5t124 -11.5zM100 2555q0 -21 12 -45t44 -55q23 19 38.5 44t15.5 56q0 29 -16 45t-36 16q-25 0 -41.5 -17t-16.5 -44z" />
    <glyph glyph-name="uni06500651" unicode="&#xfc62;" horiz-adv-x="0" arabic-form="isolated" 
d="M139 1963q-40 0 -76.5 17.5t-62.5 43.5q-27 -26 -64.5 -43.5t-77.5 -17.5q-48 0 -87 15.5t-66.5 44t-42.5 68.5t-15 89v201h141v-205q0 -38 21 -55t51 -17q29 0 50.5 21t21.5 51v178h134v-178q0 -30 21 -51t51 -21t51 17t21 55v206h140v-202q0 -49 -16 -89t-44.5 -68.5
t-67 -44t-83.5 -15.5zM-287 1838h568v-145h-568v145z" />
    <glyph glyph-name="uni06510670" unicode="&#xfc63;" horiz-adv-x="0" arabic-form="isolated" 
d="M139 1693q-40 0 -76.5 17.5t-62.5 43.5q-27 -26 -64.5 -43.5t-77.5 -17.5q-48 0 -87 15.5t-66.5 44t-42.5 68.5t-15 89v201h141v-205q0 -38 21 -55t51 -17q29 0 50.5 21t21.5 51v178h134v-178q0 -30 21 -51t51 -21t51 17t21 55v206h140v-202q0 -49 -16 -89t-44.5 -68.5
t-67 -44t-83.5 -15.5zM-80 2687h152v-475h-152v475z" />
    <glyph glyph-name="uniFDF2" unicode="&#xfdf2;" horiz-adv-x="3403" arabic-form="isolated" 
d="M1785 363v-12t-1 -11q54 -31 115.5 -43t118.5 -12h211v1155h362v-1440h-574q-76 0 -155 32t-145 90q-40 -55 -107.5 -88.5t-171.5 -33.5h-442q-66 0 -117 8t-88.5 22t-64.5 34.5t-45 46.5q-63 -23 -121 -34t-118 -11q-77 0 -155.5 20.5t-142.5 63.5t-104 110.5t-40 161.5
q0 77 29 139.5t77.5 113.5t112.5 90.5t134 69.5t142 52t136 37q0 29 1 59.5t1 60.5h359v-683q0 -22 2 -36.5t7.5 -23.5t15 -12.5t25.5 -3.5h304q42 0 59.5 20t17.5 76v1059h362v-1077zM633 638q-65 -17 -117.5 -37.5t-89 -45.5t-56.5 -55t-20 -66q0 -43 35 -68t92 -25
q41 0 80.5 8.5t74.5 24.5zM2892 1440h361v-1440h-361v1440z" />
    <glyph glyph-name="uniFDFA" unicode="&#xfdfa;" horiz-adv-x="2165" arabic-form="isolated" 
d="M2083 895q0 -29 -32 -79t-64 -64q-93 -43 -238 -43q-23 0 -47.5 1t-50.5 3q-49 -97 -78 -97q-8 0 -8 13q0 30 45 96q-85 33 -99 53q-80 -53 -102 -53q14 -288 51 -361q38 -74 172 -81l4 4q-43 31 -43 88q0 69 66 155q49 66 125 66q58 0 108 -35q50 -33 50 -63
q-53 18 -107 18q-73 0 -133 -29q-53 -29 -53 -55q0 -29 51 -80q52 -52 90 -59q37 4 139 36q103 33 137 52l-34 -76q-207 -108 -392 -108q-196 0 -243 149q-61 -133 -117 -133q-53 0 -137 90q-130 -115 -404 -115q-42 0 -77 3t-66 8q8 -68 18 -107q19 -74 48 -102
q90 -90 360 -90q232 0 338 65q31 76 57 76q8 0 8 -16q0 -30 -24 -91q12 -26 55 -26q53 0 100 24q43 136 68 136q8 0 8 -23q0 -36 -20 -88q63 -27 90 -27q15 0 16 7q2 7 -16 79l35 74q24 -74 24 -106q0 -138 -90 -138q-47 0 -98 39q-32 -53 -121 -53q-98 0 -98 53
q-38 -28 -131 -49q-103 -22 -248 -22q-199 0 -293 57q-119 72 -123 258l-45 -66q-35 -51 -53 -53q24 -44 24 -84q0 -51 -32 -86q-16 -16 -43 -16q-40 0 -125 47q-27 -64 -86 -96q-15 -8 -49 -9q-34 -2 -44 -6l-22 -8q-12 0 -12 10q0 12 49 31q31 13 50.5 22.5t29.5 16.5
l69 53q-20 38 -20 82t37 85q37 42 69 42q6 0 13 -4q38 -20 59 -20q36 0 74 47l47 86q-80 24 -113 55q-60 54 -80 174h-4q-59 -102 -162 -102q-41 0 -79 16q-33 13 -33 25q0 51 88 118q83 64 174 91l-4 34l41 68q8 -111 19 -182.5t25 -105.5q28 -66 114 -93l-27 270l39 88
l35 -368q108 -12 194 -12q213 0 363 81q25 78 39 78q8 0 8 -18q0 -17 -8 -51q73 -72 120 -72q55 0 86 88l-26 330q-152 -6 -180 151h-4q-8 -31 -15.5 -52t-13.5 -34q-22 -50 -55 -61l4 -4q143 11 143 -80q0 -60 -51 -94q-173 -121 -328 -121q-94 0 -151.5 47.5t-57.5 134.5
q0 63 33 137q-57 16 -78 88h-4q-32 -104 -113 -104q-101 0 -96 158l-55 -50q-17 -14 -80 -14q-100 0 -100 37q0 20 27 64q28 45 50 55l156 76v20l35 74l8 -246q5 -86 66 -86q30 0 60 21q30 22 34 47l-33 233l37 80l57 -330q19 -43 68 -43q47 0 47 27q0 41 -33 151l-20 66
t-21 67l27 68q82 -256 82 -321q0 -42 -21 -91q-23 -57 -51 -57q-11 0 -18 6q-15 -44 -15 -80q0 -153 187 -153q145 0 291 98q4 4 4 6q0 11 -78 25l-125 20q-25 19 27 82q122 51 131 109q1 5 1.5 12t0.5 16q0 100 -10.5 217.5t-30.5 255.5l34 115q50 -434 78 -524
q38 -117 148 -135l-10 196l43 92l16 -286q29 10 60 28.5t63 44.5l61 -43q39 -24 80 -30q22 23 55 51.5t78 60.5q105 78 144 78q37 0 84 -28q53 -32 53 -68zM2064 4q0 -100 -79 -221q-87 -131 -183 -131q-45 0 -121 33q-75 31 -75 47q0 8 10 8q8 0 55 -15q45 -16 72 -16
q138 -4 287 217l-15 45q-38 -53 -76 -53q-14 0 -26.5 7.5t-22.5 19.5t-16.5 27t-7.5 30q-2 48 31 110q34 64 57 64q26 0 65 -49q45 -56 45 -123zM1987 1309q-70 -25 -238 -105q-197 -96 -197 -125q0 -24 54 -51l-19 -49q-67 22 -67 82q0 61 53 90q131 75 238 127t194 82z
M975 915q-6 -136 -27 -149l-51 496l45 116zM1233 76l-53 -64l-99 72l-57 -74l-102 74l59 72l96 -72l56 68zM2025 860q0 14 -36 32q-34 19 -54 19q-44 0 -123 -49q-63 -39 -96 -69q7 -1 17 -1.5t24 -0.5q42 0 84 4t84 12q100 19 100 53zM1294 -248q0 -49 -4 -61
q-12 -27 -51 -27q-18 0 -29 8q-30 -32 -61 -32q-15 0 -34 17q-17 17 -25 17q-16 0 -77 -35q-59 -36 -143 -36q-90 0 -90 16q0 14 66 14q36 0 59.5 1.5t34.5 3.5q27 6 72 32q61 39 82 39q16 0 38 -16q23 -17 27 -17q31 0 37 35q4 27 23 27q8 0 8 -12q0 -5 -0.5 -9.5
t-1.5 -9.5q5 -8 22 -12q25 0 25 24q0 33 22 33zM1669 1444l-12 -45l-400 -197l9 51zM346 539q-180 -72 -180 -107q0 -20 63 -20q69 0 121 49zM664 1362q0 -66 -43 -66q-26 0 -43 17q-37 -31 -62 -31q-43 0 -43 55q0 41 6 56l13 12q-4 -76 34 -76q22 0 39 33l-4 47l19 29
l8 -62q4 -33 30 -33q27 0 23 31l-6 45l14 21q15 -39 15 -78zM387 997q-20 -9 -41 -17.5t-43 -16.5q-67 -31 -70 -50q-1 -22 52 -22q57 0 104 27zM438 -78q-8 41 -49 70q-37 28 -70 28q-28 0 -28 -24q0 -26 53 -55q49 -31 80 -31q15 0 14 12zM2005 20q-12 66 -53 66
q-31 0 -41 -51q7 -37 63 -37q27 0 31 22z" />
    <glyph glyph-name="uniFE82" unicode="&#x622;" horiz-adv-x="734" arabic-form="final" 
d="M150 1440h361v-1022q0 -70 25 -101.5t83 -31.5h115q24 0 37 -6.5t20 -20t8.5 -35.5t1.5 -52v-53q0 -39 -3.5 -62.5t-11 -35.5t-20.5 -16t-32 -4h-215q-97 0 -167 24t-115 70.5t-66 114.5t-21 156v1075zM-137 1754q35 46 70.5 76t69 47t62.5 24t51 7q24 0 51 -6.5
t56.5 -17t59.5 -23.5t59 -26q28 -13 56 -25t54 -21.5t50 -15.5t43 -6q56 0 96 27.5t61 73.5l133 -74q-41 -71 -78 -112t-72 -63t-70 -28t-72 -6q-68 0 -128.5 24.5t-114.5 51.5q-51 26 -97.5 44t-88.5 18q-29 0 -69 -17.5t-73 -54.5z" />
    <glyph glyph-name="uniFE84" unicode="&#x623;" horiz-adv-x="734" arabic-form="final" 
d="M150 1440h361v-1022q0 -70 25 -101.5t83 -31.5h115q24 0 37 -6.5t20 -20t8.5 -35.5t1.5 -52v-53q0 -39 -3.5 -62.5t-11 -35.5t-20.5 -16t-32 -4h-215q-97 0 -167 24t-115 70.5t-66 114.5t-21 156v1075zM531 1947q-23 8 -47 11t-47 3q-36 0 -56.5 -14t-20.5 -33
q0 -17 10 -28.5t25.5 -19t34.5 -11t37 -3.5h87v-159h-424v159h67q-23 40 -23 74q0 49 19.5 85t51.5 59.5t71.5 35t80.5 11.5q13 0 27 -0.5t31.5 -1.5t39.5 -4t51 -7z" />
    <glyph glyph-name="uniFE86" unicode="&#x624;" horiz-adv-x="1290" arabic-form="final" 
d="M208 -126q93 4 168 13.5t135 27.5t106 45.5t81 66.5q-27 -3 -54 -4.5t-49 -1.5q-94 0 -184.5 23.5t-162 74t-115 130.5t-43.5 193q0 99 37 185t106 150t166.5 100.5t217.5 36.5q49 0 103.5 -8.5t106.5 -30.5t99 -59t83 -93.5t57 -135t21 -182.5v-120h203q24 0 37 -6.5
t20 -20t8.5 -35.5t1.5 -52v-53q0 -39 -3.5 -62.5t-11 -35.5t-20.5 -16t-32 -4h-242q-39 -107 -113.5 -181.5t-178.5 -124t-234 -78t-279 -41.5zM426 468q0 -39 12.5 -72t37.5 -58t63.5 -39t89.5 -14h103v117q0 114 -41.5 168t-113.5 54q-32 0 -59.5 -11t-47.5 -31.5t-32 -49
t-12 -64.5zM841 1539q-34 11 -68.5 16t-68.5 5q-50 0 -78 -19t-28 -45q0 -24 13.5 -40t35 -26t48 -14.5t52.5 -4.5h127v-232h-609v232h93q-14 26 -22 52t-8 51q0 69 28.5 120.5t74 85t102.5 50t114 16.5q19 0 39.5 -0.5t45 -3t56 -6.5t73.5 -10z" />
    <glyph glyph-name="uniFE88" unicode="&#x625;" horiz-adv-x="734" arabic-form="final" 
d="M150 1440h361v-1022q0 -70 25 -101.5t83 -31.5h115q24 0 37 -6.5t20 -20t8.5 -35.5t1.5 -52v-53q0 -39 -3.5 -62.5t-11 -35.5t-20.5 -16t-32 -4h-215q-97 0 -167 24t-115 70.5t-66 114.5t-21 156v1075zM532 -347q-23 8 -47 10.5t-47 2.5q-36 0 -56.5 -13.5t-20.5 -33.5
q0 -17 10 -28.5t25.5 -19t34.5 -10.5t37 -3h87v-160h-424v160h67q-23 38 -23 73q0 49 19.5 85t51.5 59.5t71.5 35t80.5 11.5q13 0 27 -0.5t31.5 -1.5t39.5 -4t51 -7z" />
    <glyph glyph-name="uniFE8A" unicode="&#x626;" horiz-adv-x="2260" arabic-form="final" 
d="M1131 429q0 227 134 339.5t397 112.5h384v-479q0 -63 30.5 -90t81.5 -27h102q23 0 36.5 -6.5t20 -20t8 -35.5t1.5 -52v-53q0 -39 -3.5 -62.5t-11 -35.5t-20 -16t-31.5 -4h-223q-66 0 -129 17.5t-112.5 58t-79.5 107t-30 163.5v241h-50q-67 0 -105.5 -40.5t-38.5 -137.5
v-289q0 -103 -48.5 -201t-140.5 -174.5t-225 -123t-302 -46.5q-158 0 -277.5 30t-205.5 78.5t-142.5 110.5t-90 126.5t-47 126t-13.5 108.5q0 58 14 119t38 120t57.5 114.5t72.5 103.5l292 -151q-25 -33 -45.5 -71t-35.5 -76.5t-23 -75.5t-8 -68q0 -28 6.5 -60t23.5 -64.5
t46.5 -62.5t75.5 -53t110.5 -37t151.5 -14q84 0 149.5 18.5t111.5 51.5t70 78t24 98v304zM527 1071q-34 11 -68.5 16t-68.5 5q-50 0 -78 -19t-28 -45q0 -24 13.5 -40t35 -26t48 -14.5t52.5 -4.5h127v-232h-609v232h93q-14 26 -22 52t-8 51q0 69 28.5 120.5t74 85t102.5 50
t114 16.5q19 0 39.5 -0.5t45 -3t56 -6.5t73.5 -10z" />
    <glyph glyph-name="uniFE8B" unicode="&#x626;" horiz-adv-x="732" arabic-form="initial" 
d="M-2 0q-19 0 -32 4t-20.5 16t-11 35.5t-3.5 62.5v53q0 30 1.5 52t8.5 35.5t20 20t37 6.5h221v595h362v-880h-583zM690 1437q-34 11 -68.5 16t-68.5 5q-50 0 -78 -19t-28 -45q0 -24 13.5 -40t35 -26t48 -14.5t52.5 -4.5h127v-232h-609v232h93q-14 26 -22 52t-8 51
q0 69 28.5 120.5t74 85t102.5 50t114 16.5q19 0 39.5 -0.5t45 -3t56 -6.5t73.5 -10z" />
    <glyph glyph-name="uniFE8C" unicode="&#x626;" horiz-adv-x="817" arabic-form="medial" 
d="M577 363v-12t-1 -11q54 -31 116.5 -43t119.5 -12h5q24 0 37 -6.5t20 -20t8.5 -35.5t1.5 -52v-53q0 -39 -3.5 -62.5t-11 -35.5t-20.5 -16t-32 -4h-8q-76 0 -155 32t-145 90q-40 -55 -107.5 -88.5t-171.5 -33.5h-232q-19 0 -32 4t-20.5 16t-11 35.5t-3.5 62.5v53
q0 30 1.5 52t8.5 35.5t20 20t37 6.5h140q42 0 59.5 20t17.5 76v499h362v-517zM640 1437q-34 11 -68.5 16t-68.5 5q-50 0 -78 -19t-28 -45q0 -24 13.5 -40t35 -26t48 -14.5t52.5 -4.5h127v-232h-609v232h93q-14 26 -22 52t-8 51q0 69 28.5 120.5t74 85t102.5 50t114 16.5
q19 0 39.5 -0.5t45 -3t56 -6.5t73.5 -10z" />
    <glyph glyph-name="uniFE8E" unicode="&#x627;" horiz-adv-x="734" arabic-form="final" 
d="M150 1440h361v-1022q0 -70 25 -101.5t83 -31.5h115q24 0 37 -6.5t20 -20t8.5 -35.5t1.5 -52v-53q0 -39 -3.5 -62.5t-11 -35.5t-20.5 -16t-32 -4h-215q-97 0 -167 24t-115 70.5t-66 114.5t-21 156v1075z" />
    <glyph glyph-name="uniFE90" unicode="&#x628;" horiz-adv-x="1988" arabic-form="final" 
d="M628 0q-130 0 -227.5 15t-167.5 42.5t-115 66t-71 85t-36.5 99.5t-10.5 110q0 20 2.5 50t7 65.5t10 73t12.5 71.5q81 -7 162 -14.5t162 -14.5q-10 -53 -14 -99.5t-4 -72.5q0 -50 14 -86t53.5 -59.5t109.5 -35t182 -11.5h599q63 0 92 31t29 87v477h362v-517v-19.5
t-1 -19.5q49 -22 102.5 -30.5t102.5 -8.5h5q24 0 37 -6.5t20 -20t8.5 -35.5t1.5 -52v-53q0 -39 -3.5 -62.5t-11 -35.5t-20.5 -16t-32 -4h-8q-70 0 -143 27t-136 77q-41 -48 -106 -76t-163 -28h-804zM779 -375q0 36 13.5 67t36.5 54.5t54 37t66 13.5t65.5 -13.5t53.5 -37
t36 -54.5t13 -67t-13 -67t-36 -54t-53.5 -36.5t-65.5 -13.5t-66 13.5t-54 36.5t-36.5 54t-13.5 67z" />
    <glyph glyph-name="uniFE91" unicode="&#x628;" horiz-adv-x="731" arabic-form="initial" 
d="M-2 0q-19 0 -32 4t-20.5 16t-11 35.5t-3.5 62.5v53q0 30 1.5 52t8.5 35.5t20 20t37 6.5h221v595h362v-880h-583zM188 -375q0 36 13.5 67t36.5 54.5t54 37t66 13.5t65.5 -13.5t53.5 -37t36 -54.5t13 -67t-13 -67t-36 -54t-53.5 -36.5t-65.5 -13.5t-66 13.5t-54 36.5
t-36.5 54t-13.5 67z" />
    <glyph glyph-name="uniFE92" unicode="&#x628;" horiz-adv-x="817" arabic-form="medial" 
d="M577 363v-12t-1 -11q54 -31 116.5 -43t119.5 -12h5q24 0 37 -6.5t20 -20t8.5 -35.5t1.5 -52v-53q0 -39 -3.5 -62.5t-11 -35.5t-20.5 -16t-32 -4h-8q-76 0 -155 32t-145 90q-40 -55 -107.5 -88.5t-171.5 -33.5h-232q-19 0 -32 4t-20.5 16t-11 35.5t-3.5 62.5v53
q0 30 1.5 52t8.5 35.5t20 20t37 6.5h140q42 0 59.5 20t17.5 76v499h362v-517zM223 -375q0 36 13.5 67t36.5 54.5t54 37t66 13.5t65.5 -13.5t53.5 -37t36 -54.5t13 -67t-13 -67t-36 -54t-53.5 -36.5t-65.5 -13.5t-66 13.5t-54 36.5t-36.5 54t-13.5 67z" />
    <glyph glyph-name="uniFE94" unicode="&#x629;" horiz-adv-x="1205" arabic-form="final" 
d="M633 638q-65 -17 -117.5 -37.5t-89 -45.5t-56.5 -55t-20 -66q0 -43 35 -68t92 -25q41 0 80.5 8.5t74.5 24.5zM992 361q0 -22 2 -36.5t7.5 -23.5t15 -12.5t25.5 -3.5h163q23 0 36.5 -6.5t20 -20t8 -35.5t1.5 -52v-53q0 -39 -3.5 -62.5t-11 -35.5t-20 -16t-31.5 -4h-209
q-66 0 -117 8t-88.5 22t-64.5 34.5t-45 46.5q-63 -23 -121 -34t-118 -11q-77 0 -155.5 20.5t-142.5 63.5t-104 110.5t-40 161.5q0 77 29 139.5t77.5 113.5t112.5 90.5t134 69.5t142 52t136 37q0 29 1 59.5t1 60.5h359v-683zM274 1383q0 36 13.5 67t36.5 54.5t54 37t66 13.5
t65.5 -13.5t53.5 -37t36.5 -54.5t13.5 -67t-13.5 -67t-36.5 -54t-53.5 -36.5t-65.5 -13.5t-66 13.5t-54 36.5t-36.5 54t-13.5 67zM685 1383q0 36 13.5 67t36.5 54.5t53.5 37t65.5 13.5t65.5 -13.5t53.5 -37t36.5 -54.5t13.5 -67t-13.5 -67t-36.5 -54t-53.5 -36.5
t-65.5 -13.5t-65.5 13.5t-53.5 36.5t-36.5 54t-13.5 67z" />
    <glyph glyph-name="uniFE96" unicode="&#x62a;" horiz-adv-x="1988" arabic-form="final" 
d="M628 0q-130 0 -227.5 15t-167.5 42.5t-115 66t-71 85t-36.5 99.5t-10.5 110q0 20 2.5 50t7 65.5t10 73t12.5 71.5q81 -7 162 -14.5t162 -14.5q-10 -53 -14 -99.5t-4 -72.5q0 -50 14 -86t53.5 -59.5t109.5 -35t182 -11.5h599q63 0 92 31t29 87v477h362v-517v-19.5
t-1 -19.5q49 -22 102.5 -30.5t102.5 -8.5h5q24 0 37 -6.5t20 -20t8.5 -35.5t1.5 -52v-53q0 -39 -3.5 -62.5t-11 -35.5t-20.5 -16t-32 -4h-8q-70 0 -143 27t-136 77q-41 -48 -106 -76t-163 -28h-804zM579 1327q0 36 13.5 67t36.5 54.5t54 37t66 13.5t65.5 -13.5t53.5 -37
t36.5 -54.5t13.5 -67t-13.5 -67t-36.5 -54t-53.5 -36.5t-65.5 -13.5t-66 13.5t-54 36.5t-36.5 54t-13.5 67zM990 1327q0 36 13.5 67t36.5 54.5t53.5 37t65.5 13.5t65.5 -13.5t53.5 -37t36.5 -54.5t13.5 -67t-13.5 -67t-36.5 -54t-53.5 -36.5t-65.5 -13.5t-65.5 13.5
t-53.5 36.5t-36.5 54t-13.5 67z" />
    <glyph glyph-name="uniFE97" unicode="&#x62a;" horiz-adv-x="732" arabic-form="initial" 
d="M-2 0q-19 0 -32 4t-20.5 16t-11 35.5t-3.5 62.5v53q0 30 1.5 52t8.5 35.5t20 20t37 6.5h221v595h362v-880h-583zM45 1327q0 36 13.5 67t36.5 54.5t54 37t66 13.5t65.5 -13.5t53.5 -37t36.5 -54.5t13.5 -67t-13.5 -67t-36.5 -54t-53.5 -36.5t-65.5 -13.5t-66 13.5
t-54 36.5t-36.5 54t-13.5 67zM456 1327q0 36 13.5 67t36.5 54.5t53.5 37t65.5 13.5t65.5 -13.5t53.5 -37t36.5 -54.5t13.5 -67t-13.5 -67t-36.5 -54t-53.5 -36.5t-65.5 -13.5t-65.5 13.5t-53.5 36.5t-36.5 54t-13.5 67z" />
    <glyph glyph-name="uniFE98" unicode="&#x62a;" horiz-adv-x="817" arabic-form="medial" 
d="M577 363v-12t-1 -11q54 -31 116.5 -43t119.5 -12h5q24 0 37 -6.5t20 -20t8.5 -35.5t1.5 -52v-53q0 -39 -3.5 -62.5t-11 -35.5t-20.5 -16t-32 -4h-8q-76 0 -155 32t-145 90q-40 -55 -107.5 -88.5t-171.5 -33.5h-232q-19 0 -32 4t-20.5 16t-11 35.5t-3.5 62.5v53
q0 30 1.5 52t8.5 35.5t20 20t37 6.5h140q42 0 59.5 20t17.5 76v499h362v-517zM-9 1327q0 36 13.5 67t36.5 54.5t54 37t66 13.5t65.5 -13.5t53.5 -37t36.5 -54.5t13.5 -67t-13.5 -67t-36.5 -54t-53.5 -36.5t-65.5 -13.5t-66 13.5t-54 36.5t-36.5 54t-13.5 67zM402 1327
q0 36 13.5 67t36.5 54.5t53.5 37t65.5 13.5t65.5 -13.5t53.5 -37t36.5 -54.5t13.5 -67t-13.5 -67t-36.5 -54t-53.5 -36.5t-65.5 -13.5t-65.5 13.5t-53.5 36.5t-36.5 54t-13.5 67z" />
    <glyph glyph-name="uniFE9A" unicode="&#x62b;" horiz-adv-x="1988" arabic-form="final" 
d="M628 0q-130 0 -227.5 15t-167.5 42.5t-115 66t-71 85t-36.5 99.5t-10.5 110q0 20 2.5 50t7 65.5t10 73t12.5 71.5q81 -7 162 -14.5t162 -14.5q-10 -53 -14 -99.5t-4 -72.5q0 -50 14 -86t53.5 -59.5t109.5 -35t182 -11.5h599q63 0 92 31t29 87v477h362v-517v-19.5
t-1 -19.5q49 -22 102.5 -30.5t102.5 -8.5h5q24 0 37 -6.5t20 -20t8.5 -35.5t1.5 -52v-53q0 -39 -3.5 -62.5t-11 -35.5t-20.5 -16t-32 -4h-8q-70 0 -143 27t-136 77q-41 -48 -106 -76t-163 -28h-804zM527 1327q0 36 13.5 67t36.5 54.5t54 37t66 13.5t65.5 -13.5t53.5 -37
t36.5 -54.5t13.5 -67t-13.5 -67t-36.5 -54t-53.5 -36.5t-65.5 -13.5t-66 13.5t-54 36.5t-36.5 54t-13.5 67zM938 1327q0 36 13.5 67t36.5 54.5t53.5 37t65.5 13.5t65.5 -13.5t53.5 -37t36.5 -54.5t13.5 -67t-13.5 -67t-36.5 -54t-53.5 -36.5t-65.5 -13.5t-65.5 13.5
t-53.5 36.5t-36.5 54t-13.5 67zM731 1713q0 36 13.5 67t36.5 54.5t53.5 37t65.5 13.5t65.5 -13.5t53.5 -37t36.5 -54.5t13.5 -67t-13.5 -67t-36.5 -54t-53.5 -36.5t-65.5 -13.5t-65.5 13.5t-53.5 36.5t-36.5 54t-13.5 67z" />
    <glyph glyph-name="uniFE9B" unicode="&#x62b;" horiz-adv-x="732" arabic-form="initial" 
d="M-2 0q-19 0 -32 4t-20.5 16t-11 35.5t-3.5 62.5v53q0 30 1.5 52t8.5 35.5t20 20t37 6.5h221v595h362v-880h-583zM42 1327q0 36 13.5 67t36.5 54.5t54 37t66 13.5t65.5 -13.5t53.5 -37t36.5 -54.5t13.5 -67t-13.5 -67t-36.5 -54t-53.5 -36.5t-65.5 -13.5t-66 13.5
t-54 36.5t-36.5 54t-13.5 67zM453 1327q0 36 13.5 67t36.5 54.5t53.5 37t65.5 13.5t65.5 -13.5t53.5 -37t36.5 -54.5t13.5 -67t-13.5 -67t-36.5 -54t-53.5 -36.5t-65.5 -13.5t-65.5 13.5t-53.5 36.5t-36.5 54t-13.5 67zM246 1713q0 36 13.5 67t36.5 54.5t53.5 37t65.5 13.5
t65.5 -13.5t53.5 -37t36.5 -54.5t13.5 -67t-13.5 -67t-36.5 -54t-53.5 -36.5t-65.5 -13.5t-65.5 13.5t-53.5 36.5t-36.5 54t-13.5 67z" />
    <glyph glyph-name="uniFE9C" unicode="&#x62b;" horiz-adv-x="817" arabic-form="medial" 
d="M577 363v-12t-1 -11q54 -31 116.5 -43t119.5 -12h5q24 0 37 -6.5t20 -20t8.5 -35.5t1.5 -52v-53q0 -39 -3.5 -62.5t-11 -35.5t-20.5 -16t-32 -4h-8q-76 0 -155 32t-145 90q-40 -55 -107.5 -88.5t-171.5 -33.5h-232q-19 0 -32 4t-20.5 16t-11 35.5t-3.5 62.5v53
q0 30 1.5 52t8.5 35.5t20 20t37 6.5h140q42 0 59.5 20t17.5 76v499h362v-517zM-17 1327q0 36 13.5 67t36.5 54.5t54 37t66 13.5t65.5 -13.5t53.5 -37t36.5 -54.5t13.5 -67t-13.5 -67t-36.5 -54t-53.5 -36.5t-65.5 -13.5t-66 13.5t-54 36.5t-36.5 54t-13.5 67zM394 1327
q0 36 13.5 67t36.5 54.5t53.5 37t65.5 13.5t65.5 -13.5t53.5 -37t36.5 -54.5t13.5 -67t-13.5 -67t-36.5 -54t-53.5 -36.5t-65.5 -13.5t-65.5 13.5t-53.5 36.5t-36.5 54t-13.5 67zM187 1713q0 36 13.5 67t36.5 54.5t53.5 37t65.5 13.5t65.5 -13.5t53.5 -37t36.5 -54.5
t13.5 -67t-13.5 -67t-36.5 -54t-53.5 -36.5t-65.5 -13.5t-65.5 13.5t-53.5 36.5t-36.5 54t-13.5 67z" />
    <glyph glyph-name="uniFE9E" unicode="&#x62c;" horiz-adv-x="1190" arabic-form="final" 
d="M1178 285q27 0 42.5 -6.5t24 -20t10.5 -35.5t2 -52v-53q0 -39 -3.5 -62.5t-11 -35.5t-20.5 -16t-32 -4h-607q-53 0 -96.5 -13.5t-75 -41.5t-49 -69.5t-17.5 -96.5q0 -44 16 -83.5t50.5 -69.5t88 -47.5t128.5 -17.5q14 0 41.5 1t63.5 4t77.5 8t83.5 13v-273
q-48 -11 -87 -19t-73.5 -13t-67.5 -8t-69 -3q-107 0 -193 20.5t-152.5 56t-114 84t-78 104.5t-45 116.5t-14.5 121.5q0 129 43 225t122 159.5t189.5 95t244.5 31.5h143q-11 19 -16.5 45t-10.5 51q-9 52 -19 100t-32.5 84.5t-62.5 58.5t-108 22q-11 0 -35.5 -1.5t-58.5 -5.5
t-76 -11.5t-88 -20.5v267q89 24 173.5 42.5t176.5 18.5q97 0 174.5 -26t134 -74.5t91 -117t45.5 -153.5q6 -48 15 -97.5t24.5 -89.5t41.5 -65.5t67 -26.5zM532.371 -221.998q0 32.2559 12.1768 60.0312t32.9229 48.832q20.7451 21.0557 48.7061 33.1514
q27.9619 12.0967 59.5312 12.0967t59.0791 -12.0967q27.5107 -12.0957 48.2559 -33.1514q20.7451 -21.0566 32.4707 -48.832q11.7266 -27.7754 11.7266 -60.0312t-11.7266 -60.0322q-11.7256 -27.7764 -32.4707 -48.3838t-48.2559 -32.7041
q-27.5098 -12.0957 -59.0791 -12.0957t-59.5312 12.0957q-27.9609 12.0967 -48.7061 32.7041q-20.7461 20.6074 -32.9229 48.3838t-12.1768 60.0322z" />
    <glyph glyph-name="uniFE9F" unicode="&#x62c;" horiz-adv-x="1162" arabic-form="initial" 
d="M636 285q-11 19 -16.5 45t-10.5 51q-9 52 -19 100t-32.5 84.5t-62.5 58.5t-108 22q-11 0 -35.5 -1.5t-58.5 -5.5t-76 -11.5t-88 -20.5v267q89 24 173.5 42.5t176.5 18.5q97 0 174.5 -26t134 -74.5t91 -117t45.5 -153.5q6 -48 15 -97.5t24.5 -89.5t41.5 -65.5t67 -26.5
v-285h-1075q-19 0 -31.5 4t-20 16t-11 35.5t-3.5 62.5v53q0 30 1.5 52t8 35.5t20 20t36.5 6.5h639zM385 -375q0 36 13.5 67t36.5 54.5t54 37t66 13.5t65.5 -13.5t53.5 -37t36 -54.5t13 -67t-13 -67t-36 -54t-53.5 -36.5t-65.5 -13.5t-66 13.5t-54 36.5t-36.5 54t-13.5 67z
" />
    <glyph glyph-name="uniFEA0" unicode="&#x62c;" horiz-adv-x="1084" arabic-form="medial" 
d="M638 285q-11 19 -16.5 45t-10.5 51q-9 52 -19 100t-32.5 84.5t-62.5 58.5t-108 22q-11 0 -35.5 -1.5t-58.5 -5.5t-76 -11.5t-88 -20.5v267q89 24 173.5 42.5t176.5 18.5q97 0 174.5 -26t134 -74.5t91 -117t45.5 -153.5q6 -48 15 -98t26 -90t44.5 -65.5t72.5 -25.5
q24 0 37 -6.5t20 -20t8.5 -35.5t1.5 -52v-53q0 -39 -3.5 -62.5t-11 -35.5t-20.5 -16t-32 -4h-1086q-19 0 -31.5 4t-20.5 16t-11.5 35.5t-3.5 62.5v53q0 30 1.5 52t8.5 35.5t20.5 20t36.5 6.5h640zM341 -375q0 36 13.5 67t36.5 54.5t54 37t66 13.5t65.5 -13.5t53.5 -37
t36 -54.5t13 -67t-13 -67t-36 -54t-53.5 -36.5t-65.5 -13.5t-66 13.5t-54 36.5t-36.5 54t-13.5 67z" />
    <glyph glyph-name="uniFEA2" unicode="&#x62d;" horiz-adv-x="1190" arabic-form="final" 
d="M1178 285q27 0 42.5 -6.5t24 -20t10.5 -35.5t2 -52v-53q0 -39 -3.5 -62.5t-11 -35.5t-20.5 -16t-32 -4h-607q-53 0 -96.5 -13.5t-75 -41.5t-49 -69.5t-17.5 -96.5q0 -44 16 -83.5t50.5 -69.5t88 -47.5t128.5 -17.5q14 0 41.5 1t63.5 4t77.5 8t83.5 13v-273
q-48 -11 -87 -19t-73.5 -13t-67.5 -8t-69 -3q-107 0 -193 20.5t-152.5 56t-114 84t-78 104.5t-45 116.5t-14.5 121.5q0 129 43 225t122 159.5t189.5 95t244.5 31.5h143q-11 19 -16.5 45t-10.5 51q-9 52 -19 100t-32.5 84.5t-62.5 58.5t-108 22q-11 0 -35.5 -1.5t-58.5 -5.5
t-76 -11.5t-88 -20.5v267q89 24 173.5 42.5t176.5 18.5q97 0 174.5 -26t134 -74.5t91 -117t45.5 -153.5q6 -48 15 -97.5t24.5 -89.5t41.5 -65.5t67 -26.5z" />
    <glyph glyph-name="uniFEA3" unicode="&#x62d;" horiz-adv-x="1162" arabic-form="initial" 
d="M636 285q-11 19 -16.5 45t-10.5 51q-9 52 -19 100t-32.5 84.5t-62.5 58.5t-108 22q-11 0 -35.5 -1.5t-58.5 -5.5t-76 -11.5t-88 -20.5v267q89 24 173.5 42.5t176.5 18.5q97 0 174.5 -26t134 -74.5t91 -117t45.5 -153.5q6 -48 15 -97.5t24.5 -89.5t41.5 -65.5t67 -26.5
v-285h-1075q-19 0 -31.5 4t-20 16t-11 35.5t-3.5 62.5v53q0 30 1.5 52t8 35.5t20 20t36.5 6.5h639z" />
    <glyph glyph-name="uniFEA4" unicode="&#x62d;" horiz-adv-x="1084" arabic-form="medial" 
d="M638 285q-11 19 -16.5 45t-10.5 51q-9 52 -19 100t-32.5 84.5t-62.5 58.5t-108 22q-11 0 -35.5 -1.5t-58.5 -5.5t-76 -11.5t-88 -20.5v267q89 24 173.5 42.5t176.5 18.5q97 0 174.5 -26t134 -74.5t91 -117t45.5 -153.5q6 -48 15 -98t26 -90t44.5 -65.5t72.5 -25.5
q24 0 37 -6.5t20 -20t8.5 -35.5t1.5 -52v-53q0 -39 -3.5 -62.5t-11 -35.5t-20.5 -16t-32 -4h-1086q-19 0 -31.5 4t-20.5 16t-11.5 35.5t-3.5 62.5v53q0 30 1.5 52t8.5 35.5t20.5 20t36.5 6.5h640z" />
    <glyph glyph-name="uniFEA6" unicode="&#x62e;" horiz-adv-x="1138" arabic-form="final" 
d="M1127 285q27 0 42.5 -6.5t24 -20t10.5 -35.5t2 -52v-53q0 -39 -3.5 -62.5t-11 -35.5t-20.5 -16t-32 -4h-607q-53 0 -96.5 -13.5t-75 -41.5t-49 -69.5t-17.5 -96.5q0 -44 16 -83.5t50.5 -69.5t88 -47.5t128.5 -17.5q14 0 41.5 1t63.5 4t77.5 8t83.5 13v-273
q-48 -11 -87 -19t-73.5 -13t-67.5 -8t-69 -3q-107 0 -193 20.5t-152.5 56t-114 84t-78 104.5t-45 116.5t-14.5 121.5q0 129 43 225t122 159.5t189.5 95t244.5 31.5h143q-11 19 -16.5 45t-10.5 51q-9 52 -19 100t-32.5 84.5t-62.5 58.5t-108 22q-11 0 -35.5 -1.5t-58.5 -5.5
t-76 -11.5t-88 -20.5v267q89 24 173.5 42.5t176.5 18.5q97 0 174.5 -26t134 -74.5t91 -117t45.5 -153.5q6 -48 15 -97.5t24.5 -89.5t41.5 -65.5t67 -26.5zM400 1327q0 36 13.5 67t36.5 54.5t54 37t66 13.5t65.5 -13.5t53.5 -37t36.5 -54.5t13.5 -67t-13.5 -67t-36.5 -54
t-53.5 -36.5t-65.5 -13.5t-66 13.5t-54 36.5t-36.5 54t-13.5 67z" />
    <glyph glyph-name="uniFEA7" unicode="&#x62e;" horiz-adv-x="1162" arabic-form="initial" 
d="M636 285q-11 19 -16.5 45t-10.5 51q-9 52 -19 100t-32.5 84.5t-62.5 58.5t-108 22q-11 0 -35.5 -1.5t-58.5 -5.5t-76 -11.5t-88 -20.5v267q89 24 173.5 42.5t176.5 18.5q97 0 174.5 -26t134 -74.5t91 -117t45.5 -153.5q6 -48 15 -97.5t24.5 -89.5t41.5 -65.5t67 -26.5
v-285h-1075q-19 0 -31.5 4t-20 16t-11 35.5t-3.5 62.5v53q0 30 1.5 52t8 35.5t20 20t36.5 6.5h639zM291 1327q0 36 13.5 67t36.5 54.5t54 37t66 13.5t65.5 -13.5t53.5 -37t36.5 -54.5t13.5 -67t-13.5 -67t-36.5 -54t-53.5 -36.5t-65.5 -13.5t-66 13.5t-54 36.5t-36.5 54
t-13.5 67z" />
    <glyph glyph-name="uniFEA8" unicode="&#x62e;" horiz-adv-x="1084" arabic-form="medial" 
d="M638 285q-11 19 -16.5 45t-10.5 51q-9 52 -19 100t-32.5 84.5t-62.5 58.5t-108 22q-11 0 -35.5 -1.5t-58.5 -5.5t-76 -11.5t-88 -20.5v267q89 24 173.5 42.5t176.5 18.5q97 0 174.5 -26t134 -74.5t91 -117t45.5 -153.5q6 -48 15 -98t26 -90t44.5 -65.5t72.5 -25.5
q24 0 37 -6.5t20 -20t8.5 -35.5t1.5 -52v-53q0 -39 -3.5 -62.5t-11 -35.5t-20.5 -16t-32 -4h-1086q-19 0 -31.5 4t-20.5 16t-11.5 35.5t-3.5 62.5v53q0 30 1.5 52t8.5 35.5t20.5 20t36.5 6.5h640zM291 1327q0 36 13.5 67t36.5 54.5t54 37t66 13.5t65.5 -13.5t53.5 -37
t36.5 -54.5t13.5 -67t-13.5 -67t-36.5 -54t-53.5 -36.5t-65.5 -13.5t-66 13.5t-54 36.5t-36.5 54t-13.5 67z" />
    <glyph glyph-name="uniFEAA" unicode="&#x62f;" horiz-adv-x="1168" arabic-form="final" 
d="M42 0v285h413q46 0 76 10t47.5 26t24 35.5t6.5 39.5q0 33 -31.5 80t-82.5 101t-115.5 110t-130.5 106l250 245q102 -86 183 -170t137.5 -164t87 -156t30.5 -146q0 -17 -1 -33t-3 -33q53 -29 113.5 -40t115.5 -11h5q24 0 37 -6.5t20 -20t8.5 -35.5t1.5 -52v-53
q0 -39 -3.5 -62.5t-11 -35.5t-20.5 -16t-32 -4h-8q-81 0 -164 35.5t-150 99.5q-57 -62 -152.5 -98.5t-242.5 -36.5h-408z" />
    <glyph glyph-name="uniFEAC" unicode="&#x630;" horiz-adv-x="1168" arabic-form="final" 
d="M42 0v285h413q46 0 76 10t47.5 26t24 35.5t6.5 39.5q0 33 -31.5 80t-82.5 101t-115.5 110t-130.5 106l250 245q102 -86 183 -170t137.5 -164t87 -156t30.5 -146q0 -17 -1 -33t-3 -33q53 -29 113.5 -40t115.5 -11h5q24 0 37 -6.5t20 -20t8.5 -35.5t1.5 -52v-53
q0 -39 -3.5 -62.5t-11 -35.5t-20.5 -16t-32 -4h-8q-81 0 -164 35.5t-150 99.5q-57 -62 -152.5 -98.5t-242.5 -36.5h-408zM255 1327q0 36 13.5 67t36.5 54.5t54 37t66 13.5t65.5 -13.5t53.5 -37t36.5 -54.5t13.5 -67t-13.5 -67t-36.5 -54t-53.5 -36.5t-65.5 -13.5t-66 13.5
t-54 36.5t-36.5 54t-13.5 67z" />
    <glyph glyph-name="uniFEAE" unicode="&#x631;" horiz-adv-x="815" arabic-form="final" 
d="M-6 -156q88 18 136.5 49.5t72 73.5t28.5 93.5t5 109.5v710h361v-595h218q24 0 37 -6.5t20 -20t8.5 -35.5t1.5 -52v-53q0 -39 -3.5 -62.5t-11 -35.5t-20.5 -16t-32 -4h-237q-18 -95 -56.5 -170.5t-103 -132.5t-157 -96t-218.5 -59z" />
    <glyph glyph-name="uniFEB0" unicode="&#x632;" horiz-adv-x="815" arabic-form="final" 
d="M-6 -156q88 18 136.5 49.5t72 73.5t28.5 93.5t5 109.5v710h361v-595h218q24 0 37 -6.5t20 -20t8.5 -35.5t1.5 -52v-53q0 -39 -3.5 -62.5t-11 -35.5t-20.5 -16t-32 -4h-237q-18 -95 -56.5 -170.5t-103 -132.5t-157 -96t-218.5 -59zM249 1327q0 36 13.5 67t36.5 54.5t54 37
t66 13.5t65.5 -13.5t53.5 -37t36.5 -54.5t13.5 -67t-13.5 -67t-36.5 -54t-53.5 -36.5t-65.5 -13.5t-66 13.5t-54 36.5t-36.5 54t-13.5 67z" />
    <glyph glyph-name="uniFEB2" unicode="&#x633;" horiz-adv-x="2874" arabic-form="final" 
d="M2167 285q20 0 39 4.5t33.5 15.5t23.5 29.5t9 46.5v499h362v-517v-12t-1 -11q54 -31 116.5 -43t119.5 -12h5q24 0 37 -6.5t20 -20t8.5 -35.5t1.5 -52v-53q0 -39 -3.5 -62.5t-11 -35.5t-20.5 -16t-32 -4h-8q-76 0 -155 32t-145 90q-40 -55 -107.5 -88.5t-171.5 -33.5
q-67 0 -121.5 7t-99.5 19.5t-83 30t-71 39.5q-41 -44 -103.5 -70t-153.5 -26q-111 0 -187.5 17.5t-136.5 48.5q-25 -110 -82 -201.5t-143.5 -157t-200.5 -102t-252 -36.5q-172 0 -295.5 49t-203 131t-117 189t-37.5 222q0 52 9.5 112t27.5 121.5t44.5 122t60.5 113.5
q75 -41 149 -79.5t149 -78.5q-43 -68 -68 -145.5t-25 -142.5q0 -64 21 -118.5t62 -94.5t102 -63t141 -23q74 0 133 23.5t100 68.5t63 110.5t22 149.5q0 26 -6.5 68t-19 91.5t-30.5 103.5t-42 105l351 94q15 -40 30 -86t28 -94.5t24 -97.5t17 -94q48 -19 96.5 -30t94.5 -11
q21 0 40 4.5t33.5 15.5t23 29.5t8.5 46.5v392h362v-410q0 -11 -0.5 -22.5t-1.5 -22.5q42 -15 84.5 -24t83.5 -9z" />
    <glyph glyph-name="uniFEB3" unicode="&#x633;" horiz-adv-x="2010" arabic-form="initial" 
d="M1498 285v595h362v-880h-347q-67 0 -121.5 7t-99.5 19.5t-83 30t-71 39.5q-41 -44 -103.5 -70t-153.5 -26q-71 0 -127 7.5t-102.5 21t-85 32.5t-72.5 43q-41 -48 -105 -76t-159 -28h-233q-19 0 -31.5 4t-20 16t-11 35.5t-3.5 62.5v53q0 30 1.5 52t8 35.5t20 20t36.5 6.5
h141q42 0 59.5 27t17.5 84v293h361v-326q0 -10 -0.5 -19.5t-1.5 -19.5q47 -17 94 -28t92 -11q21 0 40 4.5t33.5 15.5t23 29.5t8.5 46.5v392h362v-410q0 -11 -0.5 -22.5t-1.5 -22.5q42 -15 84.5 -24t83.5 -9h105z" />
    <glyph glyph-name="uniFEB4" unicode="&#x633;" horiz-adv-x="2100" arabic-form="medial" 
d="M1393 285q21 0 40 4.5t33.5 15.5t23 29.5t8.5 46.5v499h362v-517v-12t-1 -11q54 -31 116.5 -43t119.5 -12h5q24 0 37 -6.5t20 -20t8.5 -35.5t1.5 -52v-53q0 -39 -3.5 -62.5t-11 -35.5t-20.5 -16t-32 -4h-8q-76 0 -155 32t-145 90q-40 -55 -107.5 -88.5t-171.5 -33.5
q-67 0 -121.5 7t-99.5 19.5t-83 30t-71 39.5q-41 -44 -103.5 -70t-153.5 -26q-70 0 -126.5 7.5t-103 21t-84.5 32.5t-72 43q-41 -48 -105.5 -76t-159.5 -28h-232q-19 0 -32 4t-20.5 16t-11 35.5t-3.5 62.5v53q0 30 1.5 52t8.5 35.5t20 20t37 6.5h140q42 0 59.5 20t17.5 76
v308h362v-326q0 -10 -0.5 -19.5t-1.5 -19.5q47 -18 93.5 -28.5t91.5 -10.5q21 0 40 4.5t33.5 15.5t23.5 29.5t9 46.5v392h361v-410q0 -11 -0.5 -22.5t-1.5 -22.5q42 -15 84.5 -24t83.5 -9z" />
    <glyph glyph-name="uniFEB6" unicode="&#x634;" horiz-adv-x="2874" arabic-form="final" 
d="M2167 285q20 0 39 4.5t33.5 15.5t23.5 29.5t9 46.5v499h362v-517v-12t-1 -11q54 -31 116.5 -43t119.5 -12h5q24 0 37 -6.5t20 -20t8.5 -35.5t1.5 -52v-53q0 -39 -3.5 -62.5t-11 -35.5t-20.5 -16t-32 -4h-8q-76 0 -155 32t-145 90q-40 -55 -107.5 -88.5t-171.5 -33.5
q-67 0 -121.5 7t-99.5 19.5t-83 30t-71 39.5q-41 -44 -103.5 -70t-153.5 -26q-111 0 -187.5 17.5t-136.5 48.5q-25 -110 -82 -201.5t-143.5 -157t-200.5 -102t-252 -36.5q-172 0 -295.5 49t-203 131t-117 189t-37.5 222q0 52 9.5 112t27.5 121.5t44.5 122t60.5 113.5
q75 -41 149 -79.5t149 -78.5q-43 -68 -68 -145.5t-25 -142.5q0 -64 21 -118.5t62 -94.5t102 -63t141 -23q74 0 133 23.5t100 68.5t63 110.5t22 149.5q0 26 -6.5 68t-19 91.5t-30.5 103.5t-42 105l351 94q15 -40 30 -86t28 -94.5t24 -97.5t17 -94q48 -19 96.5 -30t94.5 -11
q21 0 40 4.5t33.5 15.5t23 29.5t8.5 46.5v392h362v-410q0 -11 -0.5 -22.5t-1.5 -22.5q42 -15 84.5 -24t83.5 -9zM1427 1327q0 36 13.5 67t36.5 54.5t54 37t66 13.5t65.5 -13.5t53.5 -37t36.5 -54.5t13.5 -67t-13.5 -67t-36.5 -54t-53.5 -36.5t-65.5 -13.5t-66 13.5t-54 36.5
t-36.5 54t-13.5 67zM1838 1327q0 36 13.5 67t36.5 54.5t53.5 37t65.5 13.5t65.5 -13.5t53.5 -37t36.5 -54.5t13.5 -67t-13.5 -67t-36.5 -54t-53.5 -36.5t-65.5 -13.5t-65.5 13.5t-53.5 36.5t-36.5 54t-13.5 67zM1631 1713q0 36 13.5 67t36.5 54.5t53.5 37t65.5 13.5
t65.5 -13.5t53.5 -37t36.5 -54.5t13.5 -67t-13.5 -67t-36.5 -54t-53.5 -36.5t-65.5 -13.5t-65.5 13.5t-53.5 36.5t-36.5 54t-13.5 67z" />
    <glyph glyph-name="uniFEB7" unicode="&#x634;" horiz-adv-x="2010" arabic-form="initial" 
d="M1498 285v595h362v-880h-347q-67 0 -121.5 7t-99.5 19.5t-83 30t-71 39.5q-41 -44 -103.5 -70t-153.5 -26q-71 0 -127 7.5t-102.5 21t-85 32.5t-72.5 43q-41 -48 -105 -76t-159 -28h-233q-19 0 -31.5 4t-20 16t-11 35.5t-3.5 62.5v53q0 30 1.5 52t8 35.5t20 20t36.5 6.5
h141q42 0 59.5 27t17.5 84v293h361v-326q0 -10 -0.5 -19.5t-1.5 -19.5q47 -17 94 -28t92 -11q21 0 40 4.5t33.5 15.5t23 29.5t8.5 46.5v392h362v-410q0 -11 -0.5 -22.5t-1.5 -22.5q42 -15 84.5 -24t83.5 -9h105zM662 1327q0 36 13.5 67t36.5 54.5t54 37t66 13.5t65.5 -13.5
t53.5 -37t36.5 -54.5t13.5 -67t-13.5 -67t-36.5 -54t-53.5 -36.5t-65.5 -13.5t-66 13.5t-54 36.5t-36.5 54t-13.5 67zM1073 1327q0 36 13.5 67t36.5 54.5t53.5 37t65.5 13.5t65.5 -13.5t53.5 -37t36.5 -54.5t13.5 -67t-13.5 -67t-36.5 -54t-53.5 -36.5t-65.5 -13.5
t-65.5 13.5t-53.5 36.5t-36.5 54t-13.5 67zM866 1713q0 36 13.5 67t36.5 54.5t53.5 37t65.5 13.5t65.5 -13.5t53.5 -37t36.5 -54.5t13.5 -67t-13.5 -67t-36.5 -54t-53.5 -36.5t-65.5 -13.5t-65.5 13.5t-53.5 36.5t-36.5 54t-13.5 67z" />
    <glyph glyph-name="uniFEB8" unicode="&#x634;" horiz-adv-x="2100" arabic-form="medial" 
d="M1393 285q21 0 40 4.5t33.5 15.5t23 29.5t8.5 46.5v499h362v-517v-12t-1 -11q54 -31 116.5 -43t119.5 -12h5q24 0 37 -6.5t20 -20t8.5 -35.5t1.5 -52v-53q0 -39 -3.5 -62.5t-11 -35.5t-20.5 -16t-32 -4h-8q-76 0 -155 32t-145 90q-40 -55 -107.5 -88.5t-171.5 -33.5
q-67 0 -121.5 7t-99.5 19.5t-83 30t-71 39.5q-41 -44 -103.5 -70t-153.5 -26q-70 0 -126.5 7.5t-103 21t-84.5 32.5t-72 43q-41 -48 -105.5 -76t-159.5 -28h-232q-19 0 -32 4t-20.5 16t-11 35.5t-3.5 62.5v53q0 30 1.5 52t8.5 35.5t20 20t37 6.5h140q42 0 59.5 20t17.5 76
v308h362v-326q0 -10 -0.5 -19.5t-1.5 -19.5q47 -18 93.5 -28.5t91.5 -10.5q21 0 40 4.5t33.5 15.5t23.5 29.5t9 46.5v392h361v-410q0 -11 -0.5 -22.5t-1.5 -22.5q42 -15 84.5 -24t83.5 -9zM660 1327q0 36 13.5 67t36.5 54.5t54 37t66 13.5t65.5 -13.5t53.5 -37t36.5 -54.5
t13.5 -67t-13.5 -67t-36.5 -54t-53.5 -36.5t-65.5 -13.5t-66 13.5t-54 36.5t-36.5 54t-13.5 67zM1071 1327q0 36 13.5 67t36.5 54.5t53.5 37t65.5 13.5t65.5 -13.5t53.5 -37t36.5 -54.5t13.5 -67t-13.5 -67t-36.5 -54t-53.5 -36.5t-65.5 -13.5t-65.5 13.5t-53.5 36.5
t-36.5 54t-13.5 67zM864 1713q0 36 13.5 67t36.5 54.5t53.5 37t65.5 13.5t65.5 -13.5t53.5 -37t36.5 -54.5t13.5 -67t-13.5 -67t-36.5 -54t-53.5 -36.5t-65.5 -13.5t-65.5 13.5t-53.5 36.5t-36.5 54t-13.5 67z" />
    <glyph glyph-name="uniFEBA" unicode="&#x635;" horiz-adv-x="3042" arabic-form="final" 
d="M990 236q0 26 -6.5 68t-18.5 91.5t-30.5 103.5t-42.5 105l352 94q15 -39 29.5 -85t28 -94.5t24.5 -97.5t17 -94q48 -18 95 -27.5t84 -11.5q27 64 67.5 138t94.5 148t120.5 142t146.5 120.5t174 84t201 31.5q132 0 227.5 -42t157.5 -115.5t91.5 -173.5t29.5 -216v-120h211
q23 0 36.5 -6.5t20 -20t8 -35.5t1.5 -52v-53q0 -39 -3.5 -62.5t-11 -35.5t-20 -16t-31.5 -4h-1384q-86 0 -170.5 17.5t-157.5 48.5q-25 -110 -82.5 -201.5t-144 -157t-200 -102t-251.5 -36.5q-172 0 -295.5 49t-203 131t-117 189t-37.5 222q0 52 9 112t27 121.5t44.5 122
t60.5 113.5q75 -41 149 -79.5t149 -78.5q-42 -68 -67 -145.5t-25 -142.5q0 -64 21 -118.5t62 -94.5t102 -63t141 -23q74 0 132.5 23.5t99.5 68.5t63 110.5t22 149.5zM2472 386q0 78 -15.5 129.5t-44.5 83t-71.5 44.5t-96.5 13t-113 -25.5t-116 -73.5t-108 -117t-87 -155h652
v101z" />
    <glyph glyph-name="uniFEBB" unicode="&#x635;" horiz-adv-x="2167" arabic-form="initial" 
d="M577 363q0 -11 -0.5 -22.5t-1.5 -22.5q42 -14 81 -21t70 -9q28 64 68.5 138t94 148t120.5 142t147 120.5t173.5 84t201.5 31.5q131 0 226.5 -42t157.5 -115.5t92 -173.5t30 -216v-405h-1173q-103 0 -202.5 24.5t-178.5 66.5q-42 -42 -103.5 -66.5t-149.5 -24.5h-232
q-19 0 -32 4t-20.5 16t-11 35.5t-3.5 62.5v53q0 30 1.5 52t8.5 35.5t20 20t37 6.5h140q42 0 59.5 27t17.5 84v293h362v-326zM1676 386q0 78 -15.5 129.5t-44.5 83t-71 44.5t-96 13t-113.5 -25.5t-116.5 -73.5t-107.5 -117t-86.5 -155h651v101z" />
    <glyph glyph-name="uniFEBC" unicode="&#x635;" horiz-adv-x="2248" arabic-form="medial" 
d="M577 363q0 -11 -0.5 -22.5t-1.5 -22.5q42 -14 81 -21t71 -9q28 64 68 138t94 148t120.5 142t147 120.5t174 84t200.5 31.5q132 0 227.5 -42t157.5 -115.5t91.5 -173.5t29.5 -216v-120h212q23 0 36.5 -6.5t20 -20t8 -35.5t1.5 -52v-53q0 -39 -3.5 -62.5t-11 -35.5t-20 -16
t-31.5 -4h-1385q-103 0 -202.5 24.5t-178.5 66.5q-41 -42 -102.5 -66.5t-149.5 -24.5h-233q-19 0 -31.5 4t-20.5 16t-11.5 35.5t-3.5 62.5v53q0 30 1.5 52t8.5 35.5t20 20t37 6.5h141q42 0 59 27t17 84v293h362v-326zM1677 386q0 78 -15.5 129.5t-44.5 83t-71.5 44.5
t-96.5 13t-113 -25.5t-116 -73.5t-108 -117t-87 -155h652v101z" />
    <glyph glyph-name="uniFEBE" unicode="&#x636;" horiz-adv-x="3042" arabic-form="final" 
d="M990 236q0 26 -6.5 68t-18.5 91.5t-30.5 103.5t-42.5 105l352 94q15 -39 29.5 -85t28 -94.5t24.5 -97.5t17 -94q48 -18 95 -27.5t84 -11.5q27 64 67.5 138t94.5 148t120.5 142t146.5 120.5t174 84t201 31.5q132 0 227.5 -42t157.5 -115.5t91.5 -173.5t29.5 -216v-120h211
q23 0 36.5 -6.5t20 -20t8 -35.5t1.5 -52v-53q0 -39 -3.5 -62.5t-11 -35.5t-20 -16t-31.5 -4h-1384q-86 0 -170.5 17.5t-157.5 48.5q-25 -110 -82.5 -201.5t-144 -157t-200 -102t-251.5 -36.5q-172 0 -295.5 49t-203 131t-117 189t-37.5 222q0 52 9 112t27 121.5t44.5 122
t60.5 113.5q75 -41 149 -79.5t149 -78.5q-42 -68 -67 -145.5t-25 -142.5q0 -64 21 -118.5t62 -94.5t102 -63t141 -23q74 0 132.5 23.5t99.5 68.5t63 110.5t22 149.5zM2472 386q0 78 -15.5 129.5t-44.5 83t-71.5 44.5t-96.5 13t-113 -25.5t-116 -73.5t-108 -117t-87 -155h652
v101zM2031 1327q0 36 13.5 67t36.5 54.5t54 37t66 13.5t65.5 -13.5t53.5 -37t36.5 -54.5t13.5 -67t-13.5 -67t-36.5 -54t-53.5 -36.5t-65.5 -13.5t-66 13.5t-54 36.5t-36.5 54t-13.5 67z" />
    <glyph glyph-name="uniFEBF" unicode="&#x636;" horiz-adv-x="2167" arabic-form="initial" 
d="M577 363q0 -11 -0.5 -22.5t-1.5 -22.5q42 -14 81 -21t70 -9q28 64 68.5 138t94 148t120.5 142t147 120.5t173.5 84t201.5 31.5q131 0 226.5 -42t157.5 -115.5t92 -173.5t30 -216v-405h-1173q-103 0 -202.5 24.5t-178.5 66.5q-42 -42 -103.5 -66.5t-149.5 -24.5h-232
q-19 0 -32 4t-20.5 16t-11 35.5t-3.5 62.5v53q0 30 1.5 52t8.5 35.5t20 20t37 6.5h140q42 0 59.5 27t17.5 84v293h362v-326zM1676 386q0 78 -15.5 129.5t-44.5 83t-71 44.5t-96 13t-113.5 -25.5t-116.5 -73.5t-107.5 -117t-86.5 -155h651v101zM1169 1327q0 36 13.5 67
t36.5 54.5t54 37t66 13.5t65.5 -13.5t53.5 -37t36.5 -54.5t13.5 -67t-13.5 -67t-36.5 -54t-53.5 -36.5t-65.5 -13.5t-66 13.5t-54 36.5t-36.5 54t-13.5 67z" />
    <glyph glyph-name="uniFEC0" unicode="&#x636;" horiz-adv-x="2248" arabic-form="medial" 
d="M577 363q0 -11 -0.5 -22.5t-1.5 -22.5q42 -14 81 -21t71 -9q28 64 68 138t94 148t120.5 142t147 120.5t174 84t200.5 31.5q132 0 227.5 -42t157.5 -115.5t91.5 -173.5t29.5 -216v-120h212q23 0 36.5 -6.5t20 -20t8 -35.5t1.5 -52v-53q0 -39 -3.5 -62.5t-11 -35.5t-20 -16
t-31.5 -4h-1385q-103 0 -202.5 24.5t-178.5 66.5q-41 -42 -102.5 -66.5t-149.5 -24.5h-233q-19 0 -31.5 4t-20.5 16t-11.5 35.5t-3.5 62.5v53q0 30 1.5 52t8.5 35.5t20 20t37 6.5h141q42 0 59 27t17 84v293h362v-326zM1677 386q0 78 -15.5 129.5t-44.5 83t-71.5 44.5
t-96.5 13t-113 -25.5t-116 -73.5t-108 -117t-87 -155h652v101zM1147 1327q0 36 13.5 67t36.5 54.5t54 37t66 13.5t65.5 -13.5t53.5 -37t36.5 -54.5t13.5 -67t-13.5 -67t-36.5 -54t-53.5 -36.5t-65.5 -13.5t-66 13.5t-54 36.5t-36.5 54t-13.5 67z" />
    <glyph glyph-name="uniFEC2" unicode="&#x637;" horiz-adv-x="1807" arabic-form="final" 
d="M0 285h280q14 33 32 70t40 75v1011h361v-604q81 53 173.5 84t200.5 31q130 0 225 -42t157 -115.5t92.5 -173.5t30.5 -216v-120h215q24 0 37 -6.5t20 -20t8.5 -35.5t1.5 -52v-53q0 -39 -3.5 -62.5t-11 -35.5t-20.5 -16t-32 -4h-1807v285zM1233 386q0 78 -16 129.5
t-45.5 83t-72 44.5t-96.5 13q-60 0 -121.5 -29t-118 -79.5t-104.5 -118t-81 -144.5h655v101z" />
    <glyph glyph-name="uniFEC3" unicode="&#x637;" horiz-adv-x="1659" arabic-form="initial" 
d="M-3 0q-19 0 -31.5 4t-20 16t-11 35.5t-3.5 62.5v53q0 30 1.5 52t8 35.5t20 20t36.5 6.5h224q14 33 31.5 70t39.5 75v1011h361v-603q80 52 173 83t200 31q129 0 224 -42t157 -115.5t92 -173.5t30 -216v-405h-1532zM1172 386q0 78 -16 129.5t-45.5 83t-72 44.5t-96.5 13
q-60 0 -121.5 -29t-118 -79.5t-104.5 -118t-80 -144.5h654v101z" />
    <glyph glyph-name="uniFEC4" unicode="&#x637;" horiz-adv-x="1743" arabic-form="medial" 
d="M-2 0q-19 0 -32 4t-20.5 16t-11 35.5t-3.5 62.5v53q0 30 1.5 52t8.5 35.5t20 20t37 6.5h223q14 34 32 71t40 76v1009h360v-603q80 52 173 83t200 31q130 0 224.5 -42t156.5 -115.5t92 -173.5t30 -216v-120h214q24 0 37 -6.5t20 -20t8.5 -35.5t1.5 -52v-53
q0 -39 -3.5 -62.5t-11 -35.5t-20.5 -16t-32 -4h-1745zM1173 386q0 78 -16 129.5t-45.5 83t-72.5 44.5t-97 13q-59 0 -120.5 -29t-118 -79.5t-104.5 -118t-81 -144.5h655v101z" />
    <glyph glyph-name="uniFEC6" unicode="&#x638;" horiz-adv-x="1807" arabic-form="final" 
d="M0 285h280q14 33 32 70t40 75v1011h361v-604q81 53 173.5 84t200.5 31q130 0 225 -42t157 -115.5t92.5 -173.5t30.5 -216v-120h215q24 0 37 -6.5t20 -20t8.5 -35.5t1.5 -52v-53q0 -39 -3.5 -62.5t-11 -35.5t-20.5 -16t-32 -4h-1807v285zM1233 386q0 78 -16 129.5
t-45.5 83t-72 44.5t-96.5 13q-60 0 -121.5 -29t-118 -79.5t-104.5 -118t-81 -144.5h655v101zM958 1327q0 36 13.5 67t36.5 54.5t54 37t66 13.5t65.5 -13.5t53.5 -37t36.5 -54.5t13.5 -67t-13.5 -67t-36.5 -54t-53.5 -36.5t-65.5 -13.5t-66 13.5t-54 36.5t-36.5 54t-13.5 67z
" />
    <glyph glyph-name="uniFEC7" unicode="&#x638;" horiz-adv-x="1659" arabic-form="initial" 
d="M-3 0q-19 0 -31.5 4t-20 16t-11 35.5t-3.5 62.5v53q0 30 1.5 52t8 35.5t20 20t36.5 6.5h224q14 33 31.5 70t39.5 75v1011h361v-603q80 52 173 83t200 31q129 0 224 -42t157 -115.5t92 -173.5t30 -216v-405h-1532zM1172 386q0 78 -16 129.5t-45.5 83t-72 44.5t-96.5 13
q-60 0 -121.5 -29t-118 -79.5t-104.5 -118t-80 -144.5h654v101zM894 1327q0 36 13.5 67t36.5 54.5t54 37t66 13.5t65.5 -13.5t53.5 -37t36.5 -54.5t13.5 -67t-13.5 -67t-36.5 -54t-53.5 -36.5t-65.5 -13.5t-66 13.5t-54 36.5t-36.5 54t-13.5 67z" />
    <glyph glyph-name="uniFEC8" unicode="&#x638;" horiz-adv-x="1743" arabic-form="medial" 
d="M-2 0q-19 0 -32 4t-20.5 16t-11 35.5t-3.5 62.5v53q0 30 1.5 52t8.5 35.5t20 20t37 6.5h223q14 34 32 71t40 76v1009h360v-603q80 52 173 83t200 31q130 0 224.5 -42t156.5 -115.5t92 -173.5t30 -216v-120h214q24 0 37 -6.5t20 -20t8.5 -35.5t1.5 -52v-53
q0 -39 -3.5 -62.5t-11 -35.5t-20.5 -16t-32 -4h-1745zM1173 386q0 78 -16 129.5t-45.5 83t-72.5 44.5t-97 13q-59 0 -120.5 -29t-118 -79.5t-104.5 -118t-81 -144.5h655v101zM897 1327q0 36 13.5 67t36.5 54.5t54 37t66 13.5t65.5 -13.5t53.5 -37t36.5 -54.5t13.5 -67
t-13.5 -67t-36.5 -54t-53.5 -36.5t-65.5 -13.5t-66 13.5t-54 36.5t-36.5 54t-13.5 67z" />
    <glyph glyph-name="uniFECA" unicode="&#x639;" horiz-adv-x="1205" arabic-form="final" 
d="M0 -239q0 78 26 150.5t74 138.5t116 126t152 114q-26 24 -53 51t-51.5 53.5t-45.5 51t-35 43.5q-29 39 -49 63.5t-30 35.5l-3 3q6 27 18 62t28 69t35 61.5t39 38.5q36 17 87 37t113 37t134.5 28t151.5 11q70 0 142.5 -14t131 -44t96 -78t37.5 -116q0 -21 -8 -55.5
t-30 -82.5t-61 -109t-101 -135q47 -7 103 -11.5t102 -4.5h86q24 0 37 -6.5t20 -20t8.5 -35.5t1.5 -52v-53q0 -39 -3.5 -62.5t-11 -35.5t-20.5 -16t-32 -4h-140q-72 0 -139 10.5t-125.5 26t-107 33.5t-83.5 34q-56 -26 -103 -60t-80.5 -75.5t-52 -89.5t-18.5 -100
q0 -41 15.5 -80t49 -70t85.5 -50t124 -19q42 0 111 6t154 20v-285q-86 -17 -156.5 -23.5t-138.5 -6.5q-157 0 -270.5 44.5t-186.5 115t-108 157.5t-35 173zM804 584q0 18 -16 32t-40.5 23t-55 13.5t-59.5 4.5q-16 0 -41 -2.5t-53 -7t-56 -11t-49 -15.5q62 -97 112 -157
t85 -89q50 39 83 72.5t53 59.5t28.5 45.5t8.5 31.5z" />
    <glyph glyph-name="uniFECB" unicode="&#x639;" horiz-adv-x="1112" arabic-form="initial" 
d="M1022 285v-285h-1024q-19 0 -32 4t-20.5 16t-11 35.5t-3.5 62.5v53q0 30 1.5 52t8.5 35.5t20 20t37 6.5h182q-12 43 -19.5 90.5t-7.5 82.5q0 95 36.5 180t102.5 149t157.5 101.5t202.5 37.5q24 0 61 -3.5t78 -10t81.5 -15.5t72.5 -21l-40 -295q-46 12 -79.5 19.5t-59 12
t-47 6.5t-43.5 2q-37 0 -68.5 -8.5t-55 -27.5t-36.5 -48t-13 -70q0 -39 13.5 -72.5t37.5 -58t57.5 -38t74.5 -13.5h336z" />
    <glyph glyph-name="uniFECC" unicode="&#x639;" horiz-adv-x="1228" arabic-form="medial" 
d="M1295 118q0 -39 -3.5 -62.5t-11 -35.5t-20.5 -16t-32 -4h-166q-72 0 -138.5 9.5t-124 24t-105 32t-81.5 32.5q-89 -40 -204 -69t-244 -29h-167q-19 0 -32 4t-20.5 16t-11 35.5t-3.5 62.5v53q0 30 1.5 52t8.5 35.5t20 20t37 6.5h180q41 0 80 2.5t74 7.5q-51 52 -88 104.5
t-66 89.5q-28 37 -48.5 62.5t-30.5 36.5l-3 2q6 27 18 62t28 69t35 61.5t40 39.5q36 17 86.5 37t113 37t134.5 28t151 11q70 0 142.5 -14t131.5 -44t96.5 -78t37.5 -116q0 -21 -8 -58t-29 -87t-57.5 -110.5t-93.5 -126.5q48 -8 97.5 -12t96.5 -4h112q24 0 37 -6.5t20 -20
t8.5 -35.5t1.5 -52v-53zM627 375q50 39 83 72.5t53 59.5t28.5 45.5t8.5 31.5q0 18 -16 32t-40.5 23t-55 13.5t-59.5 4.5q-16 0 -41 -2.5t-53 -7t-56 -11t-49 -15.5q66 -100 114 -158.5t83 -87.5z" />
    <glyph glyph-name="uniFECE" unicode="&#x63a;" horiz-adv-x="1205" arabic-form="final" 
d="M0 -239q0 78 26 150.5t74 138.5t116 126t152 114q-26 24 -53 51t-51.5 53.5t-45.5 51t-35 43.5q-29 39 -49 63.5t-30 35.5l-3 3q6 27 18 62t28 69t35 61.5t39 38.5q36 17 87 37t113 37t134.5 28t151.5 11q70 0 142.5 -14t131 -44t96 -78t37.5 -116q0 -21 -8 -55.5
t-30 -82.5t-61 -109t-101 -135q47 -7 103 -11.5t102 -4.5h86q24 0 37 -6.5t20 -20t8.5 -35.5t1.5 -52v-53q0 -39 -3.5 -62.5t-11 -35.5t-20.5 -16t-32 -4h-140q-72 0 -139 10.5t-125.5 26t-107 33.5t-83.5 34q-56 -26 -103 -60t-80.5 -75.5t-52 -89.5t-18.5 -100
q0 -41 15.5 -80t49 -70t85.5 -50t124 -19q42 0 111 6t154 20v-285q-86 -17 -156.5 -23.5t-138.5 -6.5q-157 0 -270.5 44.5t-186.5 115t-108 157.5t-35 173zM804 584q0 18 -16 32t-40.5 23t-55 13.5t-59.5 4.5q-16 0 -41 -2.5t-53 -7t-56 -11t-49 -15.5q62 -97 112 -157
t85 -89q50 39 83 72.5t53 59.5t28.5 45.5t8.5 31.5zM477 1327q0 36 13.5 67t36.5 54.5t54 37t66 13.5t65.5 -13.5t53.5 -37t36.5 -54.5t13.5 -67t-13.5 -67t-36.5 -54t-53.5 -36.5t-65.5 -13.5t-66 13.5t-54 36.5t-36.5 54t-13.5 67z" />
    <glyph glyph-name="uniFECF" unicode="&#x63a;" horiz-adv-x="1112" arabic-form="initial" 
d="M1022 285v-285h-1024q-19 0 -32 4t-20.5 16t-11 35.5t-3.5 62.5v53q0 30 1.5 52t8.5 35.5t20 20t37 6.5h182q-12 43 -19.5 90.5t-7.5 82.5q0 95 36.5 180t102.5 149t157.5 101.5t202.5 37.5q24 0 61 -3.5t78 -10t81.5 -15.5t72.5 -21l-40 -295q-46 12 -79.5 19.5t-59 12
t-47 6.5t-43.5 2q-37 0 -68.5 -8.5t-55 -27.5t-36.5 -48t-13 -70q0 -39 13.5 -72.5t37.5 -58t57.5 -38t74.5 -13.5h336zM465 1327q0 36 13.5 67t36.5 54.5t54 37t66 13.5t65.5 -13.5t53.5 -37t36.5 -54.5t13.5 -67t-13.5 -67t-36.5 -54t-53.5 -36.5t-65.5 -13.5t-66 13.5
t-54 36.5t-36.5 54t-13.5 67z" />
    <glyph glyph-name="uniFED0" unicode="&#x63a;" horiz-adv-x="1228" arabic-form="medial" 
d="M1295 118q0 -39 -3.5 -62.5t-11 -35.5t-20.5 -16t-32 -4h-166q-72 0 -138.5 9.5t-124 24t-105 32t-81.5 32.5q-89 -40 -204 -69t-244 -29h-167q-19 0 -32 4t-20.5 16t-11 35.5t-3.5 62.5v53q0 30 1.5 52t8.5 35.5t20 20t37 6.5h180q41 0 80 2.5t74 7.5q-51 52 -88 104.5
t-66 89.5q-28 37 -48.5 62.5t-30.5 36.5l-3 2q6 27 18 62t28 69t35 61.5t40 39.5q36 17 86.5 37t113 37t134.5 28t151 11q70 0 142.5 -14t131.5 -44t96.5 -78t37.5 -116q0 -21 -8 -58t-29 -87t-57.5 -110.5t-93.5 -126.5q48 -8 97.5 -12t96.5 -4h112q24 0 37 -6.5t20 -20
t8.5 -35.5t1.5 -52v-53zM627 375q50 39 83 72.5t53 59.5t28.5 45.5t8.5 31.5q0 18 -16 32t-40.5 23t-55 13.5t-59.5 4.5q-16 0 -41 -2.5t-53 -7t-56 -11t-49 -15.5q66 -100 114 -158.5t83 -87.5zM462 1327q0 36 13.5 67t36.5 54.5t54 37t66 13.5t65.5 -13.5t53.5 -37
t36.5 -54.5t13.5 -67t-13.5 -67t-36.5 -54t-53.5 -36.5t-65.5 -13.5t-66 13.5t-54 36.5t-36.5 54t-13.5 67z" />
    <glyph glyph-name="uniFED2" unicode="&#x641;" horiz-adv-x="2272" arabic-form="final" 
d="M2272 285q24 0 37 -6.5t20 -20t8.5 -35.5t1.5 -52v-53q0 -39 -3.5 -62.5t-11 -35.5t-20.5 -16t-32 -4h-162q-51 0 -105.5 2.5t-107 6.5t-101.5 9t-89 11q-45 -5 -108 -9t-134.5 -7t-147.5 -5.5t-147.5 -4t-133.5 -2.5t-106 -1h-301q-131 0 -228.5 15t-167.5 42.5t-115 66
t-71.5 85t-36.5 99.5t-10 110q0 20 2.5 50t7 65.5t10.5 73t13 71.5q84 -7 166 -14.5t165 -14.5q-10 -51 -17.5 -101t-7.5 -85q0 -44 14 -77.5t53 -56t109 -33.5t183 -11h484q-24 51 -35 103t-11 84q0 90 37 171t106 142.5t167 97.5t220 36q123 0 211.5 -32.5t145.5 -88.5
t84 -130.5t27 -158.5q0 -26 -4 -55.5t-10 -59t-14 -57.5t-16 -52h182zM1485 492q0 -43 17 -81t46.5 -66t68.5 -44t83 -16h22q9 17 17.5 40t15 49t11 52.5t4.5 50.5q0 78 -39.5 119t-99.5 41q-27 0 -53 -8.5t-46.5 -26.5t-33.5 -45.5t-13 -64.5zM1456 1327q0 36 13.5 67
t36.5 54.5t54 37t66 13.5t65.5 -13.5t53.5 -37t36.5 -54.5t13.5 -67t-13.5 -67t-36.5 -54t-53.5 -36.5t-65.5 -13.5t-66 13.5t-54 36.5t-36.5 54t-13.5 67z" />
    <glyph glyph-name="uniFED3" unicode="&#x641;" horiz-adv-x="1282" arabic-form="initial" 
d="M180 285q-6 19 -12 41t-10.5 45t-7 45t-2.5 40q0 112 40.5 198.5t111 145t166 89t205.5 30.5q109 0 198 -31.5t152 -90.5t97 -143.5t34 -191.5v-462h-1154q-19 0 -31.5 4t-20.5 16t-11.5 35.5t-3.5 62.5v53q0 30 1.5 52t8.5 35.5t20.5 20t36.5 6.5h182zM791 285v136
q0 58 -13 97t-33.5 62.5t-46.5 33.5t-51 10q-29 0 -56 -9.5t-48 -30t-33.5 -51.5t-12.5 -73q0 -36 13 -67.5t37 -55.5t58 -38t76 -14h110zM464 1327q0 36 13.5 67t36.5 54.5t54 37t66 13.5t65.5 -13.5t53.5 -37t36.5 -54.5t13.5 -67t-13.5 -67t-36.5 -54t-53.5 -36.5
t-65.5 -13.5t-66 13.5t-54 36.5t-36.5 54t-13.5 67z" />
    <glyph glyph-name="uniFED4" unicode="&#x641;" horiz-adv-x="1278" arabic-form="medial" 
d="M1121 0q-115 0 -220.5 8.5t-185.5 20.5q-59 -7 -128.5 -12t-143 -9t-147 -6t-140.5 -2h-156q-19 0 -32 4t-20.5 16t-11 35.5t-3.5 62.5v53q0 30 1.5 52t8.5 35.5t20 20t37 6.5h188q-24 51 -35 103t-11 84q0 90 37 171t106 142.5t167 97.5t220 36q123 0 211.5 -32.5
t145.5 -88.5t84 -130.5t27 -158.5q0 -26 -4 -55.5t-10 -59t-14 -57.5t-16 -52h182q24 0 37 -6.5t20 -20t8.5 -35.5t1.5 -52v-53q0 -39 -3.5 -62.5t-11 -35.5t-20.5 -16t-32 -4h-157zM492 492q0 -43 17 -81t46 -66t68 -44t83 -16h22q9 17 17.5 40t15 49t11 52.5t4.5 50.5
q0 78 -39.5 119t-99.5 41q-27 0 -53 -8.5t-46.5 -26.5t-33 -45.5t-12.5 -64.5zM478 1327q0 36 13.5 67t36.5 54.5t54 37t66 13.5t65.5 -13.5t53.5 -37t36.5 -54.5t13.5 -67t-13.5 -67t-36.5 -54t-53.5 -36.5t-65.5 -13.5t-66 13.5t-54 36.5t-36.5 54t-13.5 67z" />
    <glyph glyph-name="uniFED6" unicode="&#x642;" horiz-adv-x="1743" arabic-form="final" 
d="M1150 28q-15 -1 -30.5 -1h-30.5q-114 0 -216.5 20t-180 67.5t-123 127.5t-45.5 200q0 99 37 185t105.5 150t166 100.5t217.5 36.5q49 0 103.5 -8.5t106.5 -30.5t99 -59t83 -93.5t57 -135t21 -182.5v-120h223q24 0 37 -6.5t20 -20t8.5 -35.5t1.5 -52v-53q0 -39 -3.5 -62.5
t-11 -35.5t-20.5 -16t-32 -4h-235q-23 -143 -91 -254t-170 -187t-233 -115.5t-281 -39.5q-173 0 -309 40.5t-230.5 115.5t-144 182.5t-49.5 241.5q0 107 28 219t97 228q74 -38 146 -76t146 -76q-33 -72 -45 -137.5t-12 -119.5q0 -72 27.5 -131t78 -101t122 -65t158.5 -23
q70 0 136.5 17t121.5 55t94.5 99t55.5 150zM858 468q0 -39 12.5 -72t37.5 -58t63.5 -39t89.5 -14h98v117q0 114 -38.5 168t-110.5 54q-32 0 -59.5 -11t-48 -31.5t-32.5 -49t-12 -64.5zM629 1327q0 36 13.5 67t36.5 54.5t54 37t66 13.5t65.5 -13.5t53.5 -37t36.5 -54.5
t13.5 -67t-13.5 -67t-36.5 -54t-53.5 -36.5t-65.5 -13.5t-66 13.5t-54 36.5t-36.5 54t-13.5 67zM1040 1327q0 36 13.5 67t36.5 54.5t53.5 37t65.5 13.5t65.5 -13.5t53.5 -37t36.5 -54.5t13.5 -67t-13.5 -67t-36.5 -54t-53.5 -36.5t-65.5 -13.5t-65.5 13.5t-53.5 36.5
t-36.5 54t-13.5 67z" />
    <glyph glyph-name="uniFED7" unicode="&#x642;" horiz-adv-x="1282" arabic-form="initial" 
d="M180 285q-6 19 -12 41t-10.5 45t-7 45t-2.5 40q0 112 40.5 198.5t111 145t166 89t205.5 30.5q109 0 198 -31.5t152 -90.5t97 -143.5t34 -191.5v-462h-1154q-19 0 -31.5 4t-20.5 16t-11.5 35.5t-3.5 62.5v53q0 30 1.5 52t8.5 35.5t20.5 20t36.5 6.5h182zM791 285v136
q0 58 -13 97t-33.5 62.5t-46.5 33.5t-51 10q-29 0 -56 -9.5t-48 -30t-33.5 -51.5t-12.5 -73q0 -36 13 -67.5t37 -55.5t58 -38t76 -14h110zM299 1327q0 36 13.5 67t36.5 54.5t54 37t66 13.5t65.5 -13.5t53.5 -37t36.5 -54.5t13.5 -67t-13.5 -67t-36.5 -54t-53.5 -36.5
t-65.5 -13.5t-66 13.5t-54 36.5t-36.5 54t-13.5 67zM710 1327q0 36 13.5 67t36.5 54.5t53.5 37t65.5 13.5t65.5 -13.5t53.5 -37t36.5 -54.5t13.5 -67t-13.5 -67t-36.5 -54t-53.5 -36.5t-65.5 -13.5t-65.5 13.5t-53.5 36.5t-36.5 54t-13.5 67z" />
    <glyph glyph-name="uniFED8" unicode="&#x642;" horiz-adv-x="1178" arabic-form="medial" 
d="M204 1327q0 36 13.5 67t36.5 54.5t54 37t66 13.5t65.5 -13.5t53.5 -37t36.5 -54.5t13.5 -67t-13.5 -67t-36.5 -54t-53.5 -36.5t-65.5 -13.5t-66 13.5t-54 36.5t-36.5 54t-13.5 67zM615 1327q0 36 13.5 67t36.5 54.5t53.5 37t65.5 13.5t65.5 -13.5t53.5 -37t36.5 -54.5
t13.5 -67t-13.5 -67t-36.5 -54t-53.5 -36.5t-65.5 -13.5t-65.5 13.5t-53.5 36.5t-36.5 54t-13.5 67zM1070 0q-115 0 -220.5 8.5t-185.5 20.5q-59 -7 -128.5 -12t-143 -9t-147 -6t-140.5 -2h-156q-19 0 -32 4t-20.5 16t-11 35.5t-3.5 62.5v53q0 30 1.5 52t8.5 35.5t20 20
t37 6.5h188q-24 51 -35 103t-11 84q0 90 37 171t106 142.5t167 97.5t220 36q123 0 211.5 -32.5t145.5 -88.5t84 -130.5t27 -158.5q0 -26 -4 -55.5t-10 -59t-14 -57.5t-16 -52h182q24 0 37 -6.5t20 -20t8.5 -35.5t1.5 -52v-53q0 -39 -3.5 -62.5t-11 -35.5t-20.5 -16t-32 -4
h-157zM441 492q0 -43 17 -81t46 -66t68 -44t83 -16h22q9 17 17.5 40t15 49t11 52.5t4.5 50.5q0 78 -39.5 119t-99.5 41q-27 0 -53 -8.5t-46.5 -26.5t-33 -45.5t-12.5 -64.5z" />
    <glyph glyph-name="uniFEDA" unicode="&#x643;" horiz-adv-x="1988" arabic-form="final" 
d="M628 0q-130 0 -227.5 15t-167.5 42.5t-115 66t-71 85t-36.5 99.5t-10.5 110q0 20 2.5 50t7 65.5t10 73t12.5 71.5q81 -7 162 -14.5t162 -14.5q-10 -53 -14 -99.5t-4 -72.5q0 -50 14 -86t53.5 -59.5t109.5 -35t182 -11.5h599q63 0 92 31t29 87v1036h362v-1076v-19.5
t-1 -19.5q49 -22 102.5 -30.5t102.5 -8.5h5q24 0 37 -6.5t20 -20t8.5 -35.5t1.5 -52v-53q0 -39 -3.5 -62.5t-11 -35.5t-20.5 -16t-32 -4h-8q-70 0 -143 27t-136 77q-41 -48 -106 -76t-163 -28h-804zM1108 806q-24 8 -48 10.5t-47 2.5q-37 0 -57 -13.5t-20 -32.5
q0 -17 9.5 -28.5t25 -19t34.5 -11t38 -3.5h87v-159h-425v159h67q-22 41 -22 74q0 48 19.5 84t51 60t71.5 35.5t80 11.5q13 0 27.5 -0.5t32 -1.5t39.5 -4t51 -7z" />
    <glyph glyph-name="uniFEDB" unicode="&#x643;" horiz-adv-x="942" arabic-form="initial" 
d="M-2 0q-19 0 -32 4t-20.5 16t-11 35.5t-3.5 62.5v53q0 30 1.5 52t8.5 35.5t20 20t37 6.5h327q46 0 76 8t47 21t23.5 30t6.5 35q0 69 -102.5 158t-298.5 200l480 770l275 -171l-315 -519q71 -44 128 -94t96.5 -105t60.5 -115.5t21 -126.5q0 -77 -26.5 -145.5t-83.5 -119.5
t-146.5 -81t-215.5 -30h-353z" />
    <glyph glyph-name="uniFEDC" unicode="&#x643;" horiz-adv-x="1061" arabic-form="medial" 
d="M-3 0q-19 0 -31.5 4t-20 16t-11 35.5t-3.5 62.5v53q0 30 1.5 52t8 35.5t20 20t36.5 6.5h339q46 0 75.5 8t46.5 21t23.5 30t6.5 35q0 69 -102.5 158t-297.5 200l479 770l273 -171l-314 -519q72 -44 128.5 -94t96.5 -105t61 -115.5t21 -126.5q0 -11 -0.5 -21t-1.5 -21
q52 -27 111 -38t113 -11h5q24 0 37 -6.5t20 -20t8.5 -35.5t1.5 -52v-53q0 -39 -3.5 -62.5t-11 -35.5t-20.5 -16t-32 -4h-8q-79 0 -160.5 34t-148.5 96q-56 -59 -150.5 -94.5t-233.5 -35.5h-362z" />
    <glyph glyph-name="uniFEDE" unicode="&#x644;" horiz-adv-x="1593" arabic-form="final" 
d="M990 1440h360v-1099q54 -32 117.5 -44t120.5 -12h5q24 0 37 -6.5t20 -20t8.5 -35.5t1.5 -52v-53q0 -39 -3.5 -62.5t-11 -35.5t-20.5 -16t-32 -4h-8q-63 0 -127 21.5t-123 62.5q-23 -114 -80.5 -208.5t-145 -162.5t-203 -106t-254.5 -38q-162 0 -284 46t-203.5 124
t-123 181.5t-41.5 218.5q0 52 9 115.5t26.5 129t44 129t61.5 116.5l298 -158q-21 -33 -38 -70t-29.5 -75t-19 -75t-6.5 -68q0 -64 22 -118.5t64 -94.5t103 -63t138 -23q81 0 140.5 27t98.5 76.5t58.5 118.5t19.5 154v1180z" />
    <glyph glyph-name="uniFEDF" unicode="&#x644;" horiz-adv-x="712" arabic-form="initial" 
d="M-2 0q-19 0 -32 4t-20.5 16t-11 35.5t-3.5 62.5v53q0 30 1.5 52t8.5 35.5t20 20t37 6.5h202v1155h362v-1440h-564z" />
    <glyph glyph-name="uniFEE0" unicode="&#x644;" horiz-adv-x="817" arabic-form="medial" 
d="M577 1440v-358.5v-270.5v-194v-131v-81t-0.5 -43t-0.5 -17.5v-4.5q54 -31 116.5 -43t119.5 -12h5q24 0 37 -6.5t20 -20t8.5 -35.5t1.5 -52v-53q0 -39 -3.5 -62.5t-11 -35.5t-20.5 -16t-32 -4h-8q-76 0 -155 32t-145 90q-40 -55 -107.5 -88.5t-171.5 -33.5h-232
q-19 0 -32 4t-20.5 16t-11 35.5t-3.5 62.5v53q0 30 1.5 52t8.5 35.5t20 20t37 6.5h140q42 0 59.5 20t17.5 76v1059h362z" />
    <glyph glyph-name="uniFEE2" unicode="&#x645;" horiz-adv-x="1557" arabic-form="final" 
d="M914 -11q-68 0 -127.5 10.5t-110 27.5t-92 38.5t-73.5 44.5q-30 -7 -57.5 -22t-49.5 -40.5t-35 -63.5t-13 -92q0 -48 8.5 -109t26 -131.5t43 -149.5t60.5 -161l-340 -106q-29 81 -57 174t-49.5 181.5t-34.5 165.5t-13 127q0 80 16 144t42.5 115t62 90t75 68.5t80.5 51.5
t79 38q34 105 76.5 183t90.5 134.5t99 93t101 57.5t97 29.5t87 8.5q81 0 148.5 -20t120.5 -55t92 -81t65 -97.5t38.5 -106.5t12.5 -106q0 -57 -15 -114q45 -17 92.5 -24t91.5 -7h5q24 0 37 -6.5t20 -20t8.5 -35.5t1.5 -52v-53q0 -39 -3.5 -62.5t-11 -35.5t-20.5 -16t-32 -4
h-8q-75 0 -152 30.5t-142 86.5q-58 -57 -142 -92.5t-199 -35.5zM1061 438q0 32 -11 62t-32 53t-52 37t-70 14q-74 0 -136 -62t-104 -202q22 -13 50 -24.5t57.5 -20.5t59 -14t54.5 -5q39 0 72.5 8.5t58.5 27.5t39 50t14 76z" />
    <glyph glyph-name="uniFEE3" unicode="&#x645;" horiz-adv-x="1315" arabic-form="initial" 
d="M328 110q-49 -51 -112.5 -80.5t-148.5 -29.5h-69q-19 0 -31.5 4t-20.5 16t-11.5 35.5t-3.5 62.5v53q0 30 1.5 52t8.5 35.5t20 20t37 6.5h56q30 0 50.5 9t35 24t23.5 34t16 40q48 148 117.5 245.5t145.5 155t151.5 80.5t134.5 23q81 0 148 -20t120 -55t92.5 -81t65 -97.5
t38.5 -106.5t13 -106q0 -77 -28 -155.5t-85.5 -142t-146 -103.5t-209.5 -40q-68 0 -127 10.5t-109.5 27t-92 38t-72.5 44.5zM880 438q0 32 -11 62t-32 53t-52 37t-70 14q-74 0 -136 -62t-104 -202q22 -13 50 -24.5t57.5 -20.5t59 -14t54.5 -5q39 0 72.5 8.5t58.5 27.5t39 50
t14 76z" />
    <glyph glyph-name="uniFEE4" unicode="&#x645;" horiz-adv-x="1424" arabic-form="medial" 
d="M328 110q-49 -51 -112.5 -80.5t-148.5 -29.5h-69q-19 0 -31.5 4t-20.5 16t-11.5 35.5t-3.5 62.5v53q0 30 1.5 52t8.5 35.5t20 20t37 6.5h56q30 0 50.5 9t35 24t23.5 34t16 40q48 148 117.5 245.5t145.5 155t151.5 80.5t134.5 23q81 0 148 -20t120 -55t92.5 -81t65 -97.5
t38.5 -106.5t13 -106q0 -46 -11 -96q53 -27 112 -38t113 -11h5q24 0 37 -6.5t20 -20t8.5 -35.5t1.5 -52v-53q0 -39 -3.5 -62.5t-11 -35.5t-20.5 -16t-32 -4h-8q-41 0 -83 9.5t-83 27.5t-79.5 43.5t-72.5 58.5q-58 -66 -147.5 -108t-214.5 -42q-68 0 -127 10.5t-109.5 27
t-92 38t-72.5 44.5zM880 438q0 32 -11 62t-32 53t-52 37t-70 14q-74 0 -136 -62t-104 -202q22 -13 50 -24.5t57.5 -20.5t59 -14t54.5 -5q39 0 72.5 8.5t58.5 27.5t39 50t14 76z" />
    <glyph glyph-name="uniFEE6" unicode="&#x646;" horiz-adv-x="1596" arabic-form="final" 
d="M1014 236q0 26 -6.5 68t-18.5 91.5t-30 103.5t-42 105l352 94q14 -39 28.5 -84t28 -92.5t24 -95.5t17.5 -92q52 -27 111 -38t113 -11h5q24 0 37 -6.5t20 -20t8.5 -35.5t1.5 -52v-53q0 -39 -3.5 -62.5t-11 -35.5t-20.5 -16t-32 -4h-8q-57 0 -116 18t-114 52
q-24 -110 -80.5 -200t-142 -154.5t-198.5 -100t-251 -35.5q-178 0 -307.5 47.5t-213.5 127.5t-124.5 185t-40.5 220q0 52 13 112t35.5 121.5t52.5 122t64 113.5l298 -158q-22 -34 -39 -71t-29 -74.5t-18 -74t-6 -68.5q0 -64 23.5 -118.5t67.5 -94.5t107 -63t143 -23
q149 0 225.5 91t76.5 261zM524 1106q0 36 13.5 67t36.5 54.5t54 37t66 13.5t65.5 -13.5t53.5 -37t36.5 -54.5t13.5 -67t-13.5 -67t-36.5 -54t-53.5 -36.5t-65.5 -13.5t-66 13.5t-54 36.5t-36.5 54t-13.5 67z" />
    <glyph glyph-name="uniFEE7" unicode="&#x646;" horiz-adv-x="731" arabic-form="initial" 
d="M-2 0q-19 0 -32 4t-20.5 16t-11 35.5t-3.5 62.5v53q0 30 1.5 52t8.5 35.5t20 20t37 6.5h221v595h362v-880h-583zM238 1327q0 36 13.5 67t36.5 54.5t54 37t66 13.5t65.5 -13.5t53.5 -37t36.5 -54.5t13.5 -67t-13.5 -67t-36.5 -54t-53.5 -36.5t-65.5 -13.5t-66 13.5
t-54 36.5t-36.5 54t-13.5 67z" />
    <glyph glyph-name="uniFEE8" unicode="&#x646;" horiz-adv-x="817" arabic-form="medial" 
d="M577 363v-12t-1 -11q54 -31 116.5 -43t119.5 -12h5q24 0 37 -6.5t20 -20t8.5 -35.5t1.5 -52v-53q0 -39 -3.5 -62.5t-11 -35.5t-20.5 -16t-32 -4h-8q-76 0 -155 32t-145 90q-40 -55 -107.5 -88.5t-171.5 -33.5h-232q-19 0 -32 4t-20.5 16t-11 35.5t-3.5 62.5v53
q0 30 1.5 52t8.5 35.5t20 20t37 6.5h140q42 0 59.5 20t17.5 76v499h362v-517zM234 1327q0 36 13.5 67t36.5 54.5t54 37t66 13.5t65.5 -13.5t53.5 -37t36.5 -54.5t13.5 -67t-13.5 -67t-36.5 -54t-53.5 -36.5t-65.5 -13.5t-66 13.5t-54 36.5t-36.5 54t-13.5 67z" />
    <glyph glyph-name="uniFEE9" unicode="&#x647;" horiz-adv-x="1642" arabic-form="isolated" 
d="M779 285q10 19 18 43t12.5 50.5t7 53.5t2.5 52q0 45 -8.5 87.5t-25 75t-41.5 52.5t-58 20q-35 0 -60 -17.5t-41.5 -47t-24.5 -67t-8 -77.5q0 -31 4.5 -64t13 -63.5t21 -56t28.5 -41.5h160zM1195 285q5 15 6 35t1 32q0 47 -13.5 91t-43.5 82.5t-79 69.5t-119 52
q20 -32 31.5 -75t17.5 -91t7.5 -98.5t1.5 -97.5h190zM72 -190q-30 54 -51 117.5t-21 123.5q0 73 24.5 119t66.5 71.5t97 34.5t117 9h12q-8 22 -14 46t-10 46.5t-6 43.5t-2 37q0 82 36.5 167t96.5 157l-62 13q16 43 33 77.5t36.5 64.5t41.5 57.5t49 54.5q262 -50 450 -110.5
t309.5 -143.5t179 -194t57.5 -262q0 -5 -0.5 -23.5t-2 -57.5t-4 -102t-6.5 -156h-1169q-30 0 -48 -13.5t-27 -38.5t-12.5 -60t-5.5 -78h-165z" />
    <glyph glyph-name="uniFEEA" unicode="&#x647;" horiz-adv-x="1205" arabic-form="final" 
d="M633 638q-65 -17 -117.5 -37.5t-89 -45.5t-56.5 -55t-20 -66q0 -43 35 -68t92 -25q41 0 80.5 8.5t74.5 24.5zM992 361q0 -22 2 -36.5t7.5 -23.5t15 -12.5t25.5 -3.5h163q23 0 36.5 -6.5t20 -20t8 -35.5t1.5 -52v-53q0 -39 -3.5 -62.5t-11 -35.5t-20 -16t-31.5 -4h-209
q-66 0 -117 8t-88.5 22t-64.5 34.5t-45 46.5q-63 -23 -121 -34t-118 -11q-77 0 -155.5 20.5t-142.5 63.5t-104 110.5t-40 161.5q0 77 29 139.5t77.5 113.5t112.5 90.5t134 69.5t142 52t136 37q0 29 1 59.5t1 60.5h359v-683z" />
    <glyph glyph-name="uniFEEB" unicode="&#x647;" horiz-adv-x="1530" arabic-form="initial" 
d="M-2 0q-19 0 -32 4t-20.5 16t-11 35.5t-3.5 62.5v53q0 30 1.5 52t8.5 35.5t20 20t37 6.5h207q-8 22 -14 46t-10 46.5t-6 43.5t-2 37q0 82 36.5 167t96.5 157l-62 13q16 43 33 77.5t36.5 64.5t41.5 57.5t49 54.5q262 -50 450 -110.5t309.5 -143.5t179 -194t57.5 -262
q0 -5 -0.5 -23.5t-2 -57.5t-4 -102t-6.5 -156h-1389zM556 719q-35 0 -60 -17.5t-41.5 -47t-24.5 -67t-8 -77.5q0 -31 4.5 -64t13 -63.5t21 -56t28.5 -41.5h160q10 19 18 43t12.5 50.5t7 53.5t2.5 52q0 45 -8.5 87.5t-25 75t-41.5 52.5t-58 20zM1087 289q2 12 2.5 31.5
t0.5 31.5q0 47 -13.5 91t-43.5 82.5t-79 69.5t-119 52q20 -32 31.5 -75t17.5 -91t7.5 -98.5t1.5 -97.5h190z" />
    <glyph glyph-name="uniFEEC" unicode="&#x647;" horiz-adv-x="1325" arabic-form="medial" 
d="M1391 118q0 -39 -3.5 -62.5t-11 -35.5t-20 -16t-31.5 -4h-278q23 -42 39 -90.5t16 -99.5q0 -93 -37.5 -166t-96 -123t-129 -76t-136.5 -26q-47 0 -101 13t-108.5 41t-106.5 73t-94 110t-71.5 150t-39.5 194h-184q-19 0 -32 4t-20.5 16t-11 35.5t-3.5 62.5v53q0 30 1.5 52
t8.5 35.5t20 20t37 6.5h197q26 111 66 200t88 158t101.5 118t106.5 80.5t103 46.5t92 15q77 0 143.5 -37t116 -96.5t77.5 -135t28 -151.5q0 -47 -13.5 -100.5t-36.5 -97.5h258q23 0 36.5 -6.5t20 -20t8 -35.5t1.5 -52v-53zM670 285q33 0 60 13.5t46.5 36t30 51.5t10.5 61
q0 29 -8 56.5t-22 49t-33 34.5t-40 13q-32 0 -63.5 -27t-59.5 -71.5t-51 -101t-38 -115.5h168zM502 0q10 -72 31.5 -126t49 -89.5t58 -53t57.5 -17.5q22 0 41 9.5t32.5 25t21 36t7.5 43.5q0 33 -10 64t-28 55t-43.5 38.5t-56.5 14.5h-160z" />
    <glyph glyph-name="uniFEEE" unicode="&#x648;" horiz-adv-x="1290" arabic-form="final" 
d="M208 -126q93 4 168 13.5t135 27.5t106 45.5t81 66.5q-27 -3 -54 -4.5t-49 -1.5q-94 0 -184.5 23.5t-162 74t-115 130.5t-43.5 193q0 99 37 185t106 150t166.5 100.5t217.5 36.5q49 0 103.5 -8.5t106.5 -30.5t99 -59t83 -93.5t57 -135t21 -182.5v-120h203q24 0 37 -6.5
t20 -20t8.5 -35.5t1.5 -52v-53q0 -39 -3.5 -62.5t-11 -35.5t-20.5 -16t-32 -4h-242q-39 -107 -113.5 -181.5t-178.5 -124t-234 -78t-279 -41.5zM426 468q0 -39 12.5 -72t37.5 -58t63.5 -39t89.5 -14h103v117q0 114 -41.5 168t-113.5 54q-32 0 -59.5 -11t-47.5 -31.5t-32 -49
t-12 -64.5z" />
    <glyph glyph-name="uniFEF0" unicode="&#x649;" horiz-adv-x="2260" arabic-form="final" 
d="M1131 429q0 227 134 339.5t397 112.5h384v-479q0 -63 30.5 -90t81.5 -27h102q23 0 36.5 -6.5t20 -20t8 -35.5t1.5 -52v-53q0 -39 -3.5 -62.5t-11 -35.5t-20 -16t-31.5 -4h-223q-66 0 -129 17.5t-112.5 58t-79.5 107t-30 163.5v241h-50q-67 0 -105.5 -40.5t-38.5 -137.5
v-289q0 -103 -48.5 -201t-140.5 -174.5t-225 -123t-302 -46.5q-158 0 -277.5 30t-205.5 78.5t-142.5 110.5t-90 126.5t-47 126t-13.5 108.5q0 58 14 119t38 120t57.5 114.5t72.5 103.5l292 -151q-25 -33 -45.5 -71t-35.5 -76.5t-23 -75.5t-8 -68q0 -28 6.5 -60t23.5 -64.5
t46.5 -62.5t75.5 -53t110.5 -37t151.5 -14q84 0 149.5 18.5t111.5 51.5t70 78t24 98v304z" />
    <glyph glyph-name="uniFEF2" unicode="&#x64a;" horiz-adv-x="2260" arabic-form="final" 
d="M1131 429q0 227 134 339.5t397 112.5h384v-479q0 -63 30.5 -90t81.5 -27h102q23 0 36.5 -6.5t20 -20t8 -35.5t1.5 -52v-53q0 -39 -3.5 -62.5t-11 -35.5t-20 -16t-31.5 -4h-223q-66 0 -129 17.5t-112.5 58t-79.5 107t-30 163.5v241h-50q-67 0 -105.5 -40.5t-38.5 -137.5
v-289q0 -103 -48.5 -201t-140.5 -174.5t-225 -123t-302 -46.5q-158 0 -277.5 30t-205.5 78.5t-142.5 110.5t-90 126.5t-47 126t-13.5 108.5q0 58 14 119t38 120t57.5 114.5t72.5 103.5l292 -151q-25 -33 -45.5 -71t-35.5 -76.5t-23 -75.5t-8 -68q0 -28 6.5 -60t23.5 -64.5
t46.5 -62.5t75.5 -53t110.5 -37t151.5 -14q84 0 149.5 18.5t111.5 51.5t70 78t24 98v304zM392 -799q0 36 13.5 67t36.5 54.5t54 37t66 13.5t65.5 -13.5t53.5 -37t36.5 -54.5t13.5 -67t-13.5 -67t-36.5 -54t-53.5 -36.5t-65.5 -13.5t-66 13.5t-54 36.5t-36.5 54t-13.5 67z
M803 -799q0 36 13.5 67t36.5 54.5t53.5 37t65.5 13.5t65.5 -13.5t53.5 -37t36.5 -54.5t13.5 -67t-13.5 -67t-36.5 -54t-53.5 -36.5t-65.5 -13.5t-65.5 13.5t-53.5 36.5t-36.5 54t-13.5 67z" />
    <glyph glyph-name="uniFEF3" unicode="&#x64a;" horiz-adv-x="819" arabic-form="initial" 
d="M-2 0q-19 0 -32 4t-20.5 16t-11 35.5t-3.5 62.5v53q0 30 1.5 52t8.5 35.5t20 20t37 6.5h308v595h362v-880h-670zM56 -371q0 36 13.5 67t36.5 54.5t54 37t66 13.5t65.5 -13.5t53.5 -37t36.5 -54.5t13.5 -67t-13.5 -67t-36.5 -54t-53.5 -36.5t-65.5 -13.5t-66 13.5
t-54 36.5t-36.5 54t-13.5 67zM467 -371q0 36 13.5 67t36.5 54.5t53.5 37t65.5 13.5t65.5 -13.5t53.5 -37t36.5 -54.5t13.5 -67t-13.5 -67t-36.5 -54t-53.5 -36.5t-65.5 -13.5t-65.5 13.5t-53.5 36.5t-36.5 54t-13.5 67z" />
    <glyph glyph-name="uniFEF4" unicode="&#x64a;" horiz-adv-x="817" arabic-form="medial" 
d="M577 363v-12t-1 -11q54 -31 116.5 -43t119.5 -12h5q24 0 37 -6.5t20 -20t8.5 -35.5t1.5 -52v-53q0 -39 -3.5 -62.5t-11 -35.5t-20.5 -16t-32 -4h-8q-76 0 -155 32t-145 90q-40 -55 -107.5 -88.5t-171.5 -33.5h-232q-19 0 -32 4t-20.5 16t-11 35.5t-3.5 62.5v53
q0 30 1.5 52t8.5 35.5t20 20t37 6.5h140q42 0 59.5 20t17.5 76v499h362v-517zM-15 -371q0 36 13.5 67t36.5 54.5t54 37t66 13.5t65.5 -13.5t53.5 -37t36.5 -54.5t13.5 -67t-13.5 -67t-36.5 -54t-53.5 -36.5t-65.5 -13.5t-66 13.5t-54 36.5t-36.5 54t-13.5 67zM396 -371
q0 36 13.5 67t36.5 54.5t53.5 37t65.5 13.5t65.5 -13.5t53.5 -37t36.5 -54.5t13.5 -67t-13.5 -67t-36.5 -54t-53.5 -36.5t-65.5 -13.5t-65.5 13.5t-53.5 36.5t-36.5 54t-13.5 67z" />
    <glyph glyph-name=".notdef" horiz-adv-x="1021" 
d="M443 234v133h111v-133h-111zM449 466l-4 34q0 109 25 162q28 53 93 118q64 63 80 94q19 34 19 71q0 72 -45 120q-45 50 -107 50q-31 0 -58 -10.5t-48.5 -33.5t-36 -59t-20.5 -87l-100 16q13 141 88 207t181 66q105 0 176 -72q71 -71 71 -189q0 -62 -25 -117
q-26 -54 -100 -122q-73 -65 -86 -104q-12 -38 -12 -144h-91zM921 99v1231h-822v-1231h822zM1021 1431v-1431h-1021v1431h1021z" />
    <glyph glyph-name=".null" horiz-adv-x="1024" 
 />
    <glyph glyph-name=".null" horiz-adv-x="1024" 
 />
    <glyph glyph-name="nonmarkingreturn" unicode="&#xd;" horiz-adv-x="0" 
 />
    <glyph glyph-name="space" unicode=" " horiz-adv-x="627" 
 />
    <glyph glyph-name="space" unicode="&#xa0;" horiz-adv-x="627" 
 />
    <glyph glyph-name="exclam" unicode="!" horiz-adv-x="909" 
d="M283 332h344v-332h-344v332zM592 485h-275l-53 945h381z" />
    <glyph glyph-name="quotedbl" unicode="&#x22;" 
d="M291 1430h270v-556h-270v556zM690 1430h271v-556h-271v556z" />
    <glyph glyph-name="numbersign" unicode="#" horiz-adv-x="1253" 
d="M748 829h-179l-30 -225h178zM119 604h203l30 225h-172v222h203l53 379h217l-53 -379h178l51 379h215l-51 -379h142v-222h-172l-31 -225h141v-221h-172l-53 -383h-215l53 383h-178l-53 -383h-217l53 383h-172v221z" />
    <glyph glyph-name="dollar" unicode="$" horiz-adv-x="1253" 
d="M668 246q41 4 74 15.5t56 32.5t35.5 52.5t12.5 75.5q0 38 -16.5 64t-42 43.5t-57.5 27.5t-62 16v-327zM571 1196q-68 -4 -115 -42q-46 -37 -46 -97q0 -69 48 -103q47 -34 113 -43v285zM545 592q-86 12 -170 44.5t-150 86t-106.5 128.5t-40.5 173q0 110 39 189.5
t106 131.5t157 78.5t191 30.5v174h123v-174q97 0 202 -15q105 -14 177 -48l-24 -277q-35 17 -77 32t-92 26q-98 24 -186 24v-309q99 -23 186 -51.5t153 -81.5q67 -52 106 -132.5t39 -203.5q0 -75 -20.5 -136.5t-56.5 -110.5t-84.5 -85t-105 -60.5t-119 -37t-124.5 -13.5
v-176h-123v176q-49 0 -108.5 3.5t-117.5 10.5t-108 17t-80 23l27 290q97 -38 195 -55.5t192 -17.5v346z" />
    <glyph glyph-name="percent" unicode="%" horiz-adv-x="2048" 
d="M356 1030q0 -39 2 -81t11.5 -77.5t30 -58t57.5 -22.5t57.5 22.5t30 58t11 77.5t1.5 81q0 38 -1.5 80.5t-11 78t-30 58.5t-57.5 23t-57.5 -23t-30 -58.5t-11.5 -78t-2 -80.5zM98 1030q0 89 18.5 166.5t60.5 134.5t110.5 90t169.5 33q100 0 168.5 -33t110.5 -90
t60.5 -134.5t18.5 -166.5q0 -92 -18.5 -170t-60.5 -134.5t-110.5 -88t-168.5 -31.5q-101 0 -169.5 31.5t-110.5 88t-60.5 134.5t-18.5 170zM1300 1475h224l-781 -1520h-225zM1491 399q0 -39 1.5 -81t11 -77.5t30 -58t57.5 -22.5t57.5 22.5t30 58t11.5 77.5t2 81
q0 38 -2 80.5t-11.5 78t-30 58.5t-57.5 23t-57.5 -23t-30 -58.5t-11 -78t-1.5 -80.5zM1233 399q0 89 18.5 166.5t60.5 134.5t110.5 90t168.5 33t169 -33t111 -90t60.5 -134.5t18.5 -166.5q0 -92 -18.5 -169.5t-60.5 -134t-111 -88.5t-169 -32t-168.5 32t-110.5 88.5
t-60.5 134t-18.5 169.5z" />
    <glyph glyph-name="ampersand" unicode="&#x26;" horiz-adv-x="1593" 
d="M526 1094q0 -31 13.5 -59t34 -52.5t44.5 -45t46 -36.5q26 14 56.5 33t56.5 43t43.5 53.5t17.5 63.5q0 63 -48 95q-47 32 -112 32q-66 0 -109 -37t-43 -90zM438 418q0 -46 20 -82.5t52.5 -62t73.5 -39t84 -13.5q65 0 114 18.5t103 59.5q-78 87 -157 163.5t-161 151.5
q-30 -16 -53.5 -34t-40.5 -41t-26 -52.5t-9 -68.5zM1534 772q-6 -138 -62.5 -264t-156.5 -225l254 -283h-408q-22 29 -42.5 56.5t-43.5 52.5q-92 -80 -210 -107q-117 -27 -234 -27q-69 0 -135.5 11.5t-126.5 35.5t-111 60t-88.5 84t-58.5 109t-21 135q0 149 74 238
q75 90 207 151q-87 67 -129.5 143t-42.5 170t42.5 159.5t111 106t153 58.5t168.5 18q94 0 183 -17.5t158.5 -58.5t111.5 -108.5t42 -167.5q0 -68 -26.5 -120.5t-69.5 -95t-98 -77.5t-113 -68q63 -55 124 -111.5t122 -115.5q49 54 69.5 121t24.5 137h332z" />
    <glyph glyph-name="quotesingle" unicode="'" horiz-adv-x="682" 
d="M207 1430h270v-556h-270v556z" />
    <glyph glyph-name="parenleft" unicode="(" horiz-adv-x="797" 
d="M768 1548q-68 -105 -122.5 -214.5t-92.5 -223.5t-59 -233.5t-21 -245.5q0 -249 78 -478q39 -115 89.5 -224.5t113.5 -215.5h-291q-152 205 -237 433.5t-85 484.5q0 251 92 482q93 229 234 435h301z" />
    <glyph glyph-name="parenright" unicode=")" horiz-adv-x="797" 
d="M29 -287q67 105 120 214.5t94 224.5q81 231 81 479t-81 479q-82 233 -214 438h301q76 -99 136.5 -207t102.5 -223.5t64 -237.5t22 -249q0 -251 -92 -483q-91 -228 -233 -435h-301z" />
    <glyph glyph-name="asterisk" unicode="*" 
d="M487 973l-290 55l77 238l273 -136l-43 300h250l-41 -295l266 131l76 -240l-295 -51l209 -211l-207 -150l-137 265l-148 -263l-201 146z" />
    <glyph glyph-name="plus" unicode="+" horiz-adv-x="1229" 
d="M96 647h389v389h258v-389h390v-258h-390v-389h-258v389h-389v258z" />
    <glyph glyph-name="comma" unicode="," horiz-adv-x="724" 
d="M190 332h344l-200 -555h-281z" />
    <glyph glyph-name="hyphen" unicode="-" horiz-adv-x="682" 
d="M63 686h555v-270h-555v270z" />
    <glyph glyph-name="hyphen" unicode="&#x2010;" horiz-adv-x="682" 
d="M63 686h555v-270h-555v270z" />
    <glyph glyph-name="hyphen" unicode="&#xad;" horiz-adv-x="682" 
d="M63 686h555v-270h-555v270z" />
    <glyph glyph-name="period" unicode="." horiz-adv-x="724" 
d="M190 332h344v-332h-344v332z" />
    <glyph glyph-name="slash" unicode="/" horiz-adv-x="569" 
d="M354 1454h258l-397 -1479h-258z" />
    <glyph glyph-name="zero" unicode="0" horiz-adv-x="1253" 
d="M627 233q43 0 73.5 20t51 54.5t32.5 81.5t18.5 100.5t8.5 111t2 114.5q0 85 -5 171t-24 155t-56 112t-101 43q-44 0 -74.5 -20t-51 -54.5t-32.5 -81t-18 -100t-8 -111t-3 -114.5q1 -56 3 -114t8 -111.5t18 -100.5t32.5 -81.5t51 -54.5t74.5 -20zM627 -25q-178 0 -287 63
q-110 65 -168 167q-59 105 -80 237q-10 67 -15 135t-5 138t5 137.5t15 134.5q21 131 80 236q59 104 168 167q109 64 287 64q179 0 286 -64q109 -63 168 -167q61 -105 80 -236q21 -134 21 -272q0 -140 -21 -273q-19 -132 -80 -237q-58 -102 -168 -167q-108 -63 -286 -63z" />
    <glyph glyph-name="one" unicode="1" horiz-adv-x="1253" 
d="M573 1049l-270 -193l-170 258l485 316h336v-1430h-381v1049z" />
    <glyph glyph-name="two" unicode="2" horiz-adv-x="1253" 
d="M86 272q54 48 110 96t110.5 96t105.5 95.5t96 94.5t82.5 92t65 87.5t42.5 82t15 75.5q0 96 -59 138t-144 42q-47 0 -99 -8t-102 -21.5t-95.5 -31.5t-78.5 -37l-14 297q153 56 256 69q103 15 168 15q119 0 220 -25.5t174 -78t114 -131.5t41 -185q0 -102 -50 -207
q-25 -51 -54.5 -98.5t-64.5 -92.5t-70.5 -85t-72.5 -77q-73 -73 -125 -116l-102 -88h565v-270h-1034v272z" />
    <glyph glyph-name="three" unicode="3" horiz-adv-x="1253" 
d="M129 1395q98 28 197.5 43.5t218.5 15.5q67 0 134.5 -7.5t130 -25t116.5 -46.5t94 -72.5t63 -102.5t23 -137q0 -62 -18.5 -112.5t-53 -89.5t-82.5 -67t-108 -44v-5q64 -13 116.5 -40t90 -68t57.5 -95.5t20 -121.5q0 -133 -58 -218q-57 -84 -150 -137q-90 -50 -202 -70
t-214 -20q-121 0 -230.5 10.5t-187.5 39.5l18 301q70 -41 161 -54.5t194 -13.5q43 0 93 7.5t93.5 28t72.5 55.5t30 91q0 37 -13 63.5t-34.5 45t-49.5 29t-57 16.5t-57 8t-50 2q-48 0 -86.5 -1t-72.5 -3v254q25 -2 46 -3t40 -1h78q33 0 73.5 8t76 26.5t59.5 49t24 74.5
q0 51 -22.5 83t-57.5 49.5t-79 24t-87 6.5q-97 0 -183 -14t-149 -43z" />
    <glyph glyph-name="four" unicode="4" horiz-adv-x="1253" 
d="M680 1135h-4l-389 -605h393v605zM655 272h-639v303l574 855h422v-900h202v-258h-202v-272h-357v272z" />
    <glyph glyph-name="five" unicode="5" horiz-adv-x="1253" 
d="M164 1430h932v-259h-604v-237q40 4 67 6t45 2q109 0 208 -24.5t174.5 -78t120 -137.5t44.5 -202q0 -99 -24.5 -177t-68 -136t-103 -98.5t-129 -66t-147.5 -36.5t-157 -11q-106 0 -200.5 14.5t-182.5 37.5l6 309q82 -42 168.5 -60t180.5 -18q52 0 103.5 10.5t92.5 36.5
t66.5 70t25.5 112q0 60 -28.5 100t-73.5 64.5t-101.5 34.5t-113.5 10q-78 0 -155.5 -7t-155.5 -27z" />
    <glyph glyph-name="six" unicode="6" horiz-adv-x="1253" 
d="M444 440q0 -87 47 -154q48 -65 140 -65q89 0 136 59q46 59 46 144q0 45 -10 86t-31.5 72.5t-56.5 50t-84 18.5q-47 0 -82 -17.5t-58.5 -47t-35 -67.5t-11.5 -79zM1063 1108q-48 31 -122 53.5t-179 22.5q-95 0 -159 -30t-103 -85t-55.5 -132.5t-16.5 -172.5h4
q51 72 125.5 108.5t183.5 36.5q99 0 178 -34.5t134.5 -95t85.5 -142.5t30 -178q0 -99 -39.5 -187t-110.5 -154t-169.5 -104.5t-216.5 -38.5q-153 0 -258 55.5t-169.5 149t-93 216.5t-28.5 257q0 109 13.5 211t44 191t79.5 162.5t119 126t163 81.5t212 29q111 0 200 -16.5
t170 -48.5z" />
    <glyph glyph-name="seven" unicode="7" horiz-adv-x="1253" 
d="M741 1159h-639v271h1028v-310l-512 -1120h-409z" />
    <glyph glyph-name="eight" unicode="8" horiz-adv-x="1253" 
d="M436 412q0 -78 54 -129q56 -50 131 -50q81 0 138 48q58 49 58 137q0 48 -20 82t-51 58t-69.5 40t-74.5 27q-70 -33 -118 -81t-48 -132zM449 1040q0 -40 15.5 -69t40.5 -51t57 -38t65 -30q75 43 118 88q43 44 43 117q0 39 -15 67.5t-39.5 47t-55.5 27.5t-62 9
q-68 0 -118 -47q-49 -46 -49 -121zM350 737q-50 17 -94.5 47t-78 69.5t-53.5 87t-20 101.5q0 115 44 194t118.5 127.5t171.5 69.5t203 21t196.5 -21.5t156 -66.5t102.5 -114.5t37 -164.5q0 -66 -19 -118.5t-51.5 -93t-75.5 -69t-90 -46.5v-4q58 -18 110.5 -45.5t92 -69
t63 -100t23.5 -138.5q0 -115 -46 -196t-123 -132.5t-178.5 -75.5t-213.5 -24q-115 0 -216.5 22.5t-177 71.5t-119.5 126.5t-44 187.5q0 78 22.5 136.5t61 101t90 70.5t108.5 44v2z" />
    <glyph glyph-name="nine" unicode="9" horiz-adv-x="1253" 
d="M809 989q0 88 -47 153q-47 66 -139 66q-90 0 -137 -59q-46 -58 -46 -143q0 -45 10 -86.5t32 -73t56.5 -50t84.5 -18.5q46 0 81 17t58.5 46.5t35 67.5t11.5 80zM190 322q48 -31 122 -53.5t180 -22.5q94 0 158 30t103 85t55.5 132.5t16.5 172.5h-4q-51 -72 -125.5 -109
t-183.5 -37q-98 0 -177.5 34.5t-135 95.5t-85.5 143t-30 178q0 99 39.5 186.5t110.5 153.5t169.5 104.5t217.5 38.5q153 0 257.5 -55.5t169 -149t93 -216.5t28.5 -257q0 -82 -7.5 -160.5t-24 -150.5t-42.5 -136.5t-63 -118.5t-85.5 -97.5t-109.5 -74t-135 -47t-163 -16.5
q-111 0 -200 16.5t-171 49.5z" />
    <glyph glyph-name="colon" unicode=":" horiz-adv-x="724" 
d="M190 332h344v-332h-344v332zM190 1067h344v-332h-344v332z" />
    <glyph glyph-name="semicolon" unicode=";" horiz-adv-x="724" 
d="M190 1067h344v-332h-344v332zM190 332h344l-200 -555h-281z" />
    <glyph glyph-name="less" unicode="&#x3c;" horiz-adv-x="1229" 
d="M1133 803l-699 -285l699 -285v-249l-1037 426v217l1037 426v-250z" />
    <glyph glyph-name="equal" unicode="=" horiz-adv-x="1229" 
d="M96 412h1037v-258h-1037v258zM96 883h1037v-258h-1037v258z" />
    <glyph glyph-name="greater" unicode="&#x3e;" horiz-adv-x="1229" 
d="M96 233l699 285l-699 285v250l1037 -426v-217l-1037 -426v249z" />
    <glyph glyph-name="question" unicode="?" horiz-adv-x="1139" 
d="M401 332h344v-332h-344v332zM133 1395q106 32 212.5 45.5t217.5 13.5q56 0 114.5 -7.5t113.5 -24.5t103.5 -44t85 -65.5t57 -88.5t20.5 -114q0 -69 -23.5 -123.5t-58.5 -101t-77 -89.5t-79 -89.5t-64 -100t-32 -121.5h-299q0 98 41 171q20 37 43 70t48 64t48 61t43 59
q41 59 41 126q0 39 -21 67t-54 46t-73 26.5t-77 8.5q-173 0 -322 -76z" />
    <glyph glyph-name="at" unicode="@" horiz-adv-x="1638" 
d="M1464 281q-109 -151 -258.5 -228.5t-337.5 -77.5q-168 0 -313 55.5t-251.5 154t-167 234t-60.5 296.5q0 105 26.5 200.5t75 177.5t118 149t156.5 114t188.5 72.5t215.5 25.5q95 0 184 -19t167.5 -55t144 -88t112.5 -118.5t73 -146.5t26 -171q0 -114 -31 -200.5
t-79.5 -150t-108 -106t-117.5 -68t-108 -36t-79 -10.5q-41 0 -71.5 24.5t-32.5 75.5h-4q-18 -21 -41.5 -39t-50 -31.5t-56 -21.5t-59.5 -8q-63 0 -120.5 29.5t-100.5 82t-68.5 125t-25.5 158.5q0 80 27.5 154.5t78.5 131.5t122.5 91.5t160.5 34.5q75 0 137.5 -28t107.5 -89
l19 96h192l-69 -428q-8 -42 -14.5 -69t-6.5 -44q0 -16 5.5 -27t21.5 -11q29 0 59.5 17t55.5 53t41.5 93t17.5 138q2 221 -125 342q-128 122 -401 122q-121 0 -219 -40.5t-167.5 -113.5t-107 -173t-37.5 -219q0 -131 40.5 -231.5t113.5 -169t175.5 -103.5t225.5 -35
q130 0 227.5 30.5t163.5 78.5h209zM803 481q90 0 140 62q50 64 50 162q0 84 -46 136q-47 54 -124 54q-45 0 -80.5 -18.5t-60.5 -49t-38 -69.5t-13 -80q0 -85 43 -141q44 -56 129 -56z" />
    <glyph glyph-name="A" unicode="A" horiz-adv-x="1593" 
d="M793 1135h-5l-184 -560h359zM559 1430h467l551 -1430h-418l-106 305h-537l-113 -305h-387z" />
    <glyph glyph-name="B" unicode="B" horiz-adv-x="1366" 
d="M504 864h106q47 0 92.5 6.5t81.5 24t58 47t22 74.5q0 49 -21 77.5t-56 43t-80 18.5t-93 4h-110v-295zM504 270h112q52 0 103 5.5t91.5 22.5t65.5 50t25 88q0 58 -25.5 92t-65.5 51.5t-90 22t-99 4.5h-117v-336zM123 1430h657q101 0 186 -22.5t147 -67.5t97 -113t35 -160
q0 -68 -16.5 -120.5t-49 -93t-79.5 -70t-107 -50.5v-4q289 -58 289 -315q0 -130 -51 -209t-131 -126t-180 -63q-50 -8 -98.5 -12t-96.5 -4h-602v1430z" />
    <glyph glyph-name="C" unicode="C" horiz-adv-x="1366" 
d="M1325 33q-83 -21 -180 -39q-49 -10 -110 -14.5t-134 -4.5q-143 0 -290 39q-144 39 -264 125q-117 84 -193 226q-74 142 -74 344q0 187 61.5 327t171 233t259.5 139t327 46q112 0 215.5 -21.5t208.5 -52.5l-31 -309q-93 51 -183 75.5t-189 24.5q-102 0 -184.5 -34.5
t-141 -96t-90 -146.5t-31.5 -185q0 -106 35.5 -189.5t99 -141.5t151 -89t191.5 -31q94 0 186.5 21.5t170.5 52.5z" />
    <glyph glyph-name="D" unicode="D" horiz-adv-x="1593" 
d="M514 283h148q215 0 329.5 108.5t114.5 323.5q0 108 -30 189t-87 135t-139.5 81t-187.5 27h-148v-864zM133 1430h520q187 0 342.5 -33t267.5 -114t174 -218t62 -344q0 -133 -28.5 -238.5t-82 -185.5t-129 -136.5t-169.5 -92t-204.5 -52t-232.5 -16.5h-520v1430z" />
    <glyph glyph-name="E" unicode="E" 
d="M123 1430h1007v-271h-626v-295h592v-270h-592v-324h649v-270h-1030v1430z" />
    <glyph glyph-name="F" unicode="F" horiz-adv-x="1139" 
d="M123 1430h956v-271h-575v-313h551v-271h-551v-575h-381v1430z" />
    <glyph glyph-name="G" unicode="G" horiz-adv-x="1593" 
d="M1454 41q-184 -47 -319 -56q-69 -5 -127 -7.5t-107 -2.5q-143 0 -290 39q-144 39 -264 125q-117 84 -193 226q-74 142 -74 344t67.5 343.5t187.5 230.5t285.5 130t362.5 41q35 0 87 -2.5t111 -9t120 -19t114 -32.5l-31 -312q-88 53 -185 73q-48 10 -88.5 14.5t-74.5 4.5
q-116 0 -218.5 -25.5t-179 -81t-121 -143t-44.5 -212.5q0 -106 35.5 -189.5t99 -141.5t151 -89t191.5 -31q84 0 135 25v282h-223v271h592v-795z" />
    <glyph glyph-name="H" unicode="H" horiz-adv-x="1479" 
d="M133 1430h381v-547h451v547h381v-1430h-381v612h-451v-612h-381v1430z" />
    <glyph glyph-name="I" unicode="I" horiz-adv-x="684" 
d="M152 1430h380v-1430h-380v1430z" />
    <glyph glyph-name="J" unicode="J" horiz-adv-x="909" 
d="M29 330q75 -35 172 -35q42 0 77.5 16t61.5 53t40.5 97t14.5 147v822h381v-936q0 -115 -25.5 -210.5t-85 -164t-158 -106.5t-243.5 -38q-63 0 -124.5 13.5t-110.5 25.5v316z" />
    <glyph glyph-name="K" unicode="K" horiz-adv-x="1479" 
d="M133 1430h381v-584h4l430 584h459l-528 -666l569 -764h-485l-445 649h-4v-649h-381v1430z" />
    <glyph glyph-name="L" unicode="L" horiz-adv-x="1139" 
d="M133 1430h381v-1147h590v-283h-971v1430z" />
    <glyph glyph-name="M" unicode="M" horiz-adv-x="2048" 
d="M123 1430h600l303 -951h4l318 951h577v-1430h-373l7 1098h-5l-364 -1098h-350l-348 1098h-5l9 -1098h-373v1430z" />
    <glyph glyph-name="N" unicode="N" horiz-adv-x="1593" 
d="M139 1430h486l483 -971h4l-6 971h348v-1430h-473l-500 977h-4l12 -977h-350v1430z" />
    <glyph glyph-name="O" unicode="O" horiz-adv-x="1593" 
d="M473 715q0 -89 18.5 -171.5t57.5 -146t100.5 -101.5t147.5 -38t147.5 38t100.5 101.5t57 146t18 171.5q0 92 -18 175t-57 145.5t-100.5 99t-147.5 36.5t-147.5 -36.5t-100.5 -99t-57.5 -145.5t-18.5 -175zM80 715q0 172 46 309t136.5 232.5t224.5 146.5t310 51t310 -51
t224 -146.5t136 -232.5t46 -309q0 -171 -46.5 -308t-137 -233t-224 -147.5t-308.5 -51.5q-176 0 -309.5 51.5t-224.5 147.5t-137 233t-46 308z" />
    <glyph glyph-name="P" unicode="P" 
d="M494 770h98q49 0 92 9.5t75 32.5t50 61t18 94q0 55 -18 92t-50 59.5t-75 31.5t-92 9h-98v-389zM113 1430h454q165 0 286 -28t199.5 -86t117 -146.5t38.5 -208.5q0 -219 -150 -340q-148 -121 -417 -121h-147v-500h-381v1430z" />
    <glyph glyph-name="Q" unicode="Q" horiz-adv-x="1593" 
d="M817 -25h-20q-176 0 -309.5 51.5t-224.5 147.5t-137 233t-46 308q0 172 46 309t136.5 232.5t224.5 146.5t310 51t310 -51t224 -146.5t136 -232.5t46 -309q0 -121 -23 -225.5t-69 -189t-114 -148.5t-158 -105l338 -317h-430zM473 715q0 -89 18.5 -171.5t57.5 -146
t100.5 -101.5t147.5 -38t147.5 38t100.5 101.5t57 146t18 171.5q0 92 -18 175t-57 145.5t-100.5 99t-147.5 36.5t-147.5 -36.5t-100.5 -99t-57.5 -145.5t-18.5 -175z" />
    <glyph glyph-name="R" unicode="R" horiz-adv-x="1366" 
d="M504 836h100q46 0 95.5 3t90 18.5t66.5 49t27 94.5q0 51 -23 82t-61.5 48t-89 22.5t-105.5 5.5h-100v-323zM123 1430h680q94 0 178 -22t147 -67t99.5 -113t36.5 -159q0 -143 -68 -235.5t-207 -124.5v-4q46 -13 73.5 -39.5t47.5 -66.5t37.5 -92.5t44.5 -117.5l139 -389
h-397l-82 258q-29 92 -54.5 151.5t-55 94t-67 48t-91.5 13.5h-80v-565h-381v1430z" />
    <glyph glyph-name="S" unicode="S" 
d="M137 352q75 -42 175 -68t218 -26q46 0 88.5 5.5t75.5 20.5t52.5 42t19.5 71q0 68 -50 103q-51 35 -125.5 60.5t-162.5 50.5t-163 72q-76 47 -125 124q-50 79 -50 209q0 128 57 214q57 84 147 134q88 49 199 69q111 21 220 21q105 0 200.5 -14.5t167.5 -38.5l-24 -295
q-75 35 -155.5 50t-162.5 15q-36 0 -80.5 -3t-83.5 -16t-65.5 -40t-26.5 -74q0 -56 50 -88q51 -30 125.5 -53t162.5 -48q86 -23 163 -71q75 -47 125 -125q50 -79 50 -207q0 -139 -53 -230t-141.5 -144.5t-201.5 -75t-233 -21.5q-51 0 -104 4t-111 12q-116 15 -211 46z" />
    <glyph glyph-name="T" unicode="T" horiz-adv-x="1139" 
d="M379 1147h-352v283h1085v-283h-352v-1147h-381v1147z" />
    <glyph glyph-name="U" unicode="U" horiz-adv-x="1479" 
d="M1366 543q0 -147 -45.5 -254t-128 -177t-198 -103.5t-255.5 -33.5t-255 33.5t-197.5 103.5t-128 177t-45.5 254v887h381v-824q0 -71 11 -134t38.5 -110.5t75 -75.5t120.5 -28t120.5 28t75.5 75.5t39 110.5t11 134v824h381v-887z" />
    <glyph glyph-name="V" unicode="V" horiz-adv-x="1479" 
d="M20 1430h406l317 -1123h5l319 1123h391l-487 -1430h-471z" />
    <glyph glyph-name="W" unicode="W" horiz-adv-x="2048" 
d="M16 1430h390l184 -1098h4l192 1098h484l200 -1098h5l186 1098h371l-320 -1430h-489l-203 1098h-4l-189 -1098h-493z" />
    <glyph glyph-name="X" unicode="X" horiz-adv-x="1479" 
d="M483 752l-413 678h444l240 -472l245 472h418l-418 -678l459 -752h-454l-277 526l-274 -526h-433z" />
    <glyph glyph-name="Y" unicode="Y" horiz-adv-x="1479" 
d="M551 539l-528 891h438l280 -574l277 574h438l-524 -891v-539h-381v539z" />
    <glyph glyph-name="Z" unicode="Z" 
d="M1167 1126l-700 -843h704v-283h-1118v303l680 844h-661v283h1095v-304z" />
    <glyph glyph-name="bracketleft" unicode="[" horiz-adv-x="797" 
d="M721 1315h-234v-1368h234v-234h-541v1835h541v-233z" />
    <glyph glyph-name="backslash" unicode="\" horiz-adv-x="569" 
d="M-43 1454h258l397 -1479h-258z" />
    <glyph glyph-name="bracketright" unicode="]" horiz-adv-x="797" 
d="M76 -53h233v1368h-233v233h540v-1835h-540v234z" />
    <glyph glyph-name="asciicircum" unicode="^" horiz-adv-x="1229" 
d="M500 1430h229l356 -748h-249l-222 465l-221 -465h-250z" />
    <glyph glyph-name="underscore" unicode="_" horiz-adv-x="1024" 
d="M1024 -154v-102h-1024v102h1024z" />
    <glyph glyph-name="grave" unicode="`" horiz-adv-x="682" 
d="M246 1198l-264 295h383l139 -295h-258z" />
    <glyph glyph-name="a" unicode="a" 
d="M408 338q0 -27 11.5 -49t31.5 -37t47.5 -23t60.5 -8q52 0 94 22t71.5 57.5t45.5 80.5t16 92q-34 2 -73.5 4t-81.5 2q-93 0 -159 -32q-64 -31 -64 -109zM813 0q-2 43 -5 84.5t-3 83.5h-4q-32 -50 -67 -86.5t-76.5 -60t-89.5 -35t-105 -11.5q-79 0 -151 20t-127.5 61.5
t-88.5 104.5t-33 150q0 124 58 195t144 109q43 19 87.5 31.5t92.5 17.5q96 12 169 12q45 0 91.5 -4t80.5 -10q0 54 -19.5 89.5t-53 56.5t-77.5 29.5t-93 8.5q-91 0 -176.5 -18.5t-163.5 -61.5l-6 250q99 42 202.5 59t223.5 17q102 0 194 -23.5t161.5 -76t110.5 -137
t41 -206.5v-397q0 -64 4.5 -126.5t16.5 -125.5h-338z" />
    <glyph glyph-name="b" unicode="b" horiz-adv-x="1368" 
d="M924 545q0 53 -14.5 101t-43 84t-70.5 57.5t-96 21.5q-103 0 -164 -79t-61 -200q0 -59 17.5 -108.5t48 -86t71.5 -57t88 -20.5q106 0 164 79q60 79 60 208zM106 1536h371v-606h4q72 90 164 126t203 36q110 0 195 -48t143.5 -125.5t88.5 -173.5t30 -192q0 -118 -32 -223
t-93.5 -184t-153 -125t-209.5 -46q-63 0 -121.5 17t-107 46t-84 68.5t-53.5 83.5h-5v-190h-340v1536z" />
    <glyph glyph-name="c" unicode="c" horiz-adv-x="1024" 
d="M950 762q-51 31 -104 45t-119 14q-60 0 -111.5 -20t-90 -58t-60 -93t-21.5 -124q0 -64 25 -116t67 -88.5t97 -56t115 -19.5q63 0 122 13t107 38l8 -274q-70 -23 -148 -35.5t-153 -12.5q-132 0 -245.5 37.5t-197 109t-131 175t-47.5 235.5t47.5 236t131 176t197 110
t245.5 38q85 0 157 -14.5t136 -45.5z" />
    <glyph glyph-name="d" unicode="d" horiz-adv-x="1368" 
d="M444 545q0 -128 59 -208q60 -79 165 -79q45 0 86 20.5t71.5 57t49 86.5t18.5 108q0 122 -62 201q-62 78 -163 78q-54 0 -96 -21.5t-70.5 -57.5t-43 -84t-14.5 -101zM1262 0h-340v190h-4q-19 -44 -54.5 -83.5t-84 -68.5t-106.5 -46t-122 -17q-119 0 -210 46t-152.5 125
t-93.5 184t-32 223q0 98 30 194.5t88.5 173t143.5 124t195 47.5q55 0 106 -8t97 -27t87 -50t77 -77h4v606h371v-1536z" />
    <glyph glyph-name="e" unicode="e" 
d="M842 635q0 92 -47 157q-47 66 -158 66q-101 0 -150 -66q-49 -64 -55 -157h410zM436 426q17 -111 97.5 -158t216.5 -47q75 0 157.5 18.5t167.5 63.5v-260q-91 -35 -188.5 -51.5t-202.5 -16.5q-132 0 -245.5 38t-197 110t-131 176t-47.5 236t43 235.5t119 175t181 109
t229 37.5q148 0 250.5 -49t166.5 -131.5t93 -191t29 -226.5v-68h-738z" />
    <glyph glyph-name="f" unicode="f" horiz-adv-x="909" 
d="M244 809h-217v258h223v66q0 118 28 200t83.5 132.5t139 73t193.5 22.5q60 0 107 -7.5t82 -13.5l-23 -254q-22 8 -48.5 12.5t-68.5 4.5q-71 0 -101 -46.5t-30 -123.5v-66h262v-258h-262v-809h-368v809z" />
    <glyph glyph-name="g" unicode="g" horiz-adv-x="1368" 
d="M444 543q0 -63 17.5 -111.5t46.5 -81.5t66.5 -50t78.5 -17q49 0 92 20t75 56t50.5 86.5t18.5 111.5q0 45 -13.5 90t-42 81t-73.5 58.5t-107 22.5q-51 0 -90 -21t-65.5 -57.5t-40 -85t-13.5 -102.5zM1245 125q0 -164 -39.5 -275.5t-120 -179t-201 -96.5t-282.5 -29
q-131 0 -238 23q-106 23 -169 45l18 291q42 -20 83 -36.5t82 -27.5q81 -24 195 -24q161 0 244.5 75t83.5 234v57h-4q-66 -94 -156.5 -138t-201.5 -44t-199 39.5t-149.5 110.5t-94.5 169.5t-33 217.5q0 118 29 219.5t88.5 176t150 117t214.5 42.5q119 0 211 -59.5t151 -158.5
h4v193h334v-942z" />
    <glyph glyph-name="h" unicode="h" horiz-adv-x="1366" 
d="M115 1536h368v-627h4q60 85 148 134t209 49q109 0 186.5 -35.5t126.5 -95t71.5 -136.5t22.5 -159v-666h-368v516q0 150 -48 209q-47 59 -122 59q-115 0 -172.5 -79.5t-57.5 -253.5v-451h-368v1536z" />
    <glyph glyph-name="i" unicode="i" horiz-adv-x="684" 
d="M526 1241h-368v270h368v-270zM158 1067h368v-1067h-368v1067z" />
    <glyph glyph-name="j" unicode="j" horiz-adv-x="684" 
d="M526 1241h-368v270h368v-270zM-43 -203q20 -4 39.5 -5t38.5 -1q43 0 67.5 18.5t37 48t15.5 67t3 75.5v1067h368v-1077q0 -100 -17.5 -182t-60 -140.5t-114 -90.5t-178.5 -32q-60 0 -109 4.5t-98 14.5z" />
    <glyph glyph-name="k" unicode="k" 
d="M115 1536h368v-918h4l308 449h403l-371 -489l402 -578h-447l-295 528h-4v-528h-368v1536z" />
    <glyph glyph-name="l" unicode="l" horiz-adv-x="684" 
d="M158 1536h368v-1536h-368v1536z" />
    <glyph glyph-name="m" unicode="m" horiz-adv-x="2048" 
d="M115 1067h336v-197h4q27 58 67.5 100t91 69t109 40t121.5 13q114 0 202.5 -50.5t131.5 -154.5q33 54 74.5 93t90 63.5t102.5 36.5t111 12q116 0 189.5 -32t115 -91.5t57 -145.5t15.5 -194v-629h-368v573q0 46 -8.5 85t-26.5 67t-46 43.5t-67 15.5q-98 0 -153.5 -79.5
t-55.5 -253.5v-451h-368v573q0 46 -8.5 85t-26.5 67t-46 43.5t-67 15.5q-98 0 -153.5 -79.5t-55.5 -253.5v-451h-368v1067z" />
    <glyph glyph-name="n" unicode="n" horiz-adv-x="1366" 
d="M115 1067h336v-197h4q27 58 67.5 100t91 69t109 40t121.5 13q109 0 186.5 -35.5t126.5 -95t71.5 -136.5t22.5 -159v-666h-368v516q0 150 -48 209q-47 59 -122 59q-115 0 -172.5 -79.5t-57.5 -253.5v-451h-368v1067z" />
    <glyph glyph-name="o" unicode="o" horiz-adv-x="1368" 
d="M684 233q63 0 108.5 25t75 66t43 95t13.5 113t-13.5 113.5t-43 96.5t-75 67t-108.5 25t-108.5 -25t-75 -67t-43 -96.5t-13.5 -113.5t13.5 -113t43 -95t75 -66t108.5 -25zM684 -25q-132 0 -245.5 37.5t-197 109t-131 175t-47.5 235.5t47.5 236t131 176t197 110t245.5 38
q131 0 244.5 -38t197 -110t131.5 -176t48 -236t-48 -235.5t-131.5 -175t-197 -109t-244.5 -37.5z" />
    <glyph glyph-name="p" unicode="p" horiz-adv-x="1368" 
d="M924 545q0 53 -14.5 101t-43 84t-70.5 57.5t-96 21.5q-103 0 -164 -79t-61 -200q0 -58 17.5 -108t48 -86.5t71.5 -57t88 -20.5q106 0 164 79q60 79 60 208zM106 1067h340v-193h5q55 112 162 165q109 53 235 53q110 0 195 -48t143.5 -125.5t88.5 -173.5t30 -192
q0 -118 -32 -223t-93.5 -184t-153 -125t-209.5 -46q-98 0 -192 39t-146 136h-4v-580h-369v1497z" />
    <glyph glyph-name="q" unicode="q" horiz-adv-x="1368" 
d="M444 545q0 -128 59 -208q60 -79 165 -79q45 0 86 20.5t71.5 57t49 86.5t18.5 108q0 122 -62 201q-62 78 -163 78q-54 0 -96 -21.5t-70.5 -57.5t-43 -84t-14.5 -101zM1262 -430h-369v580h-4q-52 -97 -147 -136q-93 -39 -191 -39q-119 0 -210 46t-152.5 125t-93.5 184
t-32 223q0 98 30 194.5t88.5 173t143.5 124t195 47.5q129 0 234 -52q109 -51 164 -166h4v193h340v-1497z" />
    <glyph glyph-name="r" unicode="r" horiz-adv-x="909" 
d="M877 772q-31 10 -62 11t-63 1q-65 0 -115 -22.5t-84 -65.5t-52 -105t-18 -140v-451h-368v1067h336v-197h4q46 103 120 162q73 60 195 60q33 0 64.5 -4.5t60.5 -8.5z" />
    <glyph glyph-name="s" unicode="s" horiz-adv-x="1024" 
d="M94 295q33 -15 72.5 -28t83.5 -23.5t92 -16.5t98 -6q57 0 104 15q46 16 46 71q0 34 -22.5 55t-59.5 35.5t-84.5 26t-96.5 25.5q-69 18 -126 52q-29 17 -53.5 39t-42.5 51.5t-28.5 67.5t-10.5 86q0 93 41 158.5t106 107.5t146 61.5t161 19.5q97 0 190.5 -13.5t184.5 -48.5
l-29 -256q-60 35 -138 53q-77 19 -148 19q-31 0 -61.5 -3t-54.5 -11.5t-39 -23t-15 -36.5q0 -41 41 -62q42 -20 101.5 -35.5t131.5 -32.5q52 -14 101 -36t87.5 -57.5t62 -88.5t23.5 -128q0 -107 -44 -176.5t-114.5 -109.5t-159.5 -55.5t-179 -15.5q-63 0 -116.5 3t-98.5 10
q-89 12 -172 39z" />
    <glyph glyph-name="t" unicode="t" horiz-adv-x="909" 
d="M20 1067h218v240l362 112v-352h258v-258h-258v-393q0 -98 29 -147q30 -48 119 -48q28 0 55.5 5t56.5 10l12 -240q-53 -6 -107 -13.5t-124 -7.5q-124 0 -203.5 27t-125.5 78t-63.5 125.5t-17.5 169.5v434h-211v258z" />
    <glyph glyph-name="u" unicode="u" horiz-adv-x="1366" 
d="M1251 0h-336v197h-4q-27 -59 -67.5 -101t-91 -69t-109 -39.5t-121.5 -12.5q-109 0 -186.5 35.5t-126.5 94.5t-71.5 136t-22.5 160v666h368v-516q0 -76 12.5 -127t35 -82.5t53.5 -45t69 -13.5q115 0 172.5 79.5t57.5 253.5v451h368v-1067z" />
    <glyph glyph-name="v" unicode="v" 
d="M20 1067h396l221 -760h4l223 760h367l-395 -1067h-420z" />
    <glyph glyph-name="w" unicode="w" horiz-adv-x="1933" 
d="M18 1067h385l172 -768h5l184 768h442l180 -768h5l168 768h356l-326 -1067h-428l-180 772h-4l-203 -772h-428z" />
    <glyph glyph-name="x" unicode="x" 
d="M381 543l-334 524h436l158 -319l166 319h403l-333 -520l356 -547h-445l-178 332l-176 -332h-416z" />
    <glyph glyph-name="y" unicode="y" 
d="M117 -150q37 -12 71.5 -17t73.5 -5q69 0 117.5 37.5t69.5 109.5l-433 1092h398l229 -696h4l219 696h369l-391 -993q-39 -102 -78 -196t-96 -169q-28 -37 -62 -67.5t-76.5 -52t-94.5 -33t-115 -11.5q-59 0 -116 6t-114 19z" />
    <glyph glyph-name="z" unicode="z" horiz-adv-x="1024" 
d="M53 295l488 502h-478v270h900v-295l-488 -502h496v-270h-918v295z" />
    <glyph glyph-name="braceleft" unicode="{" horiz-adv-x="797" 
d="M735 1364h-96q-41 0 -64.5 -12.5t-35.5 -32t-15.5 -42.5t-3.5 -44v-375q0 -70 -25 -113t-61.5 -67.5t-77.5 -33.5t-73 -11v-4q32 -2 73 -9t77.5 -31t61.5 -71t25 -129v-360q0 -22 3.5 -45t15.5 -42t35.5 -31.5t64.5 -12.5h96v-185h-205q-55 0 -107.5 16.5t-93.5 51
t-66 87.5t-25 126v395q0 51 -21 81t-49.5 45t-58.5 19.5t-48 4.5v184q18 0 48 4t58.5 17.5t49.5 40.5t21 73v410q0 73 25 125.5t66 87t93.5 51t107.5 16.5h205v-184z" />
    <glyph glyph-name="bar" unicode="|" horiz-adv-x="455" 
d="M356 1536v-2048h-258v2048h258z" />
    <glyph glyph-name="braceright" unicode="}" horiz-adv-x="797" 
d="M61 -102h97q41 0 64.5 12.5t35.5 31.5t15 42t3 45v374q1 70 26 113t61 67.5t77 34t74 11.5v4q-33 2 -74 9t-77 31t-61 70.5t-26 128.5v361q0 21 -3 44t-15 42.5t-35.5 32t-64.5 12.5h-97v184h205q55 0 108 -16.5t94 -51t66 -87t25 -125.5v-396q0 -51 20.5 -80.5t49 -45
t58.5 -19.5t48 -4v-184q-18 0 -48 -4t-58.5 -18t-49 -41t-20.5 -73v-409q0 -73 -25 -126t-66 -87.5t-94 -51t-108 -16.5h-205v185z" />
    <glyph glyph-name="asciitilde" unicode="~" horiz-adv-x="1229" 
d="M1087 500q-16 -33 -39 -65t-54 -56.5t-71.5 -39.5t-91.5 -15q-62 0 -119.5 20.5t-112 45t-105.5 45t-99 20.5q-61 0 -103 -44q-43 -44 -77 -98l-74 224q17 33 40 64.5t54 56t71 40t91 15.5q63 0 120.5 -20.5t111.5 -45t105 -45t100 -20.5q61 0 103 44q42 43 77 97z" />
    <glyph glyph-name="exclamdown" unicode="&#xa1;" horiz-adv-x="909" 
d="M627 735h-344v332h344v-332zM317 582h275l53 -944h-381z" />
    <glyph glyph-name="cent" unicode="&#xa2;" horiz-adv-x="1253" 
d="M551 6q-180 51 -291 186q-110 137 -110 340q0 132 47.5 236t130.5 176t196.5 110t245.5 38q26 0 53 -1.5t54 -5.5l73 240h121l-80 -264q21 -6 38.5 -13.5t33.5 -15.5l-27 -270q-28 16 -58 29.5t-63 21.5l-165 -555q43 -12 84 -12q63 0 122 13t107 38l8 -274
q-70 -23 -148 -35.5t-153 -12.5q-26 0 -51.5 1.5t-50.5 5.5l-82 -269h-123zM797 821q-115 -4 -191 -82q-76 -76 -76 -213q0 -72 32 -128t81 -91z" />
    <glyph glyph-name="sterling" unicode="&#xa3;" horiz-adv-x="1253" 
d="M109 270h188v389h-172v185h176v108q0 258 153 380q155 122 425 122q72 0 139.5 -10t136.5 -27l-16 -270q-42 14 -82 19t-88 5q-85 0 -141 -17.5t-89.5 -50.5t-47 -81.5t-13.5 -110.5v-67h311v-185h-311v-389h461v-270h-1030v270z" />
    <glyph glyph-name="currency" unicode="&#xa4;" horiz-adv-x="1253" 
d="M627 465q104 0 170 70q67 70 67 180q0 109 -67 179q-66 71 -170 71t-172 -71q-66 -71 -66 -179q0 -110 66 -180q67 -70 172 -70zM213 426q-26 26 -44 61t-29 73t-16 78t-5 77q0 36 5 76t16 78.5t29 73.5t44 61l-119 116l129 127l117 -110q28 21 63 37t73 27t77 16.5
t74 5.5q33 0 72 -5.5t77.5 -16.5t74 -27t62.5 -37l117 110l129 -127l-119 -116q26 -26 44 -61t29.5 -73.5t16.5 -78.5t5 -76q0 -37 -5 -77t-16.5 -78t-29.5 -73t-44 -61l119 -117l-129 -127l-117 111q-26 -22 -61.5 -38t-74.5 -26.5t-78 -16t-72 -5.5q-35 0 -74 5.5t-77 16
t-73.5 26.5t-62.5 38l-117 -111l-129 127z" />
    <glyph glyph-name="yen" unicode="&#xa5;" horiz-adv-x="1253" 
d="M442 279h-303v172h303v88l-18 39h-285v172h199l-338 680h381l246 -578l241 578h385l-338 -680h199v-172h-283l-20 -39v-88h303v-172h-303v-279h-369v279z" />
    <glyph glyph-name="brokenbar" unicode="&#xa6;" horiz-adv-x="455" 
d="M356 358v-716h-258v716h258zM356 1382v-716h-258v716h258z" />
    <glyph glyph-name="section" unicode="&#xa7;" 
d="M498 782q-25 -28 -46.5 -64.5t-21.5 -78.5q0 -51 35 -84q55 -53 132 -81q38 -14 79 -29.5t84 -32.5q26 30 43.5 71.5t17.5 83.5q0 18 -6 32t-15.5 25.5t-21 20.5t-22.5 17q-27 16 -58.5 31.5t-65 30.5t-67.5 29.5t-67 28.5zM190 45q39 -17 83.5 -32t95.5 -26
q102 -24 186 -24q75 0 128 21q52 19 52 86q0 33 -26 58.5t-69 47t-98.5 42t-112.5 44t-112.5 52t-98.5 67t-69 89.5t-26 118q0 49 12.5 88.5t36.5 73t58 61.5t77 55q-70 32 -116 96q-46 65 -46 142q0 55 13 99t36.5 79t55.5 61t70 45q75 38 172 52q48 7 94.5 10.5t91.5 3.5
q85 0 168 -14.5t164 -36.5l-17 -254q-73 29 -154.5 44t-162.5 15q-65 0 -113 -19q-49 -18 -49 -75q0 -41 45 -69q45 -27 113 -53.5t149 -55.5q58 -23 113.5 -52.5t98.5 -70.5t69 -95t26 -126q0 -44 -12.5 -83.5t-35 -74t-53 -65t-66.5 -56.5q33 -16 59 -43t45 -60.5
t29 -70.5t10 -73q0 -96 -53 -163q-53 -68 -131 -108q-39 -21 -83 -35.5t-89.5 -24t-91 -14t-87.5 -4.5q-62 0 -118.5 6t-107 15t-94 19.5t-77.5 19.5z" />
    <glyph glyph-name="dieresis" unicode="&#xa8;" horiz-adv-x="682" 
d="M-39 1493h295v-295h-295v295zM428 1493h295v-295h-295v295z" />
    <glyph glyph-name="copyright" unicode="&#xa9;" horiz-adv-x="1638" 
d="M313 715q0 -114 40 -211t109 -168t161 -111.5t196 -40.5q105 0 197 40.5t160.5 111.5t108.5 168t40 211q0 113 -40 210t-108.5 168t-160.5 111.5t-197 40.5q-104 0 -196 -40.5t-161 -111.5t-109 -168t-40 -210zM80 715q0 102 26.5 196.5t74.5 176.5t115.5 149.5
t149.5 115.5t176.5 74.5t196.5 26.5t196.5 -26.5t177 -74.5t149.5 -115.5t115.5 -149.5t75 -176.5t26.5 -196.5t-26.5 -196.5t-74.5 -176.5t-116 -150t-150 -116t-176.5 -74.5t-196.5 -26.5t-196.5 26.5t-176.5 75t-149.5 115.5t-115.5 149.5t-74.5 177t-26.5 196.5z
M1174 598q-3 -72 -27 -129.5t-68 -97.5t-107 -61t-143 -21q-92 0 -165.5 32t-125 89t-79 135t-27.5 170q0 90 27.5 167.5t79 134.5t125 89.5t165.5 32.5q161 0 250 -82q91 -83 95 -228h-197q-8 28 -19 49t-28 35.5t-41.5 21.5t-59.5 7q-78 0 -120.5 -61t-42.5 -166
q0 -53 11 -95.5t32 -72.5t51 -46t69 -16q35 0 59.5 7.5t41.5 21.5t28 35.5t19 48.5h197z" />
    <glyph glyph-name="ordfeminine" unicode="&#xaa;" horiz-adv-x="813" 
d="M424 1073q-63 0 -99 -16t-36 -58q0 -38 23 -57.5t65 -19.5q59 0 97 45q38 46 38 106h-88zM129 1409q123 45 277 45q65 0 128.5 -7.5t113 -32.5t80 -72.5t30.5 -127.5v-294q5 -67 12 -125h-242l-12 96h-4q-68 -113 -211 -113q-51 0 -97.5 12t-82.5 37t-57 64t-21 92
q0 37 10 66.5t27 52t40 38.5t49 27q53 23 107 30q28 4 51 5.5t40 1.5q54 0 88 -3t57 -5q0 70 -46 92q-48 23 -112 23q-60 0 -115.5 -11.5t-109.5 -39.5v149z" />
    <glyph glyph-name="guillemotleft" unicode="&#xab;" 
d="M584 551l243 418h303l-225 -418l225 -418h-303zM96 551l244 418h303l-225 -418l225 -418h-303z" />
    <glyph glyph-name="logicalnot" unicode="&#xac;" horiz-adv-x="1229" 
d="M96 883h1037v-662h-259v404h-778v258z" />
    <glyph glyph-name="registered" unicode="&#xae;" horiz-adv-x="1638" 
d="M723 807h119q55 0 90 19.5t35 68.5q0 23 -13.5 37t-34.5 21.5t-46 9.5t-48 2h-102v-158zM526 1120h328q151 0 230 -50q79 -49 79 -185q0 -115 -65 -166q-64 -50 -160 -55l192 -349h-196l-176 336h-35v-336h-197v805zM819 184q105 0 197 40.5t160.5 111.5t108.5 168
t40 211q0 113 -40 210t-108.5 168t-160.5 111.5t-197 40.5q-104 0 -196 -40.5t-161 -111.5t-109 -168t-40 -210q0 -114 40 -211t109 -168t161 -111.5t196 -40.5zM819 -25q-102 0 -196.5 26.5t-176.5 75t-149.5 115.5t-115.5 149.5t-74.5 177t-26.5 196.5t26.5 196.5
t74.5 176.5t115.5 149.5t149.5 115.5t176.5 74.5t196.5 26.5t196.5 -26.5t177 -74.5t149.5 -115.5t115.5 -149.5t75 -176.5t26.5 -196.5t-26.5 -196.5t-74.5 -176.5t-116 -150t-150 -116t-176.5 -74.5t-196.5 -26.5z" />
    <glyph glyph-name="macron" unicode="&#xaf;" horiz-adv-x="682" 
d="M-43 1448h768v-172h-768v172z" />
    <glyph glyph-name="degree" unicode="&#xb0;" horiz-adv-x="819" 
d="M264 1153q0 -59 43 -102t103 -43q59 0 102 43t43 102t-43 102t-102 43q-60 0 -103 -43t-43 -102zM109 1153q0 62 23.5 117t64.5 96t96 64.5t117 23.5t117 -23.5t96 -64.5t64.5 -96t23.5 -117t-23.5 -117t-64.5 -96t-96 -64.5t-117 -23.5t-117 23.5t-96 64.5t-64.5 96
t-23.5 117z" />
    <glyph glyph-name="plusminus" unicode="&#xb1;" horiz-adv-x="1229" 
d="M96 258h1037v-258h-1037v258zM96 807h389v229h258v-229h390v-258h-390v-230h-258v230h-389v258z" />
    <glyph glyph-name="twosuperior" unicode="&#xb2;" horiz-adv-x="815" 
d="M61 762q65 44 135 97.5t128.5 108t96.5 106.5t38 93q0 22 -10 39t-27 28.5t-40 17t-48 5.5q-58 0 -121 -12t-117 -37l-10 197q75 22 157 35.5t185 13.5q64 0 123 -16.5t104 -48t72 -79t27 -108.5q0 -60 -24.5 -113t-65 -102.5t-92 -96.5t-105.5 -95l-37 -33h307v-184
h-676v184z" />
    <glyph glyph-name="threesuperior" unicode="&#xb3;" horiz-adv-x="815" 
d="M88 1417q33 9 65 16t66.5 11.5t72.5 7t83 2.5q66 0 131.5 -10.5t118 -37.5t85.5 -73t33 -116q0 -75 -46.5 -121.5t-127.5 -67.5v-4q87 -14 138 -64t51 -131q0 -53 -17.5 -93.5t-47 -70t-70 -50t-86 -32.5t-94 -17t-95.5 -5q-93 0 -165 6t-126 23l13 213q48 -23 106.5 -34
t118.5 -11q82 0 131 21t49 63q0 47 -48 62q-47 16 -114 16q-30 0 -56 -1t-48 -4v183q22 -4 51 -5t62 -1q67 0 103 24t36 66q0 22 -15 36.5t-38 23t-50 12t-51 3.5q-55 0 -110 -12t-97 -28z" />
    <glyph glyph-name="acute" unicode="&#xb4;" horiz-adv-x="682" 
d="M342 1493h383l-264 -295h-258z" />
    <glyph glyph-name="uni00B5" unicode="&#xb5;" horiz-adv-x="1366" 
d="M1251 0h-336v197h-4q-27 -59 -67.5 -101t-91 -69t-109 -39.5t-121.5 -12.5h-35v-405h-372v1497h368v-516q0 -76 12.5 -127t35 -82.5t53.5 -45t69 -13.5q115 0 172.5 79.5t57.5 253.5v451h368v-1067z" />
    <glyph glyph-name="paragraph" unicode="&#xb6;" horiz-adv-x="1270" 
d="M494 713q-97 -1 -180 16t-144.5 58t-96.5 110.5t-36 173.5q1 104 36 173.5t96.5 110.5t144.5 58t180 17h690v-1688h-246v1503h-199v-1503h-245v971z" />
    <glyph glyph-name="periodcentered" unicode="&#xb7;" horiz-adv-x="627" 
d="M123 557q0 39 15 73.5t41 61t60.5 41.5t73.5 15t73.5 -15t61 -41.5t41.5 -61t15 -73.5t-15 -73.5t-41.5 -60.5t-61 -41t-73.5 -15t-73.5 15t-60.5 41t-41 60.5t-15 73.5z" />
    <glyph glyph-name="cedilla" unicode="&#xb8;" horiz-adv-x="682" 
d="M436 0l-55 -133q22 4 42.5 7t55.5 3q28 0 57 -9.5t51.5 -30.5t37 -55t14.5 -83q0 -43 -21.5 -72.5t-58.5 -47.5t-86 -26t-104 -8q-84 0 -143.5 12.5t-112.5 34.5l34 95q46 -21 90 -32t89 -11q49 0 76.5 14t27.5 49q0 21 -6.5 35t-17 22.5t-25 11.5t-29.5 3q-26 0 -57 -12
l-80 49l86 184h135z" />
    <glyph glyph-name="onesuperior" unicode="&#xb9;" horiz-adv-x="815" 
d="M334 1167l-162 -98l-111 178l312 191h231v-860h-270v589z" />
    <glyph glyph-name="ordmasculine" unicode="&#xba;" horiz-adv-x="889" 
d="M293 1116q0 -63 36 -115q36 -51 115 -51q80 0 116 51q36 52 36 115q0 61 -36 114q-36 52 -116 52q-79 0 -115 -52q-36 -53 -36 -114zM35 1116q0 80 31 142.5t85.5 106t129.5 66.5t163 23t163 -23t130 -66.5t86 -106t31 -142.5t-31 -142.5t-86 -106t-130 -66.5t-163 -23
t-163 23t-129.5 66.5t-85.5 106t-31 142.5z" />
    <glyph glyph-name="guillemotright" unicode="&#xbb;" 
d="M1155 551l-244 -418h-303l226 418l-226 418h303zM668 551l-244 -418h-303l225 418l-225 418h303z" />
    <glyph glyph-name="onequarter" unicode="&#xbc;" horiz-adv-x="1876" 
d="M1462 682h-4l-248 -352h252v352zM1462 145h-430v207l367 508h309v-530h123v-185h-123v-145h-246v145zM334 1171l-162 -98l-111 178l312 191h231v-860h-270v589zM1221 1475h223l-793 -1520h-223z" />
    <glyph glyph-name="onehalf" unicode="&#xbd;" horiz-adv-x="1876" 
d="M1139 184q43 30 89 64t90 69.5t84 72.5t69.5 72t47 67.5t17.5 60.5q0 22 -10 39t-27 28.5t-40 17t-48 5.5q-57 0 -120 -12.5t-117 -36.5l-11 196q75 23 157 36.5t185 13.5q65 0 124 -16.5t104 -48.5t71.5 -79t26.5 -108q0 -60 -24.5 -113t-65 -102.5t-92 -97
t-105.5 -95.5l-37 -33h308v-184h-676v184zM317 1167l-161 -98l-111 178l311 191h232v-860h-271v589zM1204 1475h223l-792 -1520h-223z" />
    <glyph glyph-name="threequarters" unicode="&#xbe;" horiz-adv-x="1876" 
d="M1462 682h-4l-248 -352h252v352zM1462 145h-430v207l367 508h309v-530h123v-185h-123v-145h-246v145zM88 1417q33 9 65 16t66.5 11.5t72.5 7t83 2.5q66 0 131.5 -10.5t118 -37.5t85.5 -73t33 -116q0 -75 -46.5 -121.5t-127.5 -67.5v-4q87 -14 138 -64t51 -131
q0 -53 -17.5 -93.5t-47 -70t-70 -50t-86 -32.5t-94 -17t-95.5 -5q-93 0 -165 6t-126 23l13 213q48 -23 106.5 -34t118.5 -11q82 0 131 21t49 63q0 47 -48 62q-47 16 -114 16q-30 0 -56 -1t-48 -4v183q22 -4 51 -5t62 -1q67 0 103 24t36 66q0 22 -15 36.5t-38 23t-50 12
t-51 3.5q-55 0 -110 -12t-97 -28zM1221 1475h223l-793 -1520h-223z" />
    <glyph glyph-name="questiondown" unicode="&#xbf;" horiz-adv-x="1139" 
d="M737 735h-344v332h344v-332zM1006 -328q-106 -32 -212.5 -45.5t-218.5 -13.5q-42 0 -85.5 4t-86 13t-83.5 23.5t-77 35.5q-71 41 -116 106.5t-45 161.5q0 69 23.5 123.5t58.5 101t76.5 89.5t78.5 89.5t64 100t33 121.5h299q0 -98 -41 -172q-40 -72 -92 -134
q-25 -31 -48 -61t-43 -59q-40 -58 -40 -125q0 -39 21 -67t54 -46t73 -26.5t77 -8.5q173 0 321 76z" />
    <glyph glyph-name="Agrave" unicode="&#xc0;" horiz-adv-x="1593" 
d="M793 1135h-5l-184 -560h359zM559 1430h467l551 -1430h-418l-106 305h-537l-113 -305h-387zM703 1505l-264 295h383l139 -295h-258z" />
    <glyph glyph-name="Aacute" unicode="&#xc1;" horiz-adv-x="1593" 
d="M793 1135h-5l-184 -560h359zM559 1430h467l551 -1430h-418l-106 305h-537l-113 -305h-387zM770 1800h383l-264 -295h-258z" />
    <glyph glyph-name="Acircumflex" unicode="&#xc2;" horiz-adv-x="1593" 
d="M793 1135h-5l-184 -560h359zM559 1430h467l551 -1430h-418l-106 305h-537l-113 -305h-387zM635 1800h332l223 -295h-256l-133 160l-141 -160h-256z" />
    <glyph glyph-name="Atilde" unicode="&#xc3;" horiz-adv-x="1593" 
d="M793 1135h-5l-184 -560h359zM559 1430h467l551 -1430h-418l-106 305h-537l-113 -305h-387zM1200 1800q-6 -59 -24.5 -111.5t-51 -92t-79 -62.5t-109.5 -23q-40 0 -81 11.5t-79 25.5t-72 25.5t-59 11.5q-48 0 -69 -20.5t-31 -59.5h-147q6 54 24 106t50 92.5t78 65.5
t108 25q41 0 81 -11.5t77.5 -25.5t71.5 -25.5t63 -11.5q88 0 102 80h147z" />
    <glyph glyph-name="Adieresis" unicode="&#xc4;" horiz-adv-x="1593" 
d="M793 1135h-5l-184 -560h359zM559 1430h467l551 -1430h-418l-106 305h-537l-113 -305h-387zM418 1800h295v-295h-295v295zM885 1800h295v-295h-295v295z" />
    <glyph glyph-name="Aring" unicode="&#xc5;" horiz-adv-x="1593" 
d="M793 1135h-5l-184 -560h359zM559 1430h467l551 -1430h-418l-106 305h-537l-113 -305h-387zM701 1725q0 -42 28 -70.5t70 -28.5t70 28.5t28 70.5t-28 70t-70 28t-70 -28t-28 -70zM570 1725q0 47 18 89t49 73t73 49t89 18t89 -18t73 -49t49 -73t18 -89q0 -48 -18 -89.5
t-49 -73t-73 -49.5t-89 -18t-89 18t-73 49.5t-49 73t-18 89.5z" />
    <glyph glyph-name="AE" unicode="&#xc6;" horiz-adv-x="2048" 
d="M977 1159h-19l-284 -584h303v584zM739 1430h1205v-271h-586v-295h549v-270h-549v-324h610v-270h-991v305h-436l-150 -305h-399z" />
    <glyph glyph-name="Ccedilla" unicode="&#xc7;" horiz-adv-x="1366" 
d="M1325 33q-83 -21 -180 -39q-49 -10 -110 -14.5t-134 -4.5h-22l-45 -108q22 4 42.5 7t55.5 3q28 0 57 -9.5t51.5 -30.5t37 -55t14.5 -83q0 -43 -21.5 -72.5t-58.5 -47.5t-86.5 -26t-104.5 -8q-84 0 -143.5 12.5t-112.5 34.5l35 95q45 -21 89 -32t89 -11q49 0 77 14t28 49
q0 21 -6.5 35t-17 22.5t-25 11.5t-29.5 3q-27 0 -57 -12l-80 49l80 172q-127 18 -247 67t-214 136t-150.5 214.5t-56.5 303.5q0 187 61.5 327t171 233t259.5 139t327 46q112 0 215.5 -21.5t208.5 -52.5l-31 -309q-93 51 -183 75.5t-189 24.5q-102 0 -184.5 -34.5t-141 -96
t-90 -146.5t-31.5 -185q0 -106 35.5 -189.5t99 -141.5t151 -89t191.5 -31q94 0 186.5 21.5t170.5 52.5z" />
    <glyph glyph-name="Egrave" unicode="&#xc8;" 
d="M123 1430h1007v-271h-626v-295h592v-270h-592v-324h649v-270h-1030v1430zM531 1505l-264 295h383l139 -295h-258z" />
    <glyph glyph-name="Eacute" unicode="&#xc9;" 
d="M123 1430h1007v-271h-626v-295h592v-270h-592v-324h649v-270h-1030v1430zM598 1800h383l-264 -295h-258z" />
    <glyph glyph-name="Ecircumflex" unicode="&#xca;" 
d="M123 1430h1007v-271h-626v-295h592v-270h-592v-324h649v-270h-1030v1430zM463 1800h332l223 -295h-256l-133 160l-141 -160h-256z" />
    <glyph glyph-name="Edieresis" unicode="&#xcb;" 
d="M123 1430h1007v-271h-626v-295h592v-270h-592v-324h649v-270h-1030v1430zM246 1800h295v-295h-295v295zM713 1800h295v-295h-295v295z" />
    <glyph glyph-name="Igrave" unicode="&#xcc;" horiz-adv-x="684" 
d="M152 1430h380v-1430h-380v1430zM248 1505l-264 295h383l139 -295h-258z" />
    <glyph glyph-name="Iacute" unicode="&#xcd;" horiz-adv-x="684" 
d="M152 1430h380v-1430h-380v1430zM318 1800h383l-264 -295h-258z" />
    <glyph glyph-name="Icircumflex" unicode="&#xce;" horiz-adv-x="684" 
d="M152 1430h380v-1430h-380v1430zM180 1800h332l223 -295h-256l-133 160l-141 -160h-256z" />
    <glyph glyph-name="Idieresis" unicode="&#xcf;" horiz-adv-x="684" 
d="M152 1430h380v-1430h-380v1430zM-37 1800h295v-295h-295v295zM430 1800h295v-295h-295v295z" />
    <glyph glyph-name="Eth" unicode="&#xd0;" horiz-adv-x="1593" 
d="M133 639h-137v209h137v582h520q187 0 342.5 -33t267.5 -114t174 -218t62 -344q0 -133 -28.5 -238.5t-82 -185.5t-129 -136.5t-169.5 -92t-204.5 -52t-232.5 -16.5h-520v639zM514 848h342v-209h-342v-356h148q215 0 329.5 108.5t114.5 323.5q0 108 -30 189t-87 135
t-139.5 81t-187.5 27h-148v-299z" />
    <glyph glyph-name="Ntilde" unicode="&#xd1;" horiz-adv-x="1593" 
d="M139 1430h486l483 -971h4l-6 971h348v-1430h-473l-500 977h-4l12 -977h-350v1430zM1200 1800q-6 -59 -24.5 -111.5t-51 -92t-79 -62.5t-109.5 -23q-40 0 -81 11.5t-79 25.5t-72 25.5t-59 11.5q-48 0 -69 -20.5t-31 -59.5h-147q6 54 24 106t50 92.5t78 65.5t108 25
q41 0 81 -11.5t77.5 -25.5t71.5 -25.5t63 -11.5q88 0 102 80h147z" />
    <glyph glyph-name="Ograve" unicode="&#xd2;" horiz-adv-x="1593" 
d="M473 715q0 -89 18.5 -171.5t57.5 -146t100.5 -101.5t147.5 -38t147.5 38t100.5 101.5t57 146t18 171.5q0 92 -18 175t-57 145.5t-100.5 99t-147.5 36.5t-147.5 -36.5t-100.5 -99t-57.5 -145.5t-18.5 -175zM80 715q0 172 46 309t136.5 232.5t224.5 146.5t310 51t310 -51
t224 -146.5t136 -232.5t46 -309q0 -171 -46.5 -308t-137 -233t-224 -147.5t-308.5 -51.5q-176 0 -309.5 51.5t-224.5 147.5t-137 233t-46 308zM703 1505l-264 295h383l139 -295h-258z" />
    <glyph glyph-name="Oacute" unicode="&#xd3;" horiz-adv-x="1593" 
d="M473 715q0 -89 18.5 -171.5t57.5 -146t100.5 -101.5t147.5 -38t147.5 38t100.5 101.5t57 146t18 171.5q0 92 -18 175t-57 145.5t-100.5 99t-147.5 36.5t-147.5 -36.5t-100.5 -99t-57.5 -145.5t-18.5 -175zM80 715q0 172 46 309t136.5 232.5t224.5 146.5t310 51t310 -51
t224 -146.5t136 -232.5t46 -309q0 -171 -46.5 -308t-137 -233t-224 -147.5t-308.5 -51.5q-176 0 -309.5 51.5t-224.5 147.5t-137 233t-46 308zM770 1800h383l-264 -295h-258z" />
    <glyph glyph-name="Ocircumflex" unicode="&#xd4;" horiz-adv-x="1593" 
d="M473 715q0 -89 18.5 -171.5t57.5 -146t100.5 -101.5t147.5 -38t147.5 38t100.5 101.5t57 146t18 171.5q0 92 -18 175t-57 145.5t-100.5 99t-147.5 36.5t-147.5 -36.5t-100.5 -99t-57.5 -145.5t-18.5 -175zM80 715q0 172 46 309t136.5 232.5t224.5 146.5t310 51t310 -51
t224 -146.5t136 -232.5t46 -309q0 -171 -46.5 -308t-137 -233t-224 -147.5t-308.5 -51.5q-176 0 -309.5 51.5t-224.5 147.5t-137 233t-46 308zM635 1800h332l223 -295h-256l-133 160l-141 -160h-256z" />
    <glyph glyph-name="Otilde" unicode="&#xd5;" horiz-adv-x="1593" 
d="M473 715q0 -89 18.5 -171.5t57.5 -146t100.5 -101.5t147.5 -38t147.5 38t100.5 101.5t57 146t18 171.5q0 92 -18 175t-57 145.5t-100.5 99t-147.5 36.5t-147.5 -36.5t-100.5 -99t-57.5 -145.5t-18.5 -175zM80 715q0 172 46 309t136.5 232.5t224.5 146.5t310 51t310 -51
t224 -146.5t136 -232.5t46 -309q0 -171 -46.5 -308t-137 -233t-224 -147.5t-308.5 -51.5q-176 0 -309.5 51.5t-224.5 147.5t-137 233t-46 308zM1200 1800q-6 -59 -24.5 -111.5t-51 -92t-79 -62.5t-109.5 -23q-40 0 -81 11.5t-79 25.5t-72 25.5t-59 11.5q-48 0 -69 -20.5
t-31 -59.5h-147q6 54 24 106t50 92.5t78 65.5t108 25q41 0 81 -11.5t77.5 -25.5t71.5 -25.5t63 -11.5q88 0 102 80h147z" />
    <glyph glyph-name="Odieresis" unicode="&#xd6;" horiz-adv-x="1593" 
d="M473 715q0 -89 18.5 -171.5t57.5 -146t100.5 -101.5t147.5 -38t147.5 38t100.5 101.5t57 146t18 171.5q0 92 -18 175t-57 145.5t-100.5 99t-147.5 36.5t-147.5 -36.5t-100.5 -99t-57.5 -145.5t-18.5 -175zM80 715q0 172 46 309t136.5 232.5t224.5 146.5t310 51t310 -51
t224 -146.5t136 -232.5t46 -309q0 -171 -46.5 -308t-137 -233t-224 -147.5t-308.5 -51.5q-176 0 -309.5 51.5t-224.5 147.5t-137 233t-46 308zM418 1800h295v-295h-295v295zM885 1800h295v-295h-295v295z" />
    <glyph glyph-name="multiply" unicode="&#xd7;" horiz-adv-x="1229" 
d="M127 829l176 177l311 -312l312 312l176 -177l-314 -311l314 -311l-176 -176l-312 313l-311 -313l-176 176l311 311z" />
    <glyph glyph-name="Oslash" unicode="&#xd8;" horiz-adv-x="1593" 
d="M217 233q-137 185 -137 482q0 172 46 309t136.5 232.5t224.5 146.5t310 51q138 0 246.5 -30.5t195.5 -90.5l172 187l131 -123l-172 -187q143 -191 143 -495q0 -171 -46.5 -308t-137 -233t-224 -147.5t-308.5 -51.5q-280 0 -455 131l-180 -194l-131 123zM578 358
q36 -48 90 -74t129 -26q86 0 147.5 38t100.5 101.5t57 146t18 171.5q0 110 -24 200zM1008 1083q-39 42 -91.5 65t-119.5 23q-86 0 -147.5 -36.5t-100.5 -99t-57.5 -145.5t-18.5 -175q0 -48 5 -94.5t18 -88.5z" />
    <glyph glyph-name="Ugrave" unicode="&#xd9;" horiz-adv-x="1479" 
d="M1366 543q0 -147 -45.5 -254t-128 -177t-198 -103.5t-255.5 -33.5t-255 33.5t-197.5 103.5t-128 177t-45.5 254v887h381v-824q0 -71 11 -134t38.5 -110.5t75 -75.5t120.5 -28t120.5 28t75.5 75.5t39 110.5t11 134v824h381v-887zM645 1505l-264 295h383l139 -295h-258z
" />
    <glyph glyph-name="Uacute" unicode="&#xda;" horiz-adv-x="1479" 
d="M1366 543q0 -147 -45.5 -254t-128 -177t-198 -103.5t-255.5 -33.5t-255 33.5t-197.5 103.5t-128 177t-45.5 254v887h381v-824q0 -71 11 -134t38.5 -110.5t75 -75.5t120.5 -28t120.5 28t75.5 75.5t39 110.5t11 134v824h381v-887zM713 1800h383l-264 -295h-258z" />
    <glyph glyph-name="Ucircumflex" unicode="&#xdb;" horiz-adv-x="1479" 
d="M1366 543q0 -147 -45.5 -254t-128 -177t-198 -103.5t-255.5 -33.5t-255 33.5t-197.5 103.5t-128 177t-45.5 254v887h381v-824q0 -71 11 -134t38.5 -110.5t75 -75.5t120.5 -28t120.5 28t75.5 75.5t39 110.5t11 134v824h381v-887zM577 1800h332l223 -295h-256l-133 160
l-141 -160h-256z" />
    <glyph glyph-name="Udieresis" unicode="&#xdc;" horiz-adv-x="1479" 
d="M1366 543q0 -147 -45.5 -254t-128 -177t-198 -103.5t-255.5 -33.5t-255 33.5t-197.5 103.5t-128 177t-45.5 254v887h381v-824q0 -71 11 -134t38.5 -110.5t75 -75.5t120.5 -28t120.5 28t75.5 75.5t39 110.5t11 134v824h381v-887zM360 1800h295v-295h-295v295zM827 1800
h295v-295h-295v295z" />
    <glyph glyph-name="Yacute" unicode="&#xdd;" horiz-adv-x="1479" 
d="M551 539l-528 891h438l280 -574l277 574h438l-524 -891v-539h-381v539zM741 1800h383l-264 -295h-258z" />
    <glyph glyph-name="Thorn" unicode="&#xde;" 
d="M494 592h98q49 0 92 9.5t75 32.5t50 60.5t18 93.5t-18 93t-50 59.5t-75 31.5t-92 9h-98v-389zM113 1430h381v-179h73q164 0 285 -25t200 -80.5t117.5 -145t38.5 -218.5q0 -236 -150 -348q-148 -112 -417 -112h-147v-322h-381v1430z" />
    <glyph glyph-name="germandbls" unicode="&#xdf;" horiz-adv-x="1366" 
d="M115 1012q0 172 54 279q54 109 139 168q86 62 187 81q103 21 201 21q66 0 131.5 -9t125 -29t110.5 -52.5t88.5 -79.5t58.5 -109.5t21 -142.5q0 -143 -64 -222q-62 -79 -192 -124v-5q169 -26 239 -120q72 -93 72 -236q0 -88 -21 -155t-58 -116.5t-88 -83t-109.5 -53.5
t-121.5 -28t-126 -8q-60 0 -104 4t-78 8l10 268q31 -4 64.5 -7t68.5 -3q40 0 75.5 10.5t62 35t42 65t15.5 100.5q0 98 -55 149q-53 52 -132 52h-51q-13 0 -25 -1t-24 -3v262h51q78 0 129 54t51 140q0 97 -45.5 145t-130.5 48q-59 0 -98 -23t-62 -61.5t-33 -88.5t-10 -104
v-1038h-368v1012z" />
    <glyph glyph-name="agrave" unicode="&#xe0;" 
d="M408 338q0 -27 11.5 -49t31.5 -37t47.5 -23t60.5 -8q52 0 94 22t71.5 57.5t45.5 80.5t16 92q-34 2 -73.5 4t-81.5 2q-93 0 -159 -32q-64 -31 -64 -109zM813 0q-2 43 -5 84.5t-3 83.5h-4q-32 -50 -67 -86.5t-76.5 -60t-89.5 -35t-105 -11.5q-79 0 -151 20t-127.5 61.5
t-88.5 104.5t-33 150q0 124 58 195t144 109q43 19 87.5 31.5t92.5 17.5q96 12 169 12q45 0 91.5 -4t80.5 -10q0 54 -19.5 89.5t-53 56.5t-77.5 29.5t-93 8.5q-91 0 -176.5 -18.5t-163.5 -61.5l-6 250q99 42 202.5 59t223.5 17q102 0 194 -23.5t161.5 -76t110.5 -137
t41 -206.5v-397q0 -64 4.5 -126.5t16.5 -125.5h-338zM531 1198l-264 295h383l139 -295h-258z" />
    <glyph glyph-name="aacute" unicode="&#xe1;" 
d="M408 338q0 -27 11.5 -49t31.5 -37t47.5 -23t60.5 -8q52 0 94 22t71.5 57.5t45.5 80.5t16 92q-34 2 -73.5 4t-81.5 2q-93 0 -159 -32q-64 -31 -64 -109zM813 0q-2 43 -5 84.5t-3 83.5h-4q-32 -50 -67 -86.5t-76.5 -60t-89.5 -35t-105 -11.5q-79 0 -151 20t-127.5 61.5
t-88.5 104.5t-33 150q0 124 58 195t144 109q43 19 87.5 31.5t92.5 17.5q96 12 169 12q45 0 91.5 -4t80.5 -10q0 54 -19.5 89.5t-53 56.5t-77.5 29.5t-93 8.5q-91 0 -176.5 -18.5t-163.5 -61.5l-6 250q99 42 202.5 59t223.5 17q102 0 194 -23.5t161.5 -76t110.5 -137
t41 -206.5v-397q0 -64 4.5 -126.5t16.5 -125.5h-338zM627 1493h383l-264 -295h-258z" />
    <glyph glyph-name="acircumflex" unicode="&#xe2;" 
d="M408 338q0 -27 11.5 -49t31.5 -37t47.5 -23t60.5 -8q52 0 94 22t71.5 57.5t45.5 80.5t16 92q-34 2 -73.5 4t-81.5 2q-93 0 -159 -32q-64 -31 -64 -109zM813 0q-2 43 -5 84.5t-3 83.5h-4q-32 -50 -67 -86.5t-76.5 -60t-89.5 -35t-105 -11.5q-79 0 -151 20t-127.5 61.5
t-88.5 104.5t-33 150q0 124 58 195t144 109q43 19 87.5 31.5t92.5 17.5q96 12 169 12q45 0 91.5 -4t80.5 -10q0 54 -19.5 89.5t-53 56.5t-77.5 29.5t-93 8.5q-91 0 -176.5 -18.5t-163.5 -61.5l-6 250q99 42 202.5 59t223.5 17q102 0 194 -23.5t161.5 -76t110.5 -137
t41 -206.5v-397q0 -64 4.5 -126.5t16.5 -125.5h-338zM463 1493h332l223 -295h-256l-133 160l-141 -160h-256z" />
    <glyph glyph-name="atilde" unicode="&#xe3;" 
d="M408 338q0 -27 11.5 -49t31.5 -37t47.5 -23t60.5 -8q52 0 94 22t71.5 57.5t45.5 80.5t16 92q-34 2 -73.5 4t-81.5 2q-93 0 -159 -32q-64 -31 -64 -109zM813 0q-2 43 -5 84.5t-3 83.5h-4q-32 -50 -67 -86.5t-76.5 -60t-89.5 -35t-105 -11.5q-79 0 -151 20t-127.5 61.5
t-88.5 104.5t-33 150q0 124 58 195t144 109q43 19 87.5 31.5t92.5 17.5q96 12 169 12q45 0 91.5 -4t80.5 -10q0 54 -19.5 89.5t-53 56.5t-77.5 29.5t-93 8.5q-91 0 -176.5 -18.5t-163.5 -61.5l-6 250q99 42 202.5 59t223.5 17q102 0 194 -23.5t161.5 -76t110.5 -137
t41 -206.5v-397q0 -64 4.5 -126.5t16.5 -125.5h-338zM1028 1493q-6 -59 -24.5 -111.5t-51 -92t-79 -62.5t-109.5 -23q-40 0 -81 11.5t-79 25.5t-72 25.5t-59 11.5q-48 0 -69 -20.5t-31 -59.5h-147q6 54 24 106t50 92.5t78 65.5t108 25q41 0 81 -11.5t77.5 -25.5t71.5 -25.5
t63 -11.5q88 0 102 80h147z" />
    <glyph glyph-name="adieresis" unicode="&#xe4;" 
d="M408 338q0 -27 11.5 -49t31.5 -37t47.5 -23t60.5 -8q52 0 94 22t71.5 57.5t45.5 80.5t16 92q-34 2 -73.5 4t-81.5 2q-93 0 -159 -32q-64 -31 -64 -109zM813 0q-2 43 -5 84.5t-3 83.5h-4q-32 -50 -67 -86.5t-76.5 -60t-89.5 -35t-105 -11.5q-79 0 -151 20t-127.5 61.5
t-88.5 104.5t-33 150q0 124 58 195t144 109q43 19 87.5 31.5t92.5 17.5q96 12 169 12q45 0 91.5 -4t80.5 -10q0 54 -19.5 89.5t-53 56.5t-77.5 29.5t-93 8.5q-91 0 -176.5 -18.5t-163.5 -61.5l-6 250q99 42 202.5 59t223.5 17q102 0 194 -23.5t161.5 -76t110.5 -137
t41 -206.5v-397q0 -64 4.5 -126.5t16.5 -125.5h-338zM246 1493h295v-295h-295v295zM713 1493h295v-295h-295v295z" />
    <glyph glyph-name="aring" unicode="&#xe5;" 
d="M408 338q0 -27 11.5 -49t31.5 -37t47.5 -23t60.5 -8q52 0 94 22t71.5 57.5t45.5 80.5t16 92q-34 2 -73.5 4t-81.5 2q-93 0 -159 -32q-64 -31 -64 -109zM813 0q-2 43 -5 84.5t-3 83.5h-4q-32 -50 -67 -86.5t-76.5 -60t-89.5 -35t-105 -11.5q-79 0 -151 20t-127.5 61.5
t-88.5 104.5t-33 150q0 124 58 195t144 109q43 19 87.5 31.5t92.5 17.5q96 12 169 12q45 0 91.5 -4t80.5 -10q0 54 -19.5 89.5t-53 56.5t-77.5 29.5t-93 8.5q-91 0 -176.5 -18.5t-163.5 -61.5l-6 250q99 42 202.5 59t223.5 17q102 0 194 -23.5t161.5 -76t110.5 -137
t41 -206.5v-397q0 -64 4.5 -126.5t16.5 -125.5h-338zM529 1389q0 -42 28 -70.5t70 -28.5t70 28.5t28 70.5t-28 70t-70 28t-70 -28t-28 -70zM398 1389q0 47 18 89t49 73t73 49t89 18t89 -18t73 -49t49 -73t18 -89q0 -48 -18 -89.5t-49 -73t-73 -49.5t-89 -18t-89 18t-73 49.5
t-49 73t-18 89.5z" />
    <glyph glyph-name="ae" unicode="&#xe6;" horiz-adv-x="1933" 
d="M1546 635q0 92 -47 157q-47 66 -158 66q-100 0 -149 -66q-49 -64 -55 -157h409zM389 340q0 -57 43 -88t109 -31q52 0 94 22.5t71.5 59.5t45.5 83t16 93h-141q-106 0 -172 -31q-66 -30 -66 -108zM1780 43q-91 -35 -188.5 -51.5t-202.5 -16.5q-68 0 -136.5 8.5t-132 34
t-119 72.5t-98.5 125q-39 -71 -88 -117.5t-107.5 -73.5t-125 -38t-138.5 -11q-79 0 -151 20t-127 61.5t-88 105t-33 151.5q0 122 58 193t144 109q43 19 87.5 31.5t92.5 17.5q94 12 169 12q45 0 91 -3t81 -7q0 52 -19.5 87t-53 55.5t-78 29t-93.5 8.5q-91 0 -176.5 -18.5
t-163.5 -61.5l-6 252q99 39 202.5 56.5t223.5 17.5q55 -2 105.5 -11t98.5 -23q96 -29 155 -97q72 57 165 94t211 37q149 0 252 -49t166.5 -131.5t92 -191t28.5 -226.5v-68h-737q16 -111 97 -158t216 -47q76 0 158.5 18.5t167.5 63.5v-260z" />
    <glyph glyph-name="ccedilla" unicode="&#xe7;" horiz-adv-x="1024" 
d="M950 762q-51 31 -104 45t-119 14q-60 0 -111.5 -20t-90 -58t-60 -93t-21.5 -124q0 -64 25 -116t67 -88.5t97 -56t115 -19.5q63 0 122 13t107 38l8 -274q-70 -23 -148 -35.5t-153 -12.5h-16q-7 0 -15 2l-45 -110q23 4 43.5 7t55.5 3q29 0 57.5 -9.5t51 -30.5t36.5 -55
t14 -83q0 -43 -21.5 -72.5t-58 -47.5t-86 -26t-104.5 -8q-84 0 -143.5 12.5t-112.5 34.5l35 95q45 -21 89 -32t89 -11q49 0 76.5 14t27.5 49q0 21 -6.5 35t-17 22.5t-24.5 11.5t-29 3q-27 0 -58 -12l-80 49l82 178q-101 18 -186 63t-146 114t-95 160t-34 201q0 132 47.5 236
t131 176t197 110t245.5 38q85 0 157 -14.5t136 -45.5z" />
    <glyph glyph-name="egrave" unicode="&#xe8;" 
d="M842 635q0 92 -47 157q-47 66 -158 66q-101 0 -150 -66q-49 -64 -55 -157h410zM436 426q17 -111 97.5 -158t216.5 -47q75 0 157.5 18.5t167.5 63.5v-260q-91 -35 -188.5 -51.5t-202.5 -16.5q-132 0 -245.5 38t-197 110t-131 176t-47.5 236t43 235.5t119 175t181 109
t229 37.5q148 0 250.5 -49t166.5 -131.5t93 -191t29 -226.5v-68h-738zM531 1198l-264 295h383l139 -295h-258z" />
    <glyph glyph-name="eacute" unicode="&#xe9;" 
d="M842 635q0 92 -47 157q-47 66 -158 66q-101 0 -150 -66q-49 -64 -55 -157h410zM436 426q17 -111 97.5 -158t216.5 -47q75 0 157.5 18.5t167.5 63.5v-260q-91 -35 -188.5 -51.5t-202.5 -16.5q-132 0 -245.5 38t-197 110t-131 176t-47.5 236t43 235.5t119 175t181 109
t229 37.5q148 0 250.5 -49t166.5 -131.5t93 -191t29 -226.5v-68h-738zM627 1493h383l-264 -295h-258z" />
    <glyph glyph-name="ecircumflex" unicode="&#xea;" 
d="M842 635q0 92 -47 157q-47 66 -158 66q-101 0 -150 -66q-49 -64 -55 -157h410zM436 426q17 -111 97.5 -158t216.5 -47q75 0 157.5 18.5t167.5 63.5v-260q-91 -35 -188.5 -51.5t-202.5 -16.5q-132 0 -245.5 38t-197 110t-131 176t-47.5 236t43 235.5t119 175t181 109
t229 37.5q148 0 250.5 -49t166.5 -131.5t93 -191t29 -226.5v-68h-738zM463 1493h332l223 -295h-256l-133 160l-141 -160h-256z" />
    <glyph glyph-name="edieresis" unicode="&#xeb;" 
d="M842 635q0 92 -47 157q-47 66 -158 66q-101 0 -150 -66q-49 -64 -55 -157h410zM436 426q17 -111 97.5 -158t216.5 -47q75 0 157.5 18.5t167.5 63.5v-260q-91 -35 -188.5 -51.5t-202.5 -16.5q-132 0 -245.5 38t-197 110t-131 176t-47.5 236t43 235.5t119 175t181 109
t229 37.5q148 0 250.5 -49t166.5 -131.5t93 -191t29 -226.5v-68h-738zM246 1493h295v-295h-295v295zM713 1493h295v-295h-295v295z" />
    <glyph glyph-name="igrave" unicode="&#xec;" horiz-adv-x="684" 
d="M158 1067h368v-1067h-368v1067zM248 1198l-264 295h383l139 -295h-258z" />
    <glyph glyph-name="iacute" unicode="&#xed;" horiz-adv-x="684" 
d="M158 1067h368v-1067h-368v1067zM344 1493h383l-264 -295h-258z" />
    <glyph glyph-name="icircumflex" unicode="&#xee;" horiz-adv-x="684" 
d="M158 1067h368v-1067h-368v1067zM180 1493h332l223 -295h-256l-133 160l-141 -160h-256z" />
    <glyph glyph-name="idieresis" unicode="&#xef;" horiz-adv-x="684" 
d="M158 1067h368v-1067h-368v1067zM-37 1493h295v-295h-295v295zM430 1493h295v-295h-295v295z" />
    <glyph glyph-name="eth" unicode="&#xf0;" horiz-adv-x="1368" 
d="M385 1317q-48 20 -94 36.5t-88 32.5l213 224q87 -30 165.5 -63.5t151.5 -71.5l299 135l127 -131l-246 -111q89 -62 161.5 -137.5t123.5 -167.5t79 -202.5t28 -242.5q0 -148 -42.5 -267t-123.5 -202.5t-199.5 -128.5t-271.5 -45q-284 0 -445 131q-160 132 -160 404
q0 106 37 202.5t104 169t158.5 115t200.5 41.5q50 0 100 -8t93.5 -27.5t78.5 -51t56 -79.5l4 5q-35 112 -120 195q-43 42 -90 78.5t-101 68.5l-295 -136l-123 134zM444 510q0 -50 12.5 -99.5t40 -89t71.5 -64t108 -24.5q67 0 114.5 24.5t77 64t43 89.5t13.5 101t-13.5 99
t-43 85.5t-77 60.5t-114.5 23q-64 0 -108 -23t-71.5 -60.5t-40 -86t-12.5 -100.5z" />
    <glyph glyph-name="ntilde" unicode="&#xf1;" horiz-adv-x="1366" 
d="M115 1067h336v-197h4q27 58 67.5 100t91 69t109 40t121.5 13q109 0 186.5 -35.5t126.5 -95t71.5 -136.5t22.5 -159v-666h-368v516q0 150 -48 209q-47 59 -122 59q-115 0 -172.5 -79.5t-57.5 -253.5v-451h-368v1067zM1085 1493q-6 -59 -24.5 -111.5t-51 -92t-79 -62.5
t-109.5 -23q-40 0 -81 11.5t-79 25.5t-72 25.5t-59 11.5q-48 0 -69 -20.5t-31 -59.5h-147q6 54 24 106t50 92.5t78 65.5t108 25q41 0 81 -11.5t77.5 -25.5t71.5 -25.5t63 -11.5q88 0 102 80h147z" />
    <glyph glyph-name="ograve" unicode="&#xf2;" horiz-adv-x="1368" 
d="M684 233q63 0 108.5 25t75 66t43 95t13.5 113t-13.5 113.5t-43 96.5t-75 67t-108.5 25t-108.5 -25t-75 -67t-43 -96.5t-13.5 -113.5t13.5 -113t43 -95t75 -66t108.5 -25zM684 -25q-132 0 -245.5 37.5t-197 109t-131 175t-47.5 235.5t47.5 236t131 176t197 110t245.5 38
q131 0 244.5 -38t197 -110t131.5 -176t48 -236t-48 -235.5t-131.5 -175t-197 -109t-244.5 -37.5zM590 1198l-264 295h383l139 -295h-258z" />
    <glyph glyph-name="oacute" unicode="&#xf3;" horiz-adv-x="1368" 
d="M684 233q63 0 108.5 25t75 66t43 95t13.5 113t-13.5 113.5t-43 96.5t-75 67t-108.5 25t-108.5 -25t-75 -67t-43 -96.5t-13.5 -113.5t13.5 -113t43 -95t75 -66t108.5 -25zM684 -25q-132 0 -245.5 37.5t-197 109t-131 175t-47.5 235.5t47.5 236t131 176t197 110t245.5 38
q131 0 244.5 -38t197 -110t131.5 -176t48 -236t-48 -235.5t-131.5 -175t-197 -109t-244.5 -37.5zM686 1493h383l-264 -295h-258z" />
    <glyph glyph-name="ocircumflex" unicode="&#xf4;" horiz-adv-x="1368" 
d="M684 233q63 0 108.5 25t75 66t43 95t13.5 113t-13.5 113.5t-43 96.5t-75 67t-108.5 25t-108.5 -25t-75 -67t-43 -96.5t-13.5 -113.5t13.5 -113t43 -95t75 -66t108.5 -25zM684 -25q-132 0 -245.5 37.5t-197 109t-131 175t-47.5 235.5t47.5 236t131 176t197 110t245.5 38
q131 0 244.5 -38t197 -110t131.5 -176t48 -236t-48 -235.5t-131.5 -175t-197 -109t-244.5 -37.5zM522 1493h332l223 -295h-256l-133 160l-141 -160h-256z" />
    <glyph glyph-name="otilde" unicode="&#xf5;" horiz-adv-x="1368" 
d="M684 233q63 0 108.5 25t75 66t43 95t13.5 113t-13.5 113.5t-43 96.5t-75 67t-108.5 25t-108.5 -25t-75 -67t-43 -96.5t-13.5 -113.5t13.5 -113t43 -95t75 -66t108.5 -25zM684 -25q-132 0 -245.5 37.5t-197 109t-131 175t-47.5 235.5t47.5 236t131 176t197 110t245.5 38
q131 0 244.5 -38t197 -110t131.5 -176t48 -236t-48 -235.5t-131.5 -175t-197 -109t-244.5 -37.5zM1087 1493q-6 -59 -24.5 -111.5t-51 -92t-79 -62.5t-109.5 -23q-40 0 -81 11.5t-79 25.5t-72 25.5t-59 11.5q-48 0 -69 -20.5t-31 -59.5h-147q6 54 24 106t50 92.5t78 65.5
t108 25q41 0 81 -11.5t77.5 -25.5t71.5 -25.5t63 -11.5q88 0 102 80h147z" />
    <glyph glyph-name="odieresis" unicode="&#xf6;" horiz-adv-x="1368" 
d="M684 233q63 0 108.5 25t75 66t43 95t13.5 113t-13.5 113.5t-43 96.5t-75 67t-108.5 25t-108.5 -25t-75 -67t-43 -96.5t-13.5 -113.5t13.5 -113t43 -95t75 -66t108.5 -25zM684 -25q-132 0 -245.5 37.5t-197 109t-131 175t-47.5 235.5t47.5 236t131 176t197 110t245.5 38
q131 0 244.5 -38t197 -110t131.5 -176t48 -236t-48 -235.5t-131.5 -175t-197 -109t-244.5 -37.5zM305 1493h295v-295h-295v295zM772 1493h295v-295h-295v295z" />
    <glyph glyph-name="divide" unicode="&#xf7;" horiz-adv-x="1229" 
d="M422 92q0 39 15 73.5t41 61t60.5 41.5t73.5 15t73.5 -15t61 -41.5t41.5 -61t15 -73.5t-15 -73.5t-41.5 -60.5t-61 -41t-73.5 -15t-73.5 15t-60.5 41t-41 60.5t-15 73.5zM422 944q0 39 15 73.5t41 61t60.5 41.5t73.5 15t73.5 -15t61 -41.5t41.5 -61t15 -73.5t-15 -73.5
t-41.5 -60.5t-61 -41t-73.5 -15t-73.5 15t-60.5 41t-41 60.5t-15 73.5zM96 647h1037v-258h-1037v258z" />
    <glyph glyph-name="oslash" unicode="&#xf8;" horiz-adv-x="1368" 
d="M205 158q-66 69 -104 163t-38 211q0 132 47.5 236t131 176t197 110t245.5 38q97 0 183.5 -19t158.5 -61l154 159l125 -118l-140 -146q66 -72 103 -164.5t37 -210.5q0 -132 -48 -235.5t-131.5 -175t-197 -109t-244.5 -37.5q-191 0 -340 80l-154 -159l-124 118zM817 795
q-56 39 -133 39q-63 0 -108.5 -25t-75 -67t-43 -96.5t-13.5 -113.5q0 -63 13 -112zM553 272q51 -39 131 -39q63 0 108.5 25t75 66t43 95t13.5 113q0 60 -13 111z" />
    <glyph glyph-name="ugrave" unicode="&#xf9;" horiz-adv-x="1366" 
d="M1251 0h-336v197h-4q-27 -59 -67.5 -101t-91 -69t-109 -39.5t-121.5 -12.5q-109 0 -186.5 35.5t-126.5 94.5t-71.5 136t-22.5 160v666h368v-516q0 -76 12.5 -127t35 -82.5t53.5 -45t69 -13.5q115 0 172.5 79.5t57.5 253.5v451h368v-1067zM588 1198l-264 295h383l139 -295
h-258z" />
    <glyph glyph-name="uacute" unicode="&#xfa;" horiz-adv-x="1366" 
d="M1251 0h-336v197h-4q-27 -59 -67.5 -101t-91 -69t-109 -39.5t-121.5 -12.5q-109 0 -186.5 35.5t-126.5 94.5t-71.5 136t-22.5 160v666h368v-516q0 -76 12.5 -127t35 -82.5t53.5 -45t69 -13.5q115 0 172.5 79.5t57.5 253.5v451h368v-1067zM684 1493h383l-264 -295h-258z
" />
    <glyph glyph-name="ucircumflex" unicode="&#xfb;" horiz-adv-x="1366" 
d="M1251 0h-336v197h-4q-27 -59 -67.5 -101t-91 -69t-109 -39.5t-121.5 -12.5q-109 0 -186.5 35.5t-126.5 94.5t-71.5 136t-22.5 160v666h368v-516q0 -76 12.5 -127t35 -82.5t53.5 -45t69 -13.5q115 0 172.5 79.5t57.5 253.5v451h368v-1067zM520 1493h332l223 -295h-256
l-133 160l-141 -160h-256z" />
    <glyph glyph-name="udieresis" unicode="&#xfc;" horiz-adv-x="1366" 
d="M1251 0h-336v197h-4q-27 -59 -67.5 -101t-91 -69t-109 -39.5t-121.5 -12.5q-109 0 -186.5 35.5t-126.5 94.5t-71.5 136t-22.5 160v666h368v-516q0 -76 12.5 -127t35 -82.5t53.5 -45t69 -13.5q115 0 172.5 79.5t57.5 253.5v451h368v-1067zM303 1493h295v-295h-295v295z
M770 1493h295v-295h-295v295z" />
    <glyph glyph-name="yacute" unicode="&#xfd;" 
d="M117 -150q37 -12 71.5 -17t73.5 -5q69 0 117.5 37.5t69.5 109.5l-433 1092h398l229 -696h4l219 696h369l-391 -993q-39 -102 -78 -196t-96 -169q-28 -37 -62 -67.5t-76.5 -52t-94.5 -33t-115 -11.5q-59 0 -116 6t-114 19zM627 1493h383l-264 -295h-258z" />
    <glyph glyph-name="thorn" unicode="&#xfe;" horiz-adv-x="1368" 
d="M924 545q0 53 -14.5 101t-43 84t-70.5 57.5t-96 21.5q-103 0 -164 -79t-61 -200q0 -58 17.5 -108t48 -86.5t71.5 -57t88 -20.5q106 0 164 79q60 79 60 208zM106 1536h371v-606h4q72 90 164 126t203 36q110 0 195 -48t143.5 -125.5t88.5 -173.5t30 -192q0 -118 -32 -223
t-93.5 -184t-153 -125t-209.5 -46q-98 0 -192 39t-146 136h-4v-580h-369v1966z" />
    <glyph glyph-name="ydieresis" unicode="&#xff;" 
d="M117 -150q37 -12 71.5 -17t73.5 -5q69 0 117.5 37.5t69.5 109.5l-433 1092h398l229 -696h4l219 696h369l-391 -993q-39 -102 -78 -196t-96 -169q-28 -37 -62 -67.5t-76.5 -52t-94.5 -33t-115 -11.5q-59 0 -116 6t-114 19zM246 1493h295v-295h-295v295zM713 1493h295v-295
h-295v295z" />
    <glyph glyph-name="dotlessi" unicode="&#x131;" horiz-adv-x="684" 
d="M158 1067h368v-1067h-368v1067z" />
    <glyph glyph-name="Lslash" unicode="&#x141;" horiz-adv-x="1139" 
d="M133 426l-133 -78v223l133 78v781h381v-556l375 222v-224l-375 -221v-368h590v-283h-971v426z" />
    <glyph glyph-name="lslash" unicode="&#x142;" horiz-adv-x="684" 
d="M158 565l-158 -94v205l158 94v766h368v-549l158 92v-205l-158 -92v-782h-368v565z" />
    <glyph glyph-name="OE" unicode="&#x152;" horiz-adv-x="2048" 
d="M1008 1151q-60 0 -124 4t-130 4q-99 0 -162 -36t-99 -97t-49.5 -141.5t-13.5 -169.5q0 -84 21 -164t65.5 -142.5t112.5 -100.5t162 -38q63 0 119 4.5t98 4.5v872zM1989 1159h-594v-295h555v-270h-549v-324h610v-270h-852q-103 0 -201.5 -6t-203.5 -6q-176 0 -309.5 51.5
t-224.5 146.5t-137 229t-46 300t46 300.5t136.5 229.5t224.5 146t310 51q144 0 284.5 -6t282.5 -6h668v-271z" />
    <glyph glyph-name="oe" unicode="&#x153;" horiz-adv-x="2048" 
d="M1661 635q0 92 -47 157q-47 66 -158 66q-101 0 -150 -66q-49 -64 -55 -157h410zM436 532q0 -58 13.5 -114t41 -99.5t69.5 -70.5t99 -27q58 0 100 27t69.5 70.5t41 99.5t13.5 114t-13.5 114.5t-41 100.5t-69.5 71.5t-100 27.5q-57 0 -99 -27.5t-69.5 -71.5t-41 -100.5
t-13.5 -114.5zM55 532q1 141 47.5 246t126 174.5t184.5 104t222 35.5q135 0 239 -33q105 -33 183 -129q43 47 92.5 78.5t101.5 50t103.5 26t99.5 7.5q99 0 177 -22.5t138 -62.5t102.5 -96t69.5 -122t39.5 -141t12.5 -154v-68h-738q17 -111 98 -158t216 -47q76 0 158 18.5
t167 63.5v-260q-91 -35 -188 -51.5t-203 -16.5q-68 0 -131 8t-119.5 28t-105 53t-86.5 83q-41 -55 -92.5 -88.5t-108.5 -52t-117.5 -25t-119.5 -6.5q-120 0 -224 35.5t-180.5 105.5t-120 174.5t-43.5 241.5z" />
    <glyph glyph-name="Scaron" unicode="&#x160;" 
d="M137 352q75 -42 175 -68t218 -26q46 0 88.5 5.5t75.5 20.5t52.5 42t19.5 71q0 68 -50 103q-51 35 -125.5 60.5t-162.5 50.5t-163 72q-76 47 -125 124q-50 79 -50 209q0 128 57 214q57 84 147 134q88 49 199 69q111 21 220 21q105 0 200.5 -14.5t167.5 -38.5l-24 -295
q-75 35 -155.5 50t-162.5 15q-36 0 -80.5 -3t-83.5 -16t-65.5 -40t-26.5 -74q0 -56 50 -88q51 -30 125.5 -53t162.5 -48q86 -23 163 -71q75 -47 125 -125q50 -79 50 -207q0 -139 -53 -230t-141.5 -144.5t-201.5 -75t-233 -21.5q-51 0 -104 4t-111 12q-116 15 -211 46z
M789 1505h-332l-223 295h227l162 -160l170 160h227z" />
    <glyph glyph-name="scaron" unicode="&#x161;" horiz-adv-x="1024" 
d="M94 295q33 -15 72.5 -28t83.5 -23.5t92 -16.5t98 -6q57 0 104 15q46 16 46 71q0 34 -22.5 55t-59.5 35.5t-84.5 26t-96.5 25.5q-69 18 -126 52q-29 17 -53.5 39t-42.5 51.5t-28.5 67.5t-10.5 86q0 93 41 158.5t106 107.5t146 61.5t161 19.5q97 0 190.5 -13.5t184.5 -48.5
l-29 -256q-60 35 -138 53q-77 19 -148 19q-31 0 -61.5 -3t-54.5 -11.5t-39 -23t-15 -36.5q0 -41 41 -62q42 -20 101.5 -35.5t131.5 -32.5q52 -14 101 -36t87.5 -57.5t62 -88.5t23.5 -128q0 -107 -44 -176.5t-114.5 -109.5t-159.5 -55.5t-179 -15.5q-63 0 -116.5 3t-98.5 10
q-89 12 -172 39zM676 1198h-332l-223 295h227l162 -160l170 160h227z" />
    <glyph glyph-name="Ydieresis" unicode="&#x178;" horiz-adv-x="1479" 
d="M551 539l-528 891h438l280 -574l277 574h438l-524 -891v-539h-381v539zM360 1800h295v-295h-295v295zM827 1800h295v-295h-295v295z" />
    <glyph glyph-name="Zcaron" unicode="&#x17d;" 
d="M1167 1126l-700 -843h704v-283h-1118v303l680 844h-661v283h1095v-304zM789 1505h-332l-223 295h227l162 -160l170 160h227z" />
    <glyph glyph-name="zcaron" unicode="&#x17e;" horiz-adv-x="1024" 
d="M53 295l488 502h-478v270h900v-295l-488 -502h496v-270h-918v295zM676 1198h-332l-223 295h227l162 -160l170 160h227z" />
    <glyph glyph-name="florin" unicode="&#x192;" horiz-adv-x="1253" 
d="M211 864h262l47 221q17 82 45.5 150t74.5 116.5t112.5 75.5t158.5 27q66 0 129.5 -10t130.5 -43l-43 -258q-18 20 -48.5 36.5t-69.5 16.5q-33 0 -54.5 -14.5t-35 -38t-21.5 -52.5t-14 -57l-37 -170h203v-221h-254l-148 -688q-28 -133 -70 -214t-95.5 -124.5t-117 -57.5
t-133.5 -14q-51 0 -112 12.5t-121 41.5l43 245q16 -16 46 -28.5t58 -12.5q59 0 85 29q25 28 36 70l158 741h-215v221z" />
    <glyph glyph-name="circumflex" unicode="&#x2c6;" horiz-adv-x="682" 
d="M178 1493h332l223 -295h-256l-133 160l-141 -160h-256z" />
    <glyph glyph-name="caron" unicode="&#x2c7;" horiz-adv-x="682" 
d="M504 1198h-332l-223 295h227l162 -160l170 160h227z" />
    <glyph glyph-name="breve" unicode="&#x2d8;" horiz-adv-x="682" 
d="M111 1493q20 -86 85 -118q67 -32 146 -32t145 32t86 118h156q-17 -147 -110 -235q-93 -87 -277 -87t-278 87q-93 88 -109 235h156z" />
    <glyph glyph-name="dotaccent" unicode="&#x2d9;" horiz-adv-x="682" 
d="M195 1493h294v-295h-294v295z" />
    <glyph glyph-name="ring" unicode="&#x2da;" horiz-adv-x="682" 
d="M244 1389q0 -42 28 -70.5t70 -28.5t70 28.5t28 70.5t-28 70t-70 28t-70 -28t-28 -70zM113 1389q0 47 18 89t49 73t73 49t89 18t89 -18t73 -49t49 -73t18 -89q0 -48 -18 -89.5t-49 -73t-73 -49.5t-89 -18t-89 18t-73 49.5t-49 73t-18 89.5z" />
    <glyph glyph-name="ogonek" unicode="&#x2db;" horiz-adv-x="682" 
d="M483 0q-31 -26 -62 -53t-56.5 -56t-41.5 -60.5t-16 -66.5q0 -38 26.5 -60.5t61.5 -22.5q37 0 71 17t56 40l78 -35q-29 -44 -60 -74.5t-68 -49t-80 -26.5t-95 -8q-94 0 -146.5 46.5t-52.5 134.5q0 49 22.5 89t58 73.5t78.5 61t85 50.5h141z" />
    <glyph glyph-name="tilde" unicode="&#x2dc;" horiz-adv-x="682" 
d="M743 1493q-6 -59 -24.5 -111.5t-51 -92t-79 -62.5t-109.5 -23q-40 0 -81 11.5t-79 25.5t-72 25.5t-59 11.5q-48 0 -69 -20.5t-31 -59.5h-147q6 54 24 106t50 92.5t78 65.5t108 25q41 0 81 -11.5t77.5 -25.5t71.5 -25.5t63 -11.5q88 0 102 80h147z" />
    <glyph glyph-name="hungarumlaut" unicode="&#x2dd;" horiz-adv-x="682" 
d="M596 1493h383l-264 -295h-258zM88 1493h383l-264 -295h-258z" />
    <glyph glyph-name="pi" unicode="&#x3c0;" horiz-adv-x="1280" 
d="M1229 41q-29 -14 -55.5 -25t-49.5 -19q-47 -15 -112 -15q-76 0 -125.5 21.5t-78.5 60.5t-40.5 93.5t-11.5 121.5v454h-305v-733h-308v733h-143v281h1229v-281h-166v-336q0 -24 -1 -51t5 -50.5t22.5 -38.5t51.5 -15q22 0 44.5 8t43.5 16v-225z" />
    <glyph glyph-name="uni060C" unicode="&#x60c;" horiz-adv-x="768" 
d="M463 0h-344l200 555h281z" />
    </font>
</defs>
</svg>
