<svg xmlns="http://www.w3.org/2000/svg">
<defs>
<font id="FrutigerLTArabic-45Light" horiz-adv-x="1139" >
  <font-face 
    font-family="Frutiger LT Arabic 45 Light"
    font-weight="300"
    font-stretch="normal"
    units-per-em="2048"
    panose-1="1 0 0 0 0 0 0 0 0 0"
    ascent="1577"
    descent="-471"
    x-height="1044"
    cap-height="1430"
    bbox="-372 -819 2832 2302"
    underline-thickness="50"
    underline-position="-175"
    unicode-range="U+000D-FEFC"
  />
<missing-glyph horiz-adv-x="1021" 
d="M443 234v133h111v-133h-111zM449 466q-1 8 -2.5 17t-1.5 17q0 18 1 39.5t3.5 43t7.5 42.5t13 37q18 37 50 70.5t63.5 67t55 69t23.5 76.5q0 32 -11 62.5t-31 54.5t-48 38.5t-62 14.5q-41 0 -70 -16t-48.5 -43t-30 -61t-14.5 -70l-100 16q6 59 24.5 109t51.5 86.5t81 57
t112 20.5q57 0 102.5 -20.5t77.5 -55.5t49.5 -82.5t17.5 -102.5q0 -50 -13 -87t-33.5 -66.5t-45.5 -53t-48.5 -45t-42.5 -43.5t-28 -48q-4 -13 -6.5 -32t-3.5 -39.5t-1.5 -40t-0.5 -32.5h-91zM921 99v1231h-822v-1231h822zM1021 1431v-1431h-1021v1431h1021z" />
    <glyph glyph-name="uniFEF5" unicode="&#xfedf;&#xfe82;" horiz-adv-x="1449" arabic-form="isolated" 
d="M1289 1437v-1437h-1139v127h451v887h126v-887h435v1310h127zM321 1311q43 45 81.5 62t72.5 17q47 0 97 -19t100 -41.5t100 -41t97 -18.5q26 0 44 7t30.5 18.5t21.5 26.5t17 31l53 -25q-18 -39 -36 -65t-39 -41t-47.5 -21t-62.5 -6q-48 0 -95.5 18.5t-95.5 40.5
t-96.5 40.5t-98.5 18.5q-27 0 -53 -14.5t-46 -34.5z" />
    <glyph glyph-name="uniFEF6" unicode="&#xfee0;&#xfe82;" horiz-adv-x="1533" arabic-form="final" 
d="M1031 127q36 0 60.5 7t39.5 24.5t22 48t7 78.5v1152h129v-1193q0 -15 -1.5 -29.5t-3.5 -28.5q104 -59 268 -59h10q43 0 43 -23v-76q0 -19 -12.5 -23.5t-30.5 -4.5h-12q-56 0 -100.5 5.5t-80.5 16t-66.5 26t-58.5 34.5q-26 -37 -69.5 -59.5t-109.5 -22.5h-915v127h451v887
h126v-887h304zM326 1309q43 45 81.5 62t72.5 17q47 0 97 -19t100 -41.5t100 -41t97 -18.5q26 0 44 7t30.5 18.5t21.5 26.5t17 31l53 -25q-18 -39 -36 -65t-39 -41t-47.5 -21t-62.5 -6q-48 0 -95.5 18.5t-95.5 40.5t-96.5 40.5t-98.5 18.5q-27 0 -53 -14.5t-46 -34.5z" />
    <glyph glyph-name="uniFEF7" unicode="&#xfedf;&#xfe84;" horiz-adv-x="1449" arabic-form="isolated" 
d="M1289 1437v-1437h-1139v127h451v887h126v-887h435v1310h127zM816 1446q-8 2 -24 4t-35 2q-21 0 -41.5 -4.5t-36.5 -15t-26 -27.5t-10 -42q0 -55 43.5 -87t118.5 -32h29v-70h-310v70h114q-9 6 -20 17.5t-21 27.5t-17 36.5t-7 44.5q0 33 10.5 61t32.5 48.5t55.5 32
t78.5 11.5q17 0 36.5 -1t42.5 -5z" />
    <glyph glyph-name="uniFEF8" unicode="&#xfee0;&#xfe84;" horiz-adv-x="1533" arabic-form="final" 
d="M1031 127q36 0 60.5 7t39.5 24.5t22 48t7 78.5v1152h129v-1193q0 -15 -1.5 -29.5t-3.5 -28.5q104 -59 268 -59h10q43 0 43 -23v-76q0 -19 -12.5 -23.5t-30.5 -4.5h-12q-56 0 -100.5 5.5t-80.5 16t-66.5 26t-58.5 34.5q-26 -37 -69.5 -59.5t-109.5 -22.5h-915v127h451v887
h126v-887h304zM816 1446q-8 2 -24 4t-35 2q-21 0 -41.5 -4.5t-36.5 -15t-26 -27.5t-10 -42q0 -55 43.5 -87t118.5 -32h29v-70h-310v70h114q-9 6 -20 17.5t-21 27.5t-17 36.5t-7 44.5q0 33 10.5 61t32.5 48.5t55.5 32t78.5 11.5q17 0 36.5 -1t42.5 -5z" />
    <glyph glyph-name="uniFEF9" unicode="&#xfedf;&#xfe88;" horiz-adv-x="1449" arabic-form="isolated" 
d="M1289 1437v-1437h-1139v127h451v887h126v-887h435v1310h127zM812 -222q-8 2 -24 4t-35 2q-21 0 -41.5 -4.5t-36.5 -15t-26 -27.5t-10 -42q0 -55 43.5 -87t118.5 -32h29v-70h-310v70h114q-9 6 -20 17.5t-21 27.5t-17 36.5t-7 44.5q0 33 10.5 61t32.5 48.5t55.5 32
t78.5 11.5q17 0 36.5 -1t42.5 -5z" />
    <glyph glyph-name="uniFEFA" unicode="&#xfee0;&#xfe88;" horiz-adv-x="1533" arabic-form="final" 
d="M1031 127q36 0 60.5 7t39.5 24.5t22 48t7 78.5v1152h129v-1193q0 -15 -1.5 -29.5t-3.5 -28.5q104 -59 268 -59h10q43 0 43 -23v-76q0 -19 -12.5 -23.5t-30.5 -4.5h-12q-56 0 -100.5 5.5t-80.5 16t-66.5 26t-58.5 34.5q-26 -37 -69.5 -59.5t-109.5 -22.5h-915v127h451v887
h126v-887h304zM812 -222q-8 2 -24 4t-35 2q-21 0 -41.5 -4.5t-36.5 -15t-26 -27.5t-10 -42q0 -55 43.5 -87t118.5 -32h29v-70h-310v70h114q-9 6 -20 17.5t-21 27.5t-17 36.5t-7 44.5q0 33 10.5 61t32.5 48.5t55.5 32t78.5 11.5q17 0 36.5 -1t42.5 -5z" />
    <glyph glyph-name="uniFEFB" unicode="&#xfedf;&#xfe8e;" horiz-adv-x="1449" arabic-form="isolated" 
d="M1289 1437v-1437h-1139v127h451v887h126v-887h435v1310h127z" />
    <glyph glyph-name="uniFEFC" unicode="&#xfee0;&#xfe8e;" horiz-adv-x="1533" arabic-form="final" 
d="M1031 127q36 0 60.5 7t39.5 24.5t22 48t7 78.5v1152h129v-1193q0 -15 -1.5 -29.5t-3.5 -28.5q104 -59 268 -59h10q43 0 43 -23v-76q0 -19 -12.5 -23.5t-30.5 -4.5h-12q-56 0 -100.5 5.5t-80.5 16t-66.5 26t-58.5 34.5q-26 -37 -69.5 -59.5t-109.5 -22.5h-915v127h451v887
h126v-887h304z" />
    <glyph glyph-name="uni06440671" unicode="&#xfedf;&#xfb51;" horiz-adv-x="1449" 
d="M1289 1437v-1437h-1139v127h451v887h126v-887h435v1310h127zM830 1300q0 98 -85 98q-23 0 -47 -7.5t-43 -22.5t-31 -37t-12 -51v-24h218v44zM470 1196v60h82v178h58v-58q23 36 62.5 57t80.5 21q66 0 100.5 -42t34.5 -107v-109h-418z" />
    <glyph glyph-name="uni06440671.fina" unicode="&#xfee0;&#xfb51;" horiz-adv-x="1533" 
d="M1031 127q36 0 60.5 7t39.5 24.5t22 48t7 78.5v1152h129v-1193q0 -15 -1.5 -29.5t-3.5 -28.5q104 -59 268 -59h10q43 0 43 -23v-76q0 -19 -12.5 -23.5t-30.5 -4.5h-12q-56 0 -100.5 5.5t-80.5 16t-66.5 26t-58.5 34.5q-26 -37 -69.5 -59.5t-109.5 -22.5h-915v127h451v887
h126v-887h304zM830 1300q0 98 -85 98q-23 0 -47 -7.5t-43 -22.5t-31 -37t-12 -51v-24h218v44zM470 1196v60h82v178h58v-58q23 36 62.5 57t80.5 21q66 0 100.5 -42t34.5 -107v-109h-418z" />
    <glyph glyph-name="uni0621" unicode="&#x621;" horiz-adv-x="831" arabic-form="isolated" 
d="M666 545q-19 2 -44 5.5t-62 3.5q-54 0 -101 -12.5t-82 -37t-55 -62t-20 -87.5q0 -44 14.5 -78.5t38 -61t52.5 -45.5t58.5 -30.5t56 -17t45.5 -5.5h137v-117h-557v117h185q-39 24 -66 55.5t-44.5 66t-25 70.5t-7.5 69q0 68 26.5 123t73.5 93.5t111 59.5t139 21q38 0 67 -3
t67 -8z" />
    <glyph glyph-name="uni0622" unicode="&#x622;" horiz-adv-x="528" arabic-form="isolated" 
d="M200 1436h128v-1437h-128v1437zM-107 1647q43 45 81.5 62t72.5 17q47 0 97 -19t100 -41.5t100 -41t97 -18.5q26 0 44 7t30.5 18.5t21.5 26.5t17 31l53 -25q-18 -39 -36 -65t-39 -41t-47.5 -21t-62.5 -6q-48 0 -95.5 18.5t-95.5 40.5t-96.5 40.5t-98.5 18.5
q-27 0 -53 -14.5t-46 -34.5z" />
    <glyph glyph-name="uni0623" unicode="&#x623;" horiz-adv-x="528" arabic-form="isolated" 
d="M200 1436h128v-1437h-128v1437zM383 1830q-8 2 -24 4t-35 2q-21 0 -41.5 -4.5t-36.5 -15t-26 -27.5t-10 -42q0 -55 43.5 -87t118.5 -32h29v-70h-310v70h114q-9 6 -20 17.5t-21 27.5t-17 36.5t-7 44.5q0 33 10.5 61t32.5 48.5t55.5 32t78.5 11.5q17 0 36.5 -1t42.5 -5z
" />
    <glyph glyph-name="uni0624" unicode="&#x624;" horiz-adv-x="1095" arabic-form="isolated" 
d="M594 123q28 0 60.5 4t63.5 10t57 14t43 16v118q0 127 -24.5 207t-64 125t-89 61t-100.5 16q-57 0 -107 -21t-86.5 -59.5t-58 -92t-21.5 -118.5q0 -56 18.5 -106.5t58 -89t101.5 -61.5t149 -23zM817 46q-31 -14 -66.5 -23.5t-70 -15t-65 -8t-52.5 -2.5q-114 0 -193.5 35.5
t-129.5 91.5t-72.5 126.5t-22.5 139.5q0 88 30 164.5t84.5 133t130.5 89t169 32.5q44 0 89.5 -8t88 -27.5t80.5 -53t66.5 -84.5t45 -122t16.5 -166v-183q0 -155 -47 -261t-133.5 -174t-207.5 -104.5t-268 -52.5l-14 118q120 11 220 39.5t171.5 73.5t111 106t39.5 136z
M703 1382q-11 2 -31.5 5t-45.5 3q-28 0 -54.5 -6t-47.5 -19.5t-33.5 -36t-12.5 -54.5q0 -71 56.5 -112.5t154.5 -41.5h37v-91h-402v91h148q-11 7 -25.5 22t-27.5 36t-22 48t-9 57q0 42 13.5 78.5t42 63.5t71.5 42t102 15q23 0 48.5 -1.5t54.5 -6.5z" />
    <glyph glyph-name="uni0625" unicode="&#x625;" horiz-adv-x="528" arabic-form="isolated" 
d="M200 1436h128v-1437h-128v1437zM368 -222q-8 2 -24 4t-35 2q-21 0 -41.5 -4.5t-36.5 -15t-26 -27.5t-10 -42q0 -55 43.5 -87t118.5 -32h29v-70h-310v70h114q-9 6 -20 17.5t-21 27.5t-17 36.5t-7 44.5q0 33 10.5 61t32.5 48.5t55.5 32t78.5 11.5q17 0 36.5 -1t42.5 -5z
" />
    <glyph glyph-name="uni0626" unicode="&#x626;" horiz-adv-x="1499" arabic-form="isolated" 
d="M1191 -25q0 38 -26.5 73.5t-66.5 71t-86 73t-86 79.5t-66.5 90t-26.5 105q0 85 34.5 144.5t87.5 96.5t116.5 54t122.5 17q86 0 143 -11t87 -20l-33 -124q-32 9 -66 16q-29 6 -66 11.5t-72 5.5q-34 0 -75 -8.5t-76 -29.5t-59 -55.5t-24 -86.5q0 -40 27.5 -77.5t68.5 -74
t88.5 -73t88.5 -75.5t68.5 -81.5t27.5 -90.5q0 -44 -18 -94t-54 -99t-89 -93.5t-123.5 -78.5t-158 -54.5t-191.5 -20.5q-130 0 -228 24.5t-169.5 65t-119 93.5t-76 109t-40 111t-11.5 101q0 107 27.5 200t75.5 166l104 -60q-40 -63 -60 -139.5t-20 -150.5q0 -76 28.5 -146
t92.5 -123.5t166.5 -85.5t249.5 -32q103 0 191.5 25.5t153 65.5t101.5 89t37 97zM380 934q-11 2 -31.5 5t-45.5 3q-28 0 -54.5 -6t-47.5 -19.5t-33.5 -36t-12.5 -54.5q0 -71 56.5 -112.5t154.5 -41.5h37v-91h-402v91h148q-11 7 -25.5 22t-27.5 36t-22 48t-9 57
q0 42 13.5 78.5t42 63.5t71.5 42t102 15q23 0 48.5 -1.5t54.5 -6.5z" />
    <glyph glyph-name="uni0627" unicode="&#x627;" horiz-adv-x="528" arabic-form="isolated" 
d="M200 1436h128v-1437h-128v1437z" />
    <glyph glyph-name="uni0628" unicode="&#x628;" horiz-adv-x="1805" arabic-form="isolated" 
d="M513 0q-108 0 -188 13t-137 37t-93.5 57t-57.5 73t-29 86t-8 95q0 34 5 82.5t12 94.5l116 -11q-5 -25 -8 -56.5t-3 -65.5q0 -49 6.5 -89t25 -71t52 -53.5t88 -36.5t131.5 -21t184 -7h908v646h128v-773h-1132zM757 -274q0 35 23 58.5t58 23.5q33 0 57.5 -23.5t24.5 -58.5
q0 -33 -24.5 -57t-57.5 -24q-35 0 -58 24t-23 57z" />
    <glyph glyph-name="uni0629" unicode="&#x629;" horiz-adv-x="895" arabic-form="isolated" 
d="M382 0q-93 0 -164.5 25.5t-119.5 71.5t-73 110.5t-25 142.5q0 116 34 206.5t88.5 153t123.5 95t140 32.5q67 0 134.5 -29t121.5 -88t88 -148.5t34 -210.5q0 -73 -25 -138.5t-73.5 -115t-120 -78.5t-163.5 -29zM123 383q0 -68 21 -116.5t56.5 -79.5t82.5 -45.5t99 -14.5
q69 0 119 18.5t81.5 52t46.5 80.5t15 105q0 78 -24 141t-61.5 106.5t-83.5 67t-89 23.5q-53 0 -101 -24.5t-84 -69t-57 -107t-21 -137.5zM593 1110q0 -35 -23 -58.5t-58 -23.5q-33 0 -57.5 23.5t-24.5 58.5q0 33 24.5 57t57.5 24q35 0 58 -24t23 -57zM334 1110
q0 -35 -23.5 -58.5t-57.5 -23.5q-33 0 -57.5 23.5t-24.5 58.5q0 33 24.5 57t57.5 24q34 0 57.5 -24t23.5 -57z" />
    <glyph glyph-name="uni062A" unicode="&#x62a;" horiz-adv-x="1805" arabic-form="isolated" 
d="M513 0q-108 0 -188 13t-137 37t-93.5 57t-57.5 73t-29 86t-8 95q0 34 5 82.5t12 94.5l116 -11q-5 -25 -8 -56.5t-3 -65.5q0 -49 6.5 -89t25 -71t52 -53.5t88 -36.5t131.5 -21t184 -7h908v646h128v-773h-1132zM1096 1110q0 -35 -23 -58.5t-58 -23.5q-33 0 -57.5 23.5
t-24.5 58.5q0 33 24.5 57t57.5 24q35 0 58 -24t23 -57zM837 1110q0 -35 -23.5 -58.5t-57.5 -23.5q-33 0 -57.5 23.5t-24.5 58.5q0 33 24.5 57t57.5 24q34 0 57.5 -24t23.5 -57z" />
    <glyph glyph-name="uni062B" unicode="&#x62b;" horiz-adv-x="1805" arabic-form="isolated" 
d="M513 0q-108 0 -188 13t-137 37t-93.5 57t-57.5 73t-29 86t-8 95q0 34 5 82.5t12 94.5l116 -11q-5 -25 -8 -56.5t-3 -65.5q0 -49 6.5 -89t25 -71t52 -53.5t88 -36.5t131.5 -21t184 -7h908v646h128v-773h-1132zM1055 1110q0 -35 -23 -58.5t-58 -23.5q-33 0 -57.5 23.5
t-24.5 58.5q0 33 24.5 57t57.5 24q35 0 58 -24t23 -57zM796 1110q0 -35 -23.5 -58.5t-57.5 -23.5q-33 0 -57.5 23.5t-24.5 58.5q0 33 24.5 57t57.5 24q34 0 57.5 -24t23.5 -57zM914 1298q0 -35 -23 -58.5t-58 -23.5q-33 0 -57.5 23.5t-24.5 58.5q0 33 24.5 57t57.5 24
q35 0 58 -24t23 -57z" />
    <glyph glyph-name="uni062C" unicode="&#x62c;" horiz-adv-x="1068" arabic-form="isolated" 
d="M505.55 -245.503q0 31.3604 20.7451 52.416t52.3145 21.0557q29.7656 0 51.8643 -21.0557t22.0986 -52.416q0 -29.5674 -22.0986 -51.0713t-51.8643 -21.5039q-31.5693 0 -52.3145 21.5039t-20.7451 51.0713zM856 127q-23 19 -39.5 43.5t-28 52.5t-18.5 57t-12 57
q-8 45 -17 90.5t-23 87.5t-36 79t-55 64t-79 42.5t-109 15.5q-19 0 -43 -2.5t-49 -6.5t-50.5 -10t-47.5 -12v108q57 17 116 28.5t128 11.5q76 0 136 -23.5t102.5 -66.5t68.5 -102t35 -129q9 -68 20 -131t28.5 -114.5t44 -87t65.5 -47.5v-132h-556q-150 0 -232.5 -81.5
t-82.5 -233.5q0 -63 22 -121.5t69.5 -103.5t122 -71.5t179.5 -26.5q42 0 87.5 5t89.5 12v-109q-51 -13 -93 -19t-92 -6q-133 0 -228.5 37t-157.5 97t-91.5 137.5t-29.5 158.5q0 119 38 204.5t104 140.5t155 81t191 26h368z" />
    <glyph glyph-name="uni062D" unicode="&#x62d;" horiz-adv-x="1068" arabic-form="isolated" 
d="M856 127q-23 19 -39.5 43.5t-28 52.5t-18.5 57t-12 57q-8 45 -17 90.5t-23 87.5t-36 79t-55 64t-79 42.5t-109 15.5q-19 0 -43 -2.5t-49 -6.5t-50.5 -10t-47.5 -12v108q57 17 116 28.5t128 11.5q76 0 136 -23.5t102.5 -66.5t68.5 -102t35 -129q9 -68 20 -131t28.5 -114.5
t44 -87t65.5 -47.5v-132h-556q-150 0 -232.5 -81.5t-82.5 -233.5q0 -63 22 -121.5t69.5 -103.5t122 -71.5t179.5 -26.5q42 0 87.5 5t89.5 12v-109q-51 -13 -93 -19t-92 -6q-133 0 -228.5 37t-157.5 97t-91.5 137.5t-29.5 158.5q0 119 38 204.5t104 140.5t155 81t191 26h368z
" />
    <glyph glyph-name="uni062E" unicode="&#x62e;" horiz-adv-x="1068" arabic-form="isolated" 
d="M533 1110q0 -35 -23.5 -58.5t-57.5 -23.5q-33 0 -57.5 23.5t-24.5 58.5q0 33 24.5 57t57.5 24q34 0 57.5 -24t23.5 -57zM856 127q-23 19 -39.5 43.5t-28 52.5t-18.5 57t-12 57q-8 45 -17 90.5t-23 87.5t-36 79t-55 64t-79 42.5t-109 15.5q-19 0 -43 -2.5t-49 -6.5
t-50.5 -10t-47.5 -12v108q57 17 116 28.5t128 11.5q76 0 136 -23.5t102.5 -66.5t68.5 -102t35 -129q9 -68 20 -131t28.5 -114.5t44 -87t65.5 -47.5v-132h-556q-150 0 -232.5 -81.5t-82.5 -233.5q0 -63 22 -121.5t69.5 -103.5t122 -71.5t179.5 -26.5q42 0 87.5 5t89.5 12
v-109q-51 -13 -93 -19t-92 -6q-133 0 -228.5 37t-157.5 97t-91.5 137.5t-29.5 158.5q0 119 38 204.5t104 140.5t155 81t191 26h368z" />
    <glyph glyph-name="uni062F" unicode="&#x62f;" horiz-adv-x="959" arabic-form="isolated" 
d="M92 0v127h337q88 0 144 11.5t88 34t44.5 54.5t12.5 73q0 61 -28.5 124t-75.5 125.5t-107.5 122.5t-124.5 114l95 95q67 -60 130.5 -128.5t112.5 -141.5t78.5 -148.5t29.5 -148.5q0 -69 -21 -126.5t-66 -99.5t-116 -65t-171 -23h-362z" />
    <glyph glyph-name="uni0630" unicode="&#x630;" horiz-adv-x="959" arabic-form="isolated" 
d="M92 0v127h337q88 0 144 11.5t88 34t44.5 54.5t12.5 73q0 61 -28.5 124t-75.5 125.5t-107.5 122.5t-124.5 114l95 95q67 -60 130.5 -128.5t112.5 -141.5t78.5 -148.5t29.5 -148.5q0 -69 -21 -126.5t-66 -99.5t-116 -65t-171 -23h-362zM515 1110q0 -35 -23.5 -58.5
t-57.5 -23.5q-33 0 -57.5 23.5t-24.5 58.5q0 33 24.5 57t57.5 24q34 0 57.5 -24t23.5 -57z" />
    <glyph glyph-name="uni0631" unicode="&#x631;" horiz-adv-x="641" arabic-form="isolated" 
d="M-5 -330q111 19 180.5 55t109 92t54 132.5t14.5 177.5v646h128v-677q0 -130 -27 -224.5t-84 -159.5t-146 -104.5t-213 -58.5z" />
    <glyph glyph-name="uni0632" unicode="&#x632;" horiz-adv-x="641" arabic-form="isolated" 
d="M-5 -330q111 19 180.5 55t109 92t54 132.5t14.5 177.5v646h128v-677q0 -130 -27 -224.5t-84 -159.5t-146 -104.5t-213 -58.5zM472 1110q0 -35 -23.5 -58.5t-57.5 -23.5q-33 0 -57.5 23.5t-24.5 58.5q0 33 24.5 57t57.5 24q34 0 57.5 -24t23.5 -57z" />
    <glyph glyph-name="uni0633" unicode="&#x633;" horiz-adv-x="2480" arabic-form="isolated" 
d="M1074 160q0 29 -4.5 70t-13 87.5t-21.5 94.5t-29 92l124 36q13 -38 25 -83.5t22 -93.5t16 -97t7 -95q54 -26 116 -35t130 -9h27q87 0 123 39.5t36 118.5v369h127v-431q0 -22 -5 -50q55 -24 133 -35t195 -11h109v646h129v-773h-252q-113 0 -206 15.5t-157 59.5
q-30 -32 -81 -53.5t-131 -21.5h-49q-62 0 -128.5 9.5t-123.5 35.5q-16 -114 -63.5 -208t-125.5 -161.5t-186.5 -105t-244.5 -37.5q-146 0 -253.5 44.5t-178.5 119t-105.5 172.5t-34.5 205q0 48 7 97.5t20 97.5t29.5 92.5t36.5 81.5l109 -58q-15 -30 -27 -65t-20.5 -72.5
t-13 -75.5t-4.5 -73q0 -92 29.5 -172.5t87 -140.5t141.5 -94.5t193 -34.5q115 0 205.5 34.5t153 99t95 158t32.5 211.5z" />
    <glyph glyph-name="uni0634" unicode="&#x634;" horiz-adv-x="2480" arabic-form="isolated" 
d="M1074 160q0 29 -4.5 70t-13 87.5t-21.5 94.5t-29 92l124 36q13 -38 25 -83.5t22 -93.5t16 -97t7 -95q54 -26 116 -35t130 -9h27q87 0 123 39.5t36 118.5v369h127v-431q0 -22 -5 -50q55 -24 133 -35t195 -11h109v646h129v-773h-252q-113 0 -206 15.5t-157 59.5
q-30 -32 -81 -53.5t-131 -21.5h-49q-62 0 -128.5 9.5t-123.5 35.5q-16 -114 -63.5 -208t-125.5 -161.5t-186.5 -105t-244.5 -37.5q-146 0 -253.5 44.5t-178.5 119t-105.5 172.5t-34.5 205q0 48 7 97.5t20 97.5t29.5 92.5t36.5 81.5l109 -58q-15 -30 -27 -65t-20.5 -72.5
t-13 -75.5t-4.5 -73q0 -92 29.5 -172.5t87 -140.5t141.5 -94.5t193 -34.5q115 0 205.5 34.5t153 99t95 158t32.5 211.5zM1860 1110q0 -35 -23 -58.5t-58 -23.5q-33 0 -57.5 23.5t-24.5 58.5q0 33 24.5 57t57.5 24q35 0 58 -24t23 -57zM1601 1110q0 -35 -23.5 -58.5
t-57.5 -23.5q-33 0 -57.5 23.5t-24.5 58.5q0 33 24.5 57t57.5 24q34 0 57.5 -24t23.5 -57zM1719 1298q0 -35 -23 -58.5t-58 -23.5q-33 0 -57.5 23.5t-24.5 58.5q0 33 24.5 57t57.5 24q35 0 58 -24t23 -57z" />
    <glyph glyph-name="uni0635" unicode="&#x635;" horiz-adv-x="2719" arabic-form="isolated" 
d="M1074 160q0 29 -4.5 70t-13 87.5t-21.5 94.5t-29 92l124 36q12 -38 24 -82.5t22 -92t16.5 -95.5t7.5 -93q45 -24 95 -37t110 -13q20 64 54.5 142.5t83 159t110 157t135.5 136t160.5 95.5t185.5 36q115 0 197.5 -39t135.5 -107t77.5 -160.5t24.5 -198.5v-348h-1103
q-91 0 -156 14t-116 43q-14 -116 -61.5 -212.5t-126 -165.5t-187.5 -107.5t-247 -38.5q-146 0 -253.5 44.5t-178.5 119t-105.5 172.5t-34.5 205q0 48 7 97.5t20 97.5t29.5 92.5t36.5 81.5l109 -58q-15 -30 -27 -65t-20.5 -72.5t-13 -75.5t-4.5 -73q0 -92 29.5 -172.5
t87 -140.5t141.5 -94.5t193 -34.5q115 0 205.5 34.5t153 99t95 158t32.5 211.5zM2443 326q0 116 -26 193.5t-71 124t-106 66t-131 19.5q-72 0 -138.5 -26.5t-125.5 -72t-109.5 -105t-91 -126.5t-70.5 -137t-47 -135h916v199z" />
    <glyph glyph-name="uni0636" unicode="&#x636;" horiz-adv-x="2719" arabic-form="isolated" 
d="M1074 160q0 29 -4.5 70t-13 87.5t-21.5 94.5t-29 92l124 36q12 -38 24 -82.5t22 -92t16.5 -95.5t7.5 -93q45 -24 95 -37t110 -13q20 64 54.5 142.5t83 159t110 157t135.5 136t160.5 95.5t185.5 36q115 0 197.5 -39t135.5 -107t77.5 -160.5t24.5 -198.5v-348h-1103
q-91 0 -156 14t-116 43q-14 -116 -61.5 -212.5t-126 -165.5t-187.5 -107.5t-247 -38.5q-146 0 -253.5 44.5t-178.5 119t-105.5 172.5t-34.5 205q0 48 7 97.5t20 97.5t29.5 92.5t36.5 81.5l109 -58q-15 -30 -27 -65t-20.5 -72.5t-13 -75.5t-4.5 -73q0 -92 29.5 -172.5
t87 -140.5t141.5 -94.5t193 -34.5q115 0 205.5 34.5t153 99t95 158t32.5 211.5zM2443 326q0 116 -26 193.5t-71 124t-106 66t-131 19.5q-72 0 -138.5 -26.5t-125.5 -72t-109.5 -105t-91 -126.5t-70.5 -137t-47 -135h916v199zM1956 1110q0 -35 -23.5 -58.5t-57.5 -23.5
q-33 0 -57.5 23.5t-24.5 58.5q0 33 24.5 57t57.5 24q34 0 57.5 -24t23.5 -57z" />
    <glyph glyph-name="uni0637" unicode="&#x637;" horiz-adv-x="1522" arabic-form="isolated" 
d="M0 0v127h208q17 54 44 118.5t65 133.5v1058h127v-865q46 58 100.5 109.5t116 89.5t130.5 60t145 22q115 0 198 -39t135.5 -107t77.5 -160.5t25 -198.5v-348h-1372zM1245 326q0 116 -26 193.5t-71 124t-105.5 66t-130.5 19.5q-72 0 -139 -26.5t-125.5 -72t-109.5 -105
t-91.5 -126.5t-70.5 -137t-47 -135h916v199z" />
    <glyph glyph-name="uni0638" unicode="&#x638;" horiz-adv-x="1522" arabic-form="isolated" 
d="M0 0v127h208q17 54 44 118.5t65 133.5v1058h127v-865q46 58 100.5 109.5t116 89.5t130.5 60t145 22q115 0 198 -39t135.5 -107t77.5 -160.5t25 -198.5v-348h-1372zM1245 326q0 116 -26 193.5t-71 124t-105.5 66t-130.5 19.5q-72 0 -139 -26.5t-125.5 -72t-109.5 -105
t-91.5 -126.5t-70.5 -137t-47 -135h916v199zM1026 1110q0 -35 -23.5 -58.5t-57.5 -23.5q-33 0 -57.5 23.5t-24.5 58.5q0 33 24.5 57t57.5 24q34 0 57.5 -24t23.5 -57z" />
    <glyph glyph-name="uni0639" unicode="&#x639;" horiz-adv-x="969" arabic-form="isolated" 
d="M368 116q-40 29 -68.5 67.5t-46.5 81t-26.5 85.5t-8.5 81q0 85 29.5 157t83.5 124.5t129.5 82t167.5 29.5q18 0 40.5 -1.5t46.5 -4t47.5 -6t41.5 -7.5q-3 -35 -4.5 -67.5t-4.5 -67.5q-45 11 -99 16.5t-96 5.5t-87 -12t-81.5 -42t-60.5 -80t-24 -126q0 -62 22.5 -117
t64.5 -97t100.5 -66.5t130.5 -24.5h229v-127h-456q-61 0 -117.5 -18.5t-100 -56.5t-70 -98t-26.5 -142q0 -63 21.5 -121.5t69 -103t121.5 -71t179 -26.5q43 0 88.5 5t89.5 12v-109q-50 -13 -92.5 -19t-91.5 -6q-133 0 -229 34t-158.5 91.5t-92 133.5t-29.5 161q0 183 93 299
t275 151z" />
    <glyph glyph-name="uni063A" unicode="&#x63a;" horiz-adv-x="969" arabic-form="isolated" 
d="M368 116q-40 29 -68.5 67.5t-46.5 81t-26.5 85.5t-8.5 81q0 85 29.5 157t83.5 124.5t129.5 82t167.5 29.5q18 0 40.5 -1.5t46.5 -4t47.5 -6t41.5 -7.5q-3 -35 -4.5 -67.5t-4.5 -67.5q-45 11 -99 16.5t-96 5.5t-87 -12t-81.5 -42t-60.5 -80t-24 -126q0 -62 22.5 -117
t64.5 -97t100.5 -66.5t130.5 -24.5h229v-127h-456q-61 0 -117.5 -18.5t-100 -56.5t-70 -98t-26.5 -142q0 -63 21.5 -121.5t69 -103t121.5 -71t179 -26.5q43 0 88.5 5t89.5 12v-109q-50 -13 -92.5 -19t-91.5 -6q-133 0 -229 34t-158.5 91.5t-92 133.5t-29.5 161q0 183 93 299
t275 151zM642 1110q0 -35 -23.5 -58.5t-57.5 -23.5q-33 0 -57.5 23.5t-24.5 58.5q0 33 24.5 57t57.5 24q34 0 57.5 -24t23.5 -57z" />
    <glyph glyph-name="uni0641" unicode="&#x641;" horiz-adv-x="2082" arabic-form="isolated" 
d="M1806 127v240q0 94 -22 157t-59 100.5t-85 53.5t-99 16q-57 0 -107 -21t-87 -58.5t-58.5 -90t-21.5 -115.5q0 -60 22.5 -111.5t64 -89.5t101.5 -59.5t135 -21.5h216zM1284 127q-37 25 -62 59.5t-40 72t-21.5 75t-6.5 69.5q0 87 31 162.5t86 131t130 87t164 31.5
q86 0 154 -27.5t115.5 -79.5t72.5 -127t25 -170v-411h-1419q-108 0 -188 13t-137 37t-93.5 57t-57.5 73t-29 86t-8 95q0 34 5 82.5t12 94.5l116 -11q-5 -25 -8 -56.5t-3 -65.5q0 -49 6.5 -89t25 -71t52 -53.5t88 -36.5t131.5 -21t184 -7h675zM1658 1110q0 -35 -23.5 -58.5
t-57.5 -23.5q-33 0 -57.5 23.5t-24.5 58.5q0 33 24.5 57t57.5 24q34 0 57.5 -24t23.5 -57z" />
    <glyph glyph-name="uni0642" unicode="&#x642;" horiz-adv-x="1450" arabic-form="isolated" 
d="M950 123q29 0 61.5 4t63 10t57 14t43.5 16v118q0 127 -24.5 206t-64 123t-89.5 59.5t-101 15.5q-53 0 -102.5 -20.5t-87.5 -58t-61 -90t-23 -117.5q0 -56 18.5 -106.5t58.5 -89t102 -61.5t149 -23zM1175 41q-31 -15 -66.5 -23.5t-69.5 -13t-62 -6t-44 -1.5
q-120 0 -202.5 35.5t-133.5 91.5t-74 126.5t-23 139.5q0 88 30.5 164.5t86.5 133t135.5 89t177.5 32.5q40 0 82.5 -8t84 -27.5t78.5 -53t64.5 -84.5t44 -122t16.5 -166v-314q0 -145 -48 -263.5t-135.5 -202.5t-210.5 -130t-274 -46t-268.5 36.5t-198.5 101.5t-123 154.5
t-42 194.5q0 48 7 97.5t20 98t30 93t37 81.5l106 -59q-14 -30 -26 -65t-20 -72.5t-12.5 -75t-4.5 -72.5q0 -91 35.5 -161.5t102 -118.5t161 -73t211.5 -25q121 0 218.5 36t166.5 98.5t106 146.5t37 180v53zM1104 1110q0 -35 -23 -58.5t-58 -23.5q-33 0 -57.5 23.5
t-24.5 58.5q0 33 24.5 57t57.5 24q35 0 58 -24t23 -57zM845 1110q0 -35 -23.5 -58.5t-57.5 -23.5q-33 0 -57.5 23.5t-24.5 58.5q0 33 24.5 57t57.5 24q34 0 57.5 -24t23.5 -57z" />
    <glyph glyph-name="uni0643" unicode="&#x643;" horiz-adv-x="1805" arabic-form="isolated" 
d="M1007 817q-8 2 -24 4t-35 2q-21 0 -41.5 -4.5t-36.5 -15t-26 -27.5t-10 -42q0 -55 43.5 -87t118.5 -32h29v-70h-310v70h114q-9 6 -20 17.5t-21 27.5t-17 36.5t-7 44.5q0 33 10.5 61t32.5 48.5t55.5 32t78.5 11.5q17 0 36.5 -1t42.5 -5zM513 0q-108 0 -188 13t-137 37
t-93.5 57t-57.5 73t-29 86t-8 95q0 34 5 82.5t12 94.5l116 -11q-5 -25 -8 -56.5t-3 -65.5q0 -49 6.5 -89t25 -71t52 -53.5t88 -36.5t131.5 -21t184 -7h908v1311h128v-1438h-1132z" />
    <glyph glyph-name="uni0644" unicode="&#x644;" horiz-adv-x="1317" arabic-form="isolated" 
d="M1030 1437h127v-1238q0 -137 -38 -252t-113.5 -198.5t-189.5 -130.5t-267 -47q-133 0 -235.5 38.5t-172 106t-105.5 159.5t-36 199q0 48 7 97.5t20 97.5t29.5 92.5t36.5 81.5l109 -58q-15 -30 -27 -65t-20.5 -72.5t-13 -75.5t-4.5 -73q0 -92 29 -165.5t83.5 -124.5
t134 -78.5t180.5 -27.5q115 0 202.5 33t146 96.5t88 156t29.5 210.5v1238z" />
    <glyph glyph-name="uni0645" unicode="&#x645;" horiz-adv-x="1297" arabic-form="isolated" 
d="M372 127q-42 -6 -86 -23t-80.5 -56t-59.5 -104t-23 -167q0 -54 6 -109t18.5 -115t32.5 -126.5t49 -142.5l-115 -40q-23 71 -44 142.5t-36.5 139t-24.5 129t-9 112.5q0 106 19 183.5t59 136t100 102t143 82.5q46 169 105.5 271.5t122 157t122 72t106.5 17.5
q65 0 119 -19.5t97.5 -52t75.5 -75t53.5 -89.5t32.5 -95.5t11 -91.5q0 -72 -22.5 -139.5t-69.5 -120.5t-120 -85t-175 -32q-61 0 -119 11t-110.5 29.5t-97.5 43.5t-80 54zM1058 342q0 45 -18.5 101t-54.5 105t-90 82t-124 33q-63 0 -117 -35t-98 -94t-77 -137.5t-54 -166.5
q15 -20 50 -40.5t81 -36.5t97 -26t97 -10q70 0 127 13t97.5 40.5t62 70t21.5 101.5z" />
    <glyph glyph-name="uni0646" unicode="&#x646;" horiz-adv-x="1301" arabic-form="isolated" 
d="M1030 160q0 29 -4.5 70t-12.5 87.5t-21 94.5t-29 92l127 35q14 -39 26.5 -86t21.5 -96.5t14 -100t5 -96.5q0 -118 -38 -224.5t-113.5 -187.5t-189.5 -129t-267 -48q-132 0 -234.5 38.5t-172.5 106t-106 159.5t-36 199q0 48 7 97.5t20 97.5t29.5 92.5t36.5 81.5l109 -58
q-15 -30 -27 -65t-20.5 -72.5t-13 -75.5t-4.5 -73q0 -92 31 -165.5t87 -125t135.5 -79t176.5 -27.5q105 0 190 31t146 90t94 144t33 193zM734 891q0 -35 -23.5 -58.5t-57.5 -23.5q-33 0 -57.5 23.5t-24.5 58.5q0 33 24.5 57t57.5 24q34 0 57.5 -24t23.5 -57z" />
    <glyph glyph-name="uni0648" unicode="&#x648;" horiz-adv-x="1095" arabic-form="isolated" 
d="M594 123q28 0 60.5 4t63.5 10t57 14t43 16v118q0 127 -24.5 207t-64 125t-89 61t-100.5 16q-57 0 -107 -21t-86.5 -59.5t-58 -92t-21.5 -118.5q0 -56 18.5 -106.5t58 -89t101.5 -61.5t149 -23zM817 46q-31 -14 -66.5 -23.5t-70 -15t-65 -8t-52.5 -2.5q-114 0 -193.5 35.5
t-129.5 91.5t-72.5 126.5t-22.5 139.5q0 88 30 164.5t84.5 133t130.5 89t169 32.5q44 0 89.5 -8t88 -27.5t80.5 -53t66.5 -84.5t45 -122t16.5 -166v-183q0 -155 -47 -261t-133.5 -174t-207.5 -104.5t-268 -52.5l-14 118q120 11 220 39.5t171.5 73.5t111 106t39.5 136z" />
    <glyph glyph-name="uni0649" unicode="&#x649;" horiz-adv-x="1455" arabic-form="isolated" 
d="M1147 -25q0 38 -26.5 73.5t-66.5 71t-86 73t-86 79.5t-66.5 90t-26.5 105q0 85 34.5 144.5t87.5 96.5t116.5 54t122.5 17q86 0 143 -11t87 -20l-33 -124q-32 9 -66 16q-29 6 -66 11.5t-72 5.5q-34 0 -75 -8.5t-76 -29.5t-59 -55.5t-24 -86.5q0 -40 27.5 -77.5t68.5 -74
t88.5 -73t88.5 -75.5t68.5 -81.5t27.5 -90.5q0 -44 -18 -94t-54 -99t-89 -93.5t-123.5 -78.5t-158 -54.5t-191.5 -20.5q-130 0 -228 24.5t-169.5 65t-119 93.5t-76 109t-40 111t-11.5 101q0 107 27.5 200t75.5 166l104 -60q-40 -63 -60 -139.5t-20 -150.5q0 -76 28.5 -146
t92.5 -123.5t166.5 -85.5t249.5 -32q103 0 191.5 25.5t153 65.5t101.5 89t37 97z" />
    <glyph glyph-name="uni064A" unicode="&#x64a;" horiz-adv-x="1455" arabic-form="isolated" 
d="M1147 -25q0 38 -26.5 73.5t-66.5 71t-86 73t-86 79.5t-66.5 90t-26.5 105q0 85 34.5 144.5t87.5 96.5t116.5 54t122.5 17q86 0 143 -11t87 -20l-33 -124q-32 9 -66 16q-29 6 -66 11.5t-72 5.5q-34 0 -75 -8.5t-76 -29.5t-59 -55.5t-24 -86.5q0 -40 27.5 -77.5t68.5 -74
t88.5 -73t88.5 -75.5t68.5 -81.5t27.5 -90.5q0 -44 -18 -94t-54 -99t-89 -93.5t-123.5 -78.5t-158 -54.5t-191.5 -20.5q-130 0 -228 24.5t-169.5 65t-119 93.5t-76 109t-40 111t-11.5 101q0 107 27.5 200t75.5 166l104 -60q-40 -63 -60 -139.5t-20 -150.5q0 -76 28.5 -146
t92.5 -123.5t166.5 -85.5t249.5 -32q103 0 191.5 25.5t153 65.5t101.5 89t37 97zM445 -651q0 35 23 58.5t58 23.5q33 0 57.5 -23.5t24.5 -58.5q0 -33 -24.5 -57t-57.5 -24q-35 0 -58 24t-23 57zM704 -651q0 35 23.5 58.5t57.5 23.5q33 0 57.5 -23.5t24.5 -58.5
q0 -33 -24.5 -57t-57.5 -24q-34 0 -57.5 24t-23.5 57z" />
    <glyph glyph-name="uni0671" unicode="&#x671;" horiz-adv-x="528" arabic-form="isolated" 
d="M200 1436h128v-1437h-128v1437zM397 1659q0 98 -85 98q-23 0 -47 -7.5t-43 -22.5t-31 -37t-12 -51v-24h218v44zM37 1555v60h82v178h58v-58q23 36 62.5 57t80.5 21q66 0 100.5 -42t34.5 -107v-109h-418z" />
    <glyph glyph-name="uni0679" unicode="&#x679;" horiz-adv-x="1805" arabic-form="isolated" 
d="M513 0q-108 0 -188 13t-137 37t-93.5 57t-57.5 73t-29 86t-8 95q0 34 5 82.5t12 94.5l116 -11q-5 -25 -8 -56.5t-3 -65.5q0 -49 6.5 -89t25 -71t52 -53.5t88 -36.5t131.5 -21t184 -7h908v646h128v-773h-1132zM583 948h90v486h78v-336q16 27 37.5 48t46 35t50.5 21.5
t50 7.5q47 0 81 -15t56 -42t32.5 -63.5t10.5 -79.5v-142h-532v80zM1038 1006q0 66 -30 96t-81 30q-31 0 -60 -14.5t-52.5 -40t-40 -59t-21.5 -70.5h285v58z" />
    <glyph glyph-name="uni067E" unicode="&#x67e;" horiz-adv-x="1805" arabic-form="isolated" 
d="M513 0q-108 0 -188 13t-137 37t-93.5 57t-57.5 73t-29 86t-8 95q0 34 5 82.5t12 94.5l116 -11q-5 -25 -8 -56.5t-3 -65.5q0 -49 6.5 -89t25 -71t52 -53.5t88 -36.5t131.5 -21t184 -7h908v646h128v-773h-1132zM654 -274q0 35 23 58.5t58 23.5q33 0 57.5 -23.5t24.5 -58.5
q0 -33 -24.5 -57t-57.5 -24q-35 0 -58 24t-23 57zM913 -274q0 35 23.5 58.5t57.5 23.5q33 0 57.5 -23.5t24.5 -58.5q0 -33 -24.5 -57t-57.5 -24q-34 0 -57.5 24t-23.5 57zM795 -462q0 35 23 58.5t58 23.5q33 0 57.5 -23.5t24.5 -58.5q0 -33 -24.5 -57t-57.5 -24
q-35 0 -58 24t-23 57z" />
    <glyph glyph-name="uni0686" unicode="&#x686;" horiz-adv-x="1068" arabic-form="isolated" 
d="M391.373 -269.503q0 31.3604 20.7461 52.416q20.7451 21.0557 52.3145 21.0557q29.7646 0 51.8633 -21.0557t22.0986 -52.416q0 -29.5674 -22.0986 -51.0713t-51.8633 -21.5039q-31.5693 0 -52.3145 21.5039q-20.7461 21.5039 -20.7461 51.0713zM624.985 -269.503
q0 31.3604 21.1963 52.416t51.8643 21.0557q29.7646 0 51.8633 -21.0557t22.0986 -52.416q0 -29.5674 -22.0986 -51.0713t-51.8633 -21.5039q-30.668 0 -51.8643 21.5039t-21.1963 51.0713zM518.552 -437.95q0 31.3604 20.7461 52.416q20.7451 21.0557 52.3145 21.0557
q29.7646 0 51.8633 -21.0557t22.0986 -52.416q0 -29.5674 -22.0986 -51.0713t-51.8633 -21.5039q-31.5693 0 -52.3145 21.5039q-20.7461 21.5039 -20.7461 51.0713zM856 127q-23 19 -39.5 43.5t-28 52.5t-18.5 57t-12 57q-8 45 -17 90.5t-23 87.5t-36 79t-55 64t-79 42.5
t-109 15.5q-19 0 -43 -2.5t-49 -6.5t-50.5 -10t-47.5 -12v108q57 17 116 28.5t128 11.5q76 0 136 -23.5t102.5 -66.5t68.5 -102t35 -129q9 -68 20 -131t28.5 -114.5t44 -87t65.5 -47.5v-132h-556q-150 0 -232.5 -81.5t-82.5 -233.5q0 -63 22 -121.5t69.5 -103.5t122 -71.5
t179.5 -26.5q42 0 87.5 5t89.5 12v-109q-51 -13 -93 -19t-92 -6q-133 0 -228.5 37t-157.5 97t-91.5 137.5t-29.5 158.5q0 119 38 204.5t104 140.5t155 81t191 26h368z" />
    <glyph glyph-name="uni0688" unicode="&#x688;" horiz-adv-x="959" arabic-form="isolated" 
d="M92 0v127h337q88 0 144 11.5t88 34t44.5 54.5t12.5 73q0 61 -28.5 124t-75.5 125.5t-107.5 122.5t-124.5 114l95 95q67 -60 130.5 -128.5t112.5 -141.5t78.5 -148.5t29.5 -148.5q0 -69 -21 -126.5t-66 -99.5t-116 -65t-171 -23h-362zM151 1108h90v486h78v-336
q16 27 37.5 48t46 35t50.5 21.5t50 7.5q47 0 81 -15t56 -42t32.5 -63.5t10.5 -79.5v-142h-532v80zM606 1166q0 66 -30 96t-81 30q-31 0 -60 -14.5t-52.5 -40t-40 -59t-21.5 -70.5h285v58z" />
    <glyph glyph-name="uni0691" unicode="&#x691;" horiz-adv-x="762" arabic-form="isolated" 
d="M-5 -330q111 19 180.5 55t109 92t54 132.5t14.5 177.5v646h128v-677q0 -130 -27 -224.5t-84 -159.5t-146 -104.5t-213 -58.5zM70 1123h90v486h78v-336q16 27 37.5 48t46 35t50.5 21.5t50 7.5q47 0 81 -15t56 -42t32.5 -63.5t10.5 -79.5v-142h-532v80zM525 1181
q0 66 -30 96t-81 30q-31 0 -60 -14.5t-52.5 -40t-40 -59t-21.5 -70.5h285v58z" />
    <glyph glyph-name="uni0698" unicode="&#x698;" horiz-adv-x="772" arabic-form="isolated" 
d="M-5 -330q111 19 180.5 55t109 92t54 132.5t14.5 177.5v646h128v-677q0 -130 -27 -224.5t-84 -159.5t-146 -104.5t-213 -58.5zM612 1110q0 -35 -23 -58.5t-58 -23.5q-33 0 -57.5 23.5t-24.5 58.5q0 33 24.5 57t57.5 24q35 0 58 -24t23 -57zM353 1110q0 -35 -23.5 -58.5
t-57.5 -23.5q-33 0 -57.5 23.5t-24.5 58.5q0 33 24.5 57t57.5 24q34 0 57.5 -24t23.5 -57zM471 1298q0 -35 -23 -58.5t-58 -23.5q-33 0 -57.5 23.5t-24.5 58.5q0 33 24.5 57t57.5 24q35 0 58 -24t23 -57z" />
    <glyph glyph-name="uni06A4" unicode="&#x6a4;" horiz-adv-x="2082" arabic-form="isolated" 
d="M1806 127v240q0 94 -22 157t-59 100.5t-85 53.5t-99 16q-57 0 -107 -21t-87 -58.5t-58.5 -90t-21.5 -115.5q0 -60 22.5 -111.5t64 -89.5t101.5 -59.5t135 -21.5h216zM1284 127q-37 25 -62 59.5t-40 72t-21.5 75t-6.5 69.5q0 87 31 162.5t86 131t130 87t164 31.5
q86 0 154 -27.5t115.5 -79.5t72.5 -127t25 -170v-411h-1419q-108 0 -188 13t-137 37t-93.5 57t-57.5 73t-29 86t-8 95q0 34 5 82.5t12 94.5l116 -11q-5 -25 -8 -56.5t-3 -65.5q0 -49 6.5 -89t25 -71t52 -53.5t88 -36.5t131.5 -21t184 -7h675zM1777 1110q0 -35 -23 -58.5
t-58 -23.5q-33 0 -57.5 23.5t-24.5 58.5q0 33 24.5 57t57.5 24q35 0 58 -24t23 -57zM1518 1110q0 -35 -23.5 -58.5t-57.5 -23.5q-33 0 -57.5 23.5t-24.5 58.5q0 33 24.5 57t57.5 24q34 0 57.5 -24t23.5 -57zM1636 1298q0 -35 -23 -58.5t-58 -23.5q-33 0 -57.5 23.5
t-24.5 58.5q0 33 24.5 57t57.5 24q35 0 58 -24t23 -57z" />
    <glyph glyph-name="uni06A9" unicode="&#x6a9;" horiz-adv-x="1711" arabic-form="isolated" 
d="M1195 127q77 0 130 11.5t85.5 34t46.5 54.5t14 73q0 56 -26 112t-74.5 112t-118 112t-157.5 112l391 670l89 -61l-326 -577q163 -98 247 -215t84 -251q0 -69 -19.5 -126.5t-67 -99.5t-128 -65t-202.5 -23h-650q-108 0 -188 13t-137 37t-93.5 57t-57.5 73t-29 86t-8 95
q0 34 5 82.5t12 94.5l116 -11q-5 -25 -8 -56.5t-3 -65.5q0 -49 6.5 -89t25 -71t52 -53.5t88 -36.5t131.5 -21t184 -7h586z" />
    <glyph glyph-name="uni06AF" unicode="&#x6af;" horiz-adv-x="1711" arabic-form="isolated" 
d="M914 860l407 665l101 -61l-414 -663zM1195 127q77 0 130 11.5t85.5 34t46.5 54.5t14 73q0 56 -26 112t-74.5 112t-118 112t-157.5 112l391 670l89 -61l-326 -577q163 -98 247 -215t84 -251q0 -69 -19.5 -126.5t-67 -99.5t-128 -65t-202.5 -23h-650q-108 0 -188 13
t-137 37t-93.5 57t-57.5 73t-29 86t-8 95q0 34 5 82.5t12 94.5l116 -11q-5 -25 -8 -56.5t-3 -65.5q0 -49 6.5 -89t25 -71t52 -53.5t88 -36.5t131.5 -21t184 -7h586z" />
    <glyph glyph-name="uni06BA" unicode="&#x6ba;" horiz-adv-x="1288" arabic-form="isolated" 
d="M1030 160q0 29 -4.5 70t-12.5 87.5t-21 94.5t-29 92l127 35q14 -39 26.5 -86t21.5 -96.5t14 -100t5 -96.5q0 -118 -38 -224.5t-113.5 -187.5t-189.5 -129t-267 -48q-132 0 -234.5 38.5t-172.5 106t-106 159.5t-36 199q0 48 7 97.5t20 97.5t29.5 92.5t36.5 81.5l109 -58
q-15 -30 -27 -65t-20.5 -72.5t-13 -75.5t-4.5 -73q0 -92 31 -165.5t87 -125t135.5 -79t176.5 -27.5q105 0 190 31t146 90t94 144t33 193z" />
    <glyph glyph-name="uni06BE" unicode="&#x6be;" horiz-adv-x="1464" arabic-form="isolated" 
d="M296 0q-60 0 -96.5 -11t-56 -36t-25.5 -65.5t-6 -98.5h-87q-5 12 -9.5 29.5t-8 36t-5.5 37.5t-2 34q0 55 19 93t51.5 62t76 35t92.5 11h115q-48 78 -66 155.5t-18 140.5q0 53 11.5 106.5t36.5 105t64.5 98.5t95.5 86q-10 3 -17 5l-14 4t-15 4t-18 5q14 33 32 60.5
t29 45.5q153 -37 275 -74.5t215.5 -80t159.5 -92.5t108 -111.5t61.5 -138t19.5 -172.5v-15t-1 -36.5t-3 -79.5t-6 -143h-1008zM377 445q0 -59 13 -112t32.5 -95t41.5 -71t40 -40h228q16 26 32 59.5t29 71.5t21 78.5t8 80.5q0 97 -19.5 163t-50 106.5t-67 58t-70.5 17.5
q-53 0 -97 -30.5t-75.5 -77.5t-48.5 -102.5t-17 -106.5zM1183 127q7 45 10.5 87t3.5 77q0 57 -13 114t-48.5 110t-99 98.5t-163.5 80.5q16 -29 27 -66t17 -74.5t8.5 -70t2.5 -51.5q0 -38 -5 -80t-14 -82.5t-21 -77.5t-26 -65h321z" />
    <glyph glyph-name="uni06C1" unicode="&#x6c1;" horiz-adv-x="895" arabic-form="isolated" 
d="M382 0q-93 0 -164.5 25.5t-119.5 71.5t-73 110.5t-25 142.5q0 116 34 206.5t88.5 153t123.5 95t140 32.5q67 0 134.5 -29t121.5 -88t88 -148.5t34 -210.5q0 -73 -25 -138.5t-73.5 -115t-120 -78.5t-163.5 -29zM123 383q0 -68 21 -116.5t56.5 -79.5t82.5 -45.5t99 -14.5
q69 0 119 18.5t81.5 52t46.5 80.5t15 105q0 78 -24 141t-61.5 106.5t-83.5 67t-89 23.5q-53 0 -101 -24.5t-84 -69t-57 -107t-21 -137.5z" />
    <glyph glyph-name="uni06C2.fina" unicode="&#x6c2;" horiz-adv-x="776" 
d="M490 1059q-11 2 -31.5 5t-45.5 3q-28 0 -54.5 -6t-47.5 -19.5t-33.5 -36t-12.5 -54.5q0 -71 56.5 -112.5t154.5 -41.5h37v-91h-402v91h148q-11 7 -25.5 22t-27.5 36t-22 48t-9 57q0 42 13.5 78.5t42 63.5t71.5 42t102 15q23 0 48.5 -1.5t54.5 -6.5zM1 -62q-1 11 -1 22.5
v22.5q0 118 29 206t75 146t103 86.5t114 28.5q54 0 94 -24t72 -60t59 -77.5t55.5 -77.5t61.5 -60t77 -24h65q43 0 43 -23v-76q0 -19 -13 -23.5t-30 -4.5h-84q-47 0 -84.5 24.5t-69 61t-60 79t-58.5 79t-63 61t-74 24.5q-42 0 -80.5 -24t-68 -71t-46.5 -118t-17 -165v-13h-99
z" />
    <glyph glyph-name="uni06C3.fina" unicode="&#x6c3;" horiz-adv-x="995" 
d="M667 729q-125 -17 -226.5 -50.5t-174 -79.5t-112 -103.5t-39.5 -121.5q0 -52 21.5 -87.5t55 -57.5t75 -31.5t81.5 -9.5q87 0 171.5 24t147.5 66v451zM794 314q0 -54 5.5 -90t22 -57.5t46.5 -30.5t78 -9h77q44 0 44 -23v-76q0 -19 -13 -23.5t-31 -4.5h-99
q-65 0 -108.5 16.5t-71 41.5t-42.5 54t-24 54q-51 -25 -95 -42.5t-86 -28.5t-84 -16t-90 -5q-57 0 -114.5 16t-104 49.5t-75.5 85.5t-29 124q0 79 30 143.5t81.5 115.5t118.5 89.5t141.5 67.5t150.5 49t145 33v92h127v-625zM759 1160q0 -35 -23 -58.5t-58 -23.5
q-33 0 -57.5 23.5t-24.5 58.5q0 33 24.5 57t57.5 24q35 0 58 -24t23 -57zM500 1160q0 -35 -23.5 -58.5t-57.5 -23.5q-33 0 -57.5 23.5t-24.5 58.5q0 33 24.5 57t57.5 24q34 0 57.5 -24t23.5 -57z" />
    <glyph glyph-name="uni06CC" unicode="&#x6cc;" horiz-adv-x="1455" arabic-form="isolated" 
d="M1147 -25q0 38 -26.5 73.5t-66.5 71t-86 73t-86 79.5t-66.5 90t-26.5 105q0 85 34.5 144.5t87.5 96.5t116.5 54t122.5 17q86 0 143 -11t87 -20l-33 -124q-32 9 -66 16q-29 6 -66 11.5t-72 5.5q-34 0 -75 -8.5t-76 -29.5t-59 -55.5t-24 -86.5q0 -40 27.5 -77.5t68.5 -74
t88.5 -73t88.5 -75.5t68.5 -81.5t27.5 -90.5q0 -44 -18 -94t-54 -99t-89 -93.5t-123.5 -78.5t-158 -54.5t-191.5 -20.5q-130 0 -228 24.5t-169.5 65t-119 93.5t-76 109t-40 111t-11.5 101q0 107 27.5 200t75.5 166l104 -60q-40 -63 -60 -139.5t-20 -150.5q0 -76 28.5 -146
t92.5 -123.5t166.5 -85.5t249.5 -32q103 0 191.5 25.5t153 65.5t101.5 89t37 97z" />
    <glyph glyph-name="uni06D2" unicode="&#x6d2;" horiz-adv-x="1827" arabic-form="isolated" 
d="M678 564q-119 -43 -205 -78.5t-146 -66t-97 -57t-57 -51t-27 -47.5t-7 -47q0 -85 161 -122t496 -37q120 0 243.5 7t241 18.5t224.5 26.5t194 30l-7 -130q-119 -22 -245 -37.5t-246.5 -26t-229.5 -15.5t-194 -5q-151 0 -267.5 9.5t-202.5 27.5t-145 43.5t-95 57.5
t-51.5 69.5t-15.5 80.5q0 74 35 132.5t111.5 111.5t197 107.5t290.5 120.5z" />
    <glyph glyph-name="uni06D3" unicode="&#x6d3;" horiz-adv-x="1827" arabic-form="isolated" 
d="M678 564q-119 -43 -205 -78.5t-146 -66t-97 -57t-57 -51t-27 -47.5t-7 -47q0 -85 161 -122t496 -37q120 0 243.5 7t241 18.5t224.5 26.5t194 30l-7 -130q-119 -22 -245 -37.5t-246.5 -26t-229.5 -15.5t-194 -5q-151 0 -267.5 9.5t-202.5 27.5t-145 43.5t-95 57.5
t-51.5 69.5t-15.5 80.5q0 74 35 132.5t111.5 111.5t197 107.5t290.5 120.5zM471 1181q-11 2 -31.5 5t-45.5 3q-28 0 -54.5 -6t-47.5 -19.5t-33.5 -36t-12.5 -54.5q0 -71 56.5 -112.5t154.5 -41.5h37v-91h-402v91h148q-11 7 -25.5 22t-27.5 36t-22 48t-9 57q0 42 13.5 78.5
t42 63.5t71.5 42t102 15q23 0 48.5 -1.5t54.5 -6.5z" />
    <glyph glyph-name="uni06D5.fina" unicode="&#x6d5;" horiz-adv-x="995" 
d="M667 729q-125 -17 -226.5 -50.5t-174 -79.5t-112 -103.5t-39.5 -121.5q0 -52 21.5 -87.5t55 -57.5t75 -31.5t81.5 -9.5q87 0 171.5 24t147.5 66v451zM794 314q0 -54 5.5 -90t22 -57.5t46.5 -30.5t78 -9h77q44 0 44 -23v-76q0 -19 -13 -23.5t-31 -4.5h-99
q-65 0 -108.5 16.5t-71 41.5t-42.5 54t-24 54q-51 -25 -95 -42.5t-86 -28.5t-84 -16t-90 -5q-57 0 -114.5 16t-104 49.5t-75.5 85.5t-29 124q0 79 30 143.5t81.5 115.5t118.5 89.5t141.5 67.5t150.5 49t145 33v92h127v-625z" />
    <glyph glyph-name="uniFB51" unicode="&#x671;" horiz-adv-x="518" arabic-form="final" 
d="M200 1436h128v-1113q0 -56 8 -94t27.5 -60.5t52.5 -32t84 -9.5h45q45 0 45 -23v-76q0 -19 -13 -23.5t-32 -4.5h-88q-71 0 -120 21.5t-79.5 59t-44 89.5t-13.5 112v1154zM400 1659q0 98 -85 98q-23 0 -47 -7.5t-43 -22.5t-31 -37t-12 -51v-24h218v44zM40 1555v60h82v178
h58v-58q23 36 62.5 57t80.5 21q66 0 100.5 -42t34.5 -107v-109h-418z" />
    <glyph glyph-name="uniFB57" unicode="&#x67e;" horiz-adv-x="1822" arabic-form="final" 
d="M1320 127q36 0 60.5 7t39.5 24.5t22 48t7 78.5v487h129v-528q0 -15 -1.5 -29.5t-3.5 -28.5q104 -59 268 -59h10q43 0 43 -23v-76q0 -19 -12.5 -23.5t-30.5 -4.5h-12q-56 0 -100.5 5.5t-80.5 16t-66.5 26t-58.5 34.5q-26 -37 -69.5 -59.5t-109.5 -22.5h-841
q-108 0 -188 13t-137 37t-93.5 57t-57.5 73t-29 86t-8 95q0 34 5 82.5t12 94.5l116 -11q-5 -25 -8 -56.5t-3 -65.5q0 -49 6.5 -89t25 -71t52 -53.5t88 -36.5t131.5 -21t184 -7h711zM646 -274q0 35 23 58.5t58 23.5q33 0 57.5 -23.5t24.5 -58.5q0 -33 -24.5 -57t-57.5 -24
q-35 0 -58 24t-23 57zM905 -274q0 35 23.5 58.5t57.5 23.5q33 0 57.5 -23.5t24.5 -58.5q0 -33 -24.5 -57t-57.5 -24q-34 0 -57.5 24t-23.5 57zM787 -462q0 35 23 58.5t58 23.5q33 0 57.5 -23.5t24.5 -58.5q0 -33 -24.5 -57t-57.5 -24q-35 0 -58 24t-23 57z" />
    <glyph glyph-name="uniFB58" unicode="&#x67e;" horiz-adv-x="652" arabic-form="initial" 
d="M-28 0q-44 0 -44 23v75q0 20 13 24.5t31 4.5h392v646h129v-773h-521zM163 -274q0 35 23 58.5t58 23.5q33 0 57.5 -23.5t24.5 -58.5q0 -33 -24.5 -57t-57.5 -24q-35 0 -58 24t-23 57zM422 -274q0 35 23.5 58.5t57.5 23.5q33 0 57.5 -23.5t24.5 -58.5q0 -33 -24.5 -57
t-57.5 -24q-34 0 -57.5 24t-23.5 57zM304 -462q0 35 23 58.5t58 23.5q33 0 57.5 -23.5t24.5 -58.5q0 -33 -24.5 -57t-57.5 -24q-35 0 -58 24t-23 57z" />
    <glyph glyph-name="uniFB59" unicode="&#x67e;" horiz-adv-x="684" arabic-form="medial" 
d="M-29 0q-43 0 -43 23v75q0 20 13 24.5t30 4.5h211q36 0 60.5 7t39.5 24.5t22 48t7 78.5v487h129v-528q0 -15 -1.5 -29.5t-3.5 -28.5q104 -59 268 -59h10q43 0 43 -23v-76q0 -19 -12.5 -23.5t-30.5 -4.5h-12q-56 0 -100.5 5.5t-80.5 16t-66.5 26t-58.5 34.5
q-26 -37 -69.5 -59.5t-109.5 -22.5h-245zM155 -274q0 35 23 58.5t58 23.5q33 0 57.5 -23.5t24.5 -58.5q0 -33 -24.5 -57t-57.5 -24q-35 0 -58 24t-23 57zM414 -274q0 35 23.5 58.5t57.5 23.5q33 0 57.5 -23.5t24.5 -58.5q0 -33 -24.5 -57t-57.5 -24q-34 0 -57.5 24t-23.5 57
zM296 -462q0 35 23 58.5t58 23.5q33 0 57.5 -23.5t24.5 -58.5q0 -33 -24.5 -57t-57.5 -24q-35 0 -58 24t-23 57z" />
    <glyph glyph-name="uniFB67" unicode="&#x679;" horiz-adv-x="1822" arabic-form="final" 
d="M1320 127q36 0 60.5 7t39.5 24.5t22 48t7 78.5v487h129v-528q0 -15 -1.5 -29.5t-3.5 -28.5q104 -59 268 -59h10q43 0 43 -23v-76q0 -19 -12.5 -23.5t-30.5 -4.5h-12q-56 0 -100.5 5.5t-80.5 16t-66.5 26t-58.5 34.5q-26 -37 -69.5 -59.5t-109.5 -22.5h-841
q-108 0 -188 13t-137 37t-93.5 57t-57.5 73t-29 86t-8 95q0 34 5 82.5t12 94.5l116 -11q-5 -25 -8 -56.5t-3 -65.5q0 -49 6.5 -89t25 -71t52 -53.5t88 -36.5t131.5 -21t184 -7h711zM580 948h90v486h78v-336q16 27 37.5 48t46 35t50.5 21.5t50 7.5q47 0 81 -15t56 -42
t32.5 -63.5t10.5 -79.5v-142h-532v80zM1035 1006q0 66 -30 96t-81 30q-31 0 -60 -14.5t-52.5 -40t-40 -59t-21.5 -70.5h285v58z" />
    <glyph glyph-name="uniFB68" unicode="&#x679;" horiz-adv-x="774" arabic-form="initial" 
d="M-28 0q-44 0 -44 23v75q0 20 13 24.5t31 4.5h392v646h129v-773h-521zM82 1047h90v486h78v-336q16 27 37.5 48t46 35t50.5 21.5t50 7.5q47 0 81 -15t56 -42t32.5 -63.5t10.5 -79.5v-142h-532v80zM537 1105q0 66 -30 96t-81 30q-31 0 -60 -14.5t-52.5 -40t-40 -59
t-21.5 -70.5h285v58z" />
    <glyph glyph-name="uniFB69" unicode="&#x679;" horiz-adv-x="684" arabic-form="medial" 
d="M-29 0q-43 0 -43 23v75q0 20 13 24.5t30 4.5h211q36 0 60.5 7t39.5 24.5t22 48t7 78.5v487h129v-528q0 -15 -1.5 -29.5t-3.5 -28.5q104 -59 268 -59h10q43 0 43 -23v-76q0 -19 -12.5 -23.5t-30.5 -4.5h-12q-56 0 -100.5 5.5t-80.5 16t-66.5 26t-58.5 34.5
q-26 -37 -69.5 -59.5t-109.5 -22.5h-245zM87 1047h90v486h78v-336q16 27 37.5 48t46 35t50.5 21.5t50 7.5q47 0 81 -15t56 -42t32.5 -63.5t10.5 -79.5v-142h-532v80zM542 1105q0 66 -30 96t-81 30q-31 0 -60 -14.5t-52.5 -40t-40 -59t-21.5 -70.5h285v58z" />
    <glyph glyph-name="uniFB6B" unicode="&#x6a4;" horiz-adv-x="2088" arabic-form="final" 
d="M1292 127q-43 25 -76.5 58.5t-56 71.5t-34 80t-11.5 83q0 79 27 151t78.5 126t127 86t172.5 32t169 -28t119.5 -76t71 -112t23.5 -136q0 -44 -9 -93t-23.5 -94.5t-31.5 -84.5t-33 -64h311q44 0 44 -23v-76q0 -19 -13 -23.5t-31 -4.5h-99q-129 0 -234.5 9t-194.5 26
q-42 -7 -99 -12t-122 -9t-134.5 -6.5t-137 -4.5t-128.5 -2.5t-109 -0.5h-345q-108 0 -188 13t-137 37t-93.5 57t-57.5 73t-29 86t-8 95q0 34 5 82.5t12 94.5l116 -11q-5 -25 -8 -56.5t-3 -65.5q0 -49 6.5 -89t25 -71t52 -53.5t88 -36.5t131.5 -21t184 -7h683zM1228 436
q0 -69 28 -125.5t76 -97.5t112.5 -63.5t138.5 -22.5h87q15 22 34 54.5t35.5 72t28 84t11.5 90.5q0 68 -23 119t-60.5 85.5t-86 51.5t-100.5 17q-51 0 -101.5 -15t-90 -47t-64.5 -82t-25 -121zM1723 1110q0 -35 -23 -58.5t-58 -23.5q-33 0 -57.5 23.5t-24.5 58.5
q0 33 24.5 57t57.5 24q35 0 58 -24t23 -57zM1464 1110q0 -35 -23.5 -58.5t-57.5 -23.5q-33 0 -57.5 23.5t-24.5 58.5q0 33 24.5 57t57.5 24q34 0 57.5 -24t23.5 -57zM1582 1298q0 -35 -23 -58.5t-58 -23.5q-33 0 -57.5 23.5t-24.5 58.5q0 33 24.5 57t57.5 24q35 0 58 -24
t23 -57z" />
    <glyph glyph-name="uniFB6C" unicode="&#x6a4;" horiz-adv-x="1178" arabic-form="initial" 
d="M380 127q-37 25 -62 59.5t-40 72t-21.5 75t-6.5 69.5q0 87 31 162.5t86 131t130 87t164 31.5q86 0 154 -27.5t115.5 -79.5t72.5 -127t25 -170v-411h-1057q-43 0 -43 23v75q0 20 12.5 24.5t30.5 4.5h409zM902 127v240q0 94 -22 157t-59 100.5t-85 53.5t-99 16
q-57 0 -107 -21t-87 -58.5t-58.5 -90t-21.5 -115.5q0 -60 22.5 -111.5t64 -89.5t101.5 -59.5t135 -21.5h216zM845 1110q0 -35 -23 -58.5t-58 -23.5q-33 0 -57.5 23.5t-24.5 58.5q0 33 24.5 57t57.5 24q35 0 58 -24t23 -57zM586 1110q0 -35 -23.5 -58.5t-57.5 -23.5
q-33 0 -57.5 23.5t-24.5 58.5q0 33 24.5 57t57.5 24q34 0 57.5 -24t23.5 -57zM704 1298q0 -35 -23 -58.5t-58 -23.5q-33 0 -57.5 23.5t-24.5 58.5q0 33 24.5 57t57.5 24q35 0 58 -24t23 -57z" />
    <glyph glyph-name="uniFB6D" unicode="&#x6a4;" horiz-adv-x="1195" arabic-form="medial" 
d="M1105 0q-64 0 -126.5 2t-121 6.5t-111 11t-96.5 15.5q-63 -10 -134.5 -16.5t-147.5 -10.5t-154.5 -6t-154.5 -2h-87q-44 0 -44 23v75q0 20 13.5 24.5t30.5 4.5h378q-43 25 -76.5 58.5t-56 71.5t-34 80t-11.5 83q0 79 27 151t78.5 126t127 86t172.5 32t169 -28t119.5 -76
t71 -112t23.5 -136q0 -44 -9 -93t-23.5 -94.5t-31.5 -84.5t-33 -64h360q44 0 44 -23v-76q0 -19 -13 -23.5t-31 -4.5h-118zM286 436q0 -69 28 -125.5t76 -97.5t112.5 -63.5t138.5 -22.5h87q15 22 34 54.5t35.5 72t28 84t11.5 90.5q0 68 -23 119t-60.5 85.5t-86 51.5
t-100.5 17q-51 0 -101.5 -15t-90 -47t-64.5 -82t-25 -121zM769 1110q0 -35 -23 -58.5t-58 -23.5q-33 0 -57.5 23.5t-24.5 58.5q0 33 24.5 57t57.5 24q35 0 58 -24t23 -57zM510 1110q0 -35 -23.5 -58.5t-57.5 -23.5q-33 0 -57.5 23.5t-24.5 58.5q0 33 24.5 57t57.5 24
q34 0 57.5 -24t23.5 -57zM628 1298q0 -35 -23 -58.5t-58 -23.5q-33 0 -57.5 23.5t-24.5 58.5q0 33 24.5 57t57.5 24q35 0 58 -24t23 -57z" />
    <glyph glyph-name="uniFB7B" unicode="&#x686;" horiz-adv-x="1100" arabic-form="final" 
d="M437 0q-150 0 -232.5 -81.5t-82.5 -233.5q0 -63 22 -121.5t69.5 -103.5t122 -71.5t179.5 -26.5q42 0 87.5 5t89.5 12v-109q-51 -13 -93 -19t-92 -6q-133 0 -228.5 37t-157.5 97t-91.5 137.5t-29.5 158.5q0 119 38 204.5t104 140.5t155 81t191 26h368q-23 19 -39.5 43.5
t-28 52.5t-18.5 57t-12 57q-8 45 -17 90.5t-23 87.5t-36 79t-55 64t-79 42.5t-109 15.5q-19 0 -43 -2.5t-49 -6.5t-50.5 -10t-47.5 -12v108q57 17 116 28.5t128 11.5q76 0 136 -23.5t102.5 -66.5t68.5 -102t35 -129q9 -74 21.5 -143t34 -123t54.5 -86.5t83 -32.5h101
q43 0 43 -23v-76q0 -19 -12.5 -23.5t-30.5 -4.5h-692zM395.373 -269.503q0 31.3604 20.7461 52.416q20.7451 21.0557 52.3145 21.0557q29.7646 0 51.8633 -21.0557t22.0986 -52.416q0 -29.5674 -22.0986 -51.0713t-51.8633 -21.5039q-31.5693 0 -52.3145 21.5039
q-20.7461 21.5039 -20.7461 51.0713zM628.985 -269.503q0 31.3604 21.1963 52.416t51.8643 21.0557q29.7646 0 51.8633 -21.0557t22.0986 -52.416q0 -29.5674 -22.0986 -51.0713t-51.8633 -21.5039q-30.668 0 -51.8643 21.5039t-21.1963 51.0713zM522.552 -437.95
q0 31.3604 20.7461 52.416q20.7451 21.0557 52.3145 21.0557q29.7646 0 51.8633 -21.0557t22.0986 -52.416q0 -29.5674 -22.0986 -51.0713t-51.8633 -21.5039q-31.5693 0 -52.3145 21.5039q-20.7461 21.5039 -20.7461 51.0713z" />
    <glyph glyph-name="uniFB7C" unicode="&#x686;" horiz-adv-x="1030" arabic-form="initial" 
d="M211 793q57 17 116 28.5t128 11.5q75 0 134 -22.5t102 -64.5t69.5 -101.5t36.5 -133.5q9 -69 20 -133t28 -115.5t43.5 -86t66.5 -44.5v-132h-982q-45 0 -45 23v75q0 20 13.5 24.5t31.5 4.5h845q-21 16 -37.5 40.5t-28 53t-19.5 58.5t-13 58q-11 67 -27 135t-49.5 122
t-91 88t-152.5 34q-19 0 -42.5 -2.5t-48.5 -7t-50.5 -10t-47.5 -12.5v109zM272 -274q0 35 23 58.5t58 23.5q33 0 57.5 -23.5t24.5 -58.5q0 -33 -24.5 -57t-57.5 -24q-35 0 -58 24t-23 57zM531 -274q0 35 23.5 58.5t57.5 23.5q33 0 57.5 -23.5t24.5 -58.5q0 -33 -24.5 -57
t-57.5 -24q-34 0 -57.5 24t-23.5 57zM413 -462q0 35 23 58.5t58 23.5q33 0 57.5 -23.5t24.5 -58.5q0 -33 -24.5 -57t-57.5 -24q-35 0 -58 24t-23 57z" />
    <glyph glyph-name="uniFB7D" unicode="&#x686;" horiz-adv-x="1061" arabic-form="medial" 
d="M210 793q57 17 116 28.5t129 11.5q74 0 132.5 -22.5t101.5 -64.5t69.5 -101.5t37.5 -133.5q10 -74 23 -143t34 -122.5t53.5 -86t81.5 -32.5h102q43 0 43 -23v-76q0 -19 -12.5 -23.5t-30.5 -4.5h-1118q-44 0 -44 23v75q0 20 13 24.5t31 4.5h846q-22 18 -38.5 42.5
t-28.5 52.5t-20 57.5t-12 57.5q-11 67 -27 135t-49.5 122t-91 88t-151.5 34q-19 0 -43 -2.5t-49 -7t-50.5 -10t-47.5 -11.5v108zM275 -274q0 35 23 58.5t58 23.5q33 0 57.5 -23.5t24.5 -58.5q0 -33 -24.5 -57t-57.5 -24q-35 0 -58 24t-23 57zM534 -274q0 35 23.5 58.5
t57.5 23.5q33 0 57.5 -23.5t24.5 -58.5q0 -33 -24.5 -57t-57.5 -24q-34 0 -57.5 24t-23.5 57zM416 -462q0 35 23 58.5t58 23.5q33 0 57.5 -23.5t24.5 -58.5q0 -33 -24.5 -57t-57.5 -24q-35 0 -58 24t-23 57z" />
    <glyph glyph-name="uniFB89" unicode="&#x688;" horiz-adv-x="1038" arabic-form="final" 
d="M84 0v127h337q88 0 144 11.5t88.5 34t45 54.5t12.5 73q0 61 -28.5 124t-75.5 125.5t-108 122.5t-125 114l95 95q67 -60 130 -128.5t112.5 -141.5t79.5 -148.5t30 -148.5q0 -72 -23 -133q51 -26 114.5 -40t144.5 -14h10q43 0 43 -23v-76q0 -19 -12.5 -23.5t-30.5 -4.5h-12
q-59 0 -105 6.5t-83.5 18t-68.5 28t-61 37.5q-45 -43 -116 -66.5t-174 -23.5h-363zM129 1108h90v486h78v-336q16 27 37.5 48t46 35t50.5 21.5t50 7.5q47 0 81 -15t56 -42t32.5 -63.5t10.5 -79.5v-142h-532v80zM584 1166q0 66 -30 96t-81 30q-31 0 -60 -14.5t-52.5 -40
t-40 -59t-21.5 -70.5h285v58z" />
    <glyph glyph-name="uniFB8B" unicode="&#x698;" horiz-adv-x="691" arabic-form="final" 
d="M-5 -330q111 19 180.5 55t109 92t54 132.5t14.5 177.5v646h128v-646h239q43 0 43 -23v-76q0 -19 -12.5 -23.5t-30.5 -4.5h-243q-9 -105 -41.5 -182t-89.5 -131t-140 -87t-195 -51zM612 1110q0 -35 -23 -58.5t-58 -23.5q-33 0 -57.5 23.5t-24.5 58.5q0 33 24.5 57t57.5 24
q35 0 58 -24t23 -57zM353 1110q0 -35 -23.5 -58.5t-57.5 -23.5q-33 0 -57.5 23.5t-24.5 58.5q0 33 24.5 57t57.5 24q34 0 57.5 -24t23.5 -57zM471 1298q0 -35 -23 -58.5t-58 -23.5q-33 0 -57.5 23.5t-24.5 58.5q0 33 24.5 57t57.5 24q35 0 58 -24t23 -57z" />
    <glyph glyph-name="uniFB8D" unicode="&#x691;" horiz-adv-x="691" arabic-form="final" 
d="M-5 -330q111 19 180.5 55t109 92t54 132.5t14.5 177.5v646h128v-646h239q43 0 43 -23v-76q0 -19 -12.5 -23.5t-30.5 -4.5h-243q-9 -105 -41.5 -182t-89.5 -131t-140 -87t-195 -51zM70 1123h90v486h78v-336q16 27 37.5 48t46 35t50.5 21.5t50 7.5q47 0 81 -15t56 -42
t32.5 -63.5t10.5 -79.5v-142h-532v80zM525 1181q0 66 -30 96t-81 30q-31 0 -60 -14.5t-52.5 -40t-40 -59t-21.5 -70.5h285v58z" />
    <glyph glyph-name="uniFB8F" unicode="&#x6a9;" horiz-adv-x="1792" arabic-form="final" 
d="M1195 127q77 0 130 11.5t85.5 34t46.5 54.5t14 73q0 56 -26 112t-74.5 112t-118 112t-157.5 112l391 670l89 -61l-326 -577q163 -98 247 -215t84 -251q0 -38 -5.5 -71.5t-17.5 -63.5q50 -26 113 -39t141 -13h10q43 0 43 -23v-76q0 -19 -12.5 -23.5t-30.5 -4.5h-12
q-59 0 -104.5 6t-82.5 17.5t-68 27.5t-61 37q-48 -42 -128 -65t-202 -23h-650q-108 0 -188 13t-137 37t-93.5 57t-57.5 73t-29 86t-8 95q0 34 5 82.5t12 94.5l116 -11q-5 -25 -8 -56.5t-3 -65.5q0 -49 6.5 -89t25 -71t52 -53.5t88 -36.5t131.5 -21t184 -7h586z" />
    <glyph glyph-name="uniFB90" unicode="&#x6a9;" horiz-adv-x="816" arabic-form="initial" 
d="M-28 0q-44 0 -44 23v75q0 20 12.5 24.5t31.5 4.5h328q77 0 130 11.5t85.5 34t46.5 54.5t14 73q0 56 -26 112t-74.5 112t-118 112t-157.5 112l391 670q22 -16 44.5 -31t44.5 -30l-326 -577q163 -98 247 -215t84 -251q0 -69 -19.5 -126.5t-67 -99.5t-128 -65t-202.5 -23
h-296z" />
    <glyph glyph-name="uniFB91" unicode="&#x6a9;" horiz-adv-x="895" arabic-form="medial" 
d="M-28 0q-44 0 -44 23v75q0 20 12.5 24.5t31.5 4.5h328q77 0 130 11.5t85.5 34t46.5 54.5t14 73q0 56 -26 112t-74.5 112t-118 112t-157.5 112l391 670q22 -16 44.5 -31t44.5 -30l-326 -577q163 -98 247 -215t84 -251q0 -38 -5.5 -72t-17.5 -64q50 -25 112 -38t140 -13h10
q43 0 43 -23v-76q0 -19 -12.5 -23.5t-30.5 -4.5h-12q-58 0 -103.5 6t-82.5 17t-68 27.5t-60 36.5q-48 -42 -128 -64.5t-202 -22.5h-296z" />
    <glyph glyph-name="uniFB93" unicode="&#x6af;" horiz-adv-x="1792" arabic-form="final" 
d="M914 860l407 665l101 -61l-414 -663zM1195 127q77 0 130 11.5t85.5 34t46.5 54.5t14 73q0 56 -26 112t-74.5 112t-118 112t-157.5 112l391 670l89 -61l-326 -577q163 -98 247 -215t84 -251q0 -38 -5.5 -71.5t-17.5 -63.5q50 -26 113 -39t141 -13h10q43 0 43 -23v-76
q0 -19 -12.5 -23.5t-30.5 -4.5h-12q-59 0 -104.5 6t-82.5 17.5t-68 27.5t-61 37q-48 -42 -128 -65t-202 -23h-650q-108 0 -188 13t-137 37t-93.5 57t-57.5 73t-29 86t-8 95q0 34 5 82.5t12 94.5l116 -11q-5 -25 -8 -56.5t-3 -65.5q0 -49 6.5 -89t25 -71t52 -53.5t88 -36.5
t131.5 -21t184 -7h586z" />
    <glyph glyph-name="uniFB94" unicode="&#x6af;" horiz-adv-x="816" arabic-form="initial" 
d="M11 855l407 665l101 -61l-414 -663zM-28 0q-44 0 -44 23v75q0 20 12.5 24.5t31.5 4.5h328q77 0 130 11.5t85.5 34t46.5 54.5t14 73q0 56 -26 112t-74.5 112t-118 112t-157.5 112l391 670q22 -16 44.5 -31t44.5 -30l-326 -577q163 -98 247 -215t84 -251
q0 -69 -19.5 -126.5t-67 -99.5t-128 -65t-202.5 -23h-296z" />
    <glyph glyph-name="uniFB95" unicode="&#x6af;" horiz-adv-x="895" arabic-form="medial" 
d="M19 855l407 665l101 -61l-414 -663zM-28 0q-44 0 -44 23v75q0 20 12.5 24.5t31.5 4.5h328q77 0 130 11.5t85.5 34t46.5 54.5t14 73q0 56 -26 112t-74.5 112t-118 112t-157.5 112l391 670q22 -16 44.5 -31t44.5 -30l-326 -577q163 -98 247 -215t84 -251q0 -38 -5.5 -72
t-17.5 -64q50 -25 112 -38t140 -13h10q43 0 43 -23v-76q0 -19 -12.5 -23.5t-30.5 -4.5h-12q-58 0 -103.5 6t-82.5 17t-68 27.5t-60 36.5q-48 -42 -128 -64.5t-202 -22.5h-296z" />
    <glyph glyph-name="uniFB9F" unicode="&#x6ba;" horiz-adv-x="1430" arabic-form="final" 
d="M1030 160q0 29 -4.5 70t-12.5 87.5t-21 94.5t-29 92l127 35q13 -35 24 -76t19.5 -84.5t14.5 -88.5t8 -88q54 -37 126 -56t167 -19h10q43 0 43 -23v-76q0 -19 -12.5 -23.5t-30.5 -4.5h-12q-54 0 -96.5 5t-77.5 15t-64.5 23.5t-56.5 31.5q-13 -104 -56.5 -195.5t-119 -160
t-182 -108.5t-245.5 -40q-132 0 -234.5 38.5t-172.5 106t-106 159.5t-36 199q0 48 7 97.5t20 97.5t29.5 92.5t36.5 81.5l109 -58q-15 -30 -27 -65t-20.5 -72.5t-13 -75.5t-4.5 -73q0 -92 31 -165.5t87 -125t135.5 -79t176.5 -27.5q105 0 190 31t146 90t94 144t33 193z" />
    <glyph glyph-name="uniFBA5" unicode="&#x6c0;" horiz-adv-x="995" arabic-form="final" 
d="M667 729q-125 -17 -226.5 -50.5t-174 -79.5t-112 -103.5t-39.5 -121.5q0 -52 21.5 -87.5t55 -57.5t75 -31.5t81.5 -9.5q87 0 171.5 24t147.5 66v451zM794 314q0 -54 5.5 -90t22 -57.5t46.5 -30.5t78 -9h77q44 0 44 -23v-76q0 -19 -13 -23.5t-31 -4.5h-99
q-65 0 -108.5 16.5t-71 41.5t-42.5 54t-24 54q-51 -25 -95 -42.5t-86 -28.5t-84 -16t-90 -5q-57 0 -114.5 16t-104 49.5t-75.5 85.5t-29 124q0 79 30 143.5t81.5 115.5t118.5 89.5t141.5 67.5t150.5 49t145 33v92h127v-625zM618 1447q-11 2 -31.5 5t-45.5 3q-28 0 -54.5 -6
t-47.5 -19.5t-33.5 -36t-12.5 -54.5q0 -71 56.5 -112.5t154.5 -41.5h37v-91h-402v91h148q-11 7 -25.5 22t-27.5 36t-22 48t-9 57q0 42 13.5 78.5t42 63.5t71.5 42t102 15q23 0 48.5 -1.5t54.5 -6.5z" />
    <glyph glyph-name="uniFBA7" unicode="&#x6c1;" horiz-adv-x="776" arabic-form="final" 
d="M1 -62q-1 11 -1 22.5v22.5q0 118 29 206t75 146t103 86.5t114 28.5q54 0 94 -24t72 -60t59 -77.5t55.5 -77.5t61.5 -60t77 -24h65q43 0 43 -23v-76q0 -19 -13 -23.5t-30 -4.5h-84q-47 0 -84.5 24.5t-69 61t-60 79t-58.5 79t-63 61t-74 24.5q-42 0 -80.5 -24t-68 -71
t-46.5 -118t-17 -165v-13h-99z" />
    <glyph glyph-name="uniFBA8" unicode="&#x6c1;" horiz-adv-x="653" arabic-form="initial" 
d="M-28 0q-44 0 -44 23v75q0 20 13 24.5t31 4.5h392v646h129v-773h-74q-60 -65 -90 -126.5t-30 -115.5q0 -48 28.5 -73t66.5 -25q21 0 41 7q-14 -30 -30 -48.5t-32.5 -29t-33 -14t-31.5 -3.5q-62 0 -92 42t-30 105q0 32 7.5 67.5t23 72t38.5 72.5t53 69h-336z" />
    <glyph glyph-name="uniFBA9" unicode="&#x6c1;" horiz-adv-x="1023" arabic-form="medial" 
d="M-28 0q-44 0 -44 23v75q0 20 13 24.5t31 4.5h430q-18 -42 -32 -85.5t-23 -84.5t-13.5 -78t-4.5 -66q0 -74 18 -128t48.5 -94t71.5 -69t87 -52q6 142 37.5 262t89.5 208t141 137.5t191 49.5h39q43 0 43 -23v-76q0 -19 -12.5 -23.5t-30.5 -4.5h-58q-95 0 -160.5 -51.5
t-106.5 -145t-60.5 -224t-22.5 -288.5q-103 31 -182.5 79t-133.5 107.5t-82 127t-28 139.5q0 24 1.5 50.5t6 57.5t12.5 67.5t20 80.5h-286z" />
    <glyph glyph-name="uniFBAB" unicode="&#x6be;" horiz-adv-x="1272" arabic-form="final" 
d="M296 0q-60 0 -96.5 -11t-56 -36t-25.5 -65.5t-6 -98.5h-87q-5 12 -9.5 29.5t-8 36t-5.5 37.5t-2 34q0 55 19 93t51.5 62t76 35t92.5 11h122q23 131 59.5 231.5t80.5 175t91 125t92 81.5t83.5 44.5t64.5 13.5q60 0 108.5 -32t82.5 -83.5t52 -116.5t18 -132
q0 -38 -7.5 -79.5t-23 -82.5t-39.5 -78.5t-57 -66.5h334q44 0 44 -23v-76q0 -19 -13 -23.5t-31 -4.5h-362q73 -70 106 -148.5t33 -164.5q0 -80 -27.5 -142t-70.5 -104.5t-95.5 -64.5t-101.5 -22q-41 0 -89.5 12t-97 41t-94 77t-80 120t-55.5 169.5t-21 226.5h-49zM989 392
q0 64 -15 114.5t-39 85.5t-54 53.5t-60 18.5q-35 0 -84 -35.5t-98.5 -103.5t-92 -168t-64.5 -230h221q64 0 116.5 23t90 60.5t58.5 85t21 96.5zM464 0q0 -142 32 -242t80.5 -163t107 -92t111.5 -29q38 0 68.5 18t51.5 48t32.5 70.5t11.5 85.5q0 51 -17.5 104.5t-51.5 98
t-83 73t-112 28.5h-231z" />
    <glyph glyph-name="uniFBAC" unicode="&#x6be;" horiz-adv-x="1390" arabic-form="initial" 
d="M-28 0q-44 0 -44 23v75q0 20 12.5 24.5t31.5 4.5h307q-48 78 -66 155.5t-18 140.5q0 53 11.5 106.5t36.5 105t64.5 98.5t95.5 86q-10 3 -17 5l-14 4t-15 4t-18 5q14 33 32 60.5t29 45.5q154 -38 276.5 -75.5t215.5 -80t159 -92t108 -111.5t61 -138t19 -172v-15t-1 -36.5
t-3 -79.5t-6 -143h-1257zM657 127q16 26 32 59.5t29 71.5t21 78.5t8 80.5q0 97 -19.5 163t-50 106.5t-67 58t-70.5 17.5q-53 0 -97 -30.5t-75.5 -77.5t-48.5 -102.5t-17 -106.5q0 -59 13 -112t32.5 -95t41.5 -71t40 -40h228zM1108 127q7 45 10.5 87t3.5 77q0 57 -13 114
t-48.5 110t-99 98.5t-163.5 80.5q16 -29 27 -66t17 -74.5t8.5 -70t2.5 -51.5q0 -38 -5 -80t-14 -82.5t-21 -77.5t-26 -65h321z" />
    <glyph glyph-name="uniFBAD" unicode="&#x6be;" horiz-adv-x="1173" arabic-form="medial" 
d="M-27 0q-45 0 -45 23v75q0 20 13 24.5t32 4.5h289q23 131 59.5 231.5t80.5 175t91 125t92 81.5t83.5 44.5t64.5 13.5q60 0 108.5 -32t82.5 -83.5t52 -116.5t18 -132q0 -38 -7.5 -79.5t-23 -82.5t-39.5 -78.5t-57 -66.5h334q44 0 44 -23v-76q0 -19 -13 -23.5t-31 -4.5h-362
q73 -70 106 -148.5t33 -164.5q0 -80 -27.5 -142t-70.5 -104.5t-95.5 -64.5t-101.5 -22q-41 0 -89.5 12t-97 41t-94 77t-80 120t-55.5 169.5t-21 226.5h-273zM890 392q0 64 -15 114.5t-39 85.5t-54 53.5t-60 18.5q-35 0 -84 -35.5t-98.5 -103.5t-92 -168t-64.5 -230h221
q64 0 116.5 23t90 60.5t58.5 85t21 96.5zM365 0q0 -142 32 -242t80.5 -163t107 -92t111.5 -29q38 0 68.5 18t51.5 48t32.5 70.5t11.5 85.5q0 51 -17.5 104.5t-51.5 98t-83 73t-112 28.5h-231z" />
    <glyph glyph-name="uniFBAF" unicode="&#x6d2;" horiz-adv-x="923" arabic-form="final" 
d="M968 127q45 0 45 -23v-76q0 -19 -13.5 -23.5t-31.5 -4.5h-393q-102 0 -176 -9t-124.5 -23.5t-81.5 -33.5t-48 -38.5t-22.5 -38.5t-5.5 -34q0 -23 10 -45.5t35.5 -42.5t70.5 -37t114.5 -29.5t167 -19.5t228.5 -7q94 0 175 1.5t155 5t143 9t139 13t142.5 16.5t154.5 21
l-13 -116q-97 -16 -198.5 -29.5t-215 -23t-242 -15t-280.5 -5.5q-195 0 -329 20.5t-217 58t-120 90t-37 117.5q0 87 48.5 148.5t133.5 100t201.5 56t252.5 17.5h332z" />
    <glyph glyph-name="uniFBB1" unicode="&#x6d3;" horiz-adv-x="923" arabic-form="final" 
d="M968 127q45 0 45 -23v-76q0 -19 -13.5 -23.5t-31.5 -4.5h-393q-102 0 -176 -9t-124.5 -23.5t-81.5 -33.5t-48 -38.5t-22.5 -38.5t-5.5 -34q0 -23 10 -45.5t35.5 -42.5t70.5 -37t114.5 -29.5t167 -19.5t228.5 -7q94 0 175 1.5t155 5t143 9t139 13t142.5 16.5t154.5 21
l-13 -116q-97 -16 -198.5 -29.5t-215 -23t-242 -15t-280.5 -5.5q-195 0 -329 20.5t-217 58t-120 90t-37 117.5q0 87 48.5 148.5t133.5 100t201.5 56t252.5 17.5h332zM493 806q-11 2 -31.5 5t-45.5 3q-28 0 -54.5 -6t-47.5 -19.5t-33.5 -36t-12.5 -54.5q0 -71 56.5 -112.5
t154.5 -41.5h37v-91h-402v91h148q-11 7 -25.5 22t-27.5 36t-22 48t-9 57q0 42 13.5 78.5t42 63.5t71.5 42t102 15q23 0 48.5 -1.5t54.5 -6.5z" />
    <glyph glyph-name="uniFBE8" unicode="&#x649;" horiz-adv-x="653" arabic-form="initial" 
d="M-28 0q-44 0 -44 23v75q0 20 13 24.5t31 4.5h392v646h129v-773h-521z" />
    <glyph glyph-name="uniFBE9" unicode="&#x649;" horiz-adv-x="684" arabic-form="medial" 
d="M-29 0q-43 0 -43 23v75q0 20 13 24.5t30 4.5h211q36 0 60.5 7t39.5 24.5t22 48t7 78.5v487h129v-528q0 -15 -1.5 -29.5t-3.5 -28.5q104 -59 268 -59h10q43 0 43 -23v-76q0 -19 -12.5 -23.5t-30.5 -4.5h-12q-56 0 -100.5 5.5t-80.5 16t-66.5 26t-58.5 34.5
q-26 -37 -69.5 -59.5t-109.5 -22.5h-245z" />
    <glyph glyph-name="uniFBFD" unicode="&#x6cc;" horiz-adv-x="1970" arabic-form="final" 
d="M1106 374q0 199 101.5 299.5t314.5 100.5h255v-413q0 -78 9.5 -124t28.5 -70.5t47 -32t66 -7.5h74q45 0 45 -23v-76q0 -19 -13 -23.5t-32 -4.5h-106q-47 0 -91 14.5t-78 47.5t-55 87t-21 133v369h-74q-80 0 -143.5 -10.5t-108 -42t-68 -90.5t-23.5 -155v-274
q0 -95 -35.5 -186.5t-110.5 -164t-191.5 -117t-278.5 -44.5q-126 0 -221 25t-164 66t-114 94t-71.5 108.5t-37 110t-10.5 98.5q0 110 27 205.5t75 161.5q27 -16 51 -29t51 -27q-36 -62 -56.5 -141t-20.5 -154q0 -40 9.5 -84.5t33 -87.5t62.5 -81.5t97.5 -67.5t138 -46.5
t184.5 -17.5q118 0 204 31t141.5 81.5t82 115t26.5 131.5v315z" />
    <glyph glyph-name="uniFBFE" unicode="&#x6cc;" horiz-adv-x="727" arabic-form="initial" 
d="M-28 0q-44 0 -44 23v75q0 20 13 24.5t31 4.5h392v646h129v-773h-521zM145 -274q0 35 23 58.5t58 23.5q33 0 57.5 -23.5t24.5 -58.5q0 -33 -24.5 -57t-57.5 -24q-35 0 -58 24t-23 57zM404 -274q0 35 23.5 58.5t57.5 23.5q33 0 57.5 -23.5t24.5 -58.5q0 -33 -24.5 -57
t-57.5 -24q-34 0 -57.5 24t-23.5 57z" />
    <glyph glyph-name="uniFBFF" unicode="&#x6cc;" horiz-adv-x="684" arabic-form="medial" 
d="M-29 0q-43 0 -43 23v75q0 20 13 24.5t30 4.5h211q36 0 60.5 7t39.5 24.5t22 48t7 78.5v487h129v-528q0 -15 -1.5 -29.5t-3.5 -28.5q104 -59 268 -59h10q43 0 43 -23v-76q0 -19 -12.5 -23.5t-30.5 -4.5h-12q-56 0 -100.5 5.5t-80.5 16t-66.5 26t-58.5 34.5
q-26 -37 -69.5 -59.5t-109.5 -22.5h-245zM142 -274q0 35 23 58.5t58 23.5q33 0 57.5 -23.5t24.5 -58.5q0 -33 -24.5 -57t-57.5 -24q-35 0 -58 24t-23 57zM401 -274q0 35 23.5 58.5t57.5 23.5q33 0 57.5 -23.5t24.5 -58.5q0 -33 -24.5 -57t-57.5 -24q-34 0 -57.5 24t-23.5 57
z" />
    <glyph glyph-name="uni064C0651" unicode="&#xfc5e;" horiz-adv-x="0" arabic-form="isolated" 
d="M0 1492q-20 -25 -52.5 -43t-74.5 -18q-37 0 -64.5 11.5t-46 31.5t-27.5 47.5t-9 59.5v158h68v-152q0 -25 7.5 -41.5t20.5 -26.5t28.5 -14.5t32.5 -4.5q33 0 58.5 22t25.5 66v129h65v-137q0 -41 26.5 -60.5t59.5 -19.5q38 0 62 19t24 61v160h68v-148q0 -73 -39.5 -117
t-107.5 -44q-42 0 -75 17t-50 44zM25 1926q37 0 83 20q-41 29 -61 66t-20 75q0 30 11 55.5t29.5 44.5t42.5 29.5t51 10.5q54 0 90.5 -32.5t36.5 -101.5q0 -54 -27 -96t-67.5 -71.5t-86.5 -44.5t-83 -15q-24 0 -48 4.5t-48 16.5t-46.5 32t-43.5 51l-86 -82l-38 42l123 123
q18 -26 39 -49t45 -40.5t50 -27.5t54 -10zM84 2088q0 -12 3 -26t11.5 -29t22.5 -30.5t36 -29.5q32 21 53.5 51t21.5 65t-20 57t-52 22q-35 0 -55.5 -24t-20.5 -56z" />
    <glyph glyph-name="uni064D0651" unicode="&#xfc5f;" horiz-adv-x="0" arabic-form="isolated" 
d="M0 1895q-20 -25 -52.5 -43t-74.5 -18q-37 0 -64.5 11.5t-46 31.5t-27.5 47.5t-9 59.5v158h68v-152q0 -25 7.5 -41.5t20.5 -26.5t28.5 -14.5t32.5 -4.5q33 0 58.5 22t25.5 66v129h65v-137q0 -41 26.5 -60.5t59.5 -19.5q38 0 62 19t24 61v160h68v-148q0 -73 -39.5 -117
t-107.5 -44q-42 0 -75 17t-50 44zM-218 1488h432v-57h-432v57zM-218 1642h432v-57h-432v57z" />
    <glyph glyph-name="uni064E0651" unicode="&#xfc60;" horiz-adv-x="0" arabic-form="isolated" 
d="M0 1492q-20 -25 -52.5 -43t-74.5 -18q-37 0 -64.5 11.5t-46 31.5t-27.5 47.5t-9 59.5v158h68v-152q0 -25 7.5 -41.5t20.5 -26.5t28.5 -14.5t32.5 -4.5q33 0 58.5 22t25.5 66v129h65v-137q0 -41 26.5 -60.5t59.5 -19.5q38 0 62 19t24 61v160h68v-148q0 -73 -39.5 -117
t-107.5 -44q-42 0 -75 17t-50 44zM-218 1913h432v-57h-432v57z" />
    <glyph glyph-name="uni064F0651" unicode="&#xfc61;" horiz-adv-x="0" arabic-form="isolated" 
d="M0 1492q-20 -25 -52.5 -43t-74.5 -18q-37 0 -64.5 11.5t-46 31.5t-27.5 47.5t-9 59.5v158h68v-152q0 -25 7.5 -41.5t20.5 -26.5t28.5 -14.5t32.5 -4.5q33 0 58.5 22t25.5 66v129h65v-137q0 -41 26.5 -60.5t59.5 -19.5q38 0 62 19t24 61v160h68v-148q0 -73 -39.5 -117
t-107.5 -44q-42 0 -75 17t-50 44zM-33 1926q22 0 46.5 5.5t49.5 15.5q-41 29 -60.5 65.5t-19.5 74.5q0 30 11 55.5t29.5 44.5t42.5 29.5t51 10.5q54 0 90.5 -32.5t36.5 -101.5q0 -54 -27.5 -96t-69 -71.5t-90.5 -44.5t-92 -15q-47 0 -97 9.5t-84 22.5l14 60
q17 -7 38.5 -12.5t44 -10t44.5 -7t42 -2.5zM40 2088q0 -23 14 -55t58 -60q32 22 54 51.5t22 64.5t-20 57t-52 22q-35 0 -55.5 -24t-20.5 -56z" />
    <glyph glyph-name="uni06500651" unicode="&#xfc62;" horiz-adv-x="0" arabic-form="isolated" 
d="M0 1697q-20 -25 -52.5 -43t-74.5 -18q-37 0 -64.5 11.5t-46 31.5t-27.5 47.5t-9 59.5v158h68v-152q0 -25 7.5 -41.5t20.5 -26.5t28.5 -14.5t32.5 -4.5q33 0 58.5 22t25.5 66v129h65v-137q0 -41 26.5 -60.5t59.5 -19.5q38 0 62 19t24 61v160h68v-148q0 -73 -39.5 -117
t-107.5 -44q-42 0 -75 17t-50 44zM-218 1488h432v-57h-432v57z" />
    <glyph glyph-name="uni06510670" unicode="&#xfc63;" horiz-adv-x="302" arabic-form="isolated" 
d="M0 1492q-20 -25 -52.5 -43t-74.5 -18q-37 0 -64.5 11.5t-46 31.5t-27.5 47.5t-9 59.5v158h68v-152q0 -25 7.5 -41.5t20.5 -26.5t28.5 -14.5t32.5 -4.5q33 0 58.5 22t25.5 66v129h65v-137q0 -41 26.5 -60.5t59.5 -19.5q38 0 62 19t24 61v160h68v-148q0 -73 -39.5 -117
t-107.5 -44q-42 0 -75 17t-50 44zM-32 2217h65v-356h-65v356z" />
    <glyph glyph-name="uniFDF2" unicode="&#xfdf2;" horiz-adv-x="2822" arabic-form="isolated" 
d="M794 314q0 -54 5.5 -90t22 -57.5t46.5 -30.5t78 -9h255q36 0 60.5 7t39.5 24.5t22 48t7 78.5v1153h129v-1194q0 -15 -1.5 -29.5t-3.5 -28.5q51 -29 115.5 -44t145.5 -15h312v1310h128v-1437h-440q-55 0 -98.5 5.5t-79 16t-65.5 26t-58 34.5q-26 -37 -69.5 -59.5
t-109.5 -22.5h-311q-65 0 -108.5 16.5t-71 41.5t-42.5 54t-24 54q-51 -25 -95 -42.5t-86 -28.5t-84 -16t-90 -5q-57 0 -114.5 16t-104 49.5t-75.5 85.5t-29 124q0 79 30 143.5t81.5 115.5t118.5 89.5t141.5 67.5t150.5 49t145 33v92h127v-625zM667 729
q-125 -17 -226.5 -50.5t-174 -79.5t-112 -103.5t-39.5 -121.5q0 -52 21.5 -87.5t55 -57.5t75 -31.5t81.5 -9.5q87 0 171.5 24t147.5 66v451zM2494 1436h128v-1437h-128v1437z" />
    <glyph glyph-name="uniFDFA" unicode="&#xfdfa;" horiz-adv-x="2165" arabic-form="isolated" 
d="M2083 895q0 -29 -32 -79t-64 -64q-93 -43 -238 -43q-23 0 -47.5 1t-50.5 3q-49 -97 -78 -97q-8 0 -8 13q0 30 45 96q-85 33 -99 53q-80 -53 -102 -53q14 -288 51 -361q38 -74 172 -81l4 4q-43 31 -43 88q0 69 66 155q49 66 125 66q58 0 108 -35q50 -33 50 -63
q-53 18 -107 18q-73 0 -133 -29q-53 -29 -53 -55q0 -29 51 -80q52 -52 90 -59q37 4 139 36q103 33 137 52l-34 -76q-207 -108 -392 -108q-196 0 -243 149q-61 -133 -117 -133q-53 0 -137 90q-130 -115 -404 -115q-42 0 -77 3t-66 8q8 -68 18 -107q19 -74 48 -102
q90 -90 360 -90q232 0 338 65q31 76 57 76q8 0 8 -16q0 -30 -24 -91q12 -26 55 -26q53 0 100 24q43 136 68 136q8 0 8 -23q0 -36 -20 -88q63 -27 90 -27q15 0 16 7q2 7 -16 79l35 74q24 -74 24 -106q0 -138 -90 -138q-47 0 -98 39q-32 -53 -121 -53q-98 0 -98 53
q-38 -28 -131 -49q-103 -22 -248 -22q-199 0 -293 57q-119 72 -123 258l-45 -66q-35 -51 -53 -53q24 -44 24 -84q0 -51 -32 -86q-16 -16 -43 -16q-40 0 -125 47q-27 -64 -86 -96q-15 -8 -49 -9q-34 -2 -44 -6l-22 -8q-12 0 -12 10q0 12 49 31q31 13 50.5 22.5t29.5 16.5
l69 53q-20 38 -20 82t37 85q37 42 69 42q6 0 13 -4q38 -20 59 -20q36 0 74 47l47 86q-80 24 -113 55q-60 54 -80 174h-4q-59 -102 -162 -102q-41 0 -79 16q-33 13 -33 25q0 51 88 118q83 64 174 91l-4 34l41 68q8 -111 19 -182.5t25 -105.5q28 -66 114 -93l-27 270l39 88
l35 -368q108 -12 194 -12q213 0 363 81q25 78 39 78q8 0 8 -18q0 -17 -8 -51q73 -72 120 -72q55 0 86 88l-26 330q-152 -6 -180 151h-4q-8 -31 -15.5 -52t-13.5 -34q-22 -50 -55 -61l4 -4q143 11 143 -80q0 -60 -51 -94q-173 -121 -328 -121q-94 0 -151.5 47.5t-57.5 134.5
q0 63 33 137q-57 16 -78 88h-4q-32 -104 -113 -104q-101 0 -96 158l-55 -50q-17 -14 -80 -14q-100 0 -100 37q0 20 27 64q28 45 50 55l156 76v20l35 74l8 -246q5 -86 66 -86q30 0 60 21q30 22 34 47l-33 233l37 80l57 -330q19 -43 68 -43q47 0 47 27q0 41 -33 151l-20 66
t-21 67l27 68q82 -256 82 -321q0 -42 -21 -91q-23 -57 -51 -57q-11 0 -18 6q-15 -44 -15 -80q0 -153 187 -153q145 0 291 98q4 4 4 6q0 11 -78 25l-125 20q-25 19 27 82q122 51 131 109q1 5 1.5 12t0.5 16q0 100 -10.5 217.5t-30.5 255.5l34 115q50 -434 78 -524
q38 -117 148 -135l-10 196l43 92l16 -286q29 10 60 28.5t63 44.5l61 -43q39 -24 80 -30q22 23 55 51.5t78 60.5q105 78 144 78q37 0 84 -28q53 -32 53 -68zM2064 4q0 -100 -79 -221q-87 -131 -183 -131q-45 0 -121 33q-75 31 -75 47q0 8 10 8q8 0 55 -15q45 -16 72 -16
q138 -4 287 217l-15 45q-38 -53 -76 -53q-14 0 -26.5 7.5t-22.5 19.5t-16.5 27t-7.5 30q-2 48 31 110q34 64 57 64q26 0 65 -49q45 -56 45 -123zM1987 1309q-70 -25 -238 -105q-197 -96 -197 -125q0 -24 54 -51l-19 -49q-67 22 -67 82q0 61 53 90q131 75 238 127t194 82z
M975 915q-6 -136 -27 -149l-51 496l45 116zM1233 76l-53 -64l-99 72l-57 -74l-102 74l59 72l96 -72l56 68zM2025 860q0 14 -36 32q-34 19 -54 19q-44 0 -123 -49q-63 -39 -96 -69q7 -1 17 -1.5t24 -0.5q42 0 84 4t84 12q100 19 100 53zM1294 -248q0 -49 -4 -61
q-12 -27 -51 -27q-18 0 -29 8q-30 -32 -61 -32q-15 0 -34 17q-17 17 -25 17q-16 0 -77 -35q-59 -36 -143 -36q-90 0 -90 16q0 14 66 14q36 0 59.5 1.5t34.5 3.5q27 6 72 32q61 39 82 39q16 0 38 -16q23 -17 27 -17q31 0 37 35q4 27 23 27q8 0 8 -12q0 -5 -0.5 -9.5
t-1.5 -9.5q5 -8 22 -12q25 0 25 24q0 33 22 33zM1669 1444l-12 -45l-400 -197l9 51zM346 539q-180 -72 -180 -107q0 -20 63 -20q69 0 121 49zM664 1362q0 -66 -43 -66q-26 0 -43 17q-37 -31 -62 -31q-43 0 -43 55q0 41 6 56l13 12q-4 -76 34 -76q22 0 39 33l-4 47l19 29
l8 -62q4 -33 30 -33q27 0 23 31l-6 45l14 21q15 -39 15 -78zM387 997q-20 -9 -41 -17.5t-43 -16.5q-67 -31 -70 -50q-1 -22 52 -22q57 0 104 27zM438 -78q-8 41 -49 70q-37 28 -70 28q-28 0 -28 -24q0 -26 53 -55q49 -31 80 -31q15 0 14 12zM2005 20q-12 66 -53 66
q-31 0 -41 -51q7 -37 63 -37q27 0 31 22z" />
    <glyph glyph-name="uniFE82" unicode="&#x622;" horiz-adv-x="545" arabic-form="final" 
d="M200 1436h128v-1113q0 -56 8 -94t27.5 -60.5t52.5 -32t84 -9.5h45q45 0 45 -23v-76q0 -19 -13 -23.5t-32 -4.5h-88q-71 0 -120 21.5t-79.5 59t-44 89.5t-13.5 112v1154zM-97 1647q43 45 81.5 62t72.5 17q47 0 97 -19t100 -41.5t100 -41t97 -18.5q26 0 44 7t30.5 18.5
t21.5 26.5t17 31l53 -25q-18 -39 -36 -65t-39 -41t-47.5 -21t-62.5 -6q-48 0 -95.5 18.5t-95.5 40.5t-96.5 40.5t-98.5 18.5q-27 0 -53 -14.5t-46 -34.5z" />
    <glyph glyph-name="uniFE84" unicode="&#x623;" horiz-adv-x="518" arabic-form="final" 
d="M200 1436h128v-1113q0 -56 8 -94t27.5 -60.5t52.5 -32t84 -9.5h45q45 0 45 -23v-76q0 -19 -13 -23.5t-32 -4.5h-88q-71 0 -120 21.5t-79.5 59t-44 89.5t-13.5 112v1154zM386 1830q-8 2 -24 4t-35 2q-21 0 -41.5 -4.5t-36.5 -15t-26 -27.5t-10 -42q0 -55 43.5 -87
t118.5 -32h29v-70h-310v70h114q-9 6 -20 17.5t-21 27.5t-17 36.5t-7 44.5q0 33 10.5 61t32.5 48.5t55.5 32t78.5 11.5q17 0 36.5 -1t42.5 -5z" />
    <glyph glyph-name="uniFE86" unicode="&#x624;" horiz-adv-x="1161" arabic-form="final" 
d="M591 0q-125 0 -210 35t-138 90.5t-76 125.5t-23 139q0 88 30 164.5t85.5 133t134.5 89t177 32.5q40 0 83 -8t84.5 -27.5t79 -53t66 -84.5t45 -122t16.5 -166v-221h243q45 0 45 -23v-76q0 -19 -13 -23.5t-32 -4.5h-256q-24 -115 -82.5 -190.5t-143 -123.5t-191 -73
t-226.5 -40q-3 32 -7 60t-7 59q109 10 202.5 34t164 62.5t114.5 91t55 120.5h-220zM819 127v158q0 127 -24.5 207t-64 125t-89 61t-100.5 16q-57 0 -107 -23.5t-87 -63.5t-58.5 -93t-21.5 -111q0 -56 17.5 -106.5t56.5 -88t100.5 -59.5t148.5 -22h229zM706 1382
q-11 2 -31.5 5t-45.5 3q-28 0 -54.5 -6t-47.5 -19.5t-33.5 -36t-12.5 -54.5q0 -71 56.5 -112.5t154.5 -41.5h37v-91h-402v91h148q-11 7 -25.5 22t-27.5 36t-22 48t-9 57q0 42 13.5 78.5t42 63.5t71.5 42t102 15q23 0 48.5 -1.5t54.5 -6.5z" />
    <glyph glyph-name="uniFE88" unicode="&#x625;" horiz-adv-x="518" arabic-form="final" 
d="M200 1436h128v-1113q0 -56 8 -94t27.5 -60.5t52.5 -32t84 -9.5h45q45 0 45 -23v-76q0 -19 -13 -23.5t-32 -4.5h-88q-71 0 -120 21.5t-79.5 59t-44 89.5t-13.5 112v1154zM384 -222q-8 2 -24 4t-35 2q-21 0 -41.5 -4.5t-36.5 -15t-26 -27.5t-10 -42q0 -55 43.5 -87
t118.5 -32h29v-70h-310v70h114q-9 6 -20 17.5t-21 27.5t-17 36.5t-7 44.5q0 33 10.5 61t32.5 48.5t55.5 32t78.5 11.5q17 0 36.5 -1t42.5 -5z" />
    <glyph glyph-name="uniFE8A" unicode="&#x626;" horiz-adv-x="2014" arabic-form="final" 
d="M1145 374q0 199 101.5 299.5t314.5 100.5h255v-413q0 -78 9.5 -124t28.5 -70.5t47 -32t66 -7.5h74q45 0 45 -23v-76q0 -19 -13 -23.5t-32 -4.5h-106q-47 0 -91 14.5t-78 47.5t-55 87t-21 133v369h-74q-80 0 -143.5 -10.5t-108 -42t-68 -90.5t-23.5 -155v-274
q0 -95 -35.5 -186.5t-110.5 -164t-191.5 -117t-278.5 -44.5q-126 0 -221 25t-164 66t-114 94t-71.5 108.5t-37 110t-10.5 98.5q0 110 27 205.5t75 161.5q27 -16 51 -29t51 -27q-36 -62 -56.5 -141t-20.5 -154q0 -40 9.5 -84.5t33 -87.5t62.5 -81.5t97.5 -67.5t138 -46.5
t184.5 -17.5q118 0 204 31t141.5 81.5t82 115t26.5 131.5v315zM380 966q-11 2 -31.5 5t-45.5 3q-28 0 -54.5 -6t-47.5 -19.5t-33.5 -36t-12.5 -54.5q0 -71 56.5 -112.5t154.5 -41.5h37v-91h-402v91h148q-11 7 -25.5 22t-27.5 36t-22 48t-9 57q0 42 13.5 78.5t42 63.5
t71.5 42t102 15q23 0 48.5 -1.5t54.5 -6.5z" />
    <glyph glyph-name="uniFE8B" unicode="&#x626;" horiz-adv-x="652" arabic-form="initial" 
d="M-28 0q-44 0 -44 23v75q0 20 13 24.5t31 4.5h392v646h129v-773h-521zM557 1292q-11 2 -31.5 5t-45.5 3q-28 0 -54.5 -6t-47.5 -19.5t-33.5 -36t-12.5 -54.5q0 -71 56.5 -112.5t154.5 -41.5h37v-91h-402v91h148q-11 7 -25.5 22t-27.5 36t-22 48t-9 57q0 42 13.5 78.5
t42 63.5t71.5 42t102 15q23 0 48.5 -1.5t54.5 -6.5z" />
    <glyph glyph-name="uniFE8C" unicode="&#x626;" horiz-adv-x="684" arabic-form="medial" 
d="M-29 0q-43 0 -43 23v75q0 20 13 24.5t30 4.5h211q36 0 60.5 7t39.5 24.5t22 48t7 78.5v487h129v-528q0 -15 -1.5 -29.5t-3.5 -28.5q104 -59 268 -59h10q43 0 43 -23v-76q0 -19 -12.5 -23.5t-30.5 -4.5h-12q-56 0 -100.5 5.5t-80.5 16t-66.5 26t-58.5 34.5
q-26 -37 -69.5 -59.5t-109.5 -22.5h-245zM521 1292q-11 2 -31.5 5t-45.5 3q-28 0 -54.5 -6t-47.5 -19.5t-33.5 -36t-12.5 -54.5q0 -71 56.5 -112.5t154.5 -41.5h37v-91h-402v91h148q-11 7 -25.5 22t-27.5 36t-22 48t-9 57q0 42 13.5 78.5t42 63.5t71.5 42t102 15
q23 0 48.5 -1.5t54.5 -6.5z" />
    <glyph glyph-name="uniFE8E" unicode="&#x627;" horiz-adv-x="518" arabic-form="final" 
d="M200 1436h128v-1113q0 -56 8 -94t27.5 -60.5t52.5 -32t84 -9.5h45q45 0 45 -23v-76q0 -19 -13 -23.5t-32 -4.5h-88q-71 0 -120 21.5t-79.5 59t-44 89.5t-13.5 112v1154z" />
    <glyph glyph-name="uniFE90" unicode="&#x628;" horiz-adv-x="1822" arabic-form="final" 
d="M1320 127q36 0 60.5 7t39.5 24.5t22 48t7 78.5v487h129v-528q0 -15 -1.5 -29.5t-3.5 -28.5q104 -59 268 -59h10q43 0 43 -23v-76q0 -19 -12.5 -23.5t-30.5 -4.5h-12q-56 0 -100.5 5.5t-80.5 16t-66.5 26t-58.5 34.5q-26 -37 -69.5 -59.5t-109.5 -22.5h-841
q-108 0 -188 13t-137 37t-93.5 57t-57.5 73t-29 86t-8 95q0 34 5 82.5t12 94.5l116 -11q-5 -25 -8 -56.5t-3 -65.5q0 -49 6.5 -89t25 -71t52 -53.5t88 -36.5t131.5 -21t184 -7h711zM741 -274q0 35 23 58.5t58 23.5q33 0 57.5 -23.5t24.5 -58.5q0 -33 -24.5 -57t-57.5 -24
q-35 0 -58 24t-23 57z" />
    <glyph glyph-name="uniFE91" unicode="&#x628;" horiz-adv-x="653" arabic-form="initial" 
d="M-28 0q-44 0 -44 23v75q0 20 13 24.5t31 4.5h392v646h129v-773h-521zM321 -274q0 35 23 58.5t58 23.5q33 0 57.5 -23.5t24.5 -58.5q0 -33 -24.5 -57t-57.5 -24q-35 0 -58 24t-23 57z" />
    <glyph glyph-name="uniFE92" unicode="&#x628;" horiz-adv-x="684" arabic-form="medial" 
d="M-29 0q-43 0 -43 23v75q0 20 13 24.5t30 4.5h211q36 0 60.5 7t39.5 24.5t22 48t7 78.5v487h129v-528q0 -15 -1.5 -29.5t-3.5 -28.5q104 -59 268 -59h10q43 0 43 -23v-76q0 -19 -12.5 -23.5t-30.5 -4.5h-12q-56 0 -100.5 5.5t-80.5 16t-66.5 26t-58.5 34.5
q-26 -37 -69.5 -59.5t-109.5 -22.5h-245zM266 -274q0 35 23 58.5t58 23.5q33 0 57.5 -23.5t24.5 -58.5q0 -33 -24.5 -57t-57.5 -24q-35 0 -58 24t-23 57z" />
    <glyph glyph-name="uniFE94" unicode="&#x629;" horiz-adv-x="995" arabic-form="final" 
d="M667 729q-125 -17 -226.5 -50.5t-174 -79.5t-112 -103.5t-39.5 -121.5q0 -52 21.5 -87.5t55 -57.5t75 -31.5t81.5 -9.5q87 0 171.5 24t147.5 66v451zM794 314q0 -54 5.5 -90t22 -57.5t46.5 -30.5t78 -9h77q44 0 44 -23v-76q0 -19 -13 -23.5t-31 -4.5h-99
q-65 0 -108.5 16.5t-71 41.5t-42.5 54t-24 54q-51 -25 -95 -42.5t-86 -28.5t-84 -16t-90 -5q-57 0 -114.5 16t-104 49.5t-75.5 85.5t-29 124q0 79 30 143.5t81.5 115.5t118.5 89.5t141.5 67.5t150.5 49t145 33v92h127v-625zM759 1160q0 -35 -23 -58.5t-58 -23.5
q-33 0 -57.5 23.5t-24.5 58.5q0 33 24.5 57t57.5 24q35 0 58 -24t23 -57zM500 1160q0 -35 -23.5 -58.5t-57.5 -23.5q-33 0 -57.5 23.5t-24.5 58.5q0 33 24.5 57t57.5 24q34 0 57.5 -24t23.5 -57z" />
    <glyph glyph-name="uniFE96" unicode="&#x62a;" horiz-adv-x="1822" arabic-form="final" 
d="M1320 127q36 0 60.5 7t39.5 24.5t22 48t7 78.5v487h129v-528q0 -15 -1.5 -29.5t-3.5 -28.5q104 -59 268 -59h10q43 0 43 -23v-76q0 -19 -12.5 -23.5t-30.5 -4.5h-12q-56 0 -100.5 5.5t-80.5 16t-66.5 26t-58.5 34.5q-26 -37 -69.5 -59.5t-109.5 -22.5h-841
q-108 0 -188 13t-137 37t-93.5 57t-57.5 73t-29 86t-8 95q0 34 5 82.5t12 94.5l116 -11q-5 -25 -8 -56.5t-3 -65.5q0 -49 6.5 -89t25 -71t52 -53.5t88 -36.5t131.5 -21t184 -7h711zM1062 1110q0 -35 -23 -58.5t-58 -23.5q-33 0 -57.5 23.5t-24.5 58.5q0 33 24.5 57t57.5 24
q35 0 58 -24t23 -57zM803 1110q0 -35 -23.5 -58.5t-57.5 -23.5q-33 0 -57.5 23.5t-24.5 58.5q0 33 24.5 57t57.5 24q34 0 57.5 -24t23.5 -57z" />
    <glyph glyph-name="uniFE97" unicode="&#x62a;" horiz-adv-x="652" arabic-form="initial" 
d="M-28 0q-44 0 -44 23v75q0 20 13 24.5t31 4.5h392v646h129v-773h-521zM630 1110q0 -35 -23 -58.5t-58 -23.5q-33 0 -57.5 23.5t-24.5 58.5q0 33 24.5 57t57.5 24q35 0 58 -24t23 -57zM371 1110q0 -35 -23.5 -58.5t-57.5 -23.5q-33 0 -57.5 23.5t-24.5 58.5q0 33 24.5 57
t57.5 24q34 0 57.5 -24t23.5 -57z" />
    <glyph glyph-name="uniFE98" unicode="&#x62a;" horiz-adv-x="684" arabic-form="medial" 
d="M-29 0q-43 0 -43 23v75q0 20 13 24.5t30 4.5h211q36 0 60.5 7t39.5 24.5t22 48t7 78.5v487h129v-528q0 -15 -1.5 -29.5t-3.5 -28.5q104 -59 268 -59h10q43 0 43 -23v-76q0 -19 -12.5 -23.5t-30.5 -4.5h-12q-56 0 -100.5 5.5t-80.5 16t-66.5 26t-58.5 34.5
q-26 -37 -69.5 -59.5t-109.5 -22.5h-245zM586 1110q0 -35 -23 -58.5t-58 -23.5q-33 0 -57.5 23.5t-24.5 58.5q0 33 24.5 57t57.5 24q35 0 58 -24t23 -57zM327 1110q0 -35 -23.5 -58.5t-57.5 -23.5q-33 0 -57.5 23.5t-24.5 58.5q0 33 24.5 57t57.5 24q34 0 57.5 -24t23.5 -57
z" />
    <glyph glyph-name="uniFE9A" unicode="&#x62b;" horiz-adv-x="1822" arabic-form="final" 
d="M1320 127q36 0 60.5 7t39.5 24.5t22 48t7 78.5v487h129v-528q0 -15 -1.5 -29.5t-3.5 -28.5q104 -59 268 -59h10q43 0 43 -23v-76q0 -19 -12.5 -23.5t-30.5 -4.5h-12q-56 0 -100.5 5.5t-80.5 16t-66.5 26t-58.5 34.5q-26 -37 -69.5 -59.5t-109.5 -22.5h-841
q-108 0 -188 13t-137 37t-93.5 57t-57.5 73t-29 86t-8 95q0 34 5 82.5t12 94.5l116 -11q-5 -25 -8 -56.5t-3 -65.5q0 -49 6.5 -89t25 -71t52 -53.5t88 -36.5t131.5 -21t184 -7h711zM1018 1110q0 -35 -23 -58.5t-58 -23.5q-33 0 -57.5 23.5t-24.5 58.5q0 33 24.5 57t57.5 24
q35 0 58 -24t23 -57zM759 1110q0 -35 -23.5 -58.5t-57.5 -23.5q-33 0 -57.5 23.5t-24.5 58.5q0 33 24.5 57t57.5 24q34 0 57.5 -24t23.5 -57zM877 1298q0 -35 -23 -58.5t-58 -23.5q-33 0 -57.5 23.5t-24.5 58.5q0 33 24.5 57t57.5 24q35 0 58 -24t23 -57z" />
    <glyph glyph-name="uniFE9B" unicode="&#x62b;" horiz-adv-x="652" arabic-form="initial" 
d="M-28 0q-44 0 -44 23v75q0 20 13 24.5t31 4.5h392v646h129v-773h-521zM631 1110q0 -35 -23 -58.5t-58 -23.5q-33 0 -57.5 23.5t-24.5 58.5q0 33 24.5 57t57.5 24q35 0 58 -24t23 -57zM372 1110q0 -35 -23.5 -58.5t-57.5 -23.5q-33 0 -57.5 23.5t-24.5 58.5q0 33 24.5 57
t57.5 24q34 0 57.5 -24t23.5 -57zM490 1298q0 -35 -23 -58.5t-58 -23.5q-33 0 -57.5 23.5t-24.5 58.5q0 33 24.5 57t57.5 24q35 0 58 -24t23 -57z" />
    <glyph glyph-name="uniFE9C" unicode="&#x62b;" horiz-adv-x="684" arabic-form="medial" 
d="M-29 0q-43 0 -43 23v75q0 20 13 24.5t30 4.5h211q36 0 60.5 7t39.5 24.5t22 48t7 78.5v487h129v-528q0 -15 -1.5 -29.5t-3.5 -28.5q104 -59 268 -59h10q43 0 43 -23v-76q0 -19 -12.5 -23.5t-30.5 -4.5h-12q-56 0 -100.5 5.5t-80.5 16t-66.5 26t-58.5 34.5
q-26 -37 -69.5 -59.5t-109.5 -22.5h-245zM583 1110q0 -35 -23 -58.5t-58 -23.5q-33 0 -57.5 23.5t-24.5 58.5q0 33 24.5 57t57.5 24q35 0 58 -24t23 -57zM324 1110q0 -35 -23.5 -58.5t-57.5 -23.5q-33 0 -57.5 23.5t-24.5 58.5q0 33 24.5 57t57.5 24q34 0 57.5 -24t23.5 -57
zM442 1298q0 -35 -23 -58.5t-58 -23.5q-33 0 -57.5 23.5t-24.5 58.5q0 33 24.5 57t57.5 24q35 0 58 -24t23 -57z" />
    <glyph glyph-name="uniFE9E" unicode="&#x62c;" horiz-adv-x="1100" arabic-form="final" 
d="M437 0q-150 0 -232.5 -81.5t-82.5 -233.5q0 -63 22 -121.5t69.5 -103.5t122 -71.5t179.5 -26.5q42 0 87.5 5t89.5 12v-109q-51 -13 -93 -19t-92 -6q-133 0 -228.5 37t-157.5 97t-91.5 137.5t-29.5 158.5q0 119 38 204.5t104 140.5t155 81t191 26h368q-23 19 -39.5 43.5
t-28 52.5t-18.5 57t-12 57q-8 45 -17 90.5t-23 87.5t-36 79t-55 64t-79 42.5t-109 15.5q-19 0 -43 -2.5t-49 -6.5t-50.5 -10t-47.5 -12v108q57 17 116 28.5t128 11.5q76 0 136 -23.5t102.5 -66.5t68.5 -102t35 -129q9 -74 21.5 -143t34 -123t54.5 -86.5t83 -32.5h101
q43 0 43 -23v-76q0 -19 -12.5 -23.5t-30.5 -4.5h-692zM470.55 -245.503q0 31.3604 20.7451 52.416t52.3145 21.0557q29.7656 0 51.8643 -21.0557t22.0986 -52.416q0 -29.5674 -22.0986 -51.0713t-51.8643 -21.5039q-31.5693 0 -52.3145 21.5039t-20.7451 51.0713z" />
    <glyph glyph-name="uniFE9F" unicode="&#x62c;" horiz-adv-x="1030" arabic-form="initial" 
d="M211 793q57 17 116 28.5t128 11.5q75 0 134 -22.5t102 -64.5t69.5 -101.5t36.5 -133.5q9 -69 20 -133t28 -115.5t43.5 -86t66.5 -44.5v-132h-982q-45 0 -45 23v75q0 20 13.5 24.5t31.5 4.5h845q-21 16 -37.5 40.5t-28 53t-19.5 58.5t-13 58q-11 67 -27 135t-49.5 122
t-91 88t-152.5 34q-19 0 -42.5 -2.5t-48.5 -7t-50.5 -10t-47.5 -12.5v109zM407 -274q0 35 23 58.5t58 23.5q33 0 57.5 -23.5t24.5 -58.5q0 -33 -24.5 -57t-57.5 -24q-35 0 -58 24t-23 57z" />
    <glyph glyph-name="uniFEA0" unicode="&#x62c;" horiz-adv-x="1061" arabic-form="medial" 
d="M210 793q57 17 116 28.5t129 11.5q74 0 132.5 -22.5t101.5 -64.5t69.5 -101.5t37.5 -133.5q10 -74 23 -143t34 -122.5t53.5 -86t81.5 -32.5h102q43 0 43 -23v-76q0 -19 -12.5 -23.5t-30.5 -4.5h-1118q-44 0 -44 23v75q0 20 13 24.5t31 4.5h846q-22 18 -38.5 42.5
t-28.5 52.5t-20 57.5t-12 57.5q-11 67 -27 135t-49.5 122t-91 88t-151.5 34q-19 0 -43 -2.5t-49 -7t-50.5 -10t-47.5 -11.5v108zM373 -274q0 35 23 58.5t58 23.5q33 0 57.5 -23.5t24.5 -58.5q0 -33 -24.5 -57t-57.5 -24q-35 0 -58 24t-23 57z" />
    <glyph glyph-name="uniFEA2" unicode="&#x62d;" horiz-adv-x="1100" arabic-form="final" 
d="M437 0q-150 0 -232.5 -81.5t-82.5 -233.5q0 -63 22 -121.5t69.5 -103.5t122 -71.5t179.5 -26.5q42 0 87.5 5t89.5 12v-109q-51 -13 -93 -19t-92 -6q-133 0 -228.5 37t-157.5 97t-91.5 137.5t-29.5 158.5q0 119 38 204.5t104 140.5t155 81t191 26h368q-23 19 -39.5 43.5
t-28 52.5t-18.5 57t-12 57q-8 45 -17 90.5t-23 87.5t-36 79t-55 64t-79 42.5t-109 15.5q-19 0 -43 -2.5t-49 -6.5t-50.5 -10t-47.5 -12v108q57 17 116 28.5t128 11.5q76 0 136 -23.5t102.5 -66.5t68.5 -102t35 -129q9 -74 21.5 -143t34 -123t54.5 -86.5t83 -32.5h101
q43 0 43 -23v-76q0 -19 -12.5 -23.5t-30.5 -4.5h-692z" />
    <glyph glyph-name="uniFEA3" unicode="&#x62d;" horiz-adv-x="1030" arabic-form="initial" 
d="M211 793q57 17 116 28.5t128 11.5q75 0 134 -22.5t102 -64.5t69.5 -101.5t36.5 -133.5q9 -69 20 -133t28 -115.5t43.5 -86t66.5 -44.5v-132h-982q-45 0 -45 23v75q0 20 13.5 24.5t31.5 4.5h845q-21 16 -37.5 40.5t-28 53t-19.5 58.5t-13 58q-11 67 -27 135t-49.5 122
t-91 88t-152.5 34q-19 0 -42.5 -2.5t-48.5 -7t-50.5 -10t-47.5 -12.5v109z" />
    <glyph glyph-name="uniFEA4" unicode="&#x62d;" horiz-adv-x="1061" arabic-form="medial" 
d="M210 793q57 17 116 28.5t129 11.5q74 0 132.5 -22.5t101.5 -64.5t69.5 -101.5t37.5 -133.5q10 -74 23 -143t34 -122.5t53.5 -86t81.5 -32.5h102q43 0 43 -23v-76q0 -19 -12.5 -23.5t-30.5 -4.5h-1118q-44 0 -44 23v75q0 20 13 24.5t31 4.5h846q-22 18 -38.5 42.5
t-28.5 52.5t-20 57.5t-12 57.5q-11 67 -27 135t-49.5 122t-91 88t-151.5 34q-19 0 -43 -2.5t-49 -7t-50.5 -10t-47.5 -11.5v108z" />
    <glyph glyph-name="uniFEA6" unicode="&#x62e;" horiz-adv-x="1109" arabic-form="final" 
d="M446 0q-150 0 -232.5 -81.5t-82.5 -233.5q0 -63 22 -121.5t69.5 -103.5t122 -71.5t179.5 -26.5q42 0 87.5 5t89.5 12v-109q-51 -13 -93 -19t-92 -6q-133 0 -228.5 37t-157.5 97t-91.5 137.5t-29.5 158.5q0 119 38 204.5t104 140.5t155 81t191 26h368q-23 19 -39.5 43.5
t-28 52.5t-18.5 57t-12 57q-8 45 -17 90.5t-23 87.5t-36 79t-55 64t-79 42.5t-109 15.5q-19 0 -43 -2.5t-49 -6.5t-50.5 -10t-47.5 -12v108q57 17 116 28.5t128 11.5q76 0 136 -23.5t102.5 -66.5t68.5 -102t35 -129q9 -74 21.5 -143t34 -123t54.5 -86.5t83 -32.5h101
q43 0 43 -23v-76q0 -19 -12.5 -23.5t-30.5 -4.5h-692zM610 1110q0 -35 -23.5 -58.5t-57.5 -23.5q-33 0 -57.5 23.5t-24.5 58.5q0 33 24.5 57t57.5 24q34 0 57.5 -24t23.5 -57z" />
    <glyph glyph-name="uniFEA7" unicode="&#x62e;" horiz-adv-x="1030" arabic-form="initial" 
d="M211 793q57 17 116 28.5t128 11.5q75 0 134 -22.5t102 -64.5t69.5 -101.5t36.5 -133.5q9 -69 20 -133t28 -115.5t43.5 -86t66.5 -44.5v-132h-982q-45 0 -45 23v75q0 20 13.5 24.5t31.5 4.5h845q-21 16 -37.5 40.5t-28 53t-19.5 58.5t-13 58q-11 67 -27 135t-49.5 122
t-91 88t-152.5 34q-19 0 -42.5 -2.5t-48.5 -7t-50.5 -10t-47.5 -12.5v109zM499 1110q0 -35 -23.5 -58.5t-57.5 -23.5q-33 0 -57.5 23.5t-24.5 58.5q0 33 24.5 57t57.5 24q34 0 57.5 -24t23.5 -57z" />
    <glyph glyph-name="uniFEA8" unicode="&#x62e;" horiz-adv-x="1061" arabic-form="medial" 
d="M210 793q57 17 116 28.5t129 11.5q74 0 132.5 -22.5t101.5 -64.5t69.5 -101.5t37.5 -133.5q10 -74 23 -143t34 -122.5t53.5 -86t81.5 -32.5h102q43 0 43 -23v-76q0 -19 -12.5 -23.5t-30.5 -4.5h-1118q-44 0 -44 23v75q0 20 13 24.5t31 4.5h846q-22 18 -38.5 42.5
t-28.5 52.5t-20 57.5t-12 57.5q-11 67 -27 135t-49.5 122t-91 88t-151.5 34q-19 0 -43 -2.5t-49 -7t-50.5 -10t-47.5 -11.5v108zM496 1110q0 -35 -23.5 -58.5t-57.5 -23.5q-33 0 -57.5 23.5t-24.5 58.5q0 33 24.5 57t57.5 24q34 0 57.5 -24t23.5 -57z" />
    <glyph glyph-name="uniFEAA" unicode="&#x62f;" horiz-adv-x="1038" arabic-form="final" 
d="M84 0v127h337q88 0 144 11.5t88.5 34t45 54.5t12.5 73q0 61 -28.5 124t-75.5 125.5t-108 122.5t-125 114l95 95q67 -60 130 -128.5t112.5 -141.5t79.5 -148.5t30 -148.5q0 -72 -23 -133q51 -26 114.5 -40t144.5 -14h10q43 0 43 -23v-76q0 -19 -12.5 -23.5t-30.5 -4.5h-12
q-59 0 -105 6.5t-83.5 18t-68.5 28t-61 37.5q-45 -43 -116 -66.5t-174 -23.5h-363z" />
    <glyph glyph-name="uniFEAC" unicode="&#x630;" horiz-adv-x="1038" arabic-form="final" 
d="M84 0v127h337q88 0 144 11.5t88.5 34t45 54.5t12.5 73q0 61 -28.5 124t-75.5 125.5t-108 122.5t-125 114l95 95q67 -60 130 -128.5t112.5 -141.5t79.5 -148.5t30 -148.5q0 -72 -23 -133q51 -26 114.5 -40t144.5 -14h10q43 0 43 -23v-76q0 -19 -12.5 -23.5t-30.5 -4.5h-12
q-59 0 -105 6.5t-83.5 18t-68.5 28t-61 37.5q-45 -43 -116 -66.5t-174 -23.5h-363zM536 1110q0 -35 -23.5 -58.5t-57.5 -23.5q-33 0 -57.5 23.5t-24.5 58.5q0 33 24.5 57t57.5 24q34 0 57.5 -24t23.5 -57z" />
    <glyph glyph-name="uniFEAE" unicode="&#x631;" horiz-adv-x="691" arabic-form="final" 
d="M-5 -330q111 19 180.5 55t109 92t54 132.5t14.5 177.5v646h128v-646h239q43 0 43 -23v-76q0 -19 -12.5 -23.5t-30.5 -4.5h-243q-9 -105 -41.5 -182t-89.5 -131t-140 -87t-195 -51z" />
    <glyph glyph-name="uniFEB0" unicode="&#x632;" horiz-adv-x="691" arabic-form="final" 
d="M-5 -330q111 19 180.5 55t109 92t54 132.5t14.5 177.5v646h128v-646h239q43 0 43 -23v-76q0 -19 -12.5 -23.5t-30.5 -4.5h-243q-9 -105 -41.5 -182t-89.5 -131t-140 -87t-195 -51zM469 1110q0 -35 -23.5 -58.5t-57.5 -23.5q-33 0 -57.5 23.5t-24.5 58.5q0 33 24.5 57
t57.5 24q34 0 57.5 -24t23.5 -57z" />
    <glyph glyph-name="uniFEB2" unicode="&#x633;" horiz-adv-x="2577" arabic-form="final" 
d="M1074 160q0 29 -4.5 70t-13 87.5t-21.5 94.5t-29 92l124 36q13 -38 25 -83.5t22 -93.5t16 -97t7 -95q54 -26 116 -35t130 -9h27q87 0 123 39.5t36 118.5v369h127v-431q0 -12 -1.5 -24t-3.5 -25q56 -29 119.5 -38t132.5 -9h27q87 0 123 39.5t36 118.5v488h127v-550v-15.5
t-2 -15.5q106 -65 279 -65h10q43 0 43 -23v-76q0 -19 -12.5 -23.5t-30.5 -4.5h-12q-59 0 -104.5 6.5t-83 18t-69 28t-61.5 37.5q-29 -38 -82 -64t-141 -26h-49q-38 0 -79 3.5t-80.5 12t-76 23t-65.5 35.5q-30 -32 -80.5 -53t-129.5 -21h-49q-62 0 -128.5 9.5t-123.5 35.5
q-16 -114 -63.5 -208t-125.5 -161.5t-186.5 -105t-244.5 -37.5q-146 0 -253.5 44.5t-178.5 119t-105.5 172.5t-34.5 205q0 48 7 97.5t20 97.5t29.5 92.5t36.5 81.5l109 -58q-15 -30 -27 -65t-20.5 -72.5t-13 -75.5t-4.5 -73q0 -92 29.5 -172.5t87 -140.5t141.5 -94.5
t193 -34.5q115 0 205.5 34.5t153 99t95 158t32.5 211.5z" />
    <glyph glyph-name="uniFEB3" unicode="&#x633;" horiz-adv-x="1864" arabic-form="initial" 
d="M529 223v-15t-1 -15q60 -41 132 -53.5t152 -12.5h27q87 0 123 39.5t36 118.5v369h127v-431q0 -10 -1 -20.5t-3 -21.5q56 -29 138 -41.5t207 -12.5h109v646h129v-773h-252q-118 0 -214.5 17t-160.5 67q-29 -36 -81.5 -60t-136.5 -24h-49q-41 0 -85.5 4t-86.5 14t-80 27
t-66 43q-30 -40 -91.5 -64t-170.5 -24h-258q-44 0 -44 23v75q0 20 13.5 24.5t30.5 4.5h228q59 0 98 10t62 29.5t32.5 49.5t9.5 69v276h127v-338z" />
    <glyph glyph-name="uniFEB4" unicode="&#x633;" horiz-adv-x="1962" arabic-form="medial" 
d="M529 223v-15t-1 -15q60 -41 132 -53.5t152 -12.5h27q87 0 123 39.5t36 118.5v369h127v-431q0 -19 -3 -40q58 -34 126 -45t143 -11h27q87 0 123 39.5t36 118.5v488h127v-550v-15.5t-2 -15.5q106 -65 279 -65h10q43 0 43 -23v-76q0 -19 -12.5 -23.5t-30.5 -4.5h-12
q-59 0 -104.5 6.5t-83 18t-69 28t-61.5 37.5q-29 -38 -82 -64t-141 -26h-49q-40 0 -83 4t-84.5 13.5t-78.5 25.5t-66 40q-29 -35 -81.5 -59t-136.5 -24h-49q-41 0 -85.5 4t-86.5 14t-80 27t-66 43q-30 -40 -91.5 -64t-170.5 -24h-258q-44 0 -44 23v75q0 20 13.5 24.5
t30.5 4.5h228q59 0 98 10t62 29.5t32.5 49.5t9.5 69v276h127v-338z" />
    <glyph glyph-name="uniFEB6" unicode="&#x634;" horiz-adv-x="2577" arabic-form="final" 
d="M1074 160q0 29 -4.5 70t-13 87.5t-21.5 94.5t-29 92l124 36q13 -38 25 -83.5t22 -93.5t16 -97t7 -95q54 -26 116 -35t130 -9h27q87 0 123 39.5t36 118.5v369h127v-431q0 -12 -1.5 -24t-3.5 -25q56 -29 119.5 -38t132.5 -9h27q87 0 123 39.5t36 118.5v488h127v-550v-15.5
t-2 -15.5q106 -65 279 -65h10q43 0 43 -23v-76q0 -19 -12.5 -23.5t-30.5 -4.5h-12q-59 0 -104.5 6.5t-83 18t-69 28t-61.5 37.5q-29 -38 -82 -64t-141 -26h-49q-38 0 -79 3.5t-80.5 12t-76 23t-65.5 35.5q-30 -32 -80.5 -53t-129.5 -21h-49q-62 0 -128.5 9.5t-123.5 35.5
q-16 -114 -63.5 -208t-125.5 -161.5t-186.5 -105t-244.5 -37.5q-146 0 -253.5 44.5t-178.5 119t-105.5 172.5t-34.5 205q0 48 7 97.5t20 97.5t29.5 92.5t36.5 81.5l109 -58q-15 -30 -27 -65t-20.5 -72.5t-13 -75.5t-4.5 -73q0 -92 29.5 -172.5t87 -140.5t141.5 -94.5
t193 -34.5q115 0 205.5 34.5t153 99t95 158t32.5 211.5zM1859 1110q0 -35 -23 -58.5t-58 -23.5q-33 0 -57.5 23.5t-24.5 58.5q0 33 24.5 57t57.5 24q35 0 58 -24t23 -57zM1600 1110q0 -35 -23.5 -58.5t-57.5 -23.5q-33 0 -57.5 23.5t-24.5 58.5q0 33 24.5 57t57.5 24
q34 0 57.5 -24t23.5 -57zM1718 1298q0 -35 -23 -58.5t-58 -23.5q-33 0 -57.5 23.5t-24.5 58.5q0 33 24.5 57t57.5 24q35 0 58 -24t23 -57z" />
    <glyph glyph-name="uniFEB7" unicode="&#x634;" horiz-adv-x="1864" arabic-form="initial" 
d="M529 223v-15t-1 -15q60 -41 132 -53.5t152 -12.5h27q87 0 123 39.5t36 118.5v369h127v-431q0 -10 -1 -20.5t-3 -21.5q56 -29 138 -41.5t207 -12.5h109v646h129v-773h-252q-118 0 -214.5 17t-160.5 67q-29 -36 -81.5 -60t-136.5 -24h-49q-41 0 -85.5 4t-86.5 14t-80 27
t-66 43q-30 -40 -91.5 -64t-170.5 -24h-258q-44 0 -44 23v75q0 20 13.5 24.5t30.5 4.5h228q59 0 98 10t62 29.5t32.5 49.5t9.5 69v276h127v-338zM1252 1110q0 -35 -23 -58.5t-58 -23.5q-33 0 -57.5 23.5t-24.5 58.5q0 33 24.5 57t57.5 24q35 0 58 -24t23 -57zM993 1110
q0 -35 -23.5 -58.5t-57.5 -23.5q-33 0 -57.5 23.5t-24.5 58.5q0 33 24.5 57t57.5 24q34 0 57.5 -24t23.5 -57zM1111 1298q0 -35 -23 -58.5t-58 -23.5q-33 0 -57.5 23.5t-24.5 58.5q0 33 24.5 57t57.5 24q35 0 58 -24t23 -57z" />
    <glyph glyph-name="uniFEB8" unicode="&#x634;" horiz-adv-x="1962" arabic-form="medial" 
d="M529 223v-15t-1 -15q60 -41 132 -53.5t152 -12.5h27q87 0 123 39.5t36 118.5v369h127v-431q0 -19 -3 -40q58 -34 126 -45t143 -11h27q87 0 123 39.5t36 118.5v488h127v-550v-15.5t-2 -15.5q106 -65 279 -65h10q43 0 43 -23v-76q0 -19 -12.5 -23.5t-30.5 -4.5h-12
q-59 0 -104.5 6.5t-83 18t-69 28t-61.5 37.5q-29 -38 -82 -64t-141 -26h-49q-40 0 -83 4t-84.5 13.5t-78.5 25.5t-66 40q-29 -35 -81.5 -59t-136.5 -24h-49q-41 0 -85.5 4t-86.5 14t-80 27t-66 43q-30 -40 -91.5 -64t-170.5 -24h-258q-44 0 -44 23v75q0 20 13.5 24.5
t30.5 4.5h228q59 0 98 10t62 29.5t32.5 49.5t9.5 69v276h127v-338zM1255 1110q0 -35 -23 -58.5t-58 -23.5q-33 0 -57.5 23.5t-24.5 58.5q0 33 24.5 57t57.5 24q35 0 58 -24t23 -57zM996 1110q0 -35 -23.5 -58.5t-57.5 -23.5q-33 0 -57.5 23.5t-24.5 58.5q0 33 24.5 57
t57.5 24q34 0 57.5 -24t23.5 -57zM1114 1298q0 -35 -23 -58.5t-58 -23.5q-33 0 -57.5 23.5t-24.5 58.5q0 33 24.5 57t57.5 24q35 0 58 -24t23 -57z" />
    <glyph glyph-name="uniFEBA" unicode="&#x635;" horiz-adv-x="2760" arabic-form="final" 
d="M1074 160q0 29 -4.5 70t-13 87.5t-21.5 94.5t-29 92l124 36q12 -38 24 -82.5t22 -92t16.5 -95.5t7.5 -93q45 -24 95 -37t110 -13q20 64 54.5 142.5t83 159t110 157t135.5 136t160.5 95.5t185.5 36q115 0 197.5 -39t135.5 -107t77.5 -160.5t24.5 -198.5v-221h219
q44 0 44 -23v-76q0 -19 -13 -23.5t-31 -4.5h-1322q-91 0 -156 14t-116 43q-14 -116 -61.5 -212.5t-126 -165.5t-187.5 -107.5t-247 -38.5q-146 0 -253.5 44.5t-178.5 119t-105.5 172.5t-34.5 205q0 48 7 97.5t20 97.5t29.5 92.5t36.5 81.5l109 -58q-15 -30 -27 -65
t-20.5 -72.5t-13 -75.5t-4.5 -73q0 -92 29.5 -172.5t87 -140.5t141.5 -94.5t193 -34.5q115 0 205.5 34.5t153 99t95 158t32.5 211.5zM2443 326q0 116 -26 193.5t-71 124t-106 66t-131 19.5q-72 0 -138.5 -26.5t-125.5 -72t-109.5 -105t-91 -126.5t-70.5 -137t-47 -135h916
v199z" />
    <glyph glyph-name="uniFEBB" unicode="&#x635;" horiz-adv-x="1982" arabic-form="initial" 
d="M408 210q58 -39 119.5 -61t140.5 -22q20 64 54.5 142.5t83 159t110 157t135.5 136t160.5 95.5t185.5 36q115 0 197.5 -39t135.5 -107t77.5 -160.5t24.5 -198.5v-348h-1103q-63 0 -112.5 6.5t-90.5 20t-75.5 34t-66.5 48.5q-13 -24 -34.5 -44t-54.5 -34.5t-79 -22.5
t-107 -8h-137q-44 0 -44 23v75q0 20 13.5 24.5t30.5 4.5h107q59 0 98 10t62 29.5t32.5 49.5t9.5 69v276h127v-351zM1706 326q0 116 -26 193.5t-71 124t-106 66t-131 19.5q-72 0 -138.5 -26.5t-125.5 -72t-109.5 -105t-91 -126.5t-70.5 -137t-47 -135h916v199z" />
    <glyph glyph-name="uniFEBC" unicode="&#x635;" horiz-adv-x="2023" arabic-form="medial" 
d="M408 210q58 -39 119.5 -61t140.5 -22q20 64 54.5 142.5t83 159t110 157t135.5 136t160.5 95.5t185.5 36q115 0 197.5 -39t135.5 -107t77.5 -160.5t24.5 -198.5v-221h218q45 0 45 -23v-76q0 -19 -13 -23.5t-32 -4.5h-1321q-63 0 -112.5 6.5t-90.5 20t-75.5 34t-66.5 48.5
q-13 -24 -34.5 -44t-54.5 -34.5t-79 -22.5t-107 -8h-137q-44 0 -44 23v75q0 20 13.5 24.5t30.5 4.5h107q59 0 98 10t62 29.5t32.5 49.5t9.5 69v276h127v-351zM1706 326q0 116 -26 193.5t-71 124t-106 66t-131 19.5q-72 0 -138.5 -26.5t-125.5 -72t-109.5 -105t-91 -126.5
t-70.5 -137t-47 -135h916v199z" />
    <glyph glyph-name="uniFEBE" unicode="&#x636;" horiz-adv-x="2760" arabic-form="final" 
d="M1074 160q0 29 -4.5 70t-13 87.5t-21.5 94.5t-29 92l124 36q12 -38 24 -82.5t22 -92t16.5 -95.5t7.5 -93q45 -24 95 -37t110 -13q20 64 54.5 142.5t83 159t110 157t135.5 136t160.5 95.5t185.5 36q115 0 197.5 -39t135.5 -107t77.5 -160.5t24.5 -198.5v-221h219
q44 0 44 -23v-76q0 -19 -13 -23.5t-31 -4.5h-1322q-91 0 -156 14t-116 43q-14 -116 -61.5 -212.5t-126 -165.5t-187.5 -107.5t-247 -38.5q-146 0 -253.5 44.5t-178.5 119t-105.5 172.5t-34.5 205q0 48 7 97.5t20 97.5t29.5 92.5t36.5 81.5l109 -58q-15 -30 -27 -65
t-20.5 -72.5t-13 -75.5t-4.5 -73q0 -92 29.5 -172.5t87 -140.5t141.5 -94.5t193 -34.5q115 0 205.5 34.5t153 99t95 158t32.5 211.5zM2443 326q0 116 -26 193.5t-71 124t-106 66t-131 19.5q-72 0 -138.5 -26.5t-125.5 -72t-109.5 -105t-91 -126.5t-70.5 -137t-47 -135h916
v199zM1962 1110q0 -35 -23.5 -58.5t-57.5 -23.5q-33 0 -57.5 23.5t-24.5 58.5q0 33 24.5 57t57.5 24q34 0 57.5 -24t23.5 -57z" />
    <glyph glyph-name="uniFEBF" unicode="&#x636;" horiz-adv-x="1982" arabic-form="initial" 
d="M408 210q58 -39 119.5 -61t140.5 -22q20 64 54.5 142.5t83 159t110 157t135.5 136t160.5 95.5t185.5 36q115 0 197.5 -39t135.5 -107t77.5 -160.5t24.5 -198.5v-348h-1103q-63 0 -112.5 6.5t-90.5 20t-75.5 34t-66.5 48.5q-13 -24 -34.5 -44t-54.5 -34.5t-79 -22.5
t-107 -8h-137q-44 0 -44 23v75q0 20 13.5 24.5t30.5 4.5h107q59 0 98 10t62 29.5t32.5 49.5t9.5 69v276h127v-351zM1706 326q0 116 -26 193.5t-71 124t-106 66t-131 19.5q-72 0 -138.5 -26.5t-125.5 -72t-109.5 -105t-91 -126.5t-70.5 -137t-47 -135h916v199zM1234 1110
q0 -35 -23.5 -58.5t-57.5 -23.5q-33 0 -57.5 23.5t-24.5 58.5q0 33 24.5 57t57.5 24q34 0 57.5 -24t23.5 -57z" />
    <glyph glyph-name="uniFEC0" unicode="&#x636;" horiz-adv-x="2023" arabic-form="medial" 
d="M408 210q58 -39 119.5 -61t140.5 -22q20 64 54.5 142.5t83 159t110 157t135.5 136t160.5 95.5t185.5 36q115 0 197.5 -39t135.5 -107t77.5 -160.5t24.5 -198.5v-221h218q45 0 45 -23v-76q0 -19 -13 -23.5t-32 -4.5h-1321q-63 0 -112.5 6.5t-90.5 20t-75.5 34t-66.5 48.5
q-13 -24 -34.5 -44t-54.5 -34.5t-79 -22.5t-107 -8h-137q-44 0 -44 23v75q0 20 13.5 24.5t30.5 4.5h107q59 0 98 10t62 29.5t32.5 49.5t9.5 69v276h127v-351zM1706 326q0 116 -26 193.5t-71 124t-106 66t-131 19.5q-72 0 -138.5 -26.5t-125.5 -72t-109.5 -105t-91 -126.5
t-70.5 -137t-47 -135h916v199zM1220 1110q0 -35 -23.5 -58.5t-57.5 -23.5q-33 0 -57.5 23.5t-24.5 58.5q0 33 24.5 57t57.5 24q34 0 57.5 -24t23.5 -57z" />
    <glyph glyph-name="uniFEC2" unicode="&#x637;" horiz-adv-x="1568" arabic-form="final" 
d="M0 127h208q17 54 44 118.5t65 133.5v1058h127v-865q46 58 100.5 109.5t116 89.5t130.5 60t145 22q115 0 198 -39t135.5 -107t77.5 -160.5t25 -198.5v-221h223q45 0 45 -23v-76q0 -19 -13 -23.5t-32 -4.5h-1595v127zM1245 326q0 116 -26 193.5t-71 124t-105.5 66
t-130.5 19.5q-72 0 -139 -26.5t-125.5 -72t-109.5 -105t-91.5 -126.5t-70.5 -137t-47 -135h916v199z" />
    <glyph glyph-name="uniFEC3" unicode="&#x637;" horiz-adv-x="1516" arabic-form="initial" 
d="M-28 0q-44 0 -44 23v75q0 20 13 24.5t31 4.5h230q17 54 44 118.5t65 133.5v1058h127v-866q46 58 100.5 109.5t116 90t130.5 60.5t145 22q115 0 198 -39t135.5 -107t77.5 -160.5t25 -198.5v-348h-1394zM1239 326q0 116 -25.5 193.5t-70.5 124t-106 66t-131 19.5
q-72 0 -139 -26.5t-125.5 -72t-109 -105t-91 -126.5t-70 -137t-46.5 -135h914v199z" />
    <glyph glyph-name="uniFEC4" unicode="&#x637;" horiz-adv-x="1557" arabic-form="medial" 
d="M-28 0q-44 0 -44 23v75q0 20 13 24.5t31 4.5h230q17 54 44 118.5t65 133.5v1058h127v-866q46 58 100.5 109.5t116 90t130.5 60.5t145 22q115 0 198 -39t135.5 -107t77.5 -160.5t25 -198.5v-221h219q44 0 44 -23v-76q0 -19 -13 -23.5t-31 -4.5h-1613zM1239 326
q0 116 -25.5 193.5t-70.5 124t-106 66t-131 19.5q-72 0 -139 -26.5t-125.5 -72t-109 -105t-91 -126.5t-70 -137t-46.5 -135h914v199z" />
    <glyph glyph-name="uniFEC6" unicode="&#x638;" horiz-adv-x="1568" arabic-form="final" 
d="M0 127h208q17 54 44 118.5t65 133.5v1058h127v-865q46 58 100.5 109.5t116 89.5t130.5 60t145 22q115 0 198 -39t135.5 -107t77.5 -160.5t25 -198.5v-221h223q45 0 45 -23v-76q0 -19 -13 -23.5t-32 -4.5h-1595v127zM1245 326q0 116 -26 193.5t-71 124t-105.5 66
t-130.5 19.5q-72 0 -139 -26.5t-125.5 -72t-109.5 -105t-91.5 -126.5t-70.5 -137t-47 -135h916v199zM1026 1110q0 -35 -23.5 -58.5t-57.5 -23.5q-33 0 -57.5 23.5t-24.5 58.5q0 33 24.5 57t57.5 24q34 0 57.5 -24t23.5 -57z" />
    <glyph glyph-name="uniFEC7" unicode="&#x638;" horiz-adv-x="1516" arabic-form="initial" 
d="M-28 0q-44 0 -44 23v75q0 20 13 24.5t31 4.5h230q17 54 44 118.5t65 133.5v1058h127v-866q46 58 100.5 109.5t116 90t130.5 60.5t145 22q115 0 198 -39t135.5 -107t77.5 -160.5t25 -198.5v-348h-1394zM1239 326q0 116 -25.5 193.5t-70.5 124t-106 66t-131 19.5
q-72 0 -139 -26.5t-125.5 -72t-109 -105t-91 -126.5t-70 -137t-46.5 -135h914v199zM1020 1110q0 -35 -23.5 -58.5t-57.5 -23.5q-33 0 -57.5 23.5t-24.5 58.5q0 33 24.5 57t57.5 24q34 0 57.5 -24t23.5 -57z" />
    <glyph glyph-name="uniFEC8" unicode="&#x638;" horiz-adv-x="1557" arabic-form="medial" 
d="M-28 0q-44 0 -44 23v75q0 20 13 24.5t31 4.5h230q17 54 44 118.5t65 133.5v1058h127v-866q46 58 100.5 109.5t116 90t130.5 60.5t145 22q115 0 198 -39t135.5 -107t77.5 -160.5t25 -198.5v-221h219q44 0 44 -23v-76q0 -19 -13 -23.5t-31 -4.5h-1613zM1239 326
q0 116 -25.5 193.5t-70.5 124t-106 66t-131 19.5q-72 0 -139 -26.5t-125.5 -72t-109 -105t-91 -126.5t-70 -137t-46.5 -135h914v199zM1018 1110q0 -35 -23.5 -58.5t-57.5 -23.5q-33 0 -57.5 23.5t-24.5 58.5q0 33 24.5 57t57.5 24q34 0 57.5 -24t23.5 -57z" />
    <glyph glyph-name="uniFECA" unicode="&#x639;" horiz-adv-x="1123" arabic-form="final" 
d="M445 204q-74 61 -130 123t-98 116t-70 93.5t-44 55.5q5 21 11 42.5t12.5 40t13 31.5t13.5 16q32 19 80.5 37.5t109 33.5t130.5 24.5t145 9.5q53 0 106.5 -10t96.5 -31.5t70 -55t27 -80.5q0 -24 -8 -67t-35.5 -101.5t-80 -129.5t-140.5 -150q38 -18 85.5 -32t100 -23.5
t109 -14.5t112.5 -5h90q44 0 44 -23v-76q0 -19 -13 -23.5t-31 -4.5h-147q-86 0 -160.5 14.5t-135.5 35t-106 42.5t-71 38q-82 -32 -155.5 -74.5t-129.5 -97t-89 -123t-33 -150.5q0 -63 21.5 -121.5t69 -103t121.5 -71t179 -26.5q43 0 88.5 5t89.5 12v-109q-50 -13 -92.5 -19
t-91.5 -6q-133 0 -229 34t-158.5 91.5t-92 133.5t-29.5 161q0 181 116 316.5t329 221.5zM802 596q0 25 -17.5 47t-51 38.5t-82 25.5t-109.5 9q-51 0 -136 -16t-191 -63q11 -21 31 -51t46 -64t57.5 -70.5t64.5 -71.5t67.5 -66.5t66.5 -55.5q53 36 99.5 82.5t81 94t54 90
t19.5 71.5z" />
    <glyph glyph-name="uniFECB" unicode="&#x639;" horiz-adv-x="979" arabic-form="initial" 
d="M801 670q-45 11 -96.5 16.5t-93.5 5.5t-88 -12t-83.5 -42t-62 -80t-24.5 -126q0 -64 23.5 -119.5t66 -97t101.5 -65t131 -23.5h229v-127h-931q-45 0 -45 23v75q0 20 13.5 24.5t31.5 4.5h414q-34 18 -64 49.5t-52 72t-34.5 87.5t-12.5 95q0 83 29 154.5t83 124.5t131 83.5
t173 30.5q17 0 39.5 -1.5t46 -4t47 -6t41.5 -7.5z" />
    <glyph glyph-name="uniFECC" unicode="&#x639;" horiz-adv-x="1183" arabic-form="medial" 
d="M507 204q-74 61 -130 123t-97.5 116t-69.5 93.5t-44 55.5q5 21 11 42.5t12.5 40t13 31.5t13.5 16q32 19 80.5 37.5t108.5 33.5t130 24.5t145 9.5q53 0 106.5 -10t96.5 -31.5t70 -55t27 -80.5q0 -24 -8 -67t-35.5 -101.5t-80 -129.5t-140.5 -150q37 -18 84 -31.5
t99.5 -23.5t109 -15t112.5 -5h90q44 0 44 -23v-76q0 -19 -13 -23.5t-31 -4.5h-147q-86 0 -161 14.5t-136 35t-106.5 43t-71.5 38.5q-56 -33 -110.5 -58t-112.5 -41t-120.5 -24t-132.5 -8h-140q-45 0 -45 23v75q0 20 13.5 24.5t31.5 4.5h153q126 0 218 20t163 57zM864 596
q0 25 -17.5 47t-51 38.5t-82 25.5t-109.5 9q-51 0 -136 -16t-191 -63q11 -21 31 -51t46 -64t57.5 -70.5t64.5 -71.5t67.5 -66.5t66.5 -55.5q53 36 99.5 82.5t81 94t54 90t19.5 71.5z" />
    <glyph glyph-name="uniFECE" unicode="&#x63a;" horiz-adv-x="1123" arabic-form="final" 
d="M445 204q-74 61 -130 123t-98 116t-70 93.5t-44 55.5q5 21 11 42.5t12.5 40t13 31.5t13.5 16q32 19 80.5 37.5t109 33.5t130.5 24.5t145 9.5q53 0 106.5 -10t96.5 -31.5t70 -55t27 -80.5q0 -24 -8 -67t-35.5 -101.5t-80 -129.5t-140.5 -150q38 -18 85.5 -32t100 -23.5
t109 -14.5t112.5 -5h90q44 0 44 -23v-76q0 -19 -13 -23.5t-31 -4.5h-147q-86 0 -160.5 14.5t-135.5 35t-106 42.5t-71 38q-82 -32 -155.5 -74.5t-129.5 -97t-89 -123t-33 -150.5q0 -63 21.5 -121.5t69 -103t121.5 -71t179 -26.5q43 0 88.5 5t89.5 12v-109q-50 -13 -92.5 -19
t-91.5 -6q-133 0 -229 34t-158.5 91.5t-92 133.5t-29.5 161q0 181 116 316.5t329 221.5zM802 596q0 25 -17.5 47t-51 38.5t-82 25.5t-109.5 9q-51 0 -136 -16t-191 -63q11 -21 31 -51t46 -64t57.5 -70.5t64.5 -71.5t67.5 -66.5t66.5 -55.5q53 36 99.5 82.5t81 94t54 90
t19.5 71.5zM606 1110q0 -35 -23.5 -58.5t-57.5 -23.5q-33 0 -57.5 23.5t-24.5 58.5q0 33 24.5 57t57.5 24q34 0 57.5 -24t23.5 -57z" />
    <glyph glyph-name="uniFECF" unicode="&#x63a;" horiz-adv-x="979" arabic-form="initial" 
d="M801 670q-45 11 -96.5 16.5t-93.5 5.5t-88 -12t-83.5 -42t-62 -80t-24.5 -126q0 -64 23.5 -119.5t66 -97t101.5 -65t131 -23.5h229v-127h-931q-45 0 -45 23v75q0 20 13.5 24.5t31.5 4.5h414q-34 18 -64 49.5t-52 72t-34.5 87.5t-12.5 95q0 83 29 154.5t83 124.5t131 83.5
t173 30.5q17 0 39.5 -1.5t46 -4t47 -6t41.5 -7.5zM644 1110q0 -35 -23.5 -58.5t-57.5 -23.5q-33 0 -57.5 23.5t-24.5 58.5q0 33 24.5 57t57.5 24q34 0 57.5 -24t23.5 -57z" />
    <glyph glyph-name="uniFED0" unicode="&#x63a;" horiz-adv-x="1183" arabic-form="medial" 
d="M507 204q-74 61 -130 123t-97.5 116t-69.5 93.5t-44 55.5q5 21 11 42.5t12.5 40t13 31.5t13.5 16q32 19 80.5 37.5t108.5 33.5t130 24.5t145 9.5q53 0 106.5 -10t96.5 -31.5t70 -55t27 -80.5q0 -24 -8 -67t-35.5 -101.5t-80 -129.5t-140.5 -150q37 -18 84 -31.5
t99.5 -23.5t109 -15t112.5 -5h90q44 0 44 -23v-76q0 -19 -13 -23.5t-31 -4.5h-147q-86 0 -161 14.5t-136 35t-106.5 43t-71.5 38.5q-56 -33 -110.5 -58t-112.5 -41t-120.5 -24t-132.5 -8h-140q-45 0 -45 23v75q0 20 13.5 24.5t31.5 4.5h153q126 0 218 20t163 57zM864 596
q0 25 -17.5 47t-51 38.5t-82 25.5t-109.5 9q-51 0 -136 -16t-191 -63q11 -21 31 -51t46 -64t57.5 -70.5t64.5 -71.5t67.5 -66.5t66.5 -55.5q53 36 99.5 82.5t81 94t54 90t19.5 71.5zM650 1110q0 -35 -23.5 -58.5t-57.5 -23.5q-33 0 -57.5 23.5t-24.5 58.5q0 33 24.5 57
t57.5 24q34 0 57.5 -24t23.5 -57z" />
    <glyph glyph-name="uniFED2" unicode="&#x641;" horiz-adv-x="2088" arabic-form="final" 
d="M1292 127q-43 25 -76.5 58.5t-56 71.5t-34 80t-11.5 83q0 79 27 151t78.5 126t127 86t172.5 32t169 -28t119.5 -76t71 -112t23.5 -136q0 -44 -9 -93t-23.5 -94.5t-31.5 -84.5t-33 -64h311q44 0 44 -23v-76q0 -19 -13 -23.5t-31 -4.5h-99q-129 0 -234.5 9t-194.5 26
q-42 -7 -99 -12t-122 -9t-134.5 -6.5t-137 -4.5t-128.5 -2.5t-109 -0.5h-345q-108 0 -188 13t-137 37t-93.5 57t-57.5 73t-29 86t-8 95q0 34 5 82.5t12 94.5l116 -11q-5 -25 -8 -56.5t-3 -65.5q0 -49 6.5 -89t25 -71t52 -53.5t88 -36.5t131.5 -21t184 -7h683zM1228 436
q0 -69 28 -125.5t76 -97.5t112.5 -63.5t138.5 -22.5h87q15 22 34 54.5t35.5 72t28 84t11.5 90.5q0 68 -23 119t-60.5 85.5t-86 51.5t-100.5 17q-51 0 -101.5 -15t-90 -47t-64.5 -82t-25 -121zM1589 1110q0 -35 -23.5 -58.5t-57.5 -23.5q-33 0 -57.5 23.5t-24.5 58.5
q0 33 24.5 57t57.5 24q34 0 57.5 -24t23.5 -57z" />
    <glyph glyph-name="uniFED3" unicode="&#x641;" horiz-adv-x="1178" arabic-form="initial" 
d="M380 127q-37 25 -62 59.5t-40 72t-21.5 75t-6.5 69.5q0 87 31 162.5t86 131t130 87t164 31.5q86 0 154 -27.5t115.5 -79.5t72.5 -127t25 -170v-411h-1057q-43 0 -43 23v75q0 20 12.5 24.5t30.5 4.5h409zM902 127v240q0 94 -22 157t-59 100.5t-85 53.5t-99 16
q-57 0 -107 -21t-87 -58.5t-58.5 -90t-21.5 -115.5q0 -60 22.5 -111.5t64 -89.5t101.5 -59.5t135 -21.5h216zM745 1110q0 -35 -23.5 -58.5t-57.5 -23.5q-33 0 -57.5 23.5t-24.5 58.5q0 33 24.5 57t57.5 24q34 0 57.5 -24t23.5 -57z" />
    <glyph glyph-name="uniFED4" unicode="&#x641;" horiz-adv-x="1195" arabic-form="medial" 
d="M644 1110q0 -35 -23.5 -58.5t-57.5 -23.5q-33 0 -57.5 23.5t-24.5 58.5q0 33 24.5 57t57.5 24q34 0 57.5 -24t23.5 -57zM1105 0q-64 0 -126.5 2t-121 6.5t-111 11t-96.5 15.5q-63 -10 -134.5 -16.5t-147.5 -10.5t-154.5 -6t-154.5 -2h-87q-44 0 -44 23v75q0 20 13.5 24.5
t30.5 4.5h378q-43 25 -76.5 58.5t-56 71.5t-34 80t-11.5 83q0 79 27 151t78.5 126t127 86t172.5 32t169 -28t119.5 -76t71 -112t23.5 -136q0 -44 -9 -93t-23.5 -94.5t-31.5 -84.5t-33 -64h360q44 0 44 -23v-76q0 -19 -13 -23.5t-31 -4.5h-118zM286 436q0 -69 28 -125.5
t76 -97.5t112.5 -63.5t138.5 -22.5h87q15 22 34 54.5t35.5 72t28 84t11.5 90.5q0 68 -23 119t-60.5 85.5t-86 51.5t-100.5 17q-51 0 -101.5 -15t-90 -47t-64.5 -82t-25 -121z" />
    <glyph glyph-name="uniFED6" unicode="&#x642;" horiz-adv-x="1506" arabic-form="final" 
d="M1175 0h-242q-120 0 -202.5 35t-133.5 90.5t-74 125.5t-23 139q0 88 30.5 164.5t86.5 133t135.5 89t177.5 32.5q40 0 82.5 -8t84 -27.5t78.5 -53t64.5 -84.5t44 -122t16.5 -166v-221h234q44 0 44 -23v-76q0 -19 -13 -23.5t-31 -4.5h-235q-6 -138 -56 -250t-137 -191.5
t-207.5 -123t-266.5 -43.5q-151 0 -268.5 36.5t-198.5 101.5t-123 154.5t-42 194.5q0 48 7 97.5t20 98t30 93t37 81.5l106 -59q-14 -30 -26 -65t-20 -72.5t-12.5 -75t-4.5 -72.5q0 -91 35.5 -161.5t102 -118.5t161 -73t211.5 -25q121 0 218.5 36t166.5 98.5t106 146.5
t37 180v12zM1175 127v158q0 127 -24.5 206t-64 123t-89.5 59.5t-101 15.5q-53 0 -102.5 -20.5t-87.5 -58t-61 -90t-23 -117.5q0 -56 18.5 -106t58.5 -88t102 -60t149 -22h225zM1124 1110q0 -35 -23 -58.5t-58 -23.5q-33 0 -57.5 23.5t-24.5 58.5q0 33 24.5 57t57.5 24
q35 0 58 -24t23 -57zM865 1110q0 -35 -23.5 -58.5t-57.5 -23.5q-33 0 -57.5 23.5t-24.5 58.5q0 33 24.5 57t57.5 24q34 0 57.5 -24t23.5 -57z" />
    <glyph glyph-name="uniFED7" unicode="&#x642;" horiz-adv-x="1178" arabic-form="initial" 
d="M380 127q-37 25 -62 59.5t-40 72t-21.5 75t-6.5 69.5q0 87 31 162.5t86 131t130 87t164 31.5q86 0 154 -27.5t115.5 -79.5t72.5 -127t25 -170v-411h-1057q-43 0 -43 23v75q0 20 12.5 24.5t30.5 4.5h409zM902 127v240q0 94 -22 157t-59 100.5t-85 53.5t-99 16
q-57 0 -107 -21t-87 -58.5t-58.5 -90t-21.5 -115.5q0 -60 22.5 -111.5t64 -89.5t101.5 -59.5t135 -21.5h216zM846 1110q0 -35 -23 -58.5t-58 -23.5q-33 0 -57.5 23.5t-24.5 58.5q0 33 24.5 57t57.5 24q35 0 58 -24t23 -57zM587 1110q0 -35 -23.5 -58.5t-57.5 -23.5
q-33 0 -57.5 23.5t-24.5 58.5q0 33 24.5 57t57.5 24q34 0 57.5 -24t23.5 -57z" />
    <glyph glyph-name="uniFED8" unicode="&#x642;" horiz-adv-x="1195" arabic-form="medial" 
d="M778 1110q0 -35 -23 -58.5t-58 -23.5q-33 0 -57.5 23.5t-24.5 58.5q0 33 24.5 57t57.5 24q35 0 58 -24t23 -57zM519 1110q0 -35 -23.5 -58.5t-57.5 -23.5q-33 0 -57.5 23.5t-24.5 58.5q0 33 24.5 57t57.5 24q34 0 57.5 -24t23.5 -57zM1105 0q-64 0 -126.5 2t-121 6.5
t-111 11t-96.5 15.5q-63 -10 -134.5 -16.5t-147.5 -10.5t-154.5 -6t-154.5 -2h-87q-44 0 -44 23v75q0 20 13.5 24.5t30.5 4.5h378q-43 25 -76.5 58.5t-56 71.5t-34 80t-11.5 83q0 79 27 151t78.5 126t127 86t172.5 32t169 -28t119.5 -76t71 -112t23.5 -136q0 -44 -9 -93
t-23.5 -94.5t-31.5 -84.5t-33 -64h360q44 0 44 -23v-76q0 -19 -13 -23.5t-31 -4.5h-118zM286 436q0 -69 28 -125.5t76 -97.5t112.5 -63.5t138.5 -22.5h87q15 22 34 54.5t35.5 72t28 84t11.5 90.5q0 68 -23 119t-60.5 85.5t-86 51.5t-100.5 17q-51 0 -101.5 -15t-90 -47
t-64.5 -82t-25 -121z" />
    <glyph glyph-name="uniFEDA" unicode="&#x643;" horiz-adv-x="1822" arabic-form="final" 
d="M1320 127q36 0 60.5 7t39.5 24.5t22 48t7 78.5v1152h129v-1193q0 -15 -1.5 -29.5t-3.5 -28.5q104 -59 268 -59h10q43 0 43 -23v-76q0 -19 -12.5 -23.5t-30.5 -4.5h-12q-56 0 -100.5 5.5t-80.5 16t-66.5 26t-58.5 34.5q-26 -37 -69.5 -59.5t-109.5 -22.5h-841
q-108 0 -188 13t-137 37t-93.5 57t-57.5 73t-29 86t-8 95q0 34 5 82.5t12 94.5l116 -11q-5 -25 -8 -56.5t-3 -65.5q0 -49 6.5 -89t25 -71t52 -53.5t88 -36.5t131.5 -21t184 -7h711zM1004 817q-8 2 -24 4t-35 2q-21 0 -41.5 -4.5t-36.5 -15t-26 -27.5t-10 -42q0 -55 43.5 -87
t118.5 -32h29v-70h-310v70h114q-9 6 -20 17.5t-21 27.5t-17 36.5t-7 44.5q0 33 10.5 61t32.5 48.5t55.5 32t78.5 11.5q17 0 36.5 -1t42.5 -5z" />
    <glyph glyph-name="uniFEDB" unicode="&#x643;" horiz-adv-x="816" arabic-form="initial" 
d="M-28 0q-44 0 -44 23v75q0 20 12.5 24.5t31.5 4.5h328q77 0 130 11.5t85.5 34t46.5 54.5t14 73q0 56 -26 112t-74.5 112t-118 112t-157.5 112l391 670q22 -16 44.5 -31t44.5 -30l-326 -577q163 -98 247 -215t84 -251q0 -69 -19.5 -126.5t-67 -99.5t-128 -65t-202.5 -23
h-296z" />
    <glyph glyph-name="uniFEDC" unicode="&#x643;" horiz-adv-x="895" arabic-form="medial" 
d="M-28 0q-44 0 -44 23v75q0 20 12.5 24.5t31.5 4.5h328q77 0 130 11.5t85.5 34t46.5 54.5t14 73q0 56 -26 112t-74.5 112t-118 112t-157.5 112l391 670q22 -16 44.5 -31t44.5 -30l-326 -577q163 -98 247 -215t84 -251q0 -38 -5.5 -72t-17.5 -64q50 -25 112 -38t140 -13h10
q43 0 43 -23v-76q0 -19 -12.5 -23.5t-30.5 -4.5h-12q-58 0 -103.5 6t-82.5 17t-68 27.5t-60 36.5q-48 -42 -128 -64.5t-202 -22.5h-296z" />
    <glyph glyph-name="uniFEDE" unicode="&#x644;" horiz-adv-x="1430" arabic-form="final" 
d="M1030 1437h127v-1236q54 -36 126 -55t166 -19h10q43 0 43 -23v-76q0 -19 -12.5 -23.5t-30.5 -4.5h-12q-54 0 -97.5 5.5t-78.5 15t-65 24t-57 32.5q-15 -112 -60 -205t-120 -160t-180 -104t-240 -37q-133 0 -235.5 38.5t-172 106t-105.5 159.5t-36 199q0 48 7 97.5
t20 97.5t29.5 92.5t36.5 81.5l109 -58q-15 -30 -27 -65t-20.5 -72.5t-13 -75.5t-4.5 -73q0 -92 29 -165.5t83.5 -124.5t134 -78.5t180.5 -27.5q115 0 202.5 33t146 96.5t88 156t29.5 210.5v1238z" />
    <glyph glyph-name="uniFEDF" unicode="&#x644;" horiz-adv-x="591" arabic-form="initial" 
d="M-27 0q-45 0 -45 23v75q0 20 13 24.5t32 4.5h330v1310h128v-1437h-458z" />
    <glyph glyph-name="uniFEE0" unicode="&#x644;" horiz-adv-x="684" arabic-form="medial" 
d="M-29 0q-43 0 -43 23v75q0 20 13 24.5t30 4.5h211q36 0 60.5 7t39.5 24.5t22 48t7 78.5v1153h129v-1194q0 -15 -1.5 -29.5t-3.5 -28.5q104 -59 268 -59h10q43 0 43 -23v-76q0 -19 -12.5 -23.5t-30.5 -4.5h-12q-56 0 -100.5 5.5t-80.5 16t-66.5 26t-58.5 34.5
q-26 -37 -69.5 -59.5t-109.5 -22.5h-245z" />
    <glyph glyph-name="uniFEE2" unicode="&#x645;" horiz-adv-x="1361" arabic-form="final" 
d="M372 127q-42 -6 -86 -23t-80.5 -56t-59.5 -104t-23 -167q0 -54 6 -109t18.5 -115t32.5 -126.5t49 -142.5l-115 -40q-23 71 -44 142.5t-36.5 139t-24.5 129t-9 112.5q0 106 19 183.5t59 136t100 102t143 82.5q46 169 105.5 271.5t122 157t122 72t106.5 17.5
q65 0 119 -19.5t97.5 -52t75.5 -75t53.5 -89.5t32.5 -95.5t11 -91.5q0 -49 -10.5 -96.5t-31.5 -89.5q100 -53 256 -53h10q43 0 43 -23v-76q0 -19 -12.5 -23.5t-30.5 -4.5h-12q-59 0 -105 6.5t-83.5 18t-69 28t-61.5 37.5q-48 -46 -117 -73.5t-163 -27.5q-61 0 -119 11
t-110.5 29.5t-97.5 43.5t-80 54zM1058 342q0 45 -18.5 101t-54.5 105t-90 82t-124 33q-63 0 -117 -35t-98 -94t-77 -137.5t-54 -166.5q15 -20 50 -40.5t81 -36.5t97 -26t97 -10q70 0 127 13t97.5 40.5t62 70t21.5 101.5z" />
    <glyph glyph-name="uniFEE3" unicode="&#x645;" horiz-adv-x="1183" arabic-form="initial" 
d="M258 127q-21 -38 -45.5 -63t-54 -39t-64 -19.5t-74.5 -5.5h-49q-43 0 -43 23v75q0 20 13 24.5t30 4.5h36q31 0 62 7.5t58 24t48 44t32 68.5q31 113 68 195.5t77.5 140t82.5 93t82.5 55.5t77.5 27t68 7q65 0 119 -19.5t97.5 -52t75.5 -75t53.5 -89.5t32.5 -95.5t11 -91.5
q0 -72 -22.5 -139.5t-69.5 -120.5t-120 -85t-175 -32q-61 0 -119 11t-110.5 29.5t-97.5 43.5t-80 54zM944 342q0 45 -18.5 101t-54.5 105t-90 82t-124 33q-63 0 -117 -35t-98 -94t-77 -137.5t-54 -166.5q15 -20 50 -40.5t81 -36.5t97 -26t97 -10q70 0 127 13t97.5 40.5
t62 70t21.5 101.5z" />
    <glyph glyph-name="uniFEE4" unicode="&#x645;" horiz-adv-x="1248" arabic-form="medial" 
d="M258 127q-21 -38 -45.5 -63t-54 -39t-64 -19.5t-74.5 -5.5h-49q-43 0 -43 23v75q0 20 13 24.5t30 4.5h36q31 0 62 7.5t58 24t48 44t32 68.5q31 113 68 195.5t77.5 140t82.5 93t82.5 55.5t77.5 27t68 7q65 0 119 -19.5t97.5 -52t75.5 -75t53.5 -89.5t32.5 -95.5t11 -91.5
q0 -49 -10.5 -96t-31.5 -90q51 -26 114.5 -39.5t142.5 -13.5h10q43 0 43 -23v-76q0 -19 -12.5 -23.5t-30.5 -4.5h-12q-59 0 -105 6.5t-83.5 18t-69 28.5t-61.5 38q-48 -47 -117 -74.5t-164 -27.5q-61 0 -119 11t-110.5 29.5t-97.5 43.5t-80 54zM944 342q0 45 -18.5 101
t-54.5 105t-90 82t-124 33q-63 0 -117 -35t-98 -94t-77 -137.5t-54 -166.5q15 -20 50 -40.5t81 -36.5t97 -26t97 -10q70 0 127 13t97.5 40.5t62 70t21.5 101.5z" />
    <glyph glyph-name="uniFEE6" unicode="&#x646;" horiz-adv-x="1430" arabic-form="final" 
d="M1030 160q0 29 -4.5 70t-12.5 87.5t-21 94.5t-29 92l127 35q13 -35 24 -76t19.5 -84.5t14.5 -88.5t8 -88q54 -37 126 -56t167 -19h10q43 0 43 -23v-76q0 -19 -12.5 -23.5t-30.5 -4.5h-12q-54 0 -96.5 5t-77.5 15t-64.5 23.5t-56.5 31.5q-13 -104 -56.5 -195.5t-119 -160
t-182 -108.5t-245.5 -40q-132 0 -234.5 38.5t-172.5 106t-106 159.5t-36 199q0 48 7 97.5t20 97.5t29.5 92.5t36.5 81.5l109 -58q-15 -30 -27 -65t-20.5 -72.5t-13 -75.5t-4.5 -73q0 -92 31 -165.5t87 -125t135.5 -79t176.5 -27.5q105 0 190 31t146 90t94 144t33 193z
M780 909q0 -35 -23.5 -58.5t-57.5 -23.5q-33 0 -57.5 23.5t-24.5 58.5q0 33 24.5 57t57.5 24q34 0 57.5 -24t23.5 -57z" />
    <glyph glyph-name="uniFEE7" unicode="&#x646;" horiz-adv-x="677" arabic-form="initial" 
d="M517 1110q0 -35 -23.5 -58.5t-57.5 -23.5q-33 0 -57.5 23.5t-24.5 58.5q0 33 24.5 57t57.5 24q34 0 57.5 -24t23.5 -57zM-28 0q-44 0 -44 23v75q0 20 13 24.5t31 4.5h392v646h129v-773h-521z" />
    <glyph glyph-name="uniFEE8" unicode="&#x646;" horiz-adv-x="684" arabic-form="medial" 
d="M-29 0q-43 0 -43 23v75q0 20 13 24.5t30 4.5h211q36 0 60.5 7t39.5 24.5t22 48t7 78.5v487h129v-528q0 -15 -1.5 -29.5t-3.5 -28.5q104 -59 268 -59h10q43 0 43 -23v-76q0 -19 -12.5 -23.5t-30.5 -4.5h-12q-56 0 -100.5 5.5t-80.5 16t-66.5 26t-58.5 34.5
q-26 -37 -69.5 -59.5t-109.5 -22.5h-245zM459 1110q0 -35 -23.5 -58.5t-57.5 -23.5q-33 0 -57.5 23.5t-24.5 58.5q0 33 24.5 57t57.5 24q34 0 57.5 -24t23.5 -57z" />
    <glyph glyph-name="uniFEE9" unicode="&#x647;" horiz-adv-x="1464" arabic-form="isolated" 
d="M296 0q-60 0 -96.5 -11t-56 -36t-25.5 -65.5t-6 -98.5h-87q-5 12 -9.5 29.5t-8 36t-5.5 37.5t-2 34q0 55 19 93t51.5 62t76 35t92.5 11h115q-48 78 -66 155.5t-18 140.5q0 53 11.5 106.5t36.5 105t64.5 98.5t95.5 86q-10 3 -17 5l-14 4t-15 4t-18 5q14 33 32 60.5
t29 45.5q153 -37 275 -74.5t215.5 -80t159.5 -92.5t108 -111.5t61.5 -138t19.5 -172.5v-15t-1 -36.5t-3 -79.5t-6 -143h-1008zM377 445q0 -59 13 -112t32.5 -95t41.5 -71t40 -40h228q16 26 32 59.5t29 71.5t21 78.5t8 80.5q0 97 -19.5 163t-50 106.5t-67 58t-70.5 17.5
q-53 0 -97 -30.5t-75.5 -77.5t-48.5 -102.5t-17 -106.5zM1183 127q7 45 10.5 87t3.5 77q0 57 -13 114t-48.5 110t-99 98.5t-163.5 80.5q16 -29 27 -66t17 -74.5t8.5 -70t2.5 -51.5q0 -38 -5 -80t-14 -82.5t-21 -77.5t-26 -65h321z" />
    <glyph glyph-name="uniFEEA" unicode="&#x647;" horiz-adv-x="995" arabic-form="final" 
d="M667 729q-125 -17 -226.5 -50.5t-174 -79.5t-112 -103.5t-39.5 -121.5q0 -52 21.5 -87.5t55 -57.5t75 -31.5t81.5 -9.5q87 0 171.5 24t147.5 66v451zM794 314q0 -54 5.5 -90t22 -57.5t46.5 -30.5t78 -9h77q44 0 44 -23v-76q0 -19 -13 -23.5t-31 -4.5h-99
q-65 0 -108.5 16.5t-71 41.5t-42.5 54t-24 54q-51 -25 -95 -42.5t-86 -28.5t-84 -16t-90 -5q-57 0 -114.5 16t-104 49.5t-75.5 85.5t-29 124q0 79 30 143.5t81.5 115.5t118.5 89.5t141.5 67.5t150.5 49t145 33v92h127v-625z" />
    <glyph glyph-name="uniFEEB" unicode="&#x647;" horiz-adv-x="1389" arabic-form="initial" 
d="M-28 0q-44 0 -44 23v75q0 20 12.5 24.5t31.5 4.5h307q-48 78 -66 155.5t-18 140.5q0 53 11.5 106.5t36.5 105t64.5 98.5t95.5 86q-10 3 -17 5l-14 4t-15 4t-18 5q14 33 32 60.5t29 45.5q154 -38 276.5 -75.5t215.5 -80t159 -92t108 -111.5t61 -138t19 -172v-15t-1 -36.5
t-3 -79.5t-6 -143h-1257zM657 127q16 26 32 59.5t29 71.5t21 78.5t8 80.5q0 97 -19.5 163t-50 106.5t-67 58t-70.5 17.5q-53 0 -97 -30.5t-75.5 -77.5t-48.5 -102.5t-17 -106.5q0 -59 13 -112t32.5 -95t41.5 -71t40 -40h228zM1108 127q7 45 10.5 87t3.5 77q0 57 -13 114
t-48.5 110t-99 98.5t-163.5 80.5q16 -29 27 -66t17 -74.5t8.5 -70t2.5 -51.5q0 -38 -5 -80t-14 -82.5t-21 -77.5t-26 -65h321z" />
    <glyph glyph-name="uniFEEC" unicode="&#x647;" horiz-adv-x="1173" arabic-form="medial" 
d="M-27 0q-45 0 -45 23v75q0 20 13 24.5t32 4.5h289q23 131 59.5 231.5t80.5 175t91 125t92 81.5t83.5 44.5t64.5 13.5q60 0 108.5 -32t82.5 -83.5t52 -116.5t18 -132q0 -38 -7.5 -79.5t-23 -82.5t-39.5 -78.5t-57 -66.5h334q44 0 44 -23v-76q0 -19 -13 -23.5t-31 -4.5h-362
q73 -70 106 -148.5t33 -164.5q0 -80 -27.5 -142t-70.5 -104.5t-95.5 -64.5t-101.5 -22q-41 0 -89.5 12t-97 41t-94 77t-80 120t-55.5 169.5t-21 226.5h-273zM890 392q0 64 -15 114.5t-39 85.5t-54 53.5t-60 18.5q-35 0 -84 -35.5t-98.5 -103.5t-92 -168t-64.5 -230h221
q64 0 116.5 23t90 60.5t58.5 85t21 96.5zM365 0q0 -142 32 -242t80.5 -163t107 -92t111.5 -29q38 0 68.5 18t51.5 48t32.5 70.5t11.5 85.5q0 51 -17.5 104.5t-51.5 98t-83 73t-112 28.5h-231z" />
    <glyph glyph-name="uniFEEE" unicode="&#x648;" horiz-adv-x="1161" arabic-form="final" 
d="M591 0q-125 0 -210 35t-138 90.5t-76 125.5t-23 139q0 88 30 164.5t85.5 133t134.5 89t177 32.5q40 0 83 -8t84.5 -27.5t79 -53t66 -84.5t45 -122t16.5 -166v-221h243q45 0 45 -23v-76q0 -19 -13 -23.5t-32 -4.5h-256q-24 -115 -82.5 -190.5t-143 -123.5t-191 -73
t-226.5 -40q-3 32 -7 60t-7 59q109 10 202.5 34t164 62.5t114.5 91t55 120.5h-220zM819 127v158q0 127 -24.5 207t-64 125t-89 61t-100.5 16q-57 0 -107 -23.5t-87 -63.5t-58.5 -93t-21.5 -111q0 -56 17.5 -106.5t56.5 -88t100.5 -59.5t148.5 -22h229z" />
    <glyph glyph-name="uniFEF0" unicode="&#x649;" horiz-adv-x="1975" arabic-form="final" 
d="M1106 374q0 199 101.5 299.5t314.5 100.5h255v-413q0 -78 9.5 -124t28.5 -70.5t47 -32t66 -7.5h74q45 0 45 -23v-76q0 -19 -13 -23.5t-32 -4.5h-106q-47 0 -91 14.5t-78 47.5t-55 87t-21 133v369h-74q-80 0 -143.5 -10.5t-108 -42t-68 -90.5t-23.5 -155v-274
q0 -95 -35.5 -186.5t-110.5 -164t-191.5 -117t-278.5 -44.5q-126 0 -221 25t-164 66t-114 94t-71.5 108.5t-37 110t-10.5 98.5q0 110 27 205.5t75 161.5q27 -16 51 -29t51 -27q-36 -62 -56.5 -141t-20.5 -154q0 -40 9.5 -84.5t33 -87.5t62.5 -81.5t97.5 -67.5t138 -46.5
t184.5 -17.5q118 0 204 31t141.5 81.5t82 115t26.5 131.5v315z" />
    <glyph glyph-name="uniFEF2" unicode="&#x64a;" horiz-adv-x="1975" arabic-form="final" 
d="M1106 374q0 199 101.5 299.5t314.5 100.5h255v-413q0 -78 9.5 -124t28.5 -70.5t47 -32t66 -7.5h74q45 0 45 -23v-76q0 -19 -13 -23.5t-32 -4.5h-106q-47 0 -91 14.5t-78 47.5t-55 87t-21 133v369h-74q-80 0 -143.5 -10.5t-108 -42t-68 -90.5t-23.5 -155v-274
q0 -95 -35.5 -186.5t-110.5 -164t-191.5 -117t-278.5 -44.5q-126 0 -221 25t-164 66t-114 94t-71.5 108.5t-37 110t-10.5 98.5q0 110 27 205.5t75 161.5q27 -16 51 -29t51 -27q-36 -62 -56.5 -141t-20.5 -154q0 -40 9.5 -84.5t33 -87.5t62.5 -81.5t97.5 -67.5t138 -46.5
t184.5 -17.5q118 0 204 31t141.5 81.5t82 115t26.5 131.5v315zM461 -655q0 35 23 58.5t58 23.5q33 0 57.5 -23.5t24.5 -58.5q0 -33 -24.5 -57t-57.5 -24q-35 0 -58 24t-23 57zM720 -655q0 35 23.5 58.5t57.5 23.5q33 0 57.5 -23.5t24.5 -58.5q0 -33 -24.5 -57t-57.5 -24
q-34 0 -57.5 24t-23.5 57z" />
    <glyph glyph-name="uniFEF3" unicode="&#x64a;" horiz-adv-x="727" arabic-form="initial" 
d="M-28 0q-44 0 -44 23v75q0 20 13 24.5t31 4.5h392v646h129v-773h-521zM145 -274q0 35 23 58.5t58 23.5q33 0 57.5 -23.5t24.5 -58.5q0 -33 -24.5 -57t-57.5 -24q-35 0 -58 24t-23 57zM404 -274q0 35 23.5 58.5t57.5 23.5q33 0 57.5 -23.5t24.5 -58.5q0 -33 -24.5 -57
t-57.5 -24q-34 0 -57.5 24t-23.5 57z" />
    <glyph glyph-name="uniFEF4" unicode="&#x64a;" horiz-adv-x="684" arabic-form="medial" 
d="M-29 0q-43 0 -43 23v75q0 20 13 24.5t30 4.5h211q36 0 60.5 7t39.5 24.5t22 48t7 78.5v487h129v-528q0 -15 -1.5 -29.5t-3.5 -28.5q104 -59 268 -59h10q43 0 43 -23v-76q0 -19 -12.5 -23.5t-30.5 -4.5h-12q-56 0 -100.5 5.5t-80.5 16t-66.5 26t-58.5 34.5
q-26 -37 -69.5 -59.5t-109.5 -22.5h-245zM126 -274q0 35 23 58.5t58 23.5q33 0 57.5 -23.5t24.5 -58.5q0 -33 -24.5 -57t-57.5 -24q-35 0 -58 24t-23 57zM385 -274q0 35 23.5 58.5t57.5 23.5q33 0 57.5 -23.5t24.5 -58.5q0 -33 -24.5 -57t-57.5 -24q-34 0 -57.5 24t-23.5 57
z" />
    <glyph glyph-name=".notdef" horiz-adv-x="1021" 
d="M443 234v133h111v-133h-111zM449 466q-1 8 -2.5 17t-1.5 17q0 18 1 39.5t3.5 43t7.5 42.5t13 37q18 37 50 70.5t63.5 67t55 69t23.5 76.5q0 32 -11 62.5t-31 54.5t-48 38.5t-62 14.5q-41 0 -70 -16t-48.5 -43t-30 -61t-14.5 -70l-100 16q6 59 24.5 109t51.5 86.5t81 57
t112 20.5q57 0 102.5 -20.5t77.5 -55.5t49.5 -82.5t17.5 -102.5q0 -50 -13 -87t-33.5 -66.5t-45.5 -53t-48.5 -45t-42.5 -43.5t-28 -48q-4 -13 -6.5 -32t-3.5 -39.5t-1.5 -40t-0.5 -32.5h-91zM921 99v1231h-822v-1231h822zM1021 1431v-1431h-1021v1431h1021z" />
    <glyph glyph-name=".null" horiz-adv-x="1024" 
 />
    <glyph glyph-name=".null" horiz-adv-x="1024" 
 />
    <glyph glyph-name="nonmarkingreturn" unicode="&#xd;" horiz-adv-x="0" 
 />
    <glyph glyph-name="space" unicode=" " horiz-adv-x="569" 
 />
    <glyph glyph-name="space" unicode="&#xa0;" horiz-adv-x="569" 
 />
    <glyph glyph-name="exclam" unicode="!" horiz-adv-x="797" 
d="M315 172h166v-172h-166v172zM457 346h-117l-25 1084h166z" />
    <glyph glyph-name="quotedbl" unicode="&#x22;" 
d="M643 1430h129v-447h-129v447zM367 1430h129v-447h-129v447z" />
    <glyph glyph-name="numbersign" unicode="#" 
d="M733 870h-266l-43 -311h266zM283 449h-213v110h227l45 311h-219v111h233l64 449h125l-64 -449h267l63 449h125l-64 -449h197v-111h-211l-43 -311h197v-110h-213l-64 -449h-125l64 449h-266l-64 -449h-125z" />
    <glyph glyph-name="dollar" unicode="$" 
d="M631 1579v-125q72 0 140.5 -10.5t135.5 -36.5l-22 -129q-59 30 -123.5 41t-130.5 12v-543q65 -32 126 -69.5t108.5 -86t76.5 -110.5t29 -143q0 -80 -24.5 -145t-69.5 -114.5t-107.5 -82.5t-138.5 -49v-170h-105v159q-20 -3 -45 -3q-36 0 -77.5 5t-82.5 13.5t-78.5 20
t-64.5 24.5l15 145q69 -48 150.5 -66t164.5 -18q5 0 9 0.5t9 1.5v588q-38 23 -78.5 47t-79.5 50.5t-74.5 56.5t-62 66t-42 79t-15.5 94q0 78 28 140.5t76 108t112 75t136 41.5v133h105zM526 1321q-47 -8 -86 -27.5t-67 -49.5t-43 -70.5t-15 -88.5q0 -42 20.5 -78t52 -65.5
t68.5 -53.5t70 -42v475zM631 117q49 13 86 39t62 61.5t37.5 79.5t12.5 94q0 43 -18.5 78.5t-47 65t-63.5 52.5t-69 42v-512z" />
    <glyph glyph-name="percent" unicode="%" horiz-adv-x="2048" 
d="M1386 1475h119l-846 -1520h-118zM344 1061q0 -46 10 -94.5t32.5 -88t60 -65t92.5 -25.5q58 0 95.5 25t59.5 64t30.5 87.5t8.5 96.5q0 50 -8 98.5t-29.5 87t-59 62.5t-97.5 24q-57 0 -95 -24.5t-60 -63.5t-31 -87.5t-9 -96.5zM215 1061q0 79 18 148.5t57 121.5t100.5 82.5
t148.5 30.5q89 0 150.5 -30t100 -81.5t55.5 -121.5t17 -150t-17.5 -150t-55.5 -121.5t-100 -81.5t-150 -30q-87 0 -148.5 30.5t-100.5 82.5t-57 122t-18 148zM1315 369q0 -46 9.5 -94.5t32 -88t60 -65t92.5 -25.5q58 0 96 24.5t60 63.5t30.5 88t8.5 97q0 50 -8 98.5
t-29.5 87t-59.5 62.5t-98 24q-57 0 -94.5 -24.5t-59.5 -63.5t-31 -87.5t-9 -96.5zM1186 369q0 79 18 148.5t56.5 121.5t100 82.5t148.5 30.5q89 0 151 -29.5t100.5 -81.5t55.5 -121.5t17 -150.5q0 -80 -17.5 -150t-56 -122t-100.5 -81.5t-150 -29.5q-86 0 -147.5 30.5
t-100.5 82.5t-57 122t-18 148z" />
    <glyph glyph-name="ampersand" unicode="&#x26;" horiz-adv-x="1366" 
d="M395 1135q0 -40 15.5 -80t39.5 -77.5t52.5 -71.5t54.5 -62q48 24 97.5 49t89.5 58.5t65 78t25 107.5q0 98 -52.5 152t-150.5 54q-48 0 -90.5 -13.5t-75 -40t-51.5 -65t-19 -89.5zM512 711q-51 -20 -99.5 -52t-86 -74.5t-60 -94t-22.5 -109.5q0 -71 27 -126t72.5 -92.5
t105.5 -57t126 -19.5q49 0 98.5 12t95 34t86 52.5t73.5 67.5zM1008 350q122 194 122 423v11h123q0 -141 -39 -270.5t-120 -245.5l243 -264h-180l-151 160q-90 -96 -197 -142.5t-238 -46.5q-93 0 -178 24.5t-149.5 74t-103 125t-38.5 176.5q0 81 26 146t71.5 116t107.5 89
t133 65q-33 36 -66 76.5t-59.5 84.5t-43.5 92t-17 99q0 78 34 136.5t88.5 97.5t123.5 58t139 19q68 0 129 -18.5t107 -55.5t73 -92.5t27 -128.5q0 -60 -15.5 -107t-44 -85t-68.5 -68.5t-89 -58.5q-32 -18 -63.5 -35.5t-63.5 -34.5z" />
    <glyph glyph-name="quotesingle" unicode="'" horiz-adv-x="569" 
d="M221 1430h129v-447h-129v447z" />
    <glyph glyph-name="parenleft" unicode="(" horiz-adv-x="569" 
d="M436 -287q-68 106 -128 214.5t-113 222.5q-53 115 -81 234.5t-28 246.5t28 247.5t81 235.5q52 114 112 222t129 212h86q-58 -108 -109 -217.5t-98 -222.5q-48 -115 -74 -233.5t-26 -243.5t26 -242.5t74 -232.5q47 -114 98 -224t109 -219h-86z" />
    <glyph glyph-name="parenright" unicode=")" horiz-adv-x="569" 
d="M133 1548q69 -101 132.5 -210t111.5 -224.5t77 -236.5t29 -246q0 -126 -29 -247t-77.5 -236t-112 -224t-131.5 -211h-86q60 108 112.5 218t98.5 225t71 233t25 242t-25 243t-71 234q-46 114 -98.5 223.5t-112.5 216.5h86z" />
    <glyph glyph-name="asterisk" unicode="*" 
d="M629 1430l-15 -314l297 115l39 -119l-301 -86l199 -244l-103 -77l-176 268l-172 -268l-100 77l192 244l-301 86l35 119l301 -115l-14 314h119z" />
    <glyph glyph-name="plus" unicode="+" horiz-adv-x="1229" 
d="M94 590h449v448h141v-448h449v-141h-449v-449h-141v449h-449v141z" />
    <glyph glyph-name="comma" unicode="," horiz-adv-x="666" 
d="M278 172h172l-161 -446h-129z" />
    <glyph glyph-name="hyphen" unicode="-" horiz-adv-x="682" 
d="M84 623h514v-142h-514v142z" />
    <glyph glyph-name="hyphen" unicode="&#x2010;" horiz-adv-x="682" 
d="M84 623h514v-142h-514v142z" />
    <glyph glyph-name="hyphen" unicode="&#xad;" horiz-adv-x="682" 
d="M84 623h514v-142h-514v142z" />
    <glyph glyph-name="period" unicode="." horiz-adv-x="666" 
d="M250 172h166v-172h-166v172z" />
    <glyph glyph-name="slash" unicode="/" horiz-adv-x="569" 
d="M492 1454h141l-555 -1479h-141z" />
    <glyph glyph-name="zero" unicode="0" 
d="M569 1444q128 0 226.5 -60t152.5 -178q24 -53 41 -111t28 -118t16 -120t5 -118q0 -80 -6 -167.5t-23.5 -171t-49 -159t-84 -132t-127.5 -90t-179 -33.5q-101 0 -175 34t-126 91.5t-84.5 133t-51 159t-25.5 170t-7 164.5q0 118 21.5 239t71.5 229q53 115 151.5 176.5
t224.5 61.5zM569 1321q-75 0 -128.5 -29.5t-90 -78t-58 -111.5t-32.5 -130.5t-14.5 -134t-3.5 -122.5q0 -55 3.5 -121.5t15 -134t33 -130.5t58 -112t89.5 -78.5t128 -29.5q107 0 174.5 58.5t102.5 156.5q17 47 28.5 96.5t16.5 99.5q5 48 5.5 97.5t0.5 97.5q0 49 -0.5 98
t-5.5 98q-5 50 -16.5 100t-28.5 97q-35 99 -101.5 156t-175.5 57z" />
    <glyph glyph-name="one" unicode="1" 
d="M575 1430h127v-1430h-141v1270l-231 -203l-78 92z" />
    <glyph glyph-name="two" unicode="2" 
d="M102 123l328 362q31 34 69 77t76 91t74 100t63.5 104.5t44.5 104.5t17 101q0 55 -18.5 102.5t-51.5 82t-79.5 54t-102.5 19.5q-92 0 -179 -26.5t-165 -75.5l-24 129q83 41 174.5 68.5t185.5 27.5q91 0 167 -22.5t131 -69t85.5 -117t30.5 -166.5q0 -45 -10.5 -89.5
t-28 -87t-40.5 -82t-48 -75.5q-58 -83 -122 -161t-130.5 -153t-135.5 -149t-137 -149h685v-123h-859v123z" />
    <glyph glyph-name="three" unicode="3" 
d="M307 803q52 0 110.5 2t116.5 10.5t111.5 26.5t94 49.5t65 80t24.5 118.5q0 65 -31 109t-78.5 71t-105.5 39t-112 12q-83 0 -164 -20t-156 -56l-12 133q82 33 169.5 49.5t176.5 16.5q86 0 168 -18t145.5 -59.5t102.5 -109.5t39 -167q0 -68 -23 -123.5t-63 -99t-94.5 -73.5
t-116.5 -46v-5q75 -4 130.5 -32t92.5 -74t55.5 -107.5t18.5 -132.5q0 -72 -21.5 -131t-58.5 -104.5t-88 -78.5t-109 -54.5t-121.5 -32t-126.5 -10.5q-88 0 -174.5 14t-169.5 43l17 135q81 -35 168.5 -52t175.5 -17q66 0 129.5 18t120.5 53q60 38 88 99.5t28 130.5
q0 81 -31 136.5t-106 90.5q-29 14 -60.5 23.5t-64.5 13.5q-39 4 -78 5t-78 1h-104v123z" />
    <glyph glyph-name="four" unicode="4" 
d="M47 469l643 961h180v-977h211v-123h-211v-330h-141v330h-682v139zM729 1288h-4l-549 -835h553v835z" />
    <glyph glyph-name="five" unicode="5" 
d="M938 1307h-592l-10 -459q54 18 107.5 24.5t109.5 6.5q102 0 184.5 -25.5t141 -77.5t90.5 -130.5t32 -184.5q0 -121 -38.5 -210t-107.5 -148t-164.5 -88t-209.5 -29q-158 0 -305 51v145q144 -73 305 -73q73 0 141.5 20t121.5 60.5t84.5 101t31.5 141.5q0 88 -25 149.5
t-71.5 100.5t-112.5 56.5t-149 17.5q-78 0 -156 -10.5t-153 -34.5l14 719h731v-123z" />
    <glyph glyph-name="six" unicode="6" 
d="M594 780q-73 0 -133 -21.5t-103 -62.5t-66.5 -99.5t-23.5 -133.5q0 -69 20 -133t58.5 -113t96 -78.5t132.5 -29.5q77 0 137 24.5t101 69t62.5 106.5t21.5 137t-17.5 136.5t-54.5 105.5t-94.5 68t-136.5 24zM571 -14q-97 0 -168.5 29t-122.5 79.5t-83.5 117.5t-51 143
t-25.5 157t-7 159q0 72 7.5 143.5t24 140.5t44 135t67.5 127q42 64 98.5 107.5t121.5 70t136.5 38t145.5 11.5q58 0 115.5 -8.5t113.5 -24.5l-12 -135q-58 25 -119.5 35t-124.5 10q-132 0 -223 -49t-147.5 -131.5t-81.5 -189.5t-25 -224h4q56 91 143.5 133.5t192.5 42.5
q107 0 190 -30t139.5 -87t85.5 -140t29 -189q0 -107 -33 -194t-93.5 -148.5t-147 -95t-193.5 -33.5z" />
    <glyph glyph-name="seven" unicode="7" 
d="M852 1307h-733v123h872v-123l-553 -1307h-155z" />
    <glyph glyph-name="eight" unicode="8" 
d="M281 1098q0 -60 28 -106t71 -82t93.5 -63.5t95.5 -51.5q45 21 95.5 50t93 66.5t70.5 83.5t28 103q0 59 -25.5 101t-66.5 69t-92.5 40t-102.5 13t-102.5 -13t-93 -40t-67 -69t-25.5 -101zM903 379q0 68 -33 116t-82.5 83.5t-108.5 61.5t-110 50q-59 -22 -118.5 -47
t-107 -61.5t-77.5 -88t-30 -126.5q0 -30 7.5 -54.5t22.5 -50.5q25 -42 60 -71t76 -47.5t86.5 -26.5t92.5 -8q64 0 122.5 15.5t103 48.5t70.5 84t26 122zM139 1110q0 84 39.5 146.5t102 104t138.5 62.5t150 21q80 0 157 -17.5t137 -57.5t97 -103.5t37 -155.5
q0 -63 -26 -118.5t-68 -101.5t-94 -83t-104 -64q73 -23 135 -53t107.5 -74t71 -105t25.5 -144q0 -92 -35 -168t-116 -125q-76 -46 -155.5 -67t-168.5 -21q-84 0 -169 24t-153 71.5t-110.5 119t-42.5 166.5q0 80 25 140t69.5 105t104.5 76.5t131 54.5q-57 27 -108.5 62
t-91 80.5t-62.5 101t-23 123.5z" />
    <glyph glyph-name="nine" unicode="9" 
d="M545 649q74 0 134 21.5t102.5 62.5t65.5 100t23 134q0 72 -18.5 136.5t-56.5 113t-95.5 76.5t-136.5 28q-77 0 -136.5 -25t-100.5 -69.5t-62.5 -106.5t-21.5 -137q0 -76 17 -137.5t54 -105t94.5 -67.5t137.5 -24zM567 1444q100 0 173 -28.5t124 -78t83 -116t49.5 -142.5
t23.5 -158t6 -162q0 -70 -7 -141.5t-23.5 -141t-43 -135.5t-65.5 -126q-42 -64 -99 -108t-123 -71t-138.5 -38.5t-145.5 -11.5q-58 0 -115.5 8.5t-113.5 23.5l12 136q56 -25 115.5 -35t119.5 -10q55 0 111 10.5t106.5 33t93 57.5t72.5 85q54 91 78.5 193.5t24.5 207.5v6h-4
q-27 -44 -64 -76.5t-80.5 -55t-92 -33.5t-99.5 -11q-38 0 -74.5 6.5t-73.5 16.5q-76 21 -132 61.5t-92.5 96t-54.5 123t-18 143.5q0 108 32.5 195t93 148.5t147 94.5t194.5 33z" />
    <glyph glyph-name="colon" unicode=":" horiz-adv-x="666" 
d="M250 172h166v-172h-166v172zM416 872h-166v172h166v-172z" />
    <glyph glyph-name="semicolon" unicode=";" horiz-adv-x="666" 
d="M416 872h-166v172h166v-172zM278 172h172l-161 -446h-129z" />
    <glyph glyph-name="less" unicode="&#x3c;" horiz-adv-x="1229" 
d="M1133 918l-881 -400l881 -399v-135l-1039 471v127l1039 471v-135z" />
    <glyph glyph-name="equal" unicode="=" horiz-adv-x="1229" 
d="M94 383h1039v-141h-1039v141zM94 795h1039v-142h-1039v142z" />
    <glyph glyph-name="greater" unicode="&#x3e;" horiz-adv-x="1229" 
d="M96 119l883 399l-883 400v135l1039 -471v-127l-1039 -471v135z" />
    <glyph glyph-name="question" unicode="?" horiz-adv-x="1024" 
d="M373 172h166v-172h-166v172zM176 1403q72 24 147.5 37.5t151.5 13.5q88 0 160 -23t124 -69t80.5 -115t28.5 -160q0 -56 -13 -104.5t-36 -92t-55 -83t-70 -78.5q-66 -68 -119 -149q-19 -30 -30.5 -57t-17.5 -55t-7.5 -58t-1.5 -64h-129q-1 69 9.5 130.5t45.5 121.5
q24 41 53 79.5t62 72.5q37 38 68 74.5t53.5 76.5t34.5 85t12 101q0 58 -19 103.5t-53.5 77t-81.5 47.5t-104 16q-75 0 -146 -15.5t-141 -41.5z" />
    <glyph glyph-name="at" unicode="@" horiz-adv-x="1638" 
d="M1087 545q-8 -25 -14 -50t-6 -51q0 -18 12 -30q5 -10 14 -13.5t19 -3.5q33 0 63 11t56.5 29t49 41.5t40.5 49.5q48 68 70 146.5t22 161.5q0 125 -50 218t-132.5 154.5t-189.5 92t-220 30.5q-133 0 -244 -46.5t-191 -129t-124.5 -194.5t-44.5 -244q0 -131 44.5 -244
t124.5 -196.5t191 -131t244 -47.5q77 0 152.5 12.5t145.5 40t131.5 70.5t111.5 105h125q-55 -90 -127 -156.5t-157 -109.5t-181.5 -64t-200.5 -21q-80 0 -156.5 13.5t-147.5 42t-134 72.5t-115 106q-94 112 -140 235.5t-46 270.5q0 146 46 272t140 238q52 61 115 104.5
t134.5 71.5t148 40.5t155.5 12.5q93 0 183 -17.5t170.5 -52.5t149 -87t118.5 -120.5t78 -154t28 -186.5q0 -118 -40 -223t-126 -187q-30 -29 -64 -56.5t-71 -48.5t-77.5 -34t-84.5 -13q-64 0 -106 30t-55 95h-4q-49 -64 -110.5 -94.5t-141.5 -30.5q-63 0 -114.5 26
t-87.5 68.5t-55.5 98t-19.5 115.5q0 66 15 133t43.5 128.5t69.5 115t93.5 93.5t116 62.5t135.5 22.5q83 0 137 -43t89 -115l43 123h129zM545 594q0 -35 8 -70t25.5 -63t45.5 -46t68 -18q49 0 93 20t81.5 53.5t67.5 77t51 91.5t32 97t11 93q0 40 -9.5 74t-29 58.5t-51 38.5
t-74.5 14q-32 0 -61 -10t-55 -26.5t-49.5 -37.5t-43.5 -43q-57 -62 -83.5 -141t-26.5 -162z" />
    <glyph glyph-name="A" unicode="A" horiz-adv-x="1366" 
d="M371 506h620l-309 788zM612 1430h160l567 -1430h-147l-154 383h-721l-153 -383h-137z" />
    <glyph glyph-name="B" unicode="B" 
d="M309 805h158q66 0 129 12.5t111.5 43t78 82t29.5 128.5q0 72 -25.5 117.5t-68.5 72t-99.5 36.5t-117.5 10h-195v-502zM305 123h148q70 0 142 11.5t130.5 42.5t95.5 85t37 139q0 67 -17 113.5t-47.5 77.5t-71.5 49t-88.5 27t-99.5 11.5t-104 2.5h-125v-559zM164 1430h347
q78 0 159 -16.5t149 -55.5q37 -22 63.5 -53t42.5 -68t23.5 -78t7.5 -82q0 -134 -63.5 -216.5t-196.5 -108.5v-4q68 -12 124 -40t95.5 -71t61.5 -100.5t22 -128.5q0 -81 -21.5 -143t-59.5 -107.5t-90.5 -76t-113.5 -48.5t-128.5 -25.5t-136.5 -7.5h-285v1430z" />
    <glyph glyph-name="C" unicode="C" horiz-adv-x="1366" 
d="M1157 1270q-76 40 -155.5 50.5t-163.5 10.5q-139 0 -247 -46t-182 -128t-112.5 -195t-38.5 -247q0 -136 38 -249.5t111.5 -195t181.5 -127t249 -45.5q36 0 78.5 3t85 10.5t83 19.5t72.5 29l8 -123q-33 -17 -74 -29t-85 -19.5t-87.5 -10.5t-80.5 -3q-169 0 -302.5 53.5
t-226.5 151t-142.5 233.5t-49.5 302q0 165 50 301t143.5 233.5t227 151t300.5 53.5q36 0 79.5 -2t88 -7.5t86 -16t73.5 -27.5z" />
    <glyph glyph-name="D" unicode="D" horiz-adv-x="1366" 
d="M164 1430h354q173 0 306.5 -45t224 -134t137.5 -221.5t47 -306.5q0 -80 -11.5 -158t-38.5 -150.5t-71.5 -136t-110.5 -112.5q-63 -47 -133.5 -78.5t-145.5 -51t-153 -28t-155 -8.5h-250v1430zM305 123h145q107 0 205 19.5t178 65t139.5 120.5t90.5 186q14 51 21.5 104.5
t7.5 106.5q0 59 -8 123t-27.5 125.5t-51.5 115.5t-81 93q-43 34 -91.5 57.5t-100.5 38.5t-106 22t-108 7h-213v-1184z" />
    <glyph glyph-name="E" unicode="E" horiz-adv-x="1024" 
d="M176 1430h701v-123h-560v-510h531v-123h-531v-551h584v-123h-725v1430z" />
    <glyph glyph-name="F" unicode="F" horiz-adv-x="909" 
d="M158 1430h680v-123h-539v-510h514v-123h-514v-674h-141v1430z" />
    <glyph glyph-name="G" unicode="G" horiz-adv-x="1479" 
d="M1155 651h-332v123h473v-711q-209 -88 -436 -88q-170 0 -305 52.5t-229.5 149.5t-144.5 233.5t-50 304.5q0 164 50 300t144 233.5t227 151.5t300 54q47 0 96.5 -3t99 -10.5t97.5 -20.5t90 -34l-16 -131q-46 25 -90 40t-88.5 23t-91 10.5t-97.5 2.5q-139 0 -247 -46
t-182 -128t-112.5 -195t-38.5 -247q0 -136 38 -249.5t111.5 -195t181.5 -127t249 -45.5q30 0 71.5 2.5t84.5 8.5t82 16t65 25v501z" />
    <glyph glyph-name="H" unicode="H" horiz-adv-x="1366" 
d="M180 1430h142v-633h722v633h142v-1430h-142v674h-722v-674h-142v1430z" />
    <glyph glyph-name="I" unicode="I" horiz-adv-x="455" 
d="M158 1430h141v-1430h-141v1430z" />
    <glyph glyph-name="J" unicode="J" horiz-adv-x="682" 
d="M512 369q0 -81 -19 -153t-59.5 -125.5t-104.5 -84.5t-153 -31q-38 0 -75 6t-72 19v125q63 -27 133 -27q60 0 100.5 22t64.5 59t34 85t10 101v1065h141v-1061z" />
    <glyph glyph-name="K" unicode="K" horiz-adv-x="1251" 
d="M195 1430h141v-642l643 642h184l-692 -674l752 -756h-195l-692 715v-715h-141v1430z" />
    <glyph glyph-name="L" unicode="L" horiz-adv-x="909" 
d="M164 1430h141v-1307h574v-123h-715v1430z" />
    <glyph glyph-name="M" unicode="M" horiz-adv-x="1821" 
d="M176 1430h219l523 -1258l524 1258h203v-1430h-142v1288h-4l-520 -1288h-121l-536 1288h-5v-1288h-141v1430z" />
    <glyph glyph-name="N" unicode="N" horiz-adv-x="1366" 
d="M158 1430h178l727 -1258h4v1258h141v-1430h-190l-715 1233h-4v-1233h-141v1430z" />
    <glyph glyph-name="O" unicode="O" horiz-adv-x="1479" 
d="M739 1331q-115 0 -210 -47.5t-158 -144.5q-61 -95 -90 -203.5t-29 -220.5q0 -115 28 -219t91 -201q65 -101 156.5 -149t211.5 -48q119 0 213 48t158 149q62 97 89.5 201t27.5 219q0 112 -28 220.5t-89 203.5q-63 97 -159.5 144.5t-211.5 47.5zM739 -25
q-165 0 -283.5 60.5t-195 163t-113 238t-36.5 284.5q0 139 36 267.5t117 242.5q42 58 95 100.5t113.5 69.5t128 40t138.5 13q159 0 277 -57.5t196.5 -156.5t117 -230t38.5 -278q0 -152 -34.5 -289.5t-110.5 -241.5t-195.5 -165t-288.5 -61z" />
    <glyph glyph-name="P" unicode="P" horiz-adv-x="1024" 
d="M317 741h99q39 0 77.5 3t77.5 8q64 8 112.5 26t80.5 50t48.5 80t16.5 116q0 137 -72.5 210t-209.5 73h-230v-566zM176 1430h352q100 0 182 -24t140 -73.5t89.5 -126t31.5 -182.5q0 -101 -36 -177t-98 -127t-145 -76.5t-178 -25.5h-197v-618h-141v1430z" />
    <glyph glyph-name="Q" unicode="Q" horiz-adv-x="1479" 
d="M739 1331q-115 0 -210 -47.5t-158 -144.5q-61 -95 -90 -203.5t-29 -220.5q0 -115 28 -219t91 -201q65 -101 156.5 -149t211.5 -48q119 0 213 48t158 149q62 97 89.5 201t27.5 219q0 112 -28 220.5t-89 203.5q-63 97 -159.5 144.5t-211.5 47.5zM1110 -266l-254 252
q-61 -11 -117 -11q-165 0 -283.5 60.5t-195 163t-113 238t-36.5 284.5q0 138 36 267.5t117 242.5q42 58 95 100.5t114 69.5t128 40t138 13q159 0 277 -57.5t196.5 -156.5t117 -230t38.5 -278q0 -111 -18 -216.5t-60.5 -198t-114 -168t-178.5 -124.5l301 -291h-188z" />
    <glyph glyph-name="R" unicode="R" 
d="M180 1430h382q91 0 166 -22t128.5 -67.5t83 -115.5t29.5 -166q0 -70 -25 -126.5t-68.5 -98.5t-101.5 -68.5t-123 -36.5v-4q45 -6 73 -19.5t47.5 -35t33.5 -51t31 -66.5l243 -553h-155l-207 483q-14 32 -30.5 64t-39 58.5t-52 44.5t-67.5 22q-13 2 -26.5 2h-27.5h-152
v-674h-142v1430zM322 797h156q62 0 124.5 13.5t112.5 44.5t81 81t31 123q0 90 -29 140t-78.5 74t-115 29t-137.5 5h-145v-510z" />
    <glyph glyph-name="S" unicode="S" horiz-adv-x="1024" 
d="M137 182q69 -48 151 -66t165 -18q70 0 128.5 18t101.5 55t67 91.5t24 128.5q0 60 -34.5 107t-84.5 84t-107 66.5t-102 53.5q-31 17 -60 36l-58 38q-43 28 -81 58.5t-66.5 66.5t-45 80t-16.5 100q0 94 39 164.5t102.5 116.5t144.5 69t166 23q73 0 142.5 -10.5t138.5 -36.5
l-23 -129q-60 30 -126.5 41.5t-133.5 11.5q-59 0 -114.5 -13t-99 -42.5t-69.5 -76.5t-26 -114q0 -45 22 -82t59.5 -69.5t86 -61.5t102 -57.5t108 -59t103 -66t87 -77t61.5 -92.5q14 -32 20 -69t6 -72q0 -93 -35 -174.5t-114 -134.5q-72 -48 -152.5 -71.5t-167.5 -23.5
q-38 0 -80.5 3.5t-85 11t-83 19t-74.5 28.5z" />
    <glyph glyph-name="T" unicode="T" horiz-adv-x="1024" 
d="M442 1307h-422v123h986v-123h-422v-1307h-142v1307z" />
    <glyph glyph-name="U" unicode="U" horiz-adv-x="1366" 
d="M1202 500q0 -91 -19.5 -171t-61.5 -144.5t-107.5 -112t-157.5 -72.5q-42 -11 -84.5 -18t-87.5 -7q-43 0 -83.5 7t-82.5 18q-91 25 -157.5 72t-109.5 111.5t-64 145t-21 171.5v930h141v-930q0 -88 24.5 -161.5t72.5 -127t118 -83.5t162 -30q93 0 163.5 29.5t118 82.5
t71.5 127t24 163v930h141v-930z" />
    <glyph glyph-name="V" unicode="V" horiz-adv-x="1251" 
d="M696 0h-151l-533 1430h150l461 -1289l477 1289h139z" />
    <glyph glyph-name="W" unicode="W" horiz-adv-x="1933" 
d="M1501 0h-168l-362 1270h-4l-369 -1270h-170l-410 1430h146l352 -1270h4l367 1270h170l360 -1270h4l359 1270h135z" />
    <glyph glyph-name="X" unicode="X" horiz-adv-x="1251" 
d="M547 752l-479 678h165l402 -578l405 578h158l-481 -678l520 -752h-172l-436 651l-453 -651h-162z" />
    <glyph glyph-name="Y" unicode="Y" horiz-adv-x="1251" 
d="M555 606l-530 824h163l437 -699l448 699h154l-531 -824v-606h-141v606z" />
    <glyph glyph-name="Z" unicode="Z" horiz-adv-x="1024" 
d="M43 123l745 1184h-727v123h877v-123l-741 -1184h766v-123h-920v123z" />
    <glyph glyph-name="bracketleft" unicode="[" horiz-adv-x="569" 
d="M141 1548h332v-98h-203v-1638h203v-99h-332v1835z" />
    <glyph glyph-name="backslash" unicode="\" horiz-adv-x="569" 
d="M633 -25h-141l-555 1479h141z" />
    <glyph glyph-name="bracketright" unicode="]" horiz-adv-x="569" 
d="M428 -287h-332v99h203v1638h-203v98h332v-1835z" />
    <glyph glyph-name="asciicircum" unicode="^" horiz-adv-x="1229" 
d="M549 1430h131l446 -887h-145l-367 745l-366 -745h-146z" />
    <glyph glyph-name="underscore" unicode="_" horiz-adv-x="1024" 
d="M1024 -154v-102h-1024v102h1024z" />
    <glyph glyph-name="grave" unicode="`" horiz-adv-x="455" 
d="M344 1171h-94l-258 295h162z" />
    <glyph glyph-name="a" unicode="a" horiz-adv-x="1024" 
d="M762 168h-4q-23 -45 -58.5 -81t-80 -61t-94 -38t-99.5 -13q-35 0 -75.5 6.5t-79.5 20t-73 35t-55 51.5q-12 17 -23 38t-19.5 44t-13.5 46t-5 44q0 60 12.5 114.5t50.5 102.5q47 58 114.5 90.5t144 48t156 18.5t150.5 3h40v66q0 129 -59 192t-189 63q-80 0 -154.5 -22
t-142.5 -64v125q74 34 154 53t161 19q93 0 161 -25.5t112 -74t65 -119.5t21 -161v-470q0 -55 1.5 -109.5t8.5 -109.5h-127v168zM750 526h-41q-47 0 -101.5 -2t-108.5 -9.5t-103.5 -23.5t-88 -44t-61.5 -70t-23 -103q0 -48 17 -83.5t46.5 -59t69 -34.5t84.5 -11q64 0 118 18
t94 52.5t64 85t29 116.5q2 26 3.5 52.5t1.5 52.5v63z" />
    <glyph glyph-name="b" unicode="b" 
d="M897 522q0 38 -2 78t-8 78q-6 37 -19.5 71.5t-31.5 67.5q-42 75 -102.5 108t-145.5 33q-59 0 -104.5 -18.5t-79.5 -51t-58 -75t-39 -91t-21.5 -100t-6.5 -100.5q0 -71 16.5 -148t53 -141t95.5 -105.5t144 -41.5q64 0 115 22.5t88.5 61.5t61.5 91t34 112q6 37 8 74.5
t2 74.5zM150 1536h129v-668h4q10 29 31 56.5t47 51t56 42t58 29.5q32 13 65.5 17.5t67.5 4.5q124 0 207 -45t132.5 -120.5t70 -174.5t20.5 -207q0 -102 -23 -200.5t-74.5 -175.5t-133.5 -124t-199 -47q-112 0 -192.5 45.5t-132.5 145.5h-4v-166h-129v1536z" />
    <glyph glyph-name="c" unicode="c" horiz-adv-x="909" 
d="M842 905q-52 24 -109 38.5t-115 14.5q-98 0 -171.5 -33.5t-122.5 -92.5t-74 -138.5t-25 -171.5q0 -84 25 -162.5t73.5 -139.5t119 -97.5t161.5 -36.5q61 0 120 12t116 35l12 -121q-63 -19 -127 -28t-130 -9q-57 0 -111 8.5t-103 28t-92.5 51.5t-79.5 78q-66 85 -95.5 180
t-29.5 201q0 117 35.5 217t102 173.5t162 115t216.5 41.5q27 0 61 -2t68 -6.5t66.5 -12.5t56.5 -20z" />
    <glyph glyph-name="d" unicode="d" 
d="M242 522q0 -35 3.5 -73.5t11 -77t19.5 -75.5t29 -67q38 -68 103.5 -105.5t142.5 -37.5q56 0 101 18.5t79 50.5t58.5 74.5t40 90.5t23 98t7.5 98q0 74 -14.5 152t-50 142.5t-95 106t-149.5 41.5q-92 0 -151.5 -39.5t-94.5 -102.5t-49 -140.5t-14 -153.5zM989 0h-129v166
h-4q-52 -100 -133.5 -145.5t-192.5 -45.5q-79 0 -141.5 22t-110 61t-81.5 91.5t-55.5 114.5t-31.5 129.5t-10 135.5q0 106 22 204t72 172.5t132.5 119t203.5 44.5q66 0 125 -18t109 -62q12 -11 26.5 -25t27.5 -29.5t23.5 -32.5t14.5 -34h4v668h129v-1536z" />
    <glyph glyph-name="e" unicode="e" horiz-adv-x="1024" 
d="M799 596q0 64 -13 129t-44 116.5t-82.5 84t-127.5 32.5q-71 0 -128 -32t-97 -83.5t-61 -116.5t-21 -130h574zM862 33q-72 -27 -148.5 -42.5t-154.5 -15.5q-126 0 -215.5 41t-147.5 113t-85 171t-27 216q0 67 11 134.5t34.5 129t59 114.5t84.5 92t111.5 61t139.5 22
q114 0 193.5 -43t129 -115t71.5 -165.5t22 -194.5v-66h-715q0 -80 21.5 -152t64 -127t107 -87.5t151.5 -32.5q32 0 71.5 6.5t79.5 17t77.5 24.5t64.5 30v-131z" />
    <glyph glyph-name="f" unicode="f" horiz-adv-x="682" 
d="M250 934h-211v110h211q0 61 1.5 120t6.5 120q5 64 21.5 115.5t48.5 87.5t80.5 55t117.5 19q30 0 62.5 -3.5t58.5 -17.5l-8 -113q-23 12 -49.5 17.5t-52.5 5.5q-55 0 -86.5 -23t-47.5 -59.5t-20 -81.5t-4 -89v-153h235v-110h-235v-934h-129v934z" />
    <glyph glyph-name="g" unicode="g" 
d="M989 86q0 -99 -24 -195.5t-84 -177.5q-32 -44 -76 -73.5t-94.5 -47.5t-104.5 -26t-106 -8q-82 0 -160 16.5t-156 38.5l11 129q69 -38 149 -56t158 -18q86 0 146 21t100 58t62.5 88t34 110.5t14.5 125.5t3 134h-4q-49 -93 -124.5 -149t-183.5 -56q-176 0 -279.5 88.5
t-145.5 255.5q-12 47 -18.5 92t-6.5 93q0 106 22 204t72 172.5t132.5 119t203.5 44.5q57 0 102 -5t82.5 -20t71.5 -43t70 -75h4v118h129v-958zM551 958q-62 0 -109 -18.5t-81.5 -50.5t-57.5 -75.5t-36.5 -92.5t-19 -102t-5.5 -104q0 -71 16 -142.5t51.5 -130t93 -95
t140.5 -36.5q77 0 143.5 33t104.5 102q35 63 52 133.5t17 142.5q0 81 -11.5 159t-45 139.5t-94 99.5t-158.5 38z" />
    <glyph glyph-name="h" unicode="h" 
d="M162 1536h129v-668h4q48 97 133 149t193 52q40 0 81 -5.5t78.5 -20t69.5 -38t55 -59.5q21 -34 35 -72.5t22 -79t11.5 -81.5t3.5 -80v-633h-129v623q0 68 -8 129t-34.5 106.5t-75.5 72.5t-130 27q-83 0 -141.5 -34.5t-95.5 -90t-54.5 -126t-17.5 -142.5v-565h-129v1536z
" />
    <glyph glyph-name="i" unicode="i" horiz-adv-x="455" 
d="M291 1323h-129v172h129v-172zM162 1044h129v-1044h-129v1044z" />
    <glyph glyph-name="j" unicode="j" horiz-adv-x="455" 
d="M291 1323h-129v172h129v-172zM-57 -319q18 -5 37.5 -9t39.5 -4q47 0 75 15t43 41t19.5 60.5t4.5 74.5v1185h129v-1199q0 -62 -11 -114.5t-38 -90.5t-72.5 -60t-114.5 -22q-27 0 -56.5 1.5t-55.5 8.5v113z" />
    <glyph glyph-name="k" unicode="k" horiz-adv-x="1024" 
d="M162 1536h129v-920l467 428h166l-510 -462l571 -582h-178l-516 537v-537h-129v1536z" />
    <glyph glyph-name="l" unicode="l" horiz-adv-x="455" 
d="M162 1536h129v-1536h-129v1536z" />
    <glyph glyph-name="m" unicode="m" horiz-adv-x="1706" 
d="M1423 0v694q0 26 -1.5 53.5t-6.5 53.5q-5 23 -15 43t-24 39q-33 46 -76 60.5t-98 14.5q-57 0 -105.5 -24t-86.5 -66q-26 -28 -43 -63t-27 -73t-14 -77.5t-4 -76.5v-578h-129v694q0 58 -10.5 106.5t-36 83.5t-68.5 54.5t-107 19.5q-57 0 -105.5 -24t-86.5 -66
q-26 -28 -43 -63t-27 -73t-14 -77.5t-4 -76.5v-578h-129v799q0 62 -2 122.5t-6 122.5h125v-176l4 -2q50 105 130 154t195 49q113 0 184.5 -54.5t92.5 -166.5h4q22 52 55.5 93t77 69.5t94.5 43.5t107 15q80 0 141.5 -25.5t103 -72t63 -111t21.5 -141.5v-719h-129z" />
    <glyph glyph-name="n" unicode="n" 
d="M162 799q0 62 -2 122.5t-6 122.5h125v-186h4q27 57 60 97t74 65.5t91 37t113 11.5q95 0 162.5 -29.5t110.5 -82.5t63 -126.5t20 -162.5v-668h-129v635q0 64 -10.5 123t-38.5 103t-76 70.5t-123 26.5q-84 0 -143 -31.5t-95.5 -84t-53.5 -121t-17 -143.5v-578h-129v799z
" />
    <glyph glyph-name="o" unicode="o" 
d="M223 522q0 -80 20 -158.5t62 -140t107.5 -99.5t156.5 -38q93 0 158.5 37.5t107 99t61 140t19.5 159.5q0 83 -19 161.5t-60 139.5t-107 98t-160 37q-93 0 -158.5 -37.5t-107 -99t-61 -140t-19.5 -159.5zM82 522q0 113 31 212.5t92 174t152 117.5t212 43q123 0 214.5 -42
t152.5 -116t91 -174t30 -215q0 -114 -30.5 -214t-91.5 -174t-152.5 -116.5t-213.5 -42.5q-109 0 -205.5 39.5t-162.5 128.5q-63 85 -91 180t-28 199z" />
    <glyph glyph-name="p" unicode="p" 
d="M897 522q0 38 -2 78t-8 78q-6 37 -19.5 71.5t-31.5 67.5q-41 75 -102.5 108t-145.5 33q-59 0 -105.5 -19.5t-80.5 -53t-57.5 -78t-38 -94.5t-21 -102t-6.5 -101q0 -46 8 -95.5t24 -96.5t41 -89t59 -74t78 -50.5t99 -18.5q64 0 115 22.5t88.5 61.5t61.5 91t34 112
q6 37 8 74.5t2 74.5zM150 1044h129l-9 -190h4q9 15 18 30.5t19 30.5q53 80 128 117t169 37q124 0 207 -45t132.5 -120.5t70 -174.5t20.5 -207q0 -102 -23 -200.5t-74.5 -175.5t-133.5 -124t-199 -47q-114 0 -196.5 48.5t-128.5 154.5h-4v-608h-129v1474z" />
    <glyph glyph-name="q" unicode="q" 
d="M242 522q0 -35 3.5 -73.5t11 -77t19.5 -75.5t29 -67q38 -68 103.5 -105.5t142.5 -37.5q56 0 101 18.5t79 50.5t58.5 74.5t40 90.5t23 98t7.5 98q0 74 -14.5 152t-50 142.5t-95 106t-149.5 41.5q-92 0 -151.5 -39.5t-94.5 -102.5t-49 -140.5t-14 -153.5zM989 -430h-129
v608h-4q-47 -106 -129.5 -154.5t-196.5 -48.5q-79 0 -141.5 22t-110 61t-81.5 92t-55.5 114.5t-31.5 129t-10 135.5q0 106 22 204t72 172.5t132.5 119t203.5 44.5q34 0 73 -4.5t71 -17.5q28 -12 55 -30t51 -40.5t43.5 -49t32.5 -53.5h4v170h129v-1474z" />
    <glyph glyph-name="r" unicode="r" horiz-adv-x="682" 
d="M162 811q0 59 -1.5 117t-6.5 116h129v-200h4q17 42 42.5 82.5t59 72t75 51t91.5 19.5q46 0 90 -12v-135q-47 12 -94 12q-53 0 -92.5 -19.5t-68.5 -52t-48 -75t-30.5 -89t-16 -94t-4.5 -88.5v-516h-129v811z" />
    <glyph glyph-name="s" unicode="s" horiz-adv-x="797" 
d="M82 152q63 -34 132 -50t140 -16q42 0 83.5 11.5t74.5 34.5t53.5 58t20.5 82q0 48 -21.5 83.5t-57 63t-80.5 49.5t-92 44t-92 46t-80.5 55.5t-57 73t-21.5 97.5q0 76 27 130t73.5 88.5t108.5 50.5t131 16q136 0 258 -47l-12 -113q-55 23 -113.5 36t-118.5 13
q-45 0 -86 -7.5t-71.5 -27t-49 -53.5t-18.5 -86q0 -30 17.5 -53.5t43 -42t54 -33t51.5 -24.5l92 -45q50 -24 94 -50.5t84 -64.5q42 -40 60 -91t18 -108q0 -76 -31.5 -132t-83 -92.5t-117 -54.5t-133.5 -18q-150 0 -292 50z" />
    <glyph glyph-name="t" unicode="t" horiz-adv-x="682" 
d="M612 934h-237v-676q0 -34 7.5 -65t24 -55t43 -38t64.5 -14q31 0 61 5.5t58 19.5l8 -107q-39 -13 -77.5 -21t-80.5 -8q-85 0 -132.5 29t-71 77.5t-28.5 111.5t-5 131v610h-205v110h205v252l129 45v-297h237v-110z" />
    <glyph glyph-name="u" unicode="u" 
d="M977 246q0 -62 1.5 -123t6.5 -123h-125v186h-4q-21 -54 -55.5 -93.5t-79 -66t-96.5 -39t-107 -12.5q-93 0 -160.5 29t-111 81.5t-64 125.5t-20.5 160v673h129v-634q0 -62 11.5 -120.5t40 -103.5t76.5 -72.5t120 -27.5q82 0 141 32t96 85t54.5 121.5t17.5 142.5v577h129
v-798z" />
    <glyph glyph-name="v" unicode="v" horiz-adv-x="909" 
d="M524 0h-151l-355 1044h142l289 -903h4l303 903h135z" />
    <glyph glyph-name="w" unicode="w" horiz-adv-x="1593" 
d="M1235 0h-156l-284 903h-4l-285 -903h-156l-336 1044h142l274 -903h4l291 903h156l276 -903h4l289 903h129z" />
    <glyph glyph-name="x" unicode="x" horiz-adv-x="909" 
d="M383 553l-332 491h160l248 -389l252 389h147l-323 -491l358 -553h-160l-274 451l-293 -451h-150z" />
    <glyph glyph-name="y" unicode="y" horiz-adv-x="909" 
d="M453 174h2l301 870h135l-418 -1200q-16 -47 -38 -97.5t-53.5 -92.5t-75 -69t-101.5 -27q-35 0 -70 4t-69 12l12 111q21 -8 47 -12.5t49 -4.5q37 0 65.5 16t50 43t36.5 60.5t26.5 69.5t20 70t16.5 61l-371 1056h142z" />
    <glyph glyph-name="z" unicode="z" horiz-adv-x="909" 
d="M66 109l628 825h-604v110h754v-110l-629 -823h629v-111h-778v109z" />
    <glyph glyph-name="braceleft" unicode="{" horiz-adv-x="569" 
d="M559 1450h-102q-30 0 -48 -21.5t-27.5 -51.5t-12 -62.5t-2.5 -54.5v-338q0 -56 -15 -113.5t-53 -99.5q-9 -11 -21.5 -23t-26 -23t-28 -19t-28.5 -11v-4q14 -1 29 -8.5t28.5 -18t25.5 -23t21 -22.5q40 -48 54 -104t14 -117v-332q0 -22 3 -54.5t12.5 -63t27 -52.5t47.5 -22
h102v-99h-115q-44 0 -80 18t-65 50q-33 38 -47 85t-14 97v348q0 40 -6 87t-23 87.5t-48.5 68t-82.5 28.5v98q51 1 82 29.5t48.5 70.5t23.5 89.5t6 86.5v344q0 48 12.5 92.5t38.5 79t65 55.5t92 21h113v-98z" />
    <glyph glyph-name="bar" unicode="|" horiz-adv-x="455" 
d="M299 1536v-2048h-141v2048h141z" />
    <glyph glyph-name="braceright" unicode="}" horiz-adv-x="569" 
d="M10 -188h103q30 0 47.5 22t27 52t12.5 62t3 54v338q0 27 4 56t12 57.5t21.5 55t31.5 46.5q9 10 21 21.5t25.5 22.5t28 19t28.5 11v4q-45 16 -77.5 47.5t-53.5 71t-31 85t-10 89.5v331q0 22 -2.5 55t-12 63.5t-27.5 52.5t-48 22h-103v98h115q54 0 93.5 -21t64.5 -55.5
t37 -79.5t12 -94v-348q0 -39 6.5 -85.5t24 -87.5t48.5 -68.5t81 -28.5v-98q-51 -1 -82 -29.5t-48.5 -70.5t-23.5 -90t-6 -87v-344q0 -48 -13 -93t-39 -79.5t-65 -55t-92 -20.5h-113v99z" />
    <glyph glyph-name="asciitilde" unicode="~" horiz-adv-x="1229" 
d="M1087 559q-18 -38 -43.5 -71.5t-58.5 -59t-72 -40.5t-82 -15q-39 0 -77 11t-75 27.5t-73.5 36t-72 36t-70.5 27.5t-68 11q-32 0 -58.5 -14.5t-48.5 -36t-40 -48t-33 -50.5l-74 104q19 39 44.5 73t57 59.5t70 40t84.5 14.5q58 0 118.5 -23.5t117.5 -51.5t108.5 -51.5
t92.5 -23.5q30 0 57 14.5t50 36.5t41 48.5t32 50.5z" />
    <glyph glyph-name="exclamdown" unicode="&#xa1;" horiz-adv-x="797" 
d="M481 872h-166v172h166v-172zM340 698h117l24 -1083h-166z" />
    <glyph glyph-name="cent" unicode="&#xa2;" 
d="M930 1204l-51 -151q23 -5 46.5 -11t45.5 -14l-10 -123q-28 14 -57.5 23.5t-59.5 15.5l-275 -823q73 -35 154 -35q61 0 119.5 12t115.5 35l13 -121q-63 -20 -127.5 -28.5t-130.5 -8.5q-48 0 -93 6.5t-90 22.5l-63 -190h-96l75 225q-65 38 -111 91t-75 116t-43 133.5
t-14 142.5q0 117 35.5 217t102 173.5t162 115t216.5 41.5q17 0 34.5 -1t34.5 -3l46 139h96zM752 956q-10 2 -15 2q-98 0 -171.5 -33.5t-122.5 -92.5t-74 -138.5t-25 -171.5q0 -102 34 -192.5t111 -159.5z" />
    <glyph glyph-name="sterling" unicode="&#xa3;" 
d="M137 123h211v588h-186v110h186q0 51 1 99.5t5 99.5q3 47 15.5 93.5t29.5 90.5q27 67 66 113t89.5 74t111.5 40.5t131 12.5q23 0 54 -2t63.5 -7t62 -13t49.5 -21l-20 -127q-20 14 -46 23t-54.5 14.5t-56.5 7.5t-52 2q-96 0 -156.5 -33.5t-94 -90.5t-45.5 -131.5
t-12 -156.5v-88h340v-110h-340v-588h504v-123h-856v123z" />
    <glyph glyph-name="currency" unicode="&#xa4;" 
d="M565 330q82 0 150.5 30t117.5 81.5t76 122t27 151.5q0 79 -26.5 149.5t-75 122.5t-116 82.5t-149.5 30.5q-36 0 -72 -9t-70 -24.5t-64 -37.5t-54 -48q-51 -56 -78.5 -123t-27.5 -143q0 -79 26 -149t73 -122.5t114 -83t149 -30.5zM172 401q-111 138 -111 314q0 87 27 165
t84 144l-117 113l88 92l117 -115q67 52 145.5 80.5t163.5 28.5q86 0 165.5 -27.5t146.5 -81.5l110 115l92 -92l-110 -113q104 -136 104 -309q0 -175 -104 -314l110 -112l-92 -88l-110 114q-67 -57 -145.5 -82.5t-166.5 -25.5q-87 0 -164.5 26t-144.5 82l-117 -114l-88 88z
" />
    <glyph glyph-name="yen" unicode="&#xa5;" 
d="M500 358h-295v99h295v153l-6 13h-289v98h233l-399 709h156l374 -691l385 691h146l-398 -709h234v-98h-289l-6 -13v-153h295v-99h-295v-358h-141v358z" />
    <glyph glyph-name="brokenbar" unicode="&#xa6;" horiz-adv-x="455" 
d="M299 358v-716h-141v716h141zM299 1382v-716h-141v716h141z" />
    <glyph glyph-name="section" unicode="&#xa7;" 
d="M817 580q0 60 -26.5 101t-77.5 69q-17 10 -35.5 17t-36.5 15l-178 84q-29 -17 -54.5 -41t-44.5 -52.5t-29.5 -61.5t-10.5 -68q0 -30 11.5 -55t30 -45.5t42.5 -36.5t49 -27l239 -104q24 24 46 45t38.5 44t26.5 50.5t10 65.5zM848 1290q-23 14 -54 24t-64 16.5t-66 9.5
t-60 3q-33 0 -66 -5t-64 -15.5t-58.5 -28.5t-48.5 -43q-17 -20 -24 -38t-7 -44q0 -50 26.5 -86t69.5 -64t98 -51t113 -46.5t113 -51t98 -64t69.5 -86t26.5 -116.5q0 -45 -12 -83t-33 -72t-49 -64t-59 -59q35 -17 64 -42.5t50 -56.5t33 -67.5t12 -75.5q0 -66 -22.5 -118
t-62 -91t-92.5 -65t-113 -39q-31 -7 -62 -12t-63 -5q-89 0 -175.5 14.5t-170.5 43.5l14 120q79 -34 162.5 -50.5t169.5 -16.5q48 0 97 13t88.5 39.5t64 67t24.5 95.5q0 22 -5.5 44t-18.5 40q-18 25 -55 48t-79.5 42.5t-84.5 34.5t-72 26q-60 21 -113.5 50t-103.5 67
q-101 77 -101 203q0 48 16 86.5t41.5 72t58 63t64.5 58.5q-33 21 -63 44t-53 50.5t-37 61t-14 76.5q0 74 31 137.5t96 101.5q56 32 117 50t126 18q75 0 150.5 -10t146.5 -35z" />
    <glyph glyph-name="dieresis" unicode="&#xa8;" horiz-adv-x="455" 
d="M-25 1409h154v-172h-154v172zM326 1409h153v-172h-153v172z" />
    <glyph glyph-name="copyright" unicode="&#xa9;" horiz-adv-x="1638" 
d="M80 715q0 102 26.5 196.5t74 176.5t115 149.5t149.5 115.5t176.5 74.5t197.5 26.5t198.5 -26t177.5 -73.5t149 -114.5t115 -149.5t74 -177.5t26 -198q0 -102 -26.5 -196.5t-74.5 -177t-116 -150t-150 -115.5t-176.5 -74.5t-196.5 -26.5q-101 0 -195 27t-176.5 75.5
t-150 116t-116 150t-75 176.5t-26.5 195zM1210 573q-17 -71 -47.5 -129.5t-75.5 -100.5t-105 -65.5t-136 -23.5q-99 0 -180.5 35.5t-140 98t-90.5 146.5t-32 181q0 100 29.5 184.5t86 146.5t137.5 97t184 35q75 0 137.5 -20.5t110 -59.5t78 -97t42.5 -133h-123
q-19 96 -82.5 147.5t-160.5 51.5q-77 0 -133 -28.5t-92.5 -76.5t-54 -111.5t-17.5 -133.5q0 -66 20 -129.5t58 -113t94.5 -79.5t128.5 -30q98 0 160 56.5t79 151.5h125zM221 715q0 -129 44 -243.5t123 -200t189.5 -135.5t243.5 -50t243 50t188.5 135.5t121.5 200t43 243.5
t-43 243.5t-121.5 200t-188.5 135t-243 49.5q-134 0 -244 -49.5t-189.5 -135t-123 -199.5t-43.5 -244z" />
    <glyph glyph-name="ordfeminine" unicode="&#xaa;" horiz-adv-x="666" 
d="M496 909h-4q-12 -29 -35 -50.5t-51.5 -35.5t-59.5 -21t-61 -7q-45 0 -87.5 8.5t-75.5 29.5t-53 56t-20 88q0 59 20.5 99t55 65.5t79.5 39t93.5 19.5t97.5 7t92 1v37t-2 37q-2 14 -6 22t-12 19q-23 32 -55 38.5t-70 6.5q-106 0 -201 -49v94q51 20 105 30.5t108 10.5
q118 0 178 -57.5t60 -175.5v-277q0 -34 1 -67t5 -66h-102v98zM487 1122h-56.5t-70.5 -3.5t-74 -11t-66 -22t-47.5 -37.5t-18.5 -57q0 -33 13.5 -54t35 -33.5t48.5 -17.5t54 -5q25 0 48.5 3t44.5 11.5t39 23.5t30 39q8 15 14 34t6 36v94z" />
    <glyph glyph-name="guillemotleft" unicode="&#xab;" 
d="M680 551l272 -420h-121l-286 420l286 420h121zM322 551l272 -420h-121l-287 420l287 420h121z" />
    <glyph glyph-name="logicalnot" unicode="&#xac;" horiz-adv-x="1229" 
d="M94 795h1039v-562h-142v420h-897v142z" />
    <glyph glyph-name="registered" unicode="&#xae;" horiz-adv-x="1638" 
d="M678 776h176q36 0 67.5 5.5t54 20.5t35.5 41.5t13 67.5q0 40 -15.5 65t-40.5 38.5t-57 18.5t-65 5h-168v-262zM537 1149h331q63 0 117 -12t94 -40.5t63 -75t23 -116.5q0 -51 -15 -94.5t-43.5 -76t-70 -50.5t-94.5 -18l246 -383h-150l-241 383h-119v-383h-141v866z
M221 715q0 -129 44 -243.5t123 -200t189.5 -135.5t243.5 -50t243 50t188.5 135.5t121.5 200t43 243.5t-43 243.5t-121.5 200t-188.5 135t-243 49.5q-134 0 -244 -49.5t-189.5 -135t-123 -199.5t-43.5 -244zM80 715q0 102 26.5 196.5t74 176.5t115 149.5t149.5 115.5
t176.5 74.5t197.5 26.5t198.5 -26t177.5 -73.5t149 -114.5t115 -149.5t74 -177.5t26 -198q0 -102 -26.5 -196.5t-74.5 -177t-116 -150t-150 -115.5t-176.5 -74.5t-196.5 -26.5q-101 0 -195 27t-176.5 75.5t-150 116t-116 150t-75 176.5t-26.5 195z" />
    <glyph glyph-name="macron" unicode="&#xaf;" horiz-adv-x="455" 
d="M-23 1368h500v-111h-500v111z" />
    <glyph glyph-name="degree" unicode="&#xb0;" horiz-adv-x="819" 
d="M410 1444q67 0 126 -21.5t102.5 -61.5t69 -96.5t25.5 -125.5q0 -68 -25.5 -124.5t-69.5 -96.5t-103 -62t-125 -22q-65 0 -123.5 22.5t-103 63t-71 96.5t-26.5 123q0 68 26 124t70.5 96.5t103 62.5t124.5 22zM410 1346q-47 0 -87.5 -14t-70 -40.5t-46 -65t-16.5 -87.5
q0 -43 19 -81t49.5 -66t70 -44t81.5 -16q43 0 82.5 15.5t70 43.5t48.5 66t18 82q0 49 -16.5 88t-45.5 65t-69 40t-88 14z" />
    <glyph glyph-name="plusminus" unicode="&#xb1;" horiz-adv-x="1229" 
d="M94 141h1039v-141h-1039v141zM94 692h449v346h141v-346h449v-141h-449v-346h-141v346h-449v141z" />
    <glyph glyph-name="twosuperior" unicode="&#xb2;" horiz-adv-x="739" 
d="M92 666l217 194q31 28 69 68.5t70 86t54 93.5t22 92q0 73 -45 109.5t-114 36.5q-58 0 -115.5 -17t-108.5 -45l-16 102q56 27 116.5 42.5t123.5 15.5q60 0 110.5 -13t87 -41.5t57.5 -73.5t21 -110q0 -63 -21 -117t-59 -102q-70 -87 -150.5 -160t-164.5 -147h403v-98h-557
v84z" />
    <glyph glyph-name="threesuperior" unicode="&#xb3;" horiz-adv-x="739" 
d="M203 1073q26 0 60.5 0.5t71.5 4.5t73.5 13t65 25t46 41.5t17.5 63.5q0 40 -19 64.5t-48 38t-64 18t-66 4.5q-57 0 -112.5 -12t-106.5 -36l-8 107q27 12 57.5 19.5t62 12t63 6t60.5 1.5q52 0 105 -10.5t95.5 -35t69.5 -66t27 -103.5q0 -43 -16 -76.5t-43 -58.5t-62 -41.5
t-73 -24.5v-4q97 -6 147.5 -61t50.5 -152q0 -69 -34 -115.5t-86 -75t-114 -41t-119 -12.5q-60 0 -118.5 8t-115.5 27l10 107q57 -21 117 -32t121 -11q37 0 77 8.5t72 28t53 50.5t21 76q0 102 -103 127q-40 10 -82.5 14.5t-84.5 4.5h-68v98z" />
    <glyph glyph-name="acute" unicode="&#xb4;" horiz-adv-x="455" 
d="M299 1466h162l-258 -295h-94z" />
    <glyph glyph-name="uni00B5" unicode="&#xb5;" 
d="M162 1044h129v-634q0 -62 11.5 -120.5t40 -103.5t76.5 -72.5t120 -27.5q82 0 141 32t96 85t54.5 121.5t17.5 142.5v577h129v-798q0 -62 1.5 -123t6.5 -123h-125v186h-4q-21 -54 -55.5 -93.5t-78.5 -66t-96 -39t-108 -12.5q-60 0 -117 15.5t-110 44.5v-465h-129v1474z" />
    <glyph glyph-name="paragraph" unicode="&#xb6;" horiz-adv-x="1229" 
d="M524 655q-83 1 -159.5 27.5t-136 75.5t-95 119.5t-35.5 158.5q0 109 35.5 184.5t98.5 122t148.5 67t184.5 20.5h492v-1651h-129v1540h-275v-1540h-129v876z" />
    <glyph glyph-name="periodcentered" unicode="&#xb7;" horiz-adv-x="569" 
d="M188 637q0 42 28 70t71 28q42 0 69 -28t27 -70t-27 -69t-69 -27t-70.5 27t-28.5 69z" />
    <glyph glyph-name="cedilla" unicode="&#xb8;" horiz-adv-x="455" 
d="M213 0h55l-39 -111q31 7 68 7q31 0 58.5 -8.5t47.5 -25t31.5 -42t11.5 -58.5q0 -44 -22 -71.5t-55.5 -43t-73 -21t-74.5 -5.5q-54 0 -105 15.5t-102 29.5l15 76q38 -23 87.5 -41t94.5 -18q18 0 37 3.5t34.5 12t25 23t9.5 36.5q0 76 -77 76q-22 0 -43.5 -2t-42.5 -6z" />
    <glyph glyph-name="onesuperior" unicode="&#xb9;" horiz-adv-x="739" 
d="M475 582h-117v749l-155 -119l-45 68l211 164h106v-862z" />
    <glyph glyph-name="ordmasculine" unicode="&#xba;" horiz-adv-x="739" 
d="M152 1122q0 -50 14.5 -94t42 -76.5t68.5 -51.5t94 -19q54 0 94.5 18.5t68 51t41 76.5t13.5 95q0 49 -14 93.5t-41.5 78.5t-68 54t-93.5 20q-52 0 -92.5 -20.5t-68.5 -54.5t-43 -78.5t-15 -92.5zM47 1122q0 76 22 137.5t63.5 104.5t101.5 66.5t137 23.5q79 0 139 -23
t100.5 -66t61 -104.5t20.5 -138.5q0 -73 -22.5 -133t-64.5 -103t-101.5 -67t-132.5 -24q-75 0 -135 23.5t-102 66t-64.5 103t-22.5 134.5z" />
    <glyph glyph-name="guillemotright" unicode="&#xbb;" 
d="M459 551l-273 420h121l287 -420l-287 -420h-121zM817 551l-272 420h121l286 -420l-286 -420h-121z" />
    <glyph glyph-name="onequarter" unicode="&#xbc;" horiz-adv-x="1708" 
d="M883 287l426 575h139v-577h115v-99h-115v-186h-117v186h-448v101zM1331 721h-4l-328 -436h332v436zM463 582h-117v749l-156 -119l-45 68l211 164h107v-862zM1174 1475h116l-907 -1520h-117z" />
    <glyph glyph-name="onehalf" unicode="&#xbd;" horiz-adv-x="1708" 
d="M1030 84l217 195q31 28 69 68t70 85.5t54 93.5t22 92q0 73 -45 109.5t-114 36.5q-59 0 -116 -16.5t-108 -45.5l-16 103q56 27 116.5 42t123.5 15q60 0 110.5 -12.5t87 -41t57.5 -73.5t21 -110q0 -63 -21 -117t-59 -102q-70 -88 -150 -161t-165 -147h403v-98h-557v84z
M438 582h-116v749l-156 -119l-45 68l211 164h106v-862zM1147 1475h117l-908 -1520h-116z" />
    <glyph glyph-name="threequarters" unicode="&#xbe;" horiz-adv-x="1708" 
d="M242 1073q26 0 61 0.5t72 4.5t72.5 12.5t64 25t46 42t17.5 63.5q0 40 -18.5 64.5t-47.5 38t-63.5 18t-66.5 4.5q-57 0 -112.5 -12t-106.5 -36l-8 107q54 23 119 31t124 8q52 0 105 -10.5t95.5 -35t69.5 -66t27 -103.5q0 -43 -16 -76.5t-43 -58.5t-62 -41.5t-73 -24.5v-4
q97 -6 147.5 -61t50.5 -152q0 -69 -34 -115.5t-86 -75t-114 -41t-119 -12.5q-60 0 -118.5 8t-115.5 27l10 107q57 -21 117 -32t121 -11q37 0 77 8.5t72 28t53 50.5t21 76q0 102 -103 127q-40 10 -82.5 14.5t-84.5 4.5h-68v98zM922 287l426 575h139v-577h115v-99h-115v-186
h-117v186h-448v101zM1370 721h-4l-328 -436h332v436zM1331 1475h119l-907 -1520h-119z" />
    <glyph glyph-name="questiondown" unicode="&#xbf;" horiz-adv-x="1024" 
d="M651 872h-166v172h166v-172zM848 -358q-72 -24 -147.5 -38t-151.5 -14q-85 0 -157 24.5t-124.5 71t-82 115t-29.5 156.5q0 62 14 111t37 90.5t53.5 77.5t63.5 72t66 74.5t63 84.5q34 53 44 111t9 120h129q1 -64 -9 -127t-42 -120q-26 -45 -57.5 -83t-63.5 -73.5
t-61.5 -70.5t-53 -75t-37.5 -86.5t-14 -105.5q0 -55 20 -100t55 -77t82 -49.5t101 -17.5q74 0 146 17t141 41z" />
    <glyph glyph-name="Agrave" unicode="&#xc0;" horiz-adv-x="1366" 
d="M371 506h620l-309 788zM612 1430h160l567 -1430h-147l-154 383h-721l-153 -383h-137zM813 1486h-94l-258 295h162z" />
    <glyph glyph-name="Aacute" unicode="&#xc1;" horiz-adv-x="1366" 
d="M371 506h620l-309 788zM612 1430h160l567 -1430h-147l-154 383h-721l-153 -383h-137zM772 1781h162l-258 -295h-94z" />
    <glyph glyph-name="Acircumflex" unicode="&#xc2;" horiz-adv-x="1366" 
d="M371 506h620l-309 788zM612 1430h160l567 -1430h-147l-154 383h-721l-153 -383h-137zM612 1781h168l191 -295h-94l-181 209l-180 -209h-94z" />
    <glyph glyph-name="Atilde" unicode="&#xc3;" horiz-adv-x="1366" 
d="M371 506h620l-309 788zM612 1430h160l567 -1430h-147l-154 383h-721l-153 -383h-137zM414 1534q7 31 20 64t32.5 59.5t47.5 43.5t66 17q31 0 63.5 -7t61.5 -18l20 -7.5t24.5 -8.5t24.5 -7t21 -3q35 0 62 17.5t38 51.5h76q-3 -19 -8.5 -39.5t-14 -40.5t-21 -37t-28.5 -28
q-20 -14 -44 -24.5t-49 -10.5q-68 0 -132 27q-20 8 -47 16t-49 8q-39 0 -58 -19.5t-33 -53.5h-73z" />
    <glyph glyph-name="Adieresis" unicode="&#xc4;" horiz-adv-x="1366" 
d="M371 506h620l-309 788zM612 1430h160l567 -1430h-147l-154 383h-721l-153 -383h-137zM444 1724h154v-172h-154v172zM795 1724h153v-172h-153v172z" />
    <glyph glyph-name="Aring" unicode="&#xc5;" horiz-adv-x="1366" 
d="M371 506h620l-309 788zM612 1430h160l567 -1430h-147l-154 383h-721l-153 -383h-137zM575 1671q0 -25 10 -47t27 -38.5t39 -26t47 -9.5t47.5 9t39.5 25.5t26.5 38.5t9.5 48q0 54 -34.5 87.5t-88.5 33.5q-53 0 -88 -34t-35 -87zM502 1671q0 42 15 77.5t41.5 61.5t62 41
t77.5 15t78 -14.5t62.5 -40.5t41.5 -62t15 -78t-15 -77.5t-41.5 -61.5t-62.5 -40.5t-78 -14.5q-41 0 -76.5 15t-62 41t-42 61.5t-15.5 76.5z" />
    <glyph glyph-name="AE" unicode="&#xc6;" horiz-adv-x="1821" 
d="M893 1430h780v-123h-555v-510h527v-123h-527v-551h580v-123h-719v383h-586l-237 -383h-156zM977 1319h-4l-504 -813h508v813z" />
    <glyph glyph-name="Ccedilla" unicode="&#xc7;" horiz-adv-x="1366" 
d="M1157 1270q-76 40 -155.5 50.5t-163.5 10.5q-139 0 -247 -46t-182 -128t-112.5 -195t-38.5 -247q0 -136 38 -249.5t111.5 -195t181.5 -127t249 -45.5q36 0 78.5 3t85.5 10.5t83 19.5t72 29l8 -123q-33 -17 -74 -29t-85 -19.5t-87.5 -10.5t-80.5 -3q-8 0 -14.5 0.5
t-14.5 1.5l-31 -88q31 7 68 7q31 0 58.5 -8.5t47.5 -25t31.5 -42t11.5 -58.5q0 -44 -22 -71.5t-55.5 -43t-73 -21t-74.5 -5.5q-54 0 -105 15.5t-102 29.5l15 76q39 -23 87.5 -41t94.5 -18q18 0 37 3.5t34 12t25 23t10 36.5q0 38 -20 57t-58 19q-22 0 -43.5 -2t-42.5 -6
l52 156q-154 15 -273 74.5t-200 155.5t-122.5 223.5t-41.5 279.5q0 165 50 301t143.5 233.5t227 151t300.5 53.5q36 0 79.5 -2t88 -7.5t86 -16t73.5 -27.5z" />
    <glyph glyph-name="Egrave" unicode="&#xc8;" horiz-adv-x="1024" 
d="M176 1430h701v-123h-560v-510h531v-123h-531v-551h584v-123h-725v1430zM631 1486h-94l-258 295h162z" />
    <glyph glyph-name="Eacute" unicode="&#xc9;" horiz-adv-x="1024" 
d="M176 1430h701v-123h-560v-510h531v-123h-531v-551h584v-123h-725v1430zM590 1781h162l-258 -295h-94z" />
    <glyph glyph-name="Ecircumflex" unicode="&#xca;" horiz-adv-x="1024" 
d="M176 1430h701v-123h-560v-510h531v-123h-531v-551h584v-123h-725v1430zM428 1781h168l191 -295h-94l-181 209l-180 -209h-94z" />
    <glyph glyph-name="Edieresis" unicode="&#xcb;" horiz-adv-x="1024" 
d="M176 1430h701v-123h-560v-510h531v-123h-531v-551h584v-123h-725v1430zM264 1724h154v-172h-154v172zM615 1724h153v-172h-153v172z" />
    <glyph glyph-name="Igrave" unicode="&#xcc;" horiz-adv-x="455" 
d="M158 1430h141v-1430h-141v1430zM343 1486h-94l-258 295h162z" />
    <glyph glyph-name="Iacute" unicode="&#xcd;" horiz-adv-x="455" 
d="M158 1430h141v-1430h-141v1430zM299 1781h162l-258 -295h-94z" />
    <glyph glyph-name="Icircumflex" unicode="&#xce;" horiz-adv-x="455" 
d="M158 1430h141v-1430h-141v1430zM140 1781h168l191 -295h-94l-181 209l-180 -209h-94z" />
    <glyph glyph-name="Idieresis" unicode="&#xcf;" horiz-adv-x="455" 
d="M158 1430h141v-1430h-141v1430zM-25 1724h154v-172h-154v172zM326 1724h153v-172h-153v172z" />
    <glyph glyph-name="Eth" unicode="&#xd0;" horiz-adv-x="1366" 
d="M305 797h436v-123h-436v-551h145q107 0 205 19.5t178 65t139.5 120.5t90.5 186q14 51 21.5 104.5t7.5 106.5q0 64 -8.5 130t-29.5 127.5t-57.5 114.5t-93.5 91q-53 35 -114 58t-125 36.5t-129.5 19t-127.5 5.5h-102v-510zM164 1430h268q127 0 248 -21t222.5 -73.5
t178 -140.5t116.5 -221q18 -62 27 -127.5t9 -129.5q0 -78 -12 -156t-39 -149.5t-71.5 -134t-109.5 -111.5q-63 -47 -134 -78.5t-146 -51t-152.5 -28t-154.5 -8.5h-250v674h-141v123h141v633z" />
    <glyph glyph-name="Ntilde" unicode="&#xd1;" horiz-adv-x="1366" 
d="M158 1430h178l727 -1258h4v1258h141v-1430h-190l-715 1233h-4v-1233h-141v1430zM410 1534q7 31 20 64t32.5 59.5t47.5 43.5t66 17q31 0 63.5 -7t61.5 -18l20 -7.5t24.5 -8.5t24.5 -7t21 -3q35 0 62 17.5t38 51.5h76q-3 -19 -8.5 -39.5t-14 -40.5t-21 -37t-28.5 -28
q-20 -14 -44 -24.5t-49 -10.5q-68 0 -132 27q-20 8 -47 16t-49 8q-39 0 -58 -19.5t-33 -53.5h-73z" />
    <glyph glyph-name="Ograve" unicode="&#xd2;" horiz-adv-x="1479" 
d="M739 1331q-115 0 -210 -47.5t-158 -144.5q-61 -95 -90 -203.5t-29 -220.5q0 -115 28 -219t91 -201q65 -101 156.5 -149t211.5 -48q119 0 213 48t158 149q62 97 89.5 201t27.5 219q0 112 -28 220.5t-89 203.5q-63 97 -159.5 144.5t-211.5 47.5zM739 -25
q-165 0 -283.5 60.5t-195 163t-113 238t-36.5 284.5q0 139 36 267.5t117 242.5q42 58 95 100.5t113.5 69.5t128 40t138.5 13q159 0 277 -57.5t196.5 -156.5t117 -230t38.5 -278q0 -152 -34.5 -289.5t-110.5 -241.5t-195.5 -165t-288.5 -61zM866 1486h-94l-258 295h162z" />
    <glyph glyph-name="Oacute" unicode="&#xd3;" horiz-adv-x="1479" 
d="M739 1331q-115 0 -210 -47.5t-158 -144.5q-61 -95 -90 -203.5t-29 -220.5q0 -115 28 -219t91 -201q65 -101 156.5 -149t211.5 -48q119 0 213 48t158 149q62 97 89.5 201t27.5 219q0 112 -28 220.5t-89 203.5q-63 97 -159.5 144.5t-211.5 47.5zM739 -25
q-165 0 -283.5 60.5t-195 163t-113 238t-36.5 284.5q0 139 36 267.5t117 242.5q42 58 95 100.5t113.5 69.5t128 40t138.5 13q159 0 277 -57.5t196.5 -156.5t117 -230t38.5 -278q0 -152 -34.5 -289.5t-110.5 -241.5t-195.5 -165t-288.5 -61zM825 1781h162l-258 -295h-94z" />
    <glyph glyph-name="Ocircumflex" unicode="&#xd4;" horiz-adv-x="1479" 
d="M739 1331q-115 0 -210 -47.5t-158 -144.5q-61 -95 -90 -203.5t-29 -220.5q0 -115 28 -219t91 -201q65 -101 156.5 -149t211.5 -48q119 0 213 48t158 149q62 97 89.5 201t27.5 219q0 112 -28 220.5t-89 203.5q-63 97 -159.5 144.5t-211.5 47.5zM739 -25
q-165 0 -283.5 60.5t-195 163t-113 238t-36.5 284.5q0 139 36 267.5t117 242.5q42 58 95 100.5t113.5 69.5t128 40t138.5 13q159 0 277 -57.5t196.5 -156.5t117 -230t38.5 -278q0 -152 -34.5 -289.5t-110.5 -241.5t-195.5 -165t-288.5 -61zM663 1781h168l191 -295h-94
l-181 209l-180 -209h-94z" />
    <glyph glyph-name="Otilde" unicode="&#xd5;" horiz-adv-x="1479" 
d="M739 1331q-115 0 -210 -47.5t-158 -144.5q-61 -95 -90 -203.5t-29 -220.5q0 -115 28 -219t91 -201q65 -101 156.5 -149t211.5 -48q119 0 213 48t158 149q62 97 89.5 201t27.5 219q0 112 -28 220.5t-89 203.5q-63 97 -159.5 144.5t-211.5 47.5zM739 -25
q-165 0 -283.5 60.5t-195 163t-113 238t-36.5 284.5q0 139 36 267.5t117 242.5q42 58 95 100.5t113.5 69.5t128 40t138.5 13q159 0 277 -57.5t196.5 -156.5t117 -230t38.5 -278q0 -152 -34.5 -289.5t-110.5 -241.5t-195.5 -165t-288.5 -61zM465 1534q7 31 20 64t32.5 59.5
t47.5 43.5t66 17q31 0 63.5 -7t61.5 -18l20 -7.5t24.5 -8.5t24.5 -7t21 -3q35 0 62 17.5t38 51.5h76q-3 -19 -8.5 -39.5t-14 -40.5t-21 -37t-28.5 -28q-20 -14 -44 -24.5t-49 -10.5q-68 0 -132 27q-20 8 -47 16t-49 8q-39 0 -58 -19.5t-33 -53.5h-73z" />
    <glyph glyph-name="Odieresis" unicode="&#xd6;" horiz-adv-x="1479" 
d="M739 1331q-115 0 -210 -47.5t-158 -144.5q-61 -95 -90 -203.5t-29 -220.5q0 -115 28 -219t91 -201q65 -101 156.5 -149t211.5 -48q119 0 213 48t158 149q62 97 89.5 201t27.5 219q0 112 -28 220.5t-89 203.5q-63 97 -159.5 144.5t-211.5 47.5zM739 -25
q-165 0 -283.5 60.5t-195 163t-113 238t-36.5 284.5q0 139 36 267.5t117 242.5q42 58 95 100.5t113.5 69.5t128 40t138.5 13q159 0 277 -57.5t196.5 -156.5t117 -230t38.5 -278q0 -152 -34.5 -289.5t-110.5 -241.5t-195.5 -165t-288.5 -61zM497 1724h154v-172h-154v172z
M848 1724h153v-172h-153v172z" />
    <glyph glyph-name="multiply" unicode="&#xd7;" horiz-adv-x="1229" 
d="M145 895l101 100l370 -370l367 370l102 -100l-368 -369l368 -370l-102 -103l-367 373l-370 -373l-101 103l371 370z" />
    <glyph glyph-name="Oslash" unicode="&#xd8;" horiz-adv-x="1479" 
d="M1419 1421l-186 -215q72 -106 103.5 -225.5t31.5 -247.5q0 -101 -15 -197t-47.5 -180t-82.5 -154t-119.5 -120.5t-160.5 -78.5t-204 -28q-62 0 -121.5 9.5t-115 29.5t-105.5 52.5t-92 78.5l-166 -190l-80 68l181 206q-35 54 -59.5 113.5t-40 122.5t-22.5 128t-7 128
q0 139 36 267.5t117 242.5q42 58 95 100.5t113.5 69.5t128 40t138.5 13q120 0 230.5 -38.5t193.5 -127.5l176 201zM401 254q62 -80 150 -118t188 -38q119 0 213 48t158 149q62 97 89.5 201t27.5 219q0 100 -22.5 195t-69.5 184zM1071 1182q-62 75 -148.5 112t-183.5 37
q-115 0 -210 -47.5t-158 -144.5q-61 -96 -90 -203.5t-29 -220.5q0 -97 21 -190t67 -179z" />
    <glyph glyph-name="Ugrave" unicode="&#xd9;" horiz-adv-x="1366" 
d="M1202 500q0 -91 -19.5 -171t-61.5 -144.5t-107.5 -112t-157.5 -72.5q-42 -11 -84.5 -18t-87.5 -7q-43 0 -83.5 7t-82.5 18q-91 25 -157.5 72t-109.5 111.5t-64 145t-21 171.5v930h141v-930q0 -88 24.5 -161.5t72.5 -127t118 -83.5t162 -30q93 0 163.5 29.5t118 82.5
t71.5 127t24 163v930h141v-930zM811 1486h-94l-258 295h162z" />
    <glyph glyph-name="Uacute" unicode="&#xda;" horiz-adv-x="1366" 
d="M1202 500q0 -91 -19.5 -171t-61.5 -144.5t-107.5 -112t-157.5 -72.5q-42 -11 -84.5 -18t-87.5 -7q-43 0 -83.5 7t-82.5 18q-91 25 -157.5 72t-109.5 111.5t-64 145t-21 171.5v930h141v-930q0 -88 24.5 -161.5t72.5 -127t118 -83.5t162 -30q93 0 163.5 29.5t118 82.5
t71.5 127t24 163v930h141v-930zM768 1781h162l-258 -295h-94z" />
    <glyph glyph-name="Ucircumflex" unicode="&#xdb;" horiz-adv-x="1366" 
d="M1202 500q0 -91 -19.5 -171t-61.5 -144.5t-107.5 -112t-157.5 -72.5q-42 -11 -84.5 -18t-87.5 -7q-43 0 -83.5 7t-82.5 18q-91 25 -157.5 72t-109.5 111.5t-64 145t-21 171.5v930h141v-930q0 -88 24.5 -161.5t72.5 -127t118 -83.5t162 -30q93 0 163.5 29.5t118 82.5
t71.5 127t24 163v930h141v-930zM608 1781h168l191 -295h-94l-181 209l-180 -209h-94z" />
    <glyph glyph-name="Udieresis" unicode="&#xdc;" horiz-adv-x="1366" 
d="M1202 500q0 -91 -19.5 -171t-61.5 -144.5t-107.5 -112t-157.5 -72.5q-42 -11 -84.5 -18t-87.5 -7q-43 0 -83.5 7t-82.5 18q-91 25 -157.5 72t-109.5 111.5t-64 145t-21 171.5v930h141v-930q0 -88 24.5 -161.5t72.5 -127t118 -83.5t162 -30q93 0 163.5 29.5t118 82.5
t71.5 127t24 163v930h141v-930zM440 1724h154v-172h-154v172zM791 1724h153v-172h-153v172z" />
    <glyph glyph-name="Yacute" unicode="&#xdd;" horiz-adv-x="1251" 
d="M555 606l-530 824h163l437 -699l448 699h154l-531 -824v-606h-141v606zM713 1781h162l-258 -295h-94z" />
    <glyph glyph-name="Thorn" unicode="&#xde;" horiz-adv-x="1024" 
d="M317 475h99q39 0 78 2.5t77 7.5q64 9 112.5 27t80.5 50t48.5 80t16.5 116q0 137 -72.5 209.5t-209.5 72.5h-230v-565zM176 1430h141v-267h211q100 0 181.5 -24t139.5 -73.5t90 -126t32 -181.5q0 -101 -36 -177t-98 -127t-145 -76.5t-178 -25.5h-197v-352h-141v1430z" />
    <glyph glyph-name="germandbls" unicode="&#xdf;" 
d="M162 1110q0 100 24.5 183t74.5 142.5t127.5 92.5t182.5 33q90 0 161.5 -25.5t122 -74.5t77 -119.5t26.5 -161.5q0 -140 -68.5 -231.5t-205.5 -125.5v-4q169 -20 260.5 -113t91.5 -266q0 -101 -31 -184.5t-89 -143.5t-140 -93t-184 -33q-43 0 -87.5 6t-86.5 18l8 121
q37 -19 77.5 -27t82.5 -8q78 0 136.5 26t96.5 71.5t57 108t19 136.5q0 100 -32.5 161.5t-88.5 95.5t-131 45.5t-160 11.5v110h37q70 0 125 23.5t93 65.5t58.5 99.5t20.5 125.5q0 57 -15.5 107t-46.5 87t-77 58.5t-107 21.5q-23 0 -52 -3t-52 -11q-54 -19 -88.5 -60.5
t-54 -94t-26.5 -110t-7 -106.5v-1065h-129v1110z" />
    <glyph glyph-name="agrave" unicode="&#xe0;" horiz-adv-x="1024" 
d="M762 168h-4q-23 -45 -58.5 -81t-80 -61t-94 -38t-99.5 -13q-35 0 -75.5 6.5t-79.5 20t-73 35t-55 51.5q-12 17 -23 38t-19.5 44t-13.5 46t-5 44q0 60 12.5 114.5t50.5 102.5q47 58 114.5 90.5t144 48t156 18.5t150.5 3h40v66q0 129 -59 192t-189 63q-80 0 -154.5 -22
t-142.5 -64v125q74 34 154 53t161 19q93 0 161 -25.5t112 -74t65 -119.5t21 -161v-470q0 -55 1.5 -109.5t8.5 -109.5h-127v168zM750 526h-41q-47 0 -101.5 -2t-108.5 -9.5t-103.5 -23.5t-88 -44t-61.5 -70t-23 -103q0 -48 17 -83.5t46.5 -59t69 -34.5t84.5 -11q64 0 118 18
t94 52.5t64 85t29 116.5q2 26 3.5 52.5t1.5 52.5v63zM633 1158h-94l-258 295h162z" />
    <glyph glyph-name="aacute" unicode="&#xe1;" horiz-adv-x="1024" 
d="M762 168h-4q-23 -45 -58.5 -81t-80 -61t-94 -38t-99.5 -13q-35 0 -75.5 6.5t-79.5 20t-73 35t-55 51.5q-12 17 -23 38t-19.5 44t-13.5 46t-5 44q0 60 12.5 114.5t50.5 102.5q47 58 114.5 90.5t144 48t156 18.5t150.5 3h40v66q0 129 -59 192t-189 63q-80 0 -154.5 -22
t-142.5 -64v125q74 34 154 53t161 19q93 0 161 -25.5t112 -74t65 -119.5t21 -161v-470q0 -55 1.5 -109.5t8.5 -109.5h-127v168zM750 526h-41q-47 0 -101.5 -2t-108.5 -9.5t-103.5 -23.5t-88 -44t-61.5 -70t-23 -103q0 -48 17 -83.5t46.5 -59t69 -34.5t84.5 -11q64 0 118 18
t94 52.5t64 85t29 116.5q2 26 3.5 52.5t1.5 52.5v63zM588 1453h162l-258 -295h-94z" />
    <glyph glyph-name="acircumflex" unicode="&#xe2;" horiz-adv-x="1024" 
d="M762 168h-4q-23 -45 -58.5 -81t-80 -61t-94 -38t-99.5 -13q-35 0 -75.5 6.5t-79.5 20t-73 35t-55 51.5q-12 17 -23 38t-19.5 44t-13.5 46t-5 44q0 60 12.5 114.5t50.5 102.5q47 58 114.5 90.5t144 48t156 18.5t150.5 3h40v66q0 129 -59 192t-189 63q-80 0 -154.5 -22
t-142.5 -64v125q74 34 154 53t161 19q93 0 161 -25.5t112 -74t65 -119.5t21 -161v-470q0 -55 1.5 -109.5t8.5 -109.5h-127v168zM750 526h-41q-47 0 -101.5 -2t-108.5 -9.5t-103.5 -23.5t-88 -44t-61.5 -70t-23 -103q0 -48 17 -83.5t46.5 -59t69 -34.5t84.5 -11q64 0 118 18
t94 52.5t64 85t29 116.5q2 26 3.5 52.5t1.5 52.5v63zM430 1453h168l191 -295h-94l-181 209l-180 -209h-94z" />
    <glyph glyph-name="atilde" unicode="&#xe3;" horiz-adv-x="1024" 
d="M762 168h-4q-23 -45 -58.5 -81t-80 -61t-94 -38t-99.5 -13q-35 0 -75.5 6.5t-79.5 20t-73 35t-55 51.5q-12 17 -23 38t-19.5 44t-13.5 46t-5 44q0 60 12.5 114.5t50.5 102.5q47 58 114.5 90.5t144 48t156 18.5t150.5 3h40v66q0 129 -59 192t-189 63q-80 0 -154.5 -22
t-142.5 -64v125q74 34 154 53t161 19q93 0 161 -25.5t112 -74t65 -119.5t21 -161v-470q0 -55 1.5 -109.5t8.5 -109.5h-127v168zM750 526h-41q-47 0 -101.5 -2t-108.5 -9.5t-103.5 -23.5t-88 -44t-61.5 -70t-23 -103q0 -48 17 -83.5t46.5 -59t69 -34.5t84.5 -11q64 0 118 18
t94 52.5t64 85t29 116.5q2 26 3.5 52.5t1.5 52.5v63zM230 1206q7 31 20 64t32.5 59.5t47.5 43.5t66 17q31 0 63.5 -7t61.5 -18l20 -7.5t24.5 -8.5t24.5 -7t21 -3q35 0 62 17.5t38 51.5h76q-3 -19 -8.5 -39.5t-14 -40.5t-21 -37t-28.5 -28q-20 -14 -44 -24.5t-49 -10.5
q-68 0 -132 27q-20 8 -47 16t-49 8q-39 0 -58 -19.5t-33 -53.5h-73z" />
    <glyph glyph-name="adieresis" unicode="&#xe4;" horiz-adv-x="1024" 
d="M762 168h-4q-23 -45 -58.5 -81t-80 -61t-94 -38t-99.5 -13q-35 0 -75.5 6.5t-79.5 20t-73 35t-55 51.5q-12 17 -23 38t-19.5 44t-13.5 46t-5 44q0 60 12.5 114.5t50.5 102.5q47 58 114.5 90.5t144 48t156 18.5t150.5 3h40v66q0 129 -59 192t-189 63q-80 0 -154.5 -22
t-142.5 -64v125q74 34 154 53t161 19q93 0 161 -25.5t112 -74t65 -119.5t21 -161v-470q0 -55 1.5 -109.5t8.5 -109.5h-127v168zM750 526h-41q-47 0 -101.5 -2t-108.5 -9.5t-103.5 -23.5t-88 -44t-61.5 -70t-23 -103q0 -48 17 -83.5t46.5 -59t69 -34.5t84.5 -11q64 0 118 18
t94 52.5t64 85t29 116.5q2 26 3.5 52.5t1.5 52.5v63zM262 1396h154v-172h-154v172zM613 1396h153v-172h-153v172z" />
    <glyph glyph-name="aring" unicode="&#xe5;" horiz-adv-x="1024" 
d="M762 168h-4q-23 -45 -58.5 -81t-80 -61t-94 -38t-99.5 -13q-35 0 -75.5 6.5t-79.5 20t-73 35t-55 51.5q-12 17 -23 38t-19.5 44t-13.5 46t-5 44q0 60 12.5 114.5t50.5 102.5q47 58 114.5 90.5t144 48t156 18.5t150.5 3h40v66q0 129 -59 192t-189 63q-80 0 -154.5 -22
t-142.5 -64v125q74 34 154 53t161 19q93 0 161 -25.5t112 -74t65 -119.5t21 -161v-470q0 -55 1.5 -109.5t8.5 -109.5h-127v168zM750 526h-41q-47 0 -101.5 -2t-108.5 -9.5t-103.5 -23.5t-88 -44t-61.5 -70t-23 -103q0 -48 17 -83.5t46.5 -59t69 -34.5t84.5 -11q64 0 118 18
t94 52.5t64 85t29 116.5q2 26 3.5 52.5t1.5 52.5v63zM391 1327q0 -25 10 -47t27 -38.5t39 -26t47 -9.5t47.5 9t39.5 25.5t26.5 38.5t9.5 48q0 54 -34.5 87.5t-88.5 33.5q-53 0 -88 -34t-35 -87zM318 1327q0 42 15 77.5t41.5 61.5t62 41t77.5 15t78 -14.5t62.5 -40.5
t41.5 -62t15 -78t-15 -77.5t-41.5 -61.5t-62.5 -40.5t-78 -14.5q-41 0 -76.5 15t-62 41t-42 61.5t-15.5 76.5z" />
    <glyph glyph-name="ae" unicode="&#xe6;" horiz-adv-x="1706" 
d="M1534 33q-72 -27 -148.5 -42.5t-154.5 -15.5q-59 0 -120 10.5t-115 35t-97 65t-65 100.5q-74 -104 -170 -157.5t-226 -53.5q-67 0 -129 15.5t-110 49t-76.5 86.5t-28.5 128q0 111 55 185t158 112q45 17 93 27.5t96 13.5q40 3 80 3.5t80 0.5h106v63q0 37 -4 78t-16.5 79
t-35 70t-59.5 50q-29 15 -64.5 18.5t-67.5 3.5q-80 0 -155 -22t-143 -64v125q71 33 150 52.5t157 19.5q58 0 108 -8.5t92 -30t75.5 -58t58.5 -91.5q27 42 64.5 77t81.5 59.5t92.5 38t99.5 13.5q114 0 193.5 -43t129 -115t71.5 -165.5t22 -194.5v-66h-709v-53
q0 -81 22.5 -145t65.5 -108.5t106 -68.5t144 -24q32 0 71.5 6.5t79.5 17t77.5 24.5t64.5 30v-131zM762 485h-65q-45 0 -97 -2t-103 -9.5t-98.5 -22t-83.5 -40t-57.5 -64t-21.5 -93.5q0 -42 20 -73.5t51.5 -52.5t70 -31.5t75.5 -10.5q80 0 138 24.5t96 69t56.5 106.5
t18.5 138v61zM1470 596q0 64 -13 129t-44 116.5t-82 84t-127 32.5q-71 0 -127 -32.5t-94.5 -84.5t-59 -116.5t-20.5 -128.5h567z" />
    <glyph glyph-name="ccedilla" unicode="&#xe7;" horiz-adv-x="909" 
d="M842 905q-52 24 -109 38.5t-115 14.5q-98 0 -171.5 -33.5t-122.5 -92.5t-74 -138.5t-25 -171.5q0 -84 25 -162.5t73.5 -139.5t119 -97.5t161.5 -36.5q61 0 120 12t116 35l12 -121q-63 -19 -127 -28t-130 -9h-15l-31 -86q31 7 67 7q31 0 58.5 -8.5t48 -25t32 -41.5
t11.5 -59q0 -44 -22 -71.5t-56 -43t-73.5 -21t-73.5 -5.5q-54 0 -105 15.5t-102 29.5l14 76q38 -23 87.5 -41t94.5 -18q18 0 37 3.5t34.5 11.5t25.5 22.5t10 37.5q0 38 -20 57t-58 19q-22 0 -43.5 -2t-42.5 -6l53 154q-103 11 -186.5 53t-144.5 127q-59 82 -85 172t-26 190
q0 117 35.5 217t102 173.5t162 115t216.5 41.5q27 0 60.5 -2t68 -6.5t66.5 -12.5t57 -20z" />
    <glyph glyph-name="egrave" unicode="&#xe8;" horiz-adv-x="1024" 
d="M799 596q0 64 -13 129t-44 116.5t-82.5 84t-127.5 32.5q-71 0 -128 -32t-97 -83.5t-61 -116.5t-21 -130h574zM862 33q-72 -27 -148.5 -42.5t-154.5 -15.5q-126 0 -215.5 41t-147.5 113t-85 171t-27 216q0 67 11 134.5t34.5 129t59 114.5t84.5 92t111.5 61t139.5 22
q114 0 193.5 -43t129 -115t71.5 -165.5t22 -194.5v-66h-715q0 -80 21.5 -152t64 -127t107 -87.5t151.5 -32.5q32 0 71.5 6.5t79.5 17t77.5 24.5t64.5 30v-131zM631 1158h-94l-258 295h162z" />
    <glyph glyph-name="eacute" unicode="&#xe9;" horiz-adv-x="1024" 
d="M799 596q0 64 -13 129t-44 116.5t-82.5 84t-127.5 32.5q-71 0 -128 -32t-97 -83.5t-61 -116.5t-21 -130h574zM862 33q-72 -27 -148.5 -42.5t-154.5 -15.5q-126 0 -215.5 41t-147.5 113t-85 171t-27 216q0 67 11 134.5t34.5 129t59 114.5t84.5 92t111.5 61t139.5 22
q114 0 193.5 -43t129 -115t71.5 -165.5t22 -194.5v-66h-715q0 -80 21.5 -152t64 -127t107 -87.5t151.5 -32.5q32 0 71.5 6.5t79.5 17t77.5 24.5t64.5 30v-131zM590 1453h162l-258 -295h-94z" />
    <glyph glyph-name="ecircumflex" unicode="&#xea;" horiz-adv-x="1024" 
d="M799 596q0 64 -13 129t-44 116.5t-82.5 84t-127.5 32.5q-71 0 -128 -32t-97 -83.5t-61 -116.5t-21 -130h574zM862 33q-72 -27 -148.5 -42.5t-154.5 -15.5q-126 0 -215.5 41t-147.5 113t-85 171t-27 216q0 67 11 134.5t34.5 129t59 114.5t84.5 92t111.5 61t139.5 22
q114 0 193.5 -43t129 -115t71.5 -165.5t22 -194.5v-66h-715q0 -80 21.5 -152t64 -127t107 -87.5t151.5 -32.5q32 0 71.5 6.5t79.5 17t77.5 24.5t64.5 30v-131zM432 1453h168l191 -295h-94l-181 209l-180 -209h-94z" />
    <glyph glyph-name="edieresis" unicode="&#xeb;" horiz-adv-x="1024" 
d="M799 596q0 64 -13 129t-44 116.5t-82.5 84t-127.5 32.5q-71 0 -128 -32t-97 -83.5t-61 -116.5t-21 -130h574zM862 33q-72 -27 -148.5 -42.5t-154.5 -15.5q-126 0 -215.5 41t-147.5 113t-85 171t-27 216q0 67 11 134.5t34.5 129t59 114.5t84.5 92t111.5 61t139.5 22
q114 0 193.5 -43t129 -115t71.5 -165.5t22 -194.5v-66h-715q0 -80 21.5 -152t64 -127t107 -87.5t151.5 -32.5q32 0 71.5 6.5t79.5 17t77.5 24.5t64.5 30v-131zM264 1396h154v-172h-154v172zM615 1396h153v-172h-153v172z" />
    <glyph glyph-name="igrave" unicode="&#xec;" horiz-adv-x="455" 
d="M344 1158h-94l-258 295h162zM162 1044h129v-1044h-129v1044z" />
    <glyph glyph-name="iacute" unicode="&#xed;" horiz-adv-x="455" 
d="M299 1453h162l-258 -295h-94zM162 1044h129v-1044h-129v1044z" />
    <glyph glyph-name="icircumflex" unicode="&#xee;" horiz-adv-x="455" 
d="M143 1453h168l191 -295h-94l-181 209l-180 -209h-94zM162 1044h129v-1044h-129v1044z" />
    <glyph glyph-name="idieresis" unicode="&#xef;" horiz-adv-x="455" 
d="M162 1044h129v-1044h-129v1044zM-25 1396h154v-172h-154v172zM326 1396h153v-172h-153v172z" />
    <glyph glyph-name="eth" unicode="&#xf0;" 
d="M373 1241l186 117q-64 38 -133.5 64t-142.5 40l24 99q99 -14 193.5 -44.5t179.5 -84.5l219 135l62 -86l-191 -117q79 -74 133.5 -160t88.5 -180t49.5 -195.5t15.5 -207.5q0 -84 -9 -164.5t-30.5 -152t-57.5 -132t-90 -104.5t-128.5 -68.5t-172.5 -24.5
q-109 0 -205.5 39.5t-162.5 128.5q-63 85 -91 180t-28 199q0 113 31 212.5t92 174t152 117.5t212 43q100 0 181 -42t141 -120h4q-28 116 -87 213.5t-153 171.5l-221 -137zM223 522q0 -80 20 -158.5t62 -140t107.5 -99.5t156.5 -38q93 0 158.5 37.5t107 99t61 140t19.5 159.5
q0 83 -19 161.5t-60 139.5t-107 98t-160 37q-93 0 -158.5 -37.5t-107 -99t-61 -140t-19.5 -159.5z" />
    <glyph glyph-name="ntilde" unicode="&#xf1;" 
d="M162 799q0 62 -2 122.5t-6 122.5h125v-186h4q27 57 60 97t74 65.5t91 37t113 11.5q95 0 162.5 -29.5t110.5 -82.5t63 -126.5t20 -162.5v-668h-129v635q0 64 -10.5 123t-38.5 103t-76 70.5t-123 26.5q-84 0 -143 -31.5t-95.5 -84t-53.5 -121t-17 -143.5v-578h-129v799z
M291 1206q7 31 20 64t32.5 59.5t47.5 43.5t66 17q31 0 63.5 -7t61.5 -18l20 -7.5t24.5 -8.5t24.5 -7t21 -3q35 0 62 17.5t38 51.5h76q-3 -19 -8.5 -39.5t-14 -40.5t-21 -37t-28.5 -28q-20 -14 -44 -24.5t-49 -10.5q-68 0 -132 27q-20 8 -47 16t-49 8q-39 0 -58 -19.5
t-33 -53.5h-73z" />
    <glyph glyph-name="ograve" unicode="&#xf2;" 
d="M223 522q0 -80 20 -158.5t62 -140t107.5 -99.5t156.5 -38q93 0 158.5 37.5t107 99t61 140t19.5 159.5q0 83 -19 161.5t-60 139.5t-107 98t-160 37q-93 0 -158.5 -37.5t-107 -99t-61 -140t-19.5 -159.5zM82 522q0 113 31 212.5t92 174t152 117.5t212 43q123 0 214.5 -42
t152.5 -116t91 -174t30 -215q0 -114 -30.5 -214t-91.5 -174t-152.5 -116.5t-213.5 -42.5q-109 0 -205.5 39.5t-162.5 128.5q-63 85 -91 180t-28 199zM694 1158h-94l-258 295h162z" />
    <glyph glyph-name="oacute" unicode="&#xf3;" 
d="M223 522q0 -80 20 -158.5t62 -140t107.5 -99.5t156.5 -38q93 0 158.5 37.5t107 99t61 140t19.5 159.5q0 83 -19 161.5t-60 139.5t-107 98t-160 37q-93 0 -158.5 -37.5t-107 -99t-61 -140t-19.5 -159.5zM82 522q0 113 31 212.5t92 174t152 117.5t212 43q123 0 214.5 -42
t152.5 -116t91 -174t30 -215q0 -114 -30.5 -214t-91.5 -174t-152.5 -116.5t-213.5 -42.5q-109 0 -205.5 39.5t-162.5 128.5q-63 85 -91 180t-28 199zM653 1453h162l-258 -295h-94z" />
    <glyph glyph-name="ocircumflex" unicode="&#xf4;" 
d="M223 522q0 -80 20 -158.5t62 -140t107.5 -99.5t156.5 -38q93 0 158.5 37.5t107 99t61 140t19.5 159.5q0 83 -19 161.5t-60 139.5t-107 98t-160 37q-93 0 -158.5 -37.5t-107 -99t-61 -140t-19.5 -159.5zM82 522q0 113 31 212.5t92 174t152 117.5t212 43q123 0 214.5 -42
t152.5 -116t91 -174t30 -215q0 -114 -30.5 -214t-91.5 -174t-152.5 -116.5t-213.5 -42.5q-109 0 -205.5 39.5t-162.5 128.5q-63 85 -91 180t-28 199zM491 1453h168l191 -295h-94l-181 209l-180 -209h-94z" />
    <glyph glyph-name="otilde" unicode="&#xf5;" 
d="M223 522q0 -80 20 -158.5t62 -140t107.5 -99.5t156.5 -38q93 0 158.5 37.5t107 99t61 140t19.5 159.5q0 83 -19 161.5t-60 139.5t-107 98t-160 37q-93 0 -158.5 -37.5t-107 -99t-61 -140t-19.5 -159.5zM82 522q0 113 31 212.5t92 174t152 117.5t212 43q123 0 214.5 -42
t152.5 -116t91 -174t30 -215q0 -114 -30.5 -214t-91.5 -174t-152.5 -116.5t-213.5 -42.5q-109 0 -205.5 39.5t-162.5 128.5q-63 85 -91 180t-28 199zM293 1206q7 31 20 64t32.5 59.5t47.5 43.5t66 17q31 0 63.5 -7t61.5 -18l20 -7.5t24.5 -8.5t24.5 -7t21 -3q35 0 62 17.5
t38 51.5h76q-3 -19 -8.5 -39.5t-14 -40.5t-21 -37t-28.5 -28q-20 -14 -44 -24.5t-49 -10.5q-68 0 -132 27q-20 8 -47 16t-49 8q-39 0 -58 -19.5t-33 -53.5h-73z" />
    <glyph glyph-name="odieresis" unicode="&#xf6;" 
d="M223 522q0 -80 20 -158.5t62 -140t107.5 -99.5t156.5 -38q93 0 158.5 37.5t107 99t61 140t19.5 159.5q0 83 -19 161.5t-60 139.5t-107 98t-160 37q-93 0 -158.5 -37.5t-107 -99t-61 -140t-19.5 -159.5zM82 522q0 113 31 212.5t92 174t152 117.5t212 43q123 0 214.5 -42
t152.5 -116t91 -174t30 -215q0 -114 -30.5 -214t-91.5 -174t-152.5 -116.5t-213.5 -42.5q-109 0 -205.5 39.5t-162.5 128.5q-63 85 -91 180t-28 199zM325 1396h154v-172h-154v172zM676 1396h153v-172h-153v172z" />
    <glyph glyph-name="divide" unicode="&#xf7;" horiz-adv-x="1229" 
d="M483 117q0 27 10.5 50.5t28.5 41.5t41.5 28.5t50.5 10.5t51 -10.5t41.5 -28t28 -41.5t10.5 -51q0 -26 -11 -49.5t-29 -41.5t-41.5 -29t-49.5 -11q-25 0 -48.5 11t-42 29.5t-29.5 42t-11 48.5zM483 922q0 27 10.5 50.5t28.5 41.5t41.5 28.5t50.5 10.5t51 -10.5t41.5 -28
t28 -41.5t10.5 -51t-10.5 -50.5t-28.5 -41.5t-41.5 -28.5t-50.5 -10.5q-26 0 -49.5 11t-41.5 29t-29 41.5t-11 49.5zM94 590h1039v-141h-1039v141z" />
    <glyph glyph-name="oslash" unicode="&#xf8;" 
d="M1100 1057l-150 -172q57 -81 82 -173t25 -190q0 -114 -30.5 -214t-91.5 -174t-152.5 -116.5t-213.5 -42.5q-86 0 -168 25t-147 84l-143 -166l-72 59l154 177q-58 81 -84.5 172t-26.5 190q0 114 30 215t91 176t152 118.5t214 43.5q43 0 87 -6t85 -19.5t78.5 -35.5
t69.5 -54l139 162zM340 182q46 -50 104 -73t125 -23q93 0 158.5 37.5t107 99t61 140t19.5 159.5q0 66 -13 131t-44 125zM805 858q-47 51 -107 75.5t-129 24.5q-93 0 -158.5 -37.5t-107 -99t-61 -140t-19.5 -159.5q0 -69 14.5 -135.5t47.5 -126.5z" />
    <glyph glyph-name="ugrave" unicode="&#xf9;" 
d="M977 246q0 -62 1.5 -123t6.5 -123h-125v186h-4q-21 -54 -55.5 -93.5t-79 -66t-96.5 -39t-107 -12.5q-93 0 -160.5 29t-111 81.5t-64 125.5t-20.5 160v673h129v-634q0 -62 11.5 -120.5t40 -103.5t76.5 -72.5t120 -27.5q82 0 141 32t96 85t54.5 121.5t17.5 142.5v577h129
v-798zM688 1158h-94l-258 295h162z" />
    <glyph glyph-name="uacute" unicode="&#xfa;" 
d="M977 246q0 -62 1.5 -123t6.5 -123h-125v186h-4q-21 -54 -55.5 -93.5t-79 -66t-96.5 -39t-107 -12.5q-93 0 -160.5 29t-111 81.5t-64 125.5t-20.5 160v673h129v-634q0 -62 11.5 -120.5t40 -103.5t76.5 -72.5t120 -27.5q82 0 141 32t96 85t54.5 121.5t17.5 142.5v577h129
v-798zM647 1453h162l-258 -295h-94z" />
    <glyph glyph-name="ucircumflex" unicode="&#xfb;" 
d="M977 246q0 -62 1.5 -123t6.5 -123h-125v186h-4q-21 -54 -55.5 -93.5t-79 -66t-96.5 -39t-107 -12.5q-93 0 -160.5 29t-111 81.5t-64 125.5t-20.5 160v673h129v-634q0 -62 11.5 -120.5t40 -103.5t76.5 -72.5t120 -27.5q82 0 141 32t96 85t54.5 121.5t17.5 142.5v577h129
v-798zM487 1453h168l191 -295h-94l-181 209l-180 -209h-94z" />
    <glyph glyph-name="udieresis" unicode="&#xfc;" 
d="M977 246q0 -62 1.5 -123t6.5 -123h-125v186h-4q-21 -54 -55.5 -93.5t-79 -66t-96.5 -39t-107 -12.5q-93 0 -160.5 29t-111 81.5t-64 125.5t-20.5 160v673h129v-634q0 -62 11.5 -120.5t40 -103.5t76.5 -72.5t120 -27.5q82 0 141 32t96 85t54.5 121.5t17.5 142.5v577h129
v-798zM321 1396h154v-172h-154v172zM672 1396h153v-172h-153v172z" />
    <glyph glyph-name="yacute" unicode="&#xfd;" horiz-adv-x="909" 
d="M453 174h2l301 870h135l-418 -1200q-16 -47 -38 -97.5t-53.5 -92.5t-75 -69t-101.5 -27q-35 0 -70 4t-69 12l12 111q21 -8 47 -12.5t49 -4.5q37 0 65.5 16t50 43t36.5 60.5t26.5 69.5t20 70t16.5 61l-371 1056h142zM535 1453h162l-258 -295h-94z" />
    <glyph glyph-name="thorn" unicode="&#xfe;" 
d="M897 522q0 38 -2 78t-8 78q-6 37 -19.5 71.5t-31.5 67.5q-41 75 -102.5 108t-145.5 33q-59 0 -105.5 -19.5t-80.5 -53t-57.5 -78t-38 -94.5t-21 -102t-6.5 -101q0 -46 8 -95.5t24 -96.5t41 -89t59 -74t78 -50.5t99 -18.5q64 0 115 22.5t88.5 61.5t61.5 91t34 112
q6 37 8 74.5t2 74.5zM150 1536h129v-682h4q11 31 30 60.5t44 54.5t53.5 45t58.5 33t68.5 17.5t70.5 4.5q124 0 207 -45t132.5 -120.5t70 -174.5t20.5 -207q0 -102 -23 -200.5t-74.5 -175.5t-133.5 -124t-199 -47q-236 0 -325 215h-4v-620h-129v1966z" />
    <glyph glyph-name="ydieresis" unicode="&#xff;" horiz-adv-x="909" 
d="M453 174h2l301 870h135l-418 -1200q-16 -47 -38 -97.5t-53.5 -92.5t-75 -69t-101.5 -27q-35 0 -70 4t-69 12l12 111q21 -8 47 -12.5t49 -4.5q37 0 65.5 16t50 43t36.5 60.5t26.5 69.5t20 70t16.5 61l-371 1056h142zM206 1396h154v-172h-154v172zM557 1396h153v-172h-153
v172z" />
    <glyph glyph-name="dotlessi" unicode="&#x131;" horiz-adv-x="455" 
d="M162 1044h129v-1044h-129v1044z" />
    <glyph glyph-name="Lslash" unicode="&#x141;" horiz-adv-x="909" 
d="M164 1430h141v-693l359 252v-139l-359 -254v-473h574v-123h-715v496l-148 -105v141l148 105v793z" />
    <glyph glyph-name="lslash" unicode="&#x142;" horiz-adv-x="455" 
d="M27 592v141l135 109v694h129v-592l135 109v-142l-135 -108v-803h-129v700z" />
    <glyph glyph-name="OE" unicode="&#x152;" horiz-adv-x="1821" 
d="M977 1307q-129 12 -260 12q-88 0 -156.5 -23.5t-120.5 -65.5t-87.5 -99.5t-58 -124.5t-32.5 -141t-10 -150q0 -86 13.5 -177t51.5 -169q60 -122 157 -190t236 -68q67 0 133.5 2t133.5 10v1184zM1673 1307h-555v-510h527v-123h-527v-551h580v-123h-676q-66 0 -132.5 -3
t-132.5 -7q-20 -1 -39.5 -2.5t-39.5 -1.5q-139 0 -250 55.5t-184 175.5q-72 117 -102.5 239.5t-30.5 258.5q0 137 30.5 259.5t102.5 239.5q73 119 184 174.5t250 55.5q87 0 172.5 -7t171.5 -7h651v-123z" />
    <glyph glyph-name="oe" unicode="&#x153;" horiz-adv-x="1821" 
d="M215 522q0 -80 20 -158.5t62 -140t107.5 -99.5t156.5 -38q99 0 162.5 37t100 97.5t51 139t14.5 162.5q0 53 -7 112t-25.5 114t-50.5 101t-83 75q-35 20 -78.5 27t-83.5 7q-93 0 -158.5 -37.5t-107 -99t-61 -140t-19.5 -159.5zM1030 485q0 -80 21.5 -152t64.5 -127
t107.5 -87.5t150.5 -32.5q32 0 71.5 6.5t79.5 17t77.5 24.5t64.5 30v-131q-72 -27 -148.5 -42.5t-154.5 -15.5q-62 0 -122 11t-112.5 36.5t-95.5 66t-71 99.5q-30 -56 -73.5 -96t-96 -66t-112 -38.5t-120.5 -12.5q-109 0 -205.5 39.5t-162.5 128.5q-63 85 -91 180t-28 199
q0 105 28 200.5t91 180.5q35 46 77.5 78t90.5 51.5t101 28t109 8.5q130 0 226.5 -54.5t156.5 -170.5q57 115 152 170t223 55q112 0 191.5 -43t129 -114.5t72.5 -164t23 -192.5v-70h-715zM1604 596q0 62 -14 126.5t-46 117t-83 85.5t-124 33q-80 0 -137.5 -29.5t-95.5 -79.5
t-56 -115.5t-18 -137.5h574z" />
    <glyph glyph-name="Scaron" unicode="&#x160;" horiz-adv-x="1024" 
d="M137 182q69 -48 151 -66t165 -18q70 0 128.5 18t101.5 55t67 91.5t24 128.5q0 60 -34.5 107t-84.5 84t-107 66.5t-102 53.5q-31 17 -60 36l-58 38q-43 28 -81 58.5t-66.5 66.5t-45 80t-16.5 100q0 94 39 164.5t102.5 116.5t144.5 69t166 23q73 0 142.5 -10.5t138.5 -36.5
l-23 -129q-60 30 -126.5 41.5t-133.5 11.5q-59 0 -114.5 -13t-99 -42.5t-69.5 -76.5t-26 -114q0 -45 22 -82t59.5 -69.5t86 -61.5t102 -57.5t108 -59t103 -66t87 -77t61.5 -92.5q14 -32 20 -69t6 -72q0 -93 -35 -174.5t-114 -134.5q-72 -48 -152.5 -71.5t-167.5 -23.5
q-38 0 -80.5 3.5t-85 11t-83 19t-74.5 28.5zM600 1486h-168l-190 295h94l180 -209l181 209h94z" />
    <glyph glyph-name="scaron" unicode="&#x161;" horiz-adv-x="797" 
d="M82 152q63 -34 132 -50t140 -16q42 0 83.5 11.5t74.5 34.5t53.5 58t20.5 82q0 48 -21.5 83.5t-57 63t-80.5 49.5t-92 44t-92 46t-80.5 55.5t-57 73t-21.5 97.5q0 76 27 130t73.5 88.5t108.5 50.5t131 16q136 0 258 -47l-12 -113q-55 23 -113.5 36t-118.5 13
q-45 0 -86 -7.5t-71.5 -27t-49 -53.5t-18.5 -86q0 -30 17.5 -53.5t43 -42t54 -33t51.5 -24.5l92 -45q50 -24 94 -50.5t84 -64.5q42 -40 60 -91t18 -108q0 -76 -31.5 -132t-83 -92.5t-117 -54.5t-133.5 -18q-150 0 -292 50zM483 1158h-168l-190 295h94l180 -209l181 209h94z
" />
    <glyph glyph-name="Ydieresis" unicode="&#x178;" horiz-adv-x="1251" 
d="M555 606l-530 824h163l437 -699l448 699h154l-531 -824v-606h-141v606zM387 1724h154v-172h-154v172zM738 1724h153v-172h-153v172z" />
    <glyph glyph-name="Zcaron" unicode="&#x17d;" horiz-adv-x="1024" 
d="M43 123l745 1184h-727v123h877v-123l-741 -1184h766v-123h-920v123zM596 1486h-168l-190 295h94l180 -209l181 209h94z" />
    <glyph glyph-name="zcaron" unicode="&#x17e;" horiz-adv-x="909" 
d="M66 109l628 825h-604v110h754v-110l-629 -823h629v-111h-778v109zM538 1171h-168l-190 295h94l180 -209l181 209h94z" />
    <glyph glyph-name="florin" unicode="&#x192;" 
d="M938 748h-258l-145 -744q-11 -55 -23.5 -109.5t-30 -104t-43.5 -92t-62.5 -73.5t-87 -49t-118.5 -18q-30 0 -60.5 4.5t-58.5 15.5l33 109q20 -8 43 -13.5t45 -5.5q67 0 108.5 37t66.5 92t38 117t23 113l137 721h-228v110h250q11 61 22.5 128t28 132t41.5 124t65 104
t97.5 71.5t139.5 26.5q34 0 68 -9.5t63 -25.5l-27 -102q-26 12 -56 19t-59 7q-16 0 -34.5 -2t-32.5 -8q-31 -13 -55 -45.5t-42.5 -76.5t-32.5 -94.5t-23.5 -98t-16.5 -87.5t-11 -63h236v-110z" />
    <glyph glyph-name="circumflex" unicode="&#x2c6;" horiz-adv-x="455" 
d="M143 1466h168l191 -295h-94l-181 209l-180 -209h-94z" />
    <glyph glyph-name="caron" unicode="&#x2c7;" horiz-adv-x="455" 
d="M311 1171h-168l-190 295h94l180 -209l181 209h94z" />
    <glyph glyph-name="breve" unicode="&#x2d8;" horiz-adv-x="455" 
d="M37 1432q9 -31 29 -53t45.5 -35.5t55.5 -20t60 -6.5q32 0 62 5.5t55 19t44 35.5t30 55h61q-6 -51 -26 -95t-52.5 -75.5t-76.5 -49.5t-97 -18q-54 0 -97 18.5t-75 50.5t-52 75.5t-28 93.5h62z" />
    <glyph glyph-name="dotaccent" unicode="&#x2d9;" horiz-adv-x="455" 
d="M152 1409h153v-172h-153v172z" />
    <glyph glyph-name="ring" unicode="&#x2da;" horiz-adv-x="455" 
d="M104 1327q0 -25 10 -47t27 -38.5t39 -26t47 -9.5t47.5 9t39.5 25.5t26.5 38.5t9.5 48q0 54 -34.5 87.5t-88.5 33.5q-53 0 -88 -34t-35 -87zM31 1327q0 42 15 77.5t41.5 61.5t62 41t77.5 15t78 -14.5t62.5 -40.5t41.5 -62t15 -78t-15 -77.5t-41.5 -61.5t-62.5 -40.5
t-78 -14.5q-41 0 -76.5 15t-62 41t-42 61.5t-15.5 76.5z" />
    <glyph glyph-name="ogonek" unicode="&#x2db;" horiz-adv-x="455" 
d="M549 -297q-8 -26 -26 -46.5t-38 -37.5q-29 -26 -66.5 -37.5t-76.5 -11.5q-31 0 -63 10.5t-58 29.5t-42.5 46.5t-16.5 62.5q0 46 25 89t62 79t80.5 65t80.5 48h57q-28 -22 -59 -49t-57 -58.5t-43 -67.5t-17 -75q0 -106 106 -106q42 0 72.5 20t50.5 55z" />
    <glyph glyph-name="tilde" unicode="&#x2dc;" horiz-adv-x="455" 
d="M-55 1219q7 31 20 64t32.5 59.5t47.5 43.5t66 17q31 0 63.5 -7t61.5 -18l20 -7.5t24.5 -8.5t24.5 -7t21 -3q35 0 62 17.5t38 51.5h76q-3 -19 -8.5 -39.5t-14 -40.5t-21 -37t-28.5 -28q-20 -14 -44 -24.5t-49 -10.5q-68 0 -132 27q-20 8 -47 16t-49 8q-39 0 -58 -19.5
t-33 -53.5h-73z" />
    <glyph glyph-name="hungarumlaut" unicode="&#x2dd;" horiz-adv-x="455" 
d="M473 1671h162l-258 -295h-94zM125 1671h162l-258 -295h-95z" />
    <glyph glyph-name="pi" unicode="&#x3c0;" horiz-adv-x="1167" 
d="M1120 23q-35 -17 -68 -26t-73 -9q-62 0 -97 19.5t-52.5 52.5t-22 77.5t-4.5 95.5v607h-504v-840h-154v840h-141v141h1108v-141h-156v-613q0 -23 2 -42.5t10 -34t23.5 -23t42.5 -8.5q23 0 44.5 5.5t41.5 14.5v-116z" />
    <glyph glyph-name="uni060C" unicode="&#x60c;" horiz-adv-x="760" 
d="M396 -1h-172l161 446h129z" />
    <glyph glyph-name="uni0615" unicode="&#x615;" horiz-adv-x="0" 
d="M-63 1165h90v486h78v-336q16 27 37.5 48t46 35t50.5 21.5t50 7.5q47 0 81 -15t56 -42t32.5 -63.5t10.5 -79.5v-142h-532v80zM392 1223q0 66 -30 96t-81 30q-31 0 -60 -14.5t-52.5 -40t-40 -59t-21.5 -70.5h285v58z" />
    <glyph glyph-name="uni061B" unicode="&#x61b;" horiz-adv-x="760" 
d="M231 172h166v-172h-166v172zM396 354h-172l161 446h129z" />
    <glyph glyph-name="uni061F" unicode="&#x61f;" horiz-adv-x="864" 
d="M732 1170q-61 20 -123.5 36t-140.5 16q-51 0 -94 -15.5t-75 -44t-50 -70.5t-18 -94q0 -75 23 -128.5t57.5 -98t75 -85t75 -88.5t57.5 -109.5t23 -146.5v-24h-119v28q0 56 -14 101.5t-36.5 84t-51 71.5t-59 66t-59 66.5t-51 72.5t-36.5 85.5t-14 104.5q0 87 29 151
t78.5 105t115 61t138.5 20q69 0 138.5 -13.5t135.5 -33.5zM556 0h-152v158h152v-158z" />
    <glyph glyph-name="uni0640" unicode="&#x640;" horiz-adv-x="274" 
d="M-28 0q-44 0 -44 23v75q0 20 13 24.5t31 4.5h329q45 0 45 -23v-76q0 -19 -13.5 -23.5t-31.5 -4.5h-329z" />
    <glyph glyph-name="uni0647" unicode="&#x647;" horiz-adv-x="895" 
d="M382 0q-93 0 -164.5 25.5t-119.5 71.5t-73 110.5t-25 142.5q0 116 34 206.5t88.5 153t123.5 95t140 32.5q67 0 134.5 -29t121.5 -88t88 -148.5t34 -210.5q0 -73 -25 -138.5t-73.5 -115t-120 -78.5t-163.5 -29zM123 383q0 -68 21 -116.5t56.5 -79.5t82.5 -45.5t99 -14.5
q69 0 119 18.5t81.5 52t46.5 80.5t15 105q0 78 -24 141t-61.5 106.5t-83.5 67t-89 23.5q-53 0 -101 -24.5t-84 -69t-57 -107t-21 -137.5z" />
    <glyph glyph-name="uni064B" unicode="&#x64b;" horiz-adv-x="0" 
d="M-218 1488h432v-57h-432v57zM-218 1642h432v-57h-432v57z" />
    <glyph glyph-name="uni064C" unicode="&#x64c;" horiz-adv-x="0" 
d="M-19 1501q37 0 83 20q-41 29 -61 66t-20 75q0 30 11 55.5t29.5 44.5t42.5 29.5t51 10.5q54 0 90.5 -32.5t36.5 -101.5q0 -54 -27 -96t-67.5 -71.5t-86.5 -44.5t-83 -15q-24 0 -48 4.5t-48 16.5t-46.5 32t-43.5 51l-86 -82l-38 42l123 123q18 -26 39 -49t45 -40.5
t50 -27.5t54 -10zM40 1663q0 -12 3 -26t11.5 -29t22.5 -30.5t36 -29.5q32 21 53.5 51t21.5 65t-20 57t-52 22q-35 0 -55.5 -24t-20.5 -56z" />
    <glyph glyph-name="uni064D" unicode="&#x64d;" horiz-adv-x="0" 
d="M-218 -468h432v-57h-432v57zM-218 -314h432v-57h-432v57z" />
    <glyph glyph-name="uni064E" unicode="&#x64e;" horiz-adv-x="0" 
d="M-218 1488h432v-57h-432v57z" />
    <glyph glyph-name="uni064F" unicode="&#x64f;" horiz-adv-x="0" 
d="M-33 1501q22 0 46.5 5.5t49.5 15.5q-41 29 -60.5 65.5t-19.5 74.5q0 30 11 55.5t29.5 44.5t42.5 29.5t51 10.5q54 0 90.5 -32.5t36.5 -101.5q0 -54 -27.5 -96t-69 -71.5t-90.5 -44.5t-92 -15q-47 0 -97 9.5t-84 22.5l14 60q17 -7 38.5 -12.5t44 -10t44.5 -7t42 -2.5z
M40 1663q0 -23 14 -55t58 -60q32 22 54 51.5t22 64.5t-20 57t-52 22q-35 0 -55.5 -24t-20.5 -56z" />
    <glyph glyph-name="uni0650" unicode="&#x650;" horiz-adv-x="0" 
d="M-218 -314h432v-57h-432v57z" />
    <glyph glyph-name="uni0651" unicode="&#x651;" horiz-adv-x="0" 
d="M0 1492q-20 -25 -52.5 -43t-74.5 -18q-37 0 -64.5 11.5t-46 31.5t-27.5 47.5t-9 59.5v158h68v-152q0 -25 7.5 -41.5t20.5 -26.5t28.5 -14.5t32.5 -4.5q33 0 58.5 22t25.5 66v129h65v-137q0 -41 26.5 -60.5t59.5 -19.5q38 0 62 19t24 61v160h68v-148q0 -73 -39.5 -117
t-107.5 -44q-42 0 -75 17t-50 44z" />
    <glyph glyph-name="uni0652" unicode="&#x652;" horiz-adv-x="0" 
d="M-178 1619q0 37 13.5 70t37.5 57.5t56.5 38.5t70.5 14q37 0 70 -14t57.5 -38.5t38.5 -57.5t14 -70q0 -38 -14 -71t-38.5 -57.5t-57.5 -38.5t-70 -14q-38 0 -70.5 14t-56.5 38.5t-37.5 57.5t-13.5 71zM-122 1618q0 -26 10 -48.5t26.5 -38.5t38.5 -25t47 -9t47.5 9t38.5 25
t25.5 38.5t9.5 48.5q0 25 -9.5 47t-25.5 38.5t-38.5 26t-47.5 9.5t-47 -9.5t-38.5 -26t-26.5 -38.5t-10 -47z" />
    <glyph glyph-name="uni0653" unicode="&#x653;" horiz-adv-x="0" 
d="M-372 1386q43 45 81.5 62t72.5 17q47 0 97 -19t100 -41.5t100 -41t97 -18.5q26 0 44 7t30.5 18.5t21.5 26.5t17 31l53 -25q-18 -39 -36 -65t-39 -41t-47.5 -21t-62.5 -6q-48 0 -95.5 18.5t-95.5 40.5t-96.5 40.5t-98.5 18.5q-27 0 -53 -14.5t-46 -34.5z" />
    <glyph glyph-name="uni0654" unicode="&#x654;" horiz-adv-x="0" 
d="M131 1705q-8 2 -24 4t-35 2q-21 0 -41.5 -4.5t-36.5 -15t-26 -27.5t-10 -42q0 -55 43.5 -87t118.5 -32h29v-70h-310v70h114q-9 6 -20 17.5t-21 27.5t-17 36.5t-7 44.5q0 33 10.5 61t32.5 48.5t55.5 32t78.5 11.5q17 0 36.5 -1t42.5 -5z" />
    <glyph glyph-name="uni0655" unicode="&#x655;" horiz-adv-x="0" 
d="M131 -222q-8 2 -24 4t-35 2q-21 0 -41.5 -4.5t-36.5 -15t-26 -27.5t-10 -42q0 -55 43.5 -87t118.5 -32h29v-70h-310v70h114q-9 6 -20 17.5t-21 27.5t-17 36.5t-7 44.5q0 33 10.5 61t32.5 48.5t55.5 32t78.5 11.5q17 0 36.5 -1t42.5 -5z" />
    <glyph glyph-name="uni0656" unicode="&#x656;" horiz-adv-x="0" 
d="M-32 -344h65v-356h-65v356z" />
    <glyph glyph-name="uni0658" unicode="&#x658;" horiz-adv-x="0" 
d="M-59 1665q-20 -20 -36.5 -49.5t-16.5 -78.5q0 -15 5 -33t17.5 -33.5t33.5 -26t53 -10.5q33 0 53 11t31.5 27t15.5 34.5t4 32.5q0 35 -9.5 63.5t-25.5 50.5l33 25q29 -26 46 -65.5t17 -80.5q0 -37 -12 -69t-33.5 -55t-51.5 -36.5t-66 -13.5q-43 0 -76 13t-55.5 35
t-34 51.5t-11.5 61.5q0 54 25.5 98.5t60.5 71.5z" />
    <glyph glyph-name="uni0660" unicode="&#x660;" horiz-adv-x="1024" 
d="M585 2h-134v141h134v-141z" />
    <glyph glyph-name="uni0661" unicode="&#x661;" horiz-adv-x="1024" 
d="M463 1393h134v-1393h-134v1393z" />
    <glyph glyph-name="uni0662" unicode="&#x662;" horiz-adv-x="1024" 
d="M258 1393h675v-131h-523l163 -1262h-125z" />
    <glyph glyph-name="uni0663" unicode="&#x663;" horiz-adv-x="1024" 
d="M69 1393h132l28 -245q30 -10 58.5 -15.5t54.5 -5.5q39 0 71 12.5t55.5 38.5t36.5 67t13 98q0 25 -3 52h123v-15q0 -62 -9 -123t-41 -112q72 -29 131 -29q85 0 137 58t52 172v23.5t-2 25.5h125v-10q0 -85 -20.5 -153.5t-58.5 -117t-93.5 -74.5t-124.5 -26q-92 0 -201 47
q-41 -27 -78.5 -37.5t-75.5 -10.5q-33 0 -66 6.5t-67 15.5l131 -1035h-126z" />
    <glyph glyph-name="uni0664" unicode="&#x664;" horiz-adv-x="1024" 
d="M353 241q0 -35 20 -61t57 -43.5t89 -26t115 -8.5q52 0 108 8.5t113 23.5q-2 -32 -5.5 -62t-6.5 -62q-35 -13 -72 -21.5t-74 -13.5t-72 -7t-66 -2q-78 0 -141 18t-107 49.5t-67.5 74t-23.5 91.5q0 48 13.5 97.5t47.5 110t92.5 136.5t147.5 178q-97 44 -153.5 81t-85.5 69
t-37 62t-8 61q0 43 23 103t73 121t130.5 115.5t194.5 87.5v-127q-94 -31 -154.5 -70.5t-96 -77.5t-49.5 -70.5t-14 -48.5q0 -21 5.5 -38t23.5 -34t52 -37t91 -47q46 -23 77 -39.5t49 -29.5t25.5 -23.5t7.5 -21.5q0 -26 -35 -68.5t-100 -118.5q-55 -64 -91 -112t-57.5 -85.5
t-30 -69t-8.5 -62.5z" />
    <glyph glyph-name="uni0665" unicode="&#x665;" horiz-adv-x="1024" 
d="M523 1056q57 0 109 -25.5t96.5 -70.5t80.5 -106.5t61.5 -133.5t39 -151.5t13.5 -160.5q0 -45 -10 -96t-30.5 -101t-53 -95.5t-78 -80t-104.5 -55t-132 -20.5q-82 0 -144.5 22t-108 58.5t-75.5 85t-47.5 101t-25 105.5t-7.5 100q0 78 14.5 155t41 146.5t64 128.5t83.5 102
t100 67.5t113 24.5zM795 449q0 95 -23.5 178t-63 144.5t-91.5 96.5t-109 35q-45 0 -82.5 -19.5t-68.5 -53t-54.5 -77.5t-39.5 -93.5t-24 -101.5t-8 -101q0 -60 13 -124.5t46 -118t89.5 -88t143.5 -34.5q80 0 132.5 34t83.5 86.5t43.5 115.5t12.5 121z" />
    <glyph glyph-name="uni0666" unicode="&#x666;" horiz-adv-x="1024" 
d="M902 0h-124l-167 1262h-511v131h626z" />
    <glyph glyph-name="uni0667" unicode="&#x667;" horiz-adv-x="1024" 
d="M148 1393l412 -1159l330 1159h128l-426 -1393h-76l-510 1393h142z" />
    <glyph glyph-name="uni0668" unicode="&#x668;" horiz-adv-x="1024" 
d="M876 0l-392 1158l-349 -1158h-129l447 1393h77l489 -1393h-143z" />
    </font>
</defs>
</svg>
