<?xml version="1.0" standalone="no"?>
<!DOCTYPE svg PUBLIC "-//W3C//DTD SVG 1.1//EN" "http://www.w3.org/Graphics/SVG/1.1/DTD/svg11.dtd" >
<svg xmlns="http://www.w3.org/2000/svg">
<defs>
  <font id="unicons" horiz-adv-x="128">
    <font-face font-family="unicons"
      units-per-em="128" ascent="128"
      descent="0" />
    <missing-glyph horiz-adv-x="0" />
    <glyph glyph-name="0-plus"
      unicode="&#xEA01;"
      horiz-adv-x="128" d="M95.9998813237133 101.3333333333333H101.3332146570466V96A5.3333333333333 5.3333333333333 0 0 1 111.9998813237133 96V101.3333333333333H117.3332146570466A5.3333333333333 5.3333333333333 0 0 1 117.3332146570466 112H111.9998813237133V117.3333333333333A5.3333333333333 5.3333333333333 0 0 1 101.3332146570466 117.3333333333333V112H95.9998813237133A5.3333333333333 5.3333333333333 0 0 1 95.9998813237133 101.3333333333333zM66.6665479903799 96H61.3332146570466A16 16 0 0 1 45.3332146570466 80V48A16 16 0 0 1 61.3332146570466 32H66.6665479903799A16 16 0 0 1 82.6665479903799 48V80A16 16 0 0 1 66.6665479903799 96zM71.9998813237133 48A5.3333333333333 5.3333333333333 0 0 0 66.6665479903799 42.6666666666667H61.3332146570466A5.3333333333333 5.3333333333333 0 0 0 55.9998813237132 48V80A5.3333333333333 5.3333333333333 0 0 0 61.3332146570466 85.3333333333333H66.6665479903799A5.3333333333333 5.3333333333333 0 0 0 71.9998813237133 80zM115.1998813237133 80A5.3333333333333 5.3333333333333 0 0 1 111.0398813237133 73.7066666666667A48 48 0 1 0 73.7065479903799 111.04A5.3333333333333 5.3333333333333 0 1 1 75.8398813237133 121.7066666666667A57.6 57.6 0 0 1 63.9998813237133 122.6666666666667A58.6666666666667 58.6666666666667 0 1 1 122.6665479903799 64A57.6 57.6 0 0 1 121.4932146570466 75.7333333333333A5.3333333333333 5.3333333333333 0 0 1 115.1998813237133 80z" />
    <glyph glyph-name="10-plus"
      unicode="&#xEA02;"
      horiz-adv-x="128" d="M95.9998813237133 101.3333333333333H101.3332146570466V96A5.3333333333333 5.3333333333333 0 0 1 111.9998813237133 96V101.3333333333333H117.3332146570466A5.3333333333333 5.3333333333333 0 0 1 117.3332146570466 112H111.9998813237133V117.3333333333333A5.3333333333333 5.3333333333333 0 0 1 101.3332146570466 117.3333333333333V112H95.9998813237133A5.3333333333333 5.3333333333333 0 0 1 95.9998813237133 101.3333333333333zM58.6665479903799 80V48A16 16 0 0 1 74.6665479903799 32H79.9998813237133A16 16 0 0 1 95.9998813237133 48V80A16 16 0 0 1 79.9998813237133 96H74.6665479903799A16 16 0 0 1 58.6665479903799 80zM85.3332146570466 80V48A5.3333333333333 5.3333333333333 0 0 0 79.9998813237133 42.6666666666667H74.6665479903799A5.3333333333333 5.3333333333333 0 0 0 69.3332146570466 48V80A5.3333333333333 5.3333333333333 0 0 0 74.6665479903799 85.3333333333333H79.9998813237133A5.3333333333333 5.3333333333333 0 0 0 85.3332146570466 80zM115.1998813237133 80A5.3333333333333 5.3333333333333 0 0 1 111.0398813237133 73.7066666666667A48 48 0 1 0 73.7065479903799 111.04A5.3333333333333 5.3333333333333 0 1 1 75.8398813237133 121.7066666666667A57.6 57.6 0 0 1 63.9998813237133 122.6666666666667A58.6666666666667 58.6666666666667 0 1 1 122.6665479903799 64A57.6 57.6 0 0 1 121.4932146570466 75.7333333333333A5.3333333333333 5.3333333333333 0 0 1 115.1998813237133 80zM37.3332146570466 90.6666666666667V37.3333333333333A5.3333333333333 5.3333333333333 0 0 1 47.9998813237132 37.3333333333333V90.6666666666667A5.3333333333333 5.3333333333333 0 0 1 37.3332146570466 90.6666666666667z" />
    <glyph glyph-name="12-plus"
      unicode="&#xEA03;"
      horiz-adv-x="128" d="M58.6665479903799 80A5.3333333333333 5.3333333333333 0 0 1 69.3332146570466 80A5.3333333333333 5.3333333333333 0 0 0 74.6665479903799 85.3333333333333H79.9998813237133A5.3333333333333 5.3333333333333 0 0 0 85.3332146570466 80V74.6666666666667A5.3333333333333 5.3333333333333 0 0 0 79.9998813237133 69.3333333333333H74.6665479903799A16 16 0 0 1 58.6665479903799 53.3333333333333V37.3333333333333A5.3333333333333 5.3333333333333 0 0 1 63.9998813237133 32H90.6665479903799A5.3333333333333 5.3333333333333 0 0 1 90.6665479903799 42.6666666666667H69.3332146570466V53.3333333333333A5.3333333333333 5.3333333333333 0 0 0 74.6665479903799 58.6666666666667H79.9998813237133A16 16 0 0 1 95.9998813237133 74.6666666666667V80A16 16 0 0 1 79.9998813237133 96H74.6665479903799A16 16 0 0 1 58.6665479903799 80zM95.9998813237133 101.3333333333333H101.3332146570466V96A5.3333333333333 5.3333333333333 0 0 1 111.9998813237133 96V101.3333333333333H117.3332146570466A5.3333333333333 5.3333333333333 0 0 1 117.3332146570466 112H111.9998813237133V117.3333333333333A5.3333333333333 5.3333333333333 0 0 1 101.3332146570466 117.3333333333333V112H95.9998813237133A5.3333333333333 5.3333333333333 0 0 1 95.9998813237133 101.3333333333333zM37.3332146570466 90.6666666666667V37.3333333333333A5.3333333333333 5.3333333333333 0 0 1 47.9998813237132 37.3333333333333V90.6666666666667A5.3333333333333 5.3333333333333 0 0 1 37.3332146570466 90.6666666666667zM115.1998813237133 80A5.3333333333333 5.3333333333333 0 0 1 111.0398813237133 73.7066666666667A48 48 0 1 0 73.7065479903799 111.04A5.3333333333333 5.3333333333333 0 1 1 75.8398813237133 121.7066666666667A57.6 57.6 0 0 1 63.9998813237133 122.6666666666667A58.6666666666667 58.6666666666667 0 1 1 122.6665479903799 64A57.6 57.6 0 0 1 121.4932146570466 75.7333333333333A5.3333333333333 5.3333333333333 0 0 1 115.1998813237133 80z" />
    <glyph glyph-name="13-plus"
      unicode="&#xEA04;"
      horiz-adv-x="128" d="M95.9998813237133 101.3333333333333H101.3332146570466V96A5.3333333333333 5.3333333333333 0 0 1 111.9998813237133 96V101.3333333333333H117.3332146570466A5.3333333333333 5.3333333333333 0 0 1 117.3332146570466 112H111.9998813237133V117.3333333333333A5.3333333333333 5.3333333333333 0 0 1 101.3332146570466 117.3333333333333V112H95.9998813237133A5.3333333333333 5.3333333333333 0 0 1 95.9998813237133 101.3333333333333zM58.6665479903799 80A5.3333333333333 5.3333333333333 0 0 1 69.3332146570466 80A5.3333333333333 5.3333333333333 0 0 0 74.6665479903799 85.3333333333333H79.9998813237133A5.3333333333333 5.3333333333333 0 0 0 85.3332146570466 80V74.6666666666667A5.3333333333333 5.3333333333333 0 0 0 79.9998813237133 69.3333333333333H77.3332146570466A5.3333333333333 5.3333333333333 0 0 1 77.3332146570466 58.6666666666667H79.9998813237133A5.3333333333333 5.3333333333333 0 0 0 85.3332146570466 53.3333333333333V48A5.3333333333333 5.3333333333333 0 0 0 79.9998813237133 42.6666666666667H74.6665479903799A5.3333333333333 5.3333333333333 0 0 0 69.3332146570466 48A5.3333333333333 5.3333333333333 0 0 1 58.6665479903799 48A16 16 0 0 1 74.6665479903799 32H79.9998813237133A16 16 0 0 1 95.9998813237133 48V53.3333333333333A16 16 0 0 1 91.8398813237132 64A16 16 0 0 1 95.9998813237133 74.6666666666667V80A16 16 0 0 1 79.9998813237133 96H74.6665479903799A16 16 0 0 1 58.6665479903799 80zM37.3332146570466 90.6666666666667V37.3333333333333A5.3333333333333 5.3333333333333 0 0 1 47.9998813237132 37.3333333333333V90.6666666666667A5.3333333333333 5.3333333333333 0 0 1 37.3332146570466 90.6666666666667zM115.1998813237133 80A5.3333333333333 5.3333333333333 0 0 1 111.0398813237133 73.7066666666667A48 48 0 1 0 73.7065479903799 111.04A5.3333333333333 5.3333333333333 0 1 1 75.8398813237133 121.7066666666667A57.6 57.6 0 0 1 63.9998813237133 122.6666666666667A58.6666666666667 58.6666666666667 0 1 1 122.6665479903799 64A57.6 57.6 0 0 1 121.4932146570466 75.7333333333333A5.3333333333333 5.3333333333333 0 0 1 115.1998813237133 80z" />
    <glyph glyph-name="16-plus"
      unicode="&#xEA05;"
      horiz-adv-x="128" d="M95.9998813237133 101.3333333333333H101.3332146570466V96A5.3333333333333 5.3333333333333 0 0 1 111.9998813237133 96V101.3333333333333H117.3332146570466A5.3333333333333 5.3333333333333 0 0 1 117.3332146570466 112H111.9998813237133V117.3333333333333A5.3333333333333 5.3333333333333 0 0 1 101.3332146570466 117.3333333333333V112H95.9998813237133A5.3333333333333 5.3333333333333 0 0 1 95.9998813237133 101.3333333333333zM115.1998813237133 80A5.3333333333333 5.3333333333333 0 0 1 111.0398813237133 73.7066666666667A48 48 0 1 0 73.7065479903799 111.04A5.3333333333333 5.3333333333333 0 1 1 75.8398813237133 121.7066666666667A57.6 57.6 0 0 1 63.9998813237133 122.6666666666667A58.6666666666667 58.6666666666667 0 1 1 122.6665479903799 64A57.6 57.6 0 0 1 121.4932146570466 75.7333333333333A5.3333333333333 5.3333333333333 0 0 1 115.1998813237133 80zM37.3332146570466 90.6666666666667V37.3333333333333A5.3333333333333 5.3333333333333 0 0 1 47.9998813237132 37.3333333333333V90.6666666666667A5.3333333333333 5.3333333333333 0 0 1 37.3332146570466 90.6666666666667zM58.6665479903799 80V48A16 16 0 0 1 74.6665479903799 32H79.9998813237133A16 16 0 0 1 95.9998813237133 48V53.3333333333333A16 16 0 0 1 79.9998813237133 69.3333333333333H69.3332146570466V80A5.3333333333333 5.3333333333333 0 0 0 74.6665479903799 85.3333333333333H79.9998813237133A5.3333333333333 5.3333333333333 0 0 0 85.3332146570466 80A5.3333333333333 5.3333333333333 0 0 1 95.9998813237133 80A16 16 0 0 1 79.9998813237133 96H74.6665479903799A16 16 0 0 1 58.6665479903799 80zM79.9998813237133 58.6666666666667A5.3333333333333 5.3333333333333 0 0 0 85.3332146570466 53.3333333333333V48A5.3333333333333 5.3333333333333 0 0 0 79.9998813237133 42.6666666666667H74.6665479903799A5.3333333333333 5.3333333333333 0 0 0 69.3332146570466 48V58.6666666666667z" />
    <glyph glyph-name="17-plus"
      unicode="&#xEA06;"
      horiz-adv-x="128" d="M58.6665479903799 90.6666666666667V80A5.3333333333333 5.3333333333333 0 0 1 69.3332146570466 80V85.3333333333333H84.1598813237133L74.6665479903799 38.4A5.3333333333333 5.3333333333333 0 0 1 78.9332146570466 32H79.9998813237133A5.3333333333333 5.3333333333333 0 0 1 85.3332146570466 36.2666666666667L95.9998813237133 89.6A5.3333333333333 5.3333333333333 0 0 1 94.8798813237133 94.0266666666667A5.3333333333333 5.3333333333333 0 0 1 90.6665479903799 96H63.9998813237133A5.3333333333333 5.3333333333333 0 0 1 58.6665479903799 90.6666666666667zM95.9998813237133 101.3333333333333H101.3332146570466V96A5.3333333333333 5.3333333333333 0 0 1 111.9998813237133 96V101.3333333333333H117.3332146570466A5.3333333333333 5.3333333333333 0 0 1 117.3332146570466 112H111.9998813237133V117.3333333333333A5.3333333333333 5.3333333333333 0 0 1 101.3332146570466 117.3333333333333V112H95.9998813237133A5.3333333333333 5.3333333333333 0 0 1 95.9998813237133 101.3333333333333zM37.3332146570466 90.6666666666667V37.3333333333333A5.3333333333333 5.3333333333333 0 0 1 47.9998813237132 37.3333333333333V90.6666666666667A5.3333333333333 5.3333333333333 0 0 1 37.3332146570466 90.6666666666667zM115.1998813237133 80A5.3333333333333 5.3333333333333 0 0 1 111.0398813237133 73.7066666666667A48 48 0 1 0 73.7065479903799 111.04A5.3333333333333 5.3333333333333 0 1 1 75.8398813237133 121.7066666666667A57.6 57.6 0 0 1 63.9998813237133 122.6666666666667A58.6666666666667 58.6666666666667 0 1 1 122.6665479903799 64A57.6 57.6 0 0 1 121.4932146570466 75.7333333333333A5.3333333333333 5.3333333333333 0 0 1 115.1998813237133 80z" />
    <glyph glyph-name="18-plus"
      unicode="&#xEA07;"
      horiz-adv-x="128" d="M95.9998813237133 101.3333333333333H101.3332146570466V96A5.3333333333333 5.3333333333333 0 0 1 111.9998813237133 96V101.3333333333333H117.3332146570466A5.3333333333333 5.3333333333333 0 0 1 117.3332146570466 112H111.9998813237133V117.3333333333333A5.3333333333333 5.3333333333333 0 0 1 101.3332146570466 117.3333333333333V112H95.9998813237133A5.3333333333333 5.3333333333333 0 0 1 95.9998813237133 101.3333333333333zM37.3332146570466 90.6666666666667V37.3333333333333A5.3333333333333 5.3333333333333 0 0 1 47.9998813237132 37.3333333333333V90.6666666666667A5.3333333333333 5.3333333333333 0 0 1 37.3332146570466 90.6666666666667zM115.1998813237133 80A5.3333333333333 5.3333333333333 0 0 1 111.0398813237133 73.7066666666667A48 48 0 1 0 73.7065479903799 111.04A5.3333333333333 5.3333333333333 0 1 1 75.8398813237133 121.7066666666667A57.6 57.6 0 0 1 63.9998813237133 122.6666666666667A58.6666666666667 58.6666666666667 0 1 1 122.6665479903799 64A57.6 57.6 0 0 1 121.4932146570466 75.7333333333333A5.3333333333333 5.3333333333333 0 0 1 115.1998813237133 80zM58.6665479903799 80V74.6666666666667A16 16 0 0 1 62.8265479903799 64A16 16 0 0 1 58.6665479903799 53.3333333333333V48A16 16 0 0 1 74.6665479903799 32H79.9998813237133A16 16 0 0 1 95.9998813237133 48V53.3333333333333A16 16 0 0 1 91.8398813237132 64A16 16 0 0 1 95.9998813237133 74.6666666666667V80A16 16 0 0 1 79.9998813237133 96H74.6665479903799A16 16 0 0 1 58.6665479903799 80zM85.3332146570466 48A5.3333333333333 5.3333333333333 0 0 0 79.9998813237133 42.6666666666667H74.6665479903799A5.3333333333333 5.3333333333333 0 0 0 69.3332146570466 48V53.3333333333333A5.3333333333333 5.3333333333333 0 0 0 74.6665479903799 58.6666666666667H79.9998813237133A5.3333333333333 5.3333333333333 0 0 0 85.3332146570466 53.3333333333333zM85.3332146570466 80V74.6666666666667A5.3333333333333 5.3333333333333 0 0 0 79.9998813237133 69.3333333333333H74.6665479903799A5.3333333333333 5.3333333333333 0 0 0 69.3332146570466 74.6666666666667V80A5.3333333333333 5.3333333333333 0 0 0 74.6665479903799 85.3333333333333H79.9998813237133A5.3333333333333 5.3333333333333 0 0 0 85.3332146570466 80z" />
    <glyph glyph-name="21-plus"
      unicode="&#xEA08;"
      horiz-adv-x="128" d="M90.6665479903799 32A5.3333333333333 5.3333333333333 0 0 1 95.9998813237133 37.3333333333333V90.6666666666667A5.3333333333333 5.3333333333333 0 0 1 85.3332146570466 90.6666666666667V37.3333333333333A5.3333333333333 5.3333333333333 0 0 1 90.6665479903799 32zM95.9998813237133 101.3333333333333H101.3332146570466V96A5.3333333333333 5.3333333333333 0 0 1 111.9998813237133 96V101.3333333333333H117.3332146570466A5.3333333333333 5.3333333333333 0 0 1 117.3332146570466 112H111.9998813237133V117.3333333333333A5.3333333333333 5.3333333333333 0 0 1 101.3332146570466 117.3333333333333V112H95.9998813237133A5.3333333333333 5.3333333333333 0 0 1 95.9998813237133 101.3333333333333zM115.1998813237133 80A5.3333333333333 5.3333333333333 0 0 1 111.0398813237133 73.7066666666667A48 48 0 1 0 73.7065479903799 111.04A5.3333333333333 5.3333333333333 0 1 1 75.8398813237133 121.7066666666667A57.6 57.6 0 0 1 63.9998813237133 122.6666666666667A58.6666666666667 58.6666666666667 0 1 1 122.6665479903799 64A57.6 57.6 0 0 1 121.4932146570466 75.7333333333333A5.3333333333333 5.3333333333333 0 0 1 115.1998813237133 80zM53.3332146570466 58.6666666666667H58.6665479903799A16 16 0 0 1 74.6665479903799 74.6666666666667V80A16 16 0 0 1 58.6665479903799 96H53.3332146570466A16 16 0 0 1 37.3332146570466 80A5.3333333333333 5.3333333333333 0 0 1 47.9998813237132 80A5.3333333333333 5.3333333333333 0 0 0 53.3332146570466 85.3333333333333H58.6665479903799A5.3333333333333 5.3333333333333 0 0 0 63.9998813237133 80V74.6666666666667A5.3333333333333 5.3333333333333 0 0 0 58.6665479903799 69.3333333333333H53.3332146570466A16 16 0 0 1 37.3332146570466 53.3333333333333V37.3333333333333A5.3333333333333 5.3333333333333 0 0 1 42.6665479903799 32H69.3332146570466A5.3333333333333 5.3333333333333 0 0 1 69.3332146570466 42.6666666666667H47.9998813237132V53.3333333333333A5.3333333333333 5.3333333333333 0 0 0 53.3332146570466 58.6666666666667z" />
    <glyph glyph-name="3-plus"
      unicode="&#xEA09;"
      horiz-adv-x="128" d="M95.9998813237133 101.3333333333333H101.3332146570466V96A5.3333333333333 5.3333333333333 0 0 1 111.9998813237133 96V101.3333333333333H117.3332146570466A5.3333333333333 5.3333333333333 0 0 1 117.3332146570466 112H111.9998813237133V117.3333333333333A5.3333333333333 5.3333333333333 0 0 1 101.3332146570466 117.3333333333333V112H95.9998813237133A5.3333333333333 5.3333333333333 0 0 1 95.9998813237133 101.3333333333333zM82.6665479903799 80A16 16 0 0 1 66.6665479903799 96H61.3332146570466A16 16 0 0 1 45.3332146570466 80A5.3333333333333 5.3333333333333 0 0 1 55.9998813237132 80A5.3333333333333 5.3333333333333 0 0 0 61.3332146570466 85.3333333333333H66.6665479903799A5.3333333333333 5.3333333333333 0 0 0 71.9998813237133 80V74.6666666666667A5.3333333333333 5.3333333333333 0 0 0 66.6665479903799 69.3333333333333H63.9998813237133A5.3333333333333 5.3333333333333 0 0 1 63.9998813237133 58.6666666666667H66.6665479903799A5.3333333333333 5.3333333333333 0 0 0 71.9998813237133 53.3333333333333V48A5.3333333333333 5.3333333333333 0 0 0 66.6665479903799 42.6666666666667H61.3332146570466A5.3333333333333 5.3333333333333 0 0 0 55.9998813237132 48A5.3333333333333 5.3333333333333 0 0 1 45.3332146570466 48A16 16 0 0 1 61.3332146570466 32H66.6665479903799A16 16 0 0 1 82.6665479903799 48V53.3333333333333A16 16 0 0 1 78.5065479903799 64A16 16 0 0 1 82.6665479903799 74.6666666666667zM115.1998813237133 80A5.3333333333333 5.3333333333333 0 0 1 111.0398813237133 73.7066666666667A48 48 0 1 0 73.7065479903799 111.04A5.3333333333333 5.3333333333333 0 1 1 75.8398813237133 121.7066666666667A57.6 57.6 0 0 1 63.9998813237133 122.6666666666667A58.6666666666667 58.6666666666667 0 1 1 122.6665479903799 64A57.6 57.6 0 0 1 121.4932146570466 75.7333333333333A5.3333333333333 5.3333333333333 0 0 1 115.1998813237133 80z" />
    <glyph glyph-name="500px"
      unicode="&#xEA0A;"
      horiz-adv-x="128" d="M37.2423773963505 47.2533333333333A7.52 7.52 0 0 1 38.1490440630172 44.9066666666667A33.4933333333333 33.4933333333333 0 0 1 45.5623773963505 33.8133333333333A35.5733333333333 35.5733333333333 0 0 1 56.7090440630172 26.3466666666667A33.12 33.12 0 0 1 70.2557107296838 23.5733333333334A33.5466666666667 33.5466666666667 0 0 1 83.8557107296838 26.3466666666667A35.36 35.36 0 0 1 94.9490440630172 33.8133333333333A34.08 34.08 0 0 1 102.4690440630172 44.9066666666667A34.9333333333333 34.9333333333333 0 0 1 104.9223773963505 58.6666666666667A36.0533333333333 36.0533333333333 0 0 1 102.2023773963505 72.32A33.8666666666667 33.8666666666667 0 0 1 94.6823773963505 83.36A34.4533333333333 34.4533333333333 0 0 1 69.9890440630172 93.6A35.36 35.36 0 0 1 56.2290440630172 90.6666666666667A37.8133333333333 37.8133333333333 0 0 1 49.8290440630172 87.04A38.08 38.08 0 0 1 43.7490440630172 82.0266666666667V110.7733333333333H92.0157107296839C93.1890440630172 110.7733333333333 93.8290440630172 111.8933333333333 93.8290440630172 114.08S93.1357107296838 117.3333333333333 91.9623773963505 117.3333333333333H39.7490440630172A1.9733333333333 1.9733333333333 0 0 1 38.1490440630172 116.64A2.1333333333333 2.1333333333333 0 0 1 37.5090440630172 115.0933333333333V74.6666666666667A2.08 2.08 0 0 1 38.4157107296838 73.0666666666667A5.8133333333333 5.8133333333333 0 0 1 40.6023773963505 72.1066666666667A3.8933333333333 3.8933333333333 0 0 1 42.8957107296838 72.1066666666667A4.9066666666667 4.9066666666667 0 0 1 44.1757107296838 72.6933333333333A5.3333333333333 5.3333333333333 0 0 1 44.9223773963505 73.6A36.8 36.8 0 0 0 49.5090440630172 78.9333333333333A27.4666666666667 27.4666666666667 0 0 0 69.7223773963505 87.2533333333333A27.4666666666667 27.4666666666667 0 0 0 90.0423773963505 78.6666666666667A27.5733333333333 27.5733333333333 0 0 0 98.4690440630172 58.6666666666667A28.32 28.32 0 0 0 96.2823773963505 48A28.5866666666667 28.5866666666667 0 0 0 80.8157107296838 32A28.8 28.8 0 0 0 69.8290440630172 29.8666666666667A27.1466666666667 27.1466666666667 0 0 0 55.4290440630172 33.8666666666667V58.6666666666667A14.1866666666667 14.1866666666667 0 0 0 59.2157107296838 68.2133333333333A13.4933333333333 13.4933333333333 0 0 0 69.8823773963505 72.96A14.1333333333333 14.1333333333333 0 0 0 80.5490440630172 68.7466666666667A13.6 13.6 0 0 0 84.5490440630172 58.6666666666667A14.56 14.56 0 0 0 69.7757107296839 44.0533333333333H67.9623773963505L65.9890440630172 44.4266666666667H65.1890440630172C64.0690440630172 44.7466666666667 63.2157107296839 43.8933333333333 62.5757107296838 41.8666666666667S62.2023773963505 38.6666666666667 63.3223773963505 38.24A23.1466666666667 23.1466666666667 0 0 1 69.9890440630172 37.28A20.48 20.48 0 0 1 84.9223773963505 43.4666666666667A20.32 20.32 0 0 1 91.1090440630172 58.6666666666667A19.8933333333333 19.8933333333333 0 0 1 84.9223773963505 73.4933333333333A20.2666666666667 20.2666666666667 0 0 1 69.9890440630172 79.6266666666667A20.5866666666667 20.5866666666667 0 0 1 54.9490440630172 73.4933333333333A19.04 19.04 0 0 1 48.8690440630172 59.68V39.4133333333333A30.0266666666667 30.0266666666667 0 0 0 43.1090440630172 49.3333333333333C42.6823773963505 50.4533333333334 41.5090440630172 50.6666666666667 39.5357107296838 50.0266666666667S36.6023773963505 48.48 36.9757107296838 47.4133333333333zM70.5757107296838 105.92A43.52 43.52 0 0 1 52.7623773963505 102.5066666666667A1.3333333333333 1.3333333333333 0 0 1 51.5357107296838 101.3333333333333A6.72 6.72 0 0 1 52.0157107296838 99.04C52.7623773963505 97.1733333333334 53.6157107296838 96.48 54.6823773963505 96.8533333333333A43.1466666666667 43.1466666666667 0 0 0 70.3090440630172 99.7866666666667A40.2133333333333 40.2133333333333 0 0 0 86.7357107296838 96.4266666666667A46.24 46.24 0 0 0 99.0557107296838 88.5333333333333A1.3333333333333 1.3333333333333 0 0 1 100.0157107296838 88.1066666666667C100.4957107296838 88.1066666666667 101.2957107296838 88.64 102.3090440630172 89.6533333333333L103.3223773963505 90.6666666666667A1.9733333333333 1.9733333333333 0 0 1 103.6423773963505 91.7866666666667A1.6 1.6 0 0 1 103.1090440630172 92.8533333333333A45.9733333333333 45.9733333333333 0 0 1 89.1357107296838 101.8666666666667A48 48 0 0 1 70.3090440630172 105.92zM61.9890440630172 53.0666666666667A2.4533333333333 2.4533333333333 0 0 1 63.0557107296838 51.3066666666667A2.7733333333333 2.7733333333333 0 0 1 64.9223773963505 50.3466666666667A1.28 1.28 0 0 1 65.8290440630172 50.6666666666667L69.7223773963505 54.56L73.4557107296838 50.9333333333333A1.4933333333333 1.4933333333333 0 0 1 74.5757107296838 50.3466666666667A3.0933333333333 3.0933333333333 0 0 1 76.4957107296838 51.36C77.5623773963505 52.48 77.7223773963505 53.44 76.8690440630172 54.2933333333334L73.1357107296838 58.0266666666667L77.0823773963505 61.9733333333333C77.7223773963505 62.6133333333334 77.5090440630172 63.52 76.3890440630172 64.5866666666667S74.2557107296838 66.0266666666667 73.5623773963505 65.3333333333333L69.6690440630172 61.4933333333333L65.8290440630172 65.44A1.6 1.6 0 0 1 65.0290440630172 65.7066666666667A2.9866666666667 2.9866666666667 0 0 1 63.2157107296838 64.64C61.9890440630172 63.4666666666667 61.7223773963505 62.6133333333334 62.3623773963505 61.9733333333334L66.3090440630172 58.0266666666667L62.3623773963505 54.1866666666667A1.8666666666667 1.8666666666667 0 0 1 61.7223773963505 53.0666666666667zM104.2823773963505 28.6933333333333A6.6133333333333 6.6133333333333 0 0 1 102.3090440630172 30.0266666666667A1.4933333333333 1.4933333333333 0 0 1 100.8157107296838 29.6533333333333L100.4423773963505 29.28A42.6666666666667 42.6666666666667 0 0 0 87.0557107296838 20.2666666666667A42.3466666666667 42.3466666666667 0 0 0 40.7623773963505 29.28A39.8933333333333 39.8933333333333 0 0 0 31.4290440630172 42.6666666666667A49.76 49.76 0 0 0 28.7090440630172 52.1066666666667C28.7090440630172 53.2266666666667 27.3757107296838 53.6533333333333 25.3490440630172 53.3333333333333S22.3623773963505 52.2666666666667 22.5223773963505 51.2A45.44 45.44 0 0 1 25.7223773963505 39.9466666666667A47.1466666666667 47.1466666666667 0 0 1 36.3890440630172 24.5866666666667A48 48 0 0 1 51.8023773963505 13.92A48.6933333333333 48.6933333333333 0 0 1 70.6823773963505 10.1333333333333A49.4933333333333 49.4933333333333 0 0 1 89.5623773963505 13.92A48 48 0 0 1 104.9757107296838 24.5866666666667L105.2957107296838 24.9066666666667C105.7757107296838 26.08 105.4023773963505 27.2533333333333 104.0157107296838 28.6933333333333z" />
    <glyph glyph-name="6-plus"
      unicode="&#xEA0B;"
      horiz-adv-x="128" d="M95.9998813237133 101.3333333333333H101.3332146570466V96A5.3333333333333 5.3333333333333 0 0 1 111.9998813237133 96V101.3333333333333H117.3332146570466A5.3333333333333 5.3333333333333 0 0 1 117.3332146570466 112H111.9998813237133V117.3333333333333A5.3333333333333 5.3333333333333 0 0 1 101.3332146570466 117.3333333333333V112H95.9998813237133A5.3333333333333 5.3333333333333 0 0 1 95.9998813237133 101.3333333333333zM61.3332146570466 85.3333333333333H66.6665479903799A5.3333333333333 5.3333333333333 0 0 0 71.9998813237133 80A5.3333333333333 5.3333333333333 0 0 1 82.6665479903799 80A16 16 0 0 1 66.6665479903799 96H61.3332146570466A16 16 0 0 1 45.3332146570466 80V48A16 16 0 0 1 61.3332146570466 32H66.6665479903799A16 16 0 0 1 82.6665479903799 48V53.3333333333333A16 16 0 0 1 66.6665479903799 69.3333333333333H55.9998813237132V80A5.3333333333333 5.3333333333333 0 0 0 61.3332146570466 85.3333333333333zM66.6665479903799 58.6666666666667A5.3333333333333 5.3333333333333 0 0 0 71.9998813237133 53.3333333333333V48A5.3333333333333 5.3333333333333 0 0 0 66.6665479903799 42.6666666666667H61.3332146570466A5.3333333333333 5.3333333333333 0 0 0 55.9998813237132 48V58.6666666666667zM115.1998813237133 80A5.3333333333333 5.3333333333333 0 0 1 111.0398813237133 73.7066666666667A48 48 0 1 0 73.7065479903799 111.04A5.3333333333333 5.3333333333333 0 1 1 75.8398813237133 121.7066666666667A57.6 57.6 0 0 1 63.9998813237133 122.6666666666667A58.6666666666667 58.6666666666667 0 1 1 122.6665479903799 64A57.6 57.6 0 0 1 121.4932146570466 75.7333333333333A5.3333333333333 5.3333333333333 0 0 1 115.1998813237133 80z" />
    <glyph glyph-name="abacus"
      unicode="&#xEA0C;"
      horiz-adv-x="128" d="M112 117.3333333333333A5.3333333333333 5.3333333333333 0 0 1 106.6666666666667 112V96H85.3333333333333V101.3333333333333A5.3333333333333 5.3333333333333 0 0 1 74.6666666666667 101.3333333333333V96H64V101.3333333333333A5.3333333333333 5.3333333333333 0 0 1 53.3333333333333 101.3333333333333V96H42.6666666666667V101.3333333333333A5.3333333333333 5.3333333333333 0 0 1 32 101.3333333333333V96H21.3333333333333V112A5.3333333333333 5.3333333333333 0 0 1 10.6666666666667 112V26.6666666666667A16 16 0 0 1 26.6666666666667 10.6666666666667H101.3333333333333A16 16 0 0 1 117.3333333333333 26.6666666666667V112A5.3333333333333 5.3333333333333 0 0 1 112 117.3333333333333zM106.6666666666667 26.6666666666667A5.3333333333333 5.3333333333333 0 0 0 101.3333333333333 21.3333333333333H26.6666666666667A5.3333333333333 5.3333333333333 0 0 0 21.3333333333333 26.6666666666667V42.6666666666667H32V37.3333333333333A5.3333333333333 5.3333333333333 0 0 1 42.6666666666667 37.3333333333333V42.6666666666667H53.3333333333333V37.3333333333333A5.3333333333333 5.3333333333333 0 0 1 64 37.3333333333333V42.6666666666667H85.3333333333333V37.3333333333333A5.3333333333333 5.3333333333333 0 0 1 96 37.3333333333333V42.6666666666667H106.6666666666667zM106.6666666666667 53.3333333333333H96V58.6666666666667A5.3333333333333 5.3333333333333 0 0 1 85.3333333333333 58.6666666666667V53.3333333333333H64V58.6666666666667A5.3333333333333 5.3333333333333 0 0 1 53.3333333333333 58.6666666666667V53.3333333333333H42.6666666666667V58.6666666666667A5.3333333333333 5.3333333333333 0 0 1 32 58.6666666666667V53.3333333333333H21.3333333333333V85.3333333333333H32V80A5.3333333333333 5.3333333333333 0 0 1 42.6666666666667 80V85.3333333333333H53.3333333333333V80A5.3333333333333 5.3333333333333 0 0 1 64 80V85.3333333333333H74.6666666666667V80A5.3333333333333 5.3333333333333 0 0 1 85.3333333333333 80V85.3333333333333H106.6666666666667z" />
    <glyph glyph-name="accessible-icon-alt"
      unicode="&#xEA0D;"
      horiz-adv-x="128" d="M86.1182528165771 90.6666666666667A10.6666666666667 10.6666666666667 0 1 1 75.4515861499104 101.3333333333333A10.6666666666667 10.6666666666667 0 0 1 86.1182528165771 90.6666666666667zM68.5182528165771 29.8666666666667A21.3333333333333 21.3333333333333 0 1 0 49.0515861499104 64A5.3333333333333 5.3333333333333 0 1 1 47.8782528165771 74.6666666666667A32 32 0 0 1 51.4515861499104 10.6666666666667A32 32 0 0 1 77.0515861499104 23.4666666666667A5.3333333333333 5.3333333333333 0 0 1 68.5182528165771 29.8666666666667zM104.7849194832437 21.3333333333333H99.4515861499104V48A5.3333333333333 5.3333333333333 0 0 1 94.1182528165771 53.3333333333333H69.7449194832437L78.7582528165771 78.1866666666667V79.84A5.8666666666667 5.8666666666667 0 0 1 78.7582528165771 80.8A5.6533333333333 5.6533333333333 0 0 1 78.7582528165771 81.8133333333333A7.4666666666667 7.4666666666667 0 0 1 78.2782528165771 82.72A3.84 3.84 0 0 1 77.6915861499104 83.52A3.4133333333333 3.4133333333333 0 0 1 76.8915861499104 84.2133333333333S76.8915861499104 84.5333333333334 76.4649194832437 84.64L52.5715861499104 98.4H51.9315861499104A5.6533333333333 5.6533333333333 0 0 1 50.9182528165771 98.72H48.7849194832437A4.2666666666667 4.2666666666667 0 0 1 47.7182528165771 98.3466666666667H47.1315861499104L32.7849194832437 89.9733333333333A5.3333333333333 5.3333333333333 0 0 1 35.3449194832437 80A5.3333333333333 5.3333333333333 0 0 1 38.1182528165771 80.6933333333333L50.0115861499104 87.6266666666667L67.2915861499104 77.6L57.2115861499104 49.8133333333333A4.6933333333333 4.6933333333333 0 0 1 57.2115861499104 48.96A3.0933333333333 3.0933333333333 0 0 1 57.2115861499104 48A16 16 0 0 1 57.6382528165771 45.9733333333333L58.2249194832437 45.1733333333333A3.04 3.04 0 0 1 58.8115861499104 44.32A3.5733333333333 3.5733333333333 0 0 1 59.5582528165771 43.84A6.5066666666667 6.5066666666667 0 0 1 60.5715861499104 43.2A5.3333333333333 5.3333333333333 0 0 1 62.3849194832437 42.88H89.0515861499104V16.2133333333333A5.3333333333333 5.3333333333333 0 0 1 94.3849194832437 10.88H105.0515861499104A5.3333333333333 5.3333333333333 0 0 1 105.0515861499104 21.5466666666667z" />
    <glyph glyph-name="adjust"
      unicode="&#xEA0E;"
      horiz-adv-x="128" d="M64 117.3333333333333A53.3333333333333 53.3333333333333 0 1 1 117.3333333333334 64A53.3333333333333 53.3333333333333 0 0 1 64 117.3333333333333zM58.6666666666667 21.7066666666667A42.6666666666667 42.6666666666667 0 0 0 58.6666666666667 106.2933333333333zM69.3333333333333 21.7066666666667V106.2933333333333A42.6666666666667 42.6666666666667 0 0 0 69.3333333333333 21.7066666666667z" />
    <glyph glyph-name="adjust-alt"
      unicode="&#xEA0F;"
      horiz-adv-x="128" d="M87.1070141702386 88.96A1.0666666666667 1.0666666666667 0 0 1 87.1070141702386 89.3866666666667A53.3333333333333 53.3333333333333 0 0 1 69.0803475035719 108.8533333333333A52.7466666666667 52.7466666666667 0 0 1 40.0136808369053 117.3333333333333A5.3333333333333 5.3333333333333 0 0 1 34.6803475035719 112V16A5.3333333333333 5.3333333333333 0 0 1 40.0136808369053 10.6666666666667H41.5070141702386A53.3333333333333 53.3333333333333 0 0 1 87.1070141702386 88.96zM45.3470141702386 106.3466666666667A42.6666666666667 42.6666666666667 0 0 0 58.6270141702386 102.4L45.3470141702386 79.36zM45.3470141702386 58.0266666666667L67.5870141702386 96.5333333333333A42.08 42.08 0 0 0 76.0136808369053 86.7733333333333L45.3470141702386 33.6533333333333zM51.5336808369053 22.9866666666667L81.3470141702386 74.6666666666667A44.5866666666667 44.5866666666667 0 0 0 82.6803475035719 64A42.3466666666667 42.3466666666667 0 0 0 51.5336808369053 22.9866666666667z" />
    <glyph glyph-name="adjust-circle"
      unicode="&#xEA10;"
      horiz-adv-x="128" d="M90.6666666666667 90.6666666666667A41.28 41.28 0 1 1 37.3333333333333 37.3333333333333A41.28 41.28 0 1 1 90.6666666666667 90.6666666666667zM82.1333333333333 82.1333333333333A32.64 32.64 0 0 0 82.72 76.0533333333333A31.5733333333333 31.5733333333333 0 0 0 81.8666666666667 68.9066666666667L68.8533333333333 81.8133333333333A31.5733333333333 31.5733333333333 0 0 0 76 82.6666666666667A32.64 32.64 0 0 0 82.08 82.08zM77.12 58.6666666666667A32 32 0 0 0 69.3333333333333 50.88L50.88 69.3333333333333A32 32 0 0 0 58.6666666666667 77.12zM34.4533333333333 50.88A30.6666666666667 30.6666666666667 0 1 0 77.12 93.5466666666667H75.7866666666667A41.3866666666667 41.3866666666667 0 0 1 34.6666666666667 52C34.6666666666667 51.5733333333333 34.72 51.0933333333333 34.72 50.6666666666667zM45.6533333333333 46.1333333333333A32.64 32.64 0 0 0 45.0666666666667 52.2133333333333A31.5733333333333 31.5733333333333 0 0 0 45.92 59.36L58.88 46.4A31.5733333333333 31.5733333333333 0 0 0 51.7333333333333 45.5466666666667A32.64 32.64 0 0 0 45.92 45.92zM76 21.3333333333333A30.7733333333333 30.7733333333333 0 0 0 50.6666666666667 34.72H52A41.3866666666667 41.3866666666667 0 0 1 93.3333333333333 76V77.3333333333333A30.6666666666667 30.6666666666667 0 0 0 76 21.3333333333333z" />
    <glyph glyph-name="adjust-half"
      unicode="&#xEA11;"
      horiz-adv-x="128" d="M111.1607943976172 88.96A53.92 53.92 0 0 1 92.8141277309506 108.8533333333333A53.3333333333333 53.3333333333333 0 1 1 64.0674610642839 10.6666666666667H65.6141277309506A53.3333333333333 53.3333333333333 0 0 1 111.1607943976172 88.96zM58.7341277309506 21.7066666666667A42.6666666666667 42.6666666666667 0 0 0 58.7341277309506 106.2933333333333zM69.4007943976172 106.2933333333333A43.04 43.04 0 0 0 82.6807943976172 102.3466666666667L69.4007943976172 79.36zM69.4007943976172 58.2933333333333L91.6407943976172 96.5333333333333A43.4133333333333 43.4133333333333 0 0 0 100.0674610642839 86.7733333333333L69.4007943976172 33.6533333333333zM75.5341277309506 23.2L105.3474610642839 74.6666666666667A43.52 43.52 0 0 0 106.7341277309506 64A42.6666666666667 42.6666666666667 0 0 0 75.5341277309506 22.9333333333333z" />
    <glyph glyph-name="adobe"
      unicode="&#xEA12;"
      horiz-adv-x="128" d="M48.3733333333333 35.84H63.2L72.5333333333333 17.4933333333333H86.08L64 75.36zM10.6666666666667 112V16L50.24 112zM77.2266666666667 112L117.3333333333333 17.0133333333334V112z" />
    <glyph glyph-name="adobe-alt"
      unicode="&#xEA13;"
      horiz-adv-x="128" d="M54.6933333347763 115.184A5.328 5.328 0 0 1 50.2666666681097 117.552H10.6666666681097A5.3333333333333 5.3333333333333 0 0 1 5.3333333347763 112.2186666666667V15.7813333333333A5.3333333333333 5.3333333333333 0 0 1 15.600000001443 13.7546666666667L55.200000001443 110.1866666666667A5.3333333333333 5.3333333333333 0 0 1 54.6933333347763 115.1786666666667zM16.000000001443 42.8106666666667V106.88H42.3093333347763zM117.3333333347763 117.552H77.2373333347763A5.3333333333333 5.3333333333333 0 0 1 72.3253333347763 110.1493333333333L112.416000001443 14.9493333333333A5.328 5.328 0 0 1 117.328000001443 11.6853333333333A5.5946666666667 5.5946666666667 0 0 1 118.384000001443 11.792A5.3386666666667 5.3386666666667 0 0 1 122.6666666681097 17.0186666666667V112.2186666666667A5.3333333333333 5.3333333333333 0 0 1 117.3333333347763 117.552zM112.000000001443 43.424L85.2693333347763 106.8853333333333H112.000000001443zM69.104000001443 77.2266666666667A5.3333333333333 5.3333333333333 0 0 1 64.1653333347763 80.672H64.112000001443A5.3333333333333 5.3333333333333 0 0 1 59.1626666681097 77.328L42.848000001443 36.6293333333334A5.3333333333333 5.3333333333333 0 0 1 47.8026666681097 29.312H59.824000001443L67.9413333347763 13.3653333333333A5.328 5.328 0 0 1 72.6986666681097 10.448H86.6293333347763A5.3333333333333 5.3333333333333 0 0 1 91.6213333347763 17.664zM75.968000001443 21.1146666666667L67.8453333347763 37.0613333333333A5.328 5.328 0 0 1 63.0986666681097 39.9786666666667H55.6853333347763L63.968000001443 60.6453333333333L78.912000001443 21.1146666666667z" />
    <glyph glyph-name="airplay"
      unicode="&#xEA14;"
      horiz-adv-x="128" d="M68.4266666666667 56.2666666666667A5.3333333333333 5.3333333333333 0 0 1 59.5733333333333 56.2666666666667L38.24 24.2666666666667A5.3333333333333 5.3333333333333 0 0 1 38.24 18.9333333333333A5.3333333333333 5.3333333333333 0 0 1 42.6666666666667 16H85.3333333333333A5.3333333333333 5.3333333333333 0 0 1 90.0266666666667 18.8266666666667A5.3333333333333 5.3333333333333 0 0 1 89.76 24.16zM52.64 26.6666666666667L64 43.7333333333333L75.36 26.6666666666667zM101.3333333333333 112H26.6666666666667A16 16 0 0 1 10.6666666666667 96V48A16 16 0 0 1 26.6666666666667 32H31.2A5.3333333333333 5.3333333333333 0 1 1 31.2 42.6666666666667H26.6666666666667A5.3333333333333 5.3333333333333 0 0 0 21.3333333333333 48V96A5.3333333333333 5.3333333333333 0 0 0 26.6666666666667 101.3333333333333H101.3333333333333A5.3333333333333 5.3333333333333 0 0 0 106.6666666666667 96V48A5.3333333333333 5.3333333333333 0 0 0 101.3333333333333 42.6666666666667H96.8A5.3333333333333 5.3333333333333 0 0 1 96.8 32H101.3333333333333A16 16 0 0 1 117.3333333333333 48V96A16 16 0 0 1 101.3333333333333 112z" />
    <glyph glyph-name="align"
      unicode="&#xEA15;"
      horiz-adv-x="128" d="M15.9947836950346 48H69.3281170283679A5.3333333333333 5.3333333333333 0 0 1 69.3281170283679 58.6666666666667H15.9947836950346A5.3333333333333 5.3333333333333 0 0 1 15.9947836950346 48zM15.9947836950346 69.3333333333333H69.3281170283679A5.3333333333333 5.3333333333333 0 0 1 69.3281170283679 80H15.9947836950346A5.3333333333333 5.3333333333333 0 0 1 15.9947836950346 69.3333333333333zM15.9947836950346 90.6666666666667H111.9947836950346A5.3333333333333 5.3333333333333 0 0 1 111.9947836950346 101.3333333333333H15.9947836950346A5.3333333333333 5.3333333333333 0 0 1 15.9947836950346 90.6666666666667zM111.9947836950346 37.3333333333333H15.9947836950346A5.3333333333333 5.3333333333333 0 0 1 15.9947836950346 26.6666666666667H111.9947836950346A5.3333333333333 5.3333333333333 0 0 1 111.9947836950346 37.3333333333333zM104.7414503617013 76.96A5.3333333333333 5.3333333333333 0 1 1 97.9147836950346 68.8L103.6747836950346 64L97.9147836950346 59.2A5.3333333333333 5.3333333333333 0 0 1 97.2214503617013 51.68A5.3333333333333 5.3333333333333 0 0 1 101.3281170283679 49.76A5.3333333333333 5.3333333333333 0 0 1 104.7414503617013 51.04L115.4081170283679 59.8933333333334A5.3333333333333 5.3333333333333 0 0 1 115.4081170283679 68.1066666666667z" />
    <glyph glyph-name="align-alt"
      unicode="&#xEA16;"
      horiz-adv-x="128" d="M53.3333333333333 69.3333333333333H16A5.3333333333333 5.3333333333333 0 0 1 16 58.6666666666667H53.3333333333333A5.3333333333333 5.3333333333333 0 0 1 53.3333333333333 69.3333333333333zM53.3333333333333 26.6666666666667H16A5.3333333333333 5.3333333333333 0 0 1 16 16H53.3333333333333A5.3333333333333 5.3333333333333 0 0 1 53.3333333333333 26.6666666666667zM74.6666666666667 101.3333333333333H112A5.3333333333333 5.3333333333333 0 0 1 112 112H74.6666666666667A5.3333333333333 5.3333333333333 0 0 1 74.6666666666667 101.3333333333333zM53.3333333333333 90.6666666666667H16A5.3333333333333 5.3333333333333 0 0 1 16 80H53.3333333333333A5.3333333333333 5.3333333333333 0 0 1 53.3333333333333 90.6666666666667zM53.3333333333333 48H16A5.3333333333333 5.3333333333333 0 0 1 16 37.3333333333333H53.3333333333333A5.3333333333333 5.3333333333333 0 0 1 53.3333333333333 48zM53.3333333333333 112H37.3333333333333A5.3333333333333 5.3333333333333 0 0 1 37.3333333333333 101.3333333333333H53.3333333333333A5.3333333333333 5.3333333333333 0 0 1 53.3333333333333 112zM112 90.6666666666667H74.6666666666667A5.3333333333333 5.3333333333333 0 0 1 74.6666666666667 80H112A5.3333333333333 5.3333333333333 0 0 1 112 90.6666666666667zM112 69.3333333333333H74.6666666666667A5.3333333333333 5.3333333333333 0 0 1 74.6666666666667 58.6666666666667H112A5.3333333333333 5.3333333333333 0 0 1 112 69.3333333333333zM90.6666666666667 26.6666666666667H74.6666666666667A5.3333333333333 5.3333333333333 0 0 1 74.6666666666667 16H90.6666666666667A5.3333333333333 5.3333333333333 0 0 1 90.6666666666667 26.6666666666667zM112 48H74.6666666666667A5.3333333333333 5.3333333333333 0 0 1 74.6666666666667 37.3333333333333H112A5.3333333333333 5.3333333333333 0 0 1 112 48z" />
    <glyph glyph-name="align-center"
      unicode="&#xEA17;"
      horiz-adv-x="128" d="M16 90.6666666666667H112A5.3333333333333 5.3333333333333 0 0 1 112 101.3333333333333H16A5.3333333333333 5.3333333333333 0 0 1 16 90.6666666666667zM37.3333333333333 80A5.3333333333333 5.3333333333333 0 0 1 37.3333333333333 69.3333333333333H90.6666666666667A5.3333333333333 5.3333333333333 0 0 1 90.6666666666667 80zM112 58.6666666666667H16A5.3333333333333 5.3333333333333 0 0 1 16 48H112A5.3333333333333 5.3333333333333 0 0 1 112 58.6666666666667zM90.6666666666667 37.3333333333333H37.3333333333333A5.3333333333333 5.3333333333333 0 0 1 37.3333333333333 26.6666666666667H90.6666666666667A5.3333333333333 5.3333333333333 0 0 1 90.6666666666667 37.3333333333333z" />
    <glyph glyph-name="align-center-alt"
      unicode="&#xEA18;"
      horiz-adv-x="128" d="M26.6666666666667 85.3333333333333H101.3333333333333A5.3333333333333 5.3333333333333 0 0 1 101.3333333333333 96H26.6666666666667A5.3333333333333 5.3333333333333 0 0 1 26.6666666666667 85.3333333333333zM112 69.3333333333333H16A5.3333333333333 5.3333333333333 0 0 1 16 58.6666666666667H112A5.3333333333333 5.3333333333333 0 0 1 112 69.3333333333333zM101.3333333333333 42.6666666666667H26.6666666666667A5.3333333333333 5.3333333333333 0 0 1 26.6666666666667 32H101.3333333333333A5.3333333333333 5.3333333333333 0 0 1 101.3333333333333 42.6666666666667z" />
    <glyph glyph-name="align-center-h"
      unicode="&#xEA19;"
      horiz-adv-x="128" d="M116.9066666666667 66.0266666666667A5.3333333333333 5.3333333333333 0 0 1 115.7866666666667 67.7866666666667L102.4533333333333 81.12A5.3333333333333 5.3333333333333 0 0 1 94.88 73.5466666666667L99.1466666666667 69.3333333333333H85.3333333333333A5.3333333333333 5.3333333333333 0 0 1 85.3333333333333 58.6666666666667H99.1466666666667L94.88 54.4533333333334A5.3333333333333 5.3333333333333 0 0 1 94.88 46.88A5.3333333333333 5.3333333333333 0 0 1 102.4533333333333 46.88L115.7866666666667 60.2133333333333A5.3333333333333 5.3333333333333 0 0 1 116.9066666666667 61.9733333333333A5.3333333333333 5.3333333333333 0 0 1 116.9066666666667 66.0266666666667zM42.6666666666667 69.3333333333333H28.8533333333333L33.12 73.5466666666667A5.3333333333333 5.3333333333333 0 0 1 25.5466666666667 81.12L12.2133333333333 67.7866666666667A5.3333333333333 5.3333333333333 0 0 1 11.0933333333333 66.0266666666667A5.3333333333333 5.3333333333333 0 0 1 11.0933333333333 61.9733333333333A5.3333333333333 5.3333333333333 0 0 1 12.2133333333333 60.2133333333333L25.5466666666667 46.88A5.3333333333333 5.3333333333333 0 0 1 33.12 46.88A5.3333333333333 5.3333333333333 0 0 1 33.12 54.4533333333333L28.8533333333333 58.6666666666667H42.6666666666667A5.3333333333333 5.3333333333333 0 0 1 42.6666666666667 69.3333333333333zM64 90.6666666666667A5.3333333333333 5.3333333333333 0 0 1 58.6666666666667 85.3333333333333V42.6666666666667A5.3333333333333 5.3333333333333 0 0 1 69.3333333333333 42.6666666666667V85.3333333333333A5.3333333333333 5.3333333333333 0 0 1 64 90.6666666666667z" />
    <glyph glyph-name="align-center-justify"
      unicode="&#xEA1A;"
      horiz-adv-x="128" d="M112 48H16A5.3333333333333 5.3333333333333 0 0 1 16 37.3333333333333H112A5.3333333333333 5.3333333333333 0 0 1 112 48zM16 101.3333333333333H112A5.3333333333333 5.3333333333333 0 0 1 112 112H16A5.3333333333333 5.3333333333333 0 0 1 16 101.3333333333333zM90.6666666666667 26.6666666666667H37.3333333333333A5.3333333333333 5.3333333333333 0 0 1 37.3333333333333 16H90.6666666666667A5.3333333333333 5.3333333333333 0 0 1 90.6666666666667 26.6666666666667zM112 90.6666666666667H16A5.3333333333333 5.3333333333333 0 0 1 16 80H112A5.3333333333333 5.3333333333333 0 0 1 112 90.6666666666667zM112 69.3333333333333H16A5.3333333333333 5.3333333333333 0 0 1 16 58.6666666666667H112A5.3333333333333 5.3333333333333 0 0 1 112 69.3333333333333z" />
    <glyph glyph-name="align-center-v"
      unicode="&#xEA1B;"
      horiz-adv-x="128" d="M54.4533333333333 94.88L58.6666666666667 99.1466666666667V85.3333333333333A5.3333333333333 5.3333333333333 0 0 1 69.3333333333333 85.3333333333333V99.1466666666667L73.5466666666667 94.88A5.3333333333333 5.3333333333333 0 0 1 81.12 94.88A5.3333333333333 5.3333333333333 0 0 1 81.12 102.4533333333333L67.7866666666667 115.7866666666667A5.3333333333333 5.3333333333333 0 0 1 66.0266666666667 116.9066666666667A5.3333333333333 5.3333333333333 0 0 1 61.9733333333333 116.9066666666667A5.3333333333333 5.3333333333333 0 0 1 60.2133333333333 115.7866666666667L46.88 102.4533333333333A5.3333333333333 5.3333333333333 0 0 1 54.4533333333333 94.88zM85.3333333333333 69.3333333333333H42.6666666666667A5.3333333333333 5.3333333333333 0 0 1 42.6666666666667 58.6666666666667H85.3333333333333A5.3333333333333 5.3333333333333 0 0 1 85.3333333333333 69.3333333333333zM73.5466666666667 33.12L69.3333333333333 28.8533333333333V42.6666666666667A5.3333333333333 5.3333333333333 0 0 1 58.6666666666667 42.6666666666667V28.8533333333333L54.4533333333333 33.12A5.3333333333333 5.3333333333333 0 0 1 46.88 25.5466666666667L60.2133333333334 12.2133333333333A5.3333333333333 5.3333333333333 0 0 1 61.9733333333333 11.0933333333333A5.0133333333333 5.0133333333333 0 0 1 66.0266666666667 11.0933333333333A5.3333333333333 5.3333333333333 0 0 1 67.7866666666667 12.2133333333333L81.12 25.5466666666667A5.3333333333333 5.3333333333333 0 0 1 73.5466666666667 33.12z" />
    <glyph glyph-name="align-justify"
      unicode="&#xEA1C;"
      horiz-adv-x="128" d="M16 90.6666666666667H112A5.3333333333333 5.3333333333333 0 0 1 112 101.3333333333333H16A5.3333333333333 5.3333333333333 0 0 1 16 90.6666666666667zM112 37.3333333333333H16A5.3333333333333 5.3333333333333 0 0 1 16 26.6666666666667H112A5.3333333333333 5.3333333333333 0 0 1 112 37.3333333333333zM112 58.6666666666667H16A5.3333333333333 5.3333333333333 0 0 1 16 48H112A5.3333333333333 5.3333333333333 0 0 1 112 58.6666666666667zM112 80H16A5.3333333333333 5.3333333333333 0 0 1 16 69.3333333333333H112A5.3333333333333 5.3333333333333 0 0 1 112 80z" />
    <glyph glyph-name="align-left"
      unicode="&#xEA1D;"
      horiz-adv-x="128" d="M16 90.6666666666667H112A5.3333333333333 5.3333333333333 0 0 1 112 101.3333333333333H16A5.3333333333333 5.3333333333333 0 0 1 16 90.6666666666667zM16 69.3333333333333H90.6666666666667A5.3333333333333 5.3333333333333 0 0 1 90.6666666666667 80H16A5.3333333333333 5.3333333333333 0 0 1 16 69.3333333333333zM112 58.6666666666667H16A5.3333333333333 5.3333333333333 0 0 1 16 48H112A5.3333333333333 5.3333333333333 0 0 1 112 58.6666666666667zM90.6666666666667 37.3333333333333H16A5.3333333333333 5.3333333333333 0 0 1 16 26.6666666666667H90.6666666666667A5.3333333333333 5.3333333333333 0 0 1 90.6666666666667 37.3333333333333z" />
    <glyph glyph-name="align-left-justify"
      unicode="&#xEA1E;"
      horiz-adv-x="128" d="M16 101.3333333333333H112A5.3333333333333 5.3333333333333 0 0 1 112 112H16A5.3333333333333 5.3333333333333 0 0 1 16 101.3333333333333zM80 26.6666666666667H16A5.3333333333333 5.3333333333333 0 0 1 16 16H80A5.3333333333333 5.3333333333333 0 0 1 80 26.6666666666667zM112 69.3333333333333H16A5.3333333333333 5.3333333333333 0 0 1 16 58.6666666666667H112A5.3333333333333 5.3333333333333 0 0 1 112 69.3333333333333zM112 90.6666666666667H16A5.3333333333333 5.3333333333333 0 0 1 16 80H112A5.3333333333333 5.3333333333333 0 0 1 112 90.6666666666667zM112 48H16A5.3333333333333 5.3333333333333 0 0 1 16 37.3333333333333H112A5.3333333333333 5.3333333333333 0 0 1 112 48z" />
    <glyph glyph-name="align-letter-right"
      unicode="&#xEA1F;"
      horiz-adv-x="128" d="M53.3333333333333 106.6666666666667H112A5.3333333333333 5.3333333333333 0 0 1 112 117.3333333333333H53.3333333333333A5.3333333333333 5.3333333333333 0 0 1 53.3333333333333 106.6666666666667zM112 21.3333333333333H16A5.3333333333333 5.3333333333333 0 0 1 16 10.6666666666667H112A5.3333333333333 5.3333333333333 0 0 1 112 21.3333333333333zM112 96H16A5.3333333333333 5.3333333333333 0 0 1 16 85.3333333333333H112A5.3333333333333 5.3333333333333 0 0 1 112 96zM112 42.6666666666667H58.6666666666667A5.3333333333333 5.3333333333333 0 0 1 58.6666666666667 32H112A5.3333333333333 5.3333333333333 0 0 1 112 42.6666666666667zM112 74.6666666666667H16A5.3333333333333 5.3333333333333 0 0 1 16 64H112A5.3333333333333 5.3333333333333 0 0 1 112 74.6666666666667z" />
    <glyph glyph-name="align-right"
      unicode="&#xEA20;"
      horiz-adv-x="128" d="M16 90.6666666666667H112A5.3333333333333 5.3333333333333 0 0 1 112 101.3333333333333H16A5.3333333333333 5.3333333333333 0 0 1 16 90.6666666666667zM112 37.3333333333333H37.3333333333333A5.3333333333333 5.3333333333333 0 0 1 37.3333333333333 26.6666666666667H112A5.3333333333333 5.3333333333333 0 0 1 112 37.3333333333333zM112 80H37.3333333333333A5.3333333333333 5.3333333333333 0 0 1 37.3333333333333 69.3333333333333H112A5.3333333333333 5.3333333333333 0 0 1 112 80zM112 58.6666666666667H16A5.3333333333333 5.3333333333333 0 0 1 16 48H112A5.3333333333333 5.3333333333333 0 0 1 112 58.6666666666667z" />
    <glyph glyph-name="align-right-justify"
      unicode="&#xEA21;"
      horiz-adv-x="128" d="M16 101.3333333333333H112A5.3333333333333 5.3333333333333 0 0 1 112 112H16A5.3333333333333 5.3333333333333 0 0 1 16 101.3333333333333zM112 26.6666666666667H58.6666666666667A5.3333333333333 5.3333333333333 0 0 1 58.6666666666667 16H112A5.3333333333333 5.3333333333333 0 0 1 112 26.6666666666667zM112 69.3333333333333H16A5.3333333333333 5.3333333333333 0 0 1 16 58.6666666666667H112A5.3333333333333 5.3333333333333 0 0 1 112 69.3333333333333zM112 48H16A5.3333333333333 5.3333333333333 0 0 1 16 37.3333333333333H112A5.3333333333333 5.3333333333333 0 0 1 112 48zM112 90.6666666666667H16A5.3333333333333 5.3333333333333 0 0 1 16 80H112A5.3333333333333 5.3333333333333 0 0 1 112 90.6666666666667z" />
    <glyph glyph-name="amazon"
      unicode="&#xEA22;"
      horiz-adv-x="128" d="M5.5427825837452 34.56Q6.0761159170785 35.4133333333333 7.2494492504118 34.6666666666667A113.6426666666667 113.6426666666667 0 0 1 65.2761159170785 19.2A114.7946666666667 114.7946666666667 0 0 1 106.5561159170785 26.9866666666667Q107.0894492504119 27.2 108.1027825837452 27.6266666666667T109.5427825837452 28.2666666666667A1.8986666666667 1.8986666666667 0 0 0 112.0494492504118 27.6266666666667Q112.9561159170785 26.3466666666667 111.4627825837452 25.28Q109.5427825837452 23.8933333333333 106.5561159170785 22.08A79.9466666666667 79.9466666666667 0 0 0 86.0761159170785 13.6533333333334A86.2666666666667 86.2666666666667 0 0 0 63.9961159170785 10.6666666666667A85.424 85.424 0 0 0 32.5294492504118 16.48A86.6453333333333 86.6453333333333 0 0 0 5.9694492504118 32.8533333333333A1.456 1.456 0 0 0 5.3294492504118 33.92A1.1466666666667 1.1466666666667 0 0 0 5.5427825837452 34.56zM37.6494492504118 64.96A21.5253333333333 21.5253333333333 0 0 0 41.2761159170785 77.5466666666667A22.384 22.384 0 0 0 51.1961159170785 85.44A53.6693333333333 53.6693333333333 0 0 0 65.3827825837452 88.96Q68.2627825837452 89.28 74.7694492504118 89.8133333333333V91.6266666666667A18.9973333333333 18.9973333333333 0 0 1 73.2761159170785 100.8A8 8 0 0 1 66.2361159170785 104H65.3827825837452A11.6746666666667 11.6746666666667 0 0 1 59.3027825837452 101.76A8.7466666666667 8.7466666666667 0 0 1 55.9961159170785 96.4266666666667A2.7093333333333 2.7093333333333 0 0 0 53.8627825837452 93.9733333333333L41.5961159170785 95.4666666666667Q39.7827825837452 95.8933333333334 39.7827825837452 97.3866666666667A3.1306666666667 3.1306666666667 0 0 0 39.8894492504118 98.1333333333333A20.448 20.448 0 0 0 48.7961159170785 112.2133333333333A33.4293333333333 33.4293333333333 0 0 0 65.3827825837452 117.3333333333333H68.0494492504118A26.9546666666667 26.9546666666667 0 0 0 87.0361159170785 111.04A20.32 20.32 0 0 0 89.0094492504119 108.7466666666667A20.6666666666667 20.6666666666667 0 0 0 90.4494492504119 106.56A11.1893333333333 11.1893333333333 0 0 0 91.4094492504118 103.7866666666667Q91.8361159170785 101.9733333333333 92.0494492504119 101.28A15.232 15.232 0 0 0 92.3694492504119 98.2933333333334Q92.4761159170785 96 92.4761159170785 95.5733333333334V69.76A15.296 15.296 0 0 1 93.2761159170785 64.6933333333334A13.2 13.2 0 0 1 94.8227825837452 61.3866666666667Q95.5694492504118 60.3733333333334 97.2761159170785 58.1333333333334A3.1946666666667 3.1946666666667 0 0 0 97.9161159170785 56.4266666666667A1.8453333333333 1.8453333333333 0 0 0 97.0627825837452 54.9333333333334Q88.2094492504118 47.2533333333334 87.4627825837452 46.6133333333334A2.9706666666667 2.9706666666667 0 0 0 84.3694492504118 46.4Q82.8761159170785 47.68 81.7561159170785 48.8533333333334T80.1561159170785 50.56A23.8186666666667 23.8186666666667 0 0 0 78.6094492504118 52.64Q77.5427825837452 54.1866666666667 77.1161159170785 54.72A26.1866666666667 26.1866666666667 0 0 0 65.3827825837452 46.6133333333334A32.2026666666667 32.2026666666667 0 0 0 56.4227825837452 45.5466666666667A18.6933333333333 18.6933333333333 0 0 0 42.9294492504118 50.6133333333334A18.9493333333333 18.9493333333333 0 0 0 37.6494492504118 64.96zM55.9961159170785 67.0933333333333A10.1066666666667 10.1066666666667 0 0 1 58.0761159170785 60.4266666666667A6.9013333333333 6.9013333333333 0 0 1 63.6761159170785 57.92A5.4506666666667 5.4506666666667 0 0 1 64.5827825837452 58.0266666666667A5.4506666666667 5.4506666666667 0 0 0 65.3827825837452 58.1333333333333A10.8426666666667 10.8426666666667 0 0 1 72.3161159170785 63.8933333333333A16.6933333333333 16.6933333333333 0 0 1 74.0761159170785 68.32A20.2666666666667 20.2666666666667 0 0 1 74.7161159170785 72.2133333333333Q74.7694492504119 73.7066666666667 74.7694492504119 77.12V79.7866666666667A38.864 38.864 0 0 1 65.3827825837452 78.9333333333333A11.4346666666667 11.4346666666667 0 0 1 55.9961159170785 67.0933333333333zM100.7961159170785 32.7466666666667A3.3386666666667 3.3386666666667 0 0 0 101.4361159170785 33.6A16.7466666666667 16.7466666666667 0 0 0 106.5561159170785 36.0533333333333A34.7733333333333 34.7733333333333 0 0 0 114.4494492504119 37.2266666666667A6.3733333333333 6.3733333333333 0 0 0 116.4761159170785 37.12Q121.2761159170785 36.6933333333334 122.2361159170785 35.52A3.4933333333333 3.4933333333333 0 0 0 122.6627825837452 33.6V32.8533333333333A24.32 24.32 0 0 0 120.6361159170785 24.0533333333333A20.48 20.48 0 0 0 114.9827825837452 15.8933333333333A1.6106666666667 1.6106666666667 0 0 0 114.0227825837452 15.4666666666667A0.944 0.944 0 0 0 113.5961159170785 15.5733333333334Q112.9561159170785 15.8933333333333 113.2761159170786 16.7466666666667A40.704 40.704 0 0 1 117.2227825837452 29.6533333333334A2.736 2.736 0 0 1 116.7961159170786 31.36Q115.7294492504119 32.64 110.8227825837452 32.64Q109.0094492504119 32.64 106.5561159170785 32.4266666666667Q103.8894492504119 32.1066666666667 101.6494492504119 31.7866666666667A1.2373333333333 1.2373333333333 0 0 0 100.7961159170785 32A0.3466666666667 0.3466666666667 0 0 0 100.6894492504119 32.4266666666667A0.816 0.816 0 0 0 100.7961159170785 32.7466666666667z" />
    <glyph glyph-name="ambulance"
      unicode="&#xEA23;"
      horiz-adv-x="128" d="M56 77.3333333333333H50.6666666666667V82.6666666666667A5.3333333333333 5.3333333333333 0 0 1 40 82.6666666666667V77.3333333333333H34.6666666666667A5.3333333333333 5.3333333333333 0 0 1 34.6666666666667 66.6666666666667H40V61.3333333333333A5.3333333333333 5.3333333333333 0 0 1 50.6666666666667 61.3333333333333V66.6666666666667H56A5.3333333333333 5.3333333333333 0 0 1 56 77.3333333333333zM122.2933333333333 65.8666666666667L121.9733333333333 66.4533333333333A3.2533333333333 3.2533333333333 0 0 1 121.6 67.2L108.8 84.2666666666667A16 16 0 0 1 96 90.6666666666667H85.3333333333333V96A16 16 0 0 1 69.3333333333333 112H21.3333333333333A16 16 0 0 1 5.3333333333333 96V37.3333333333333A5.3333333333333 5.3333333333333 0 0 1 10.6666666666667 32H16A16 16 0 0 1 48 32H80A16 16 0 0 1 112 32H117.3333333333333A5.3333333333333 5.3333333333333 0 0 1 122.6666666666667 37.3333333333333V64A5.3333333333333 5.3333333333333 0 0 1 122.2933333333333 65.8666666666667zM32 26.6666666666667A5.3333333333333 5.3333333333333 0 1 0 37.3333333333333 32A5.3333333333333 5.3333333333333 0 0 0 32 26.6666666666667zM74.6666666666667 42.6666666666667H43.84A16 16 0 0 1 20.16 42.6666666666667H16V96A5.3333333333333 5.3333333333333 0 0 0 21.3333333333333 101.3333333333333H69.3333333333333A5.3333333333333 5.3333333333333 0 0 0 74.6666666666667 96zM85.3333333333333 80H96A5.3333333333333 5.3333333333333 0 0 0 100.2666666666667 77.8666666666667L106.6666666666667 69.3333333333333H85.3333333333333zM96 26.6666666666667A5.3333333333333 5.3333333333333 0 1 0 101.3333333333333 32A5.3333333333333 5.3333333333333 0 0 0 96 26.6666666666667zM112 42.6666666666667H107.84A16 16 0 0 1 85.3333333333333 43.84V58.6666666666667H112z" />
    <glyph glyph-name="analysis"
      unicode="&#xEA24;"
      horiz-adv-x="128" d="M115.7866666666667 89.12A5.3333333333333 5.3333333333333 0 0 1 108.2133333333333 89.12L74.6666666666667 55.52L51.7866666666667 78.4533333333334A5.3333333333333 5.3333333333333 0 0 1 44.2133333333333 78.4533333333334L12.2133333333333 46.4533333333334A5.3333333333333 5.3333333333333 0 0 1 12.2133333333333 38.88A5.3333333333333 5.3333333333333 0 0 1 19.7866666666667 38.88L48 67.1466666666667L70.88 44.2133333333333A5.3333333333333 5.3333333333333 0 0 1 78.4533333333333 44.2133333333333L115.7866666666667 81.5466666666667A5.3333333333333 5.3333333333333 0 0 1 115.7866666666667 89.12z" />
    <glyph glyph-name="analytics"
      unicode="&#xEA25;"
      horiz-adv-x="128" d="M24 64A5.3333333333333 5.3333333333333 0 0 1 18.6666666666667 58.6666666666667V16A5.3333333333333 5.3333333333333 0 0 1 29.3333333333333 16V58.6666666666667A5.3333333333333 5.3333333333333 0 0 1 24 64zM50.6666666666667 117.3333333333333A5.3333333333333 5.3333333333333 0 0 1 45.3333333333333 112V16A5.3333333333333 5.3333333333333 0 0 1 56 16V112A5.3333333333333 5.3333333333333 0 0 1 50.6666666666667 117.3333333333333zM104 42.6666666666667A5.3333333333333 5.3333333333333 0 0 1 98.6666666666667 37.3333333333333V16A5.3333333333333 5.3333333333333 0 0 1 109.3333333333333 16V37.3333333333333A5.3333333333333 5.3333333333333 0 0 1 104 42.6666666666667zM77.3333333333333 85.3333333333333A5.3333333333333 5.3333333333333 0 0 1 72 80V16A5.3333333333333 5.3333333333333 0 0 1 82.6666666666667 16V80A5.3333333333333 5.3333333333333 0 0 1 77.3333333333333 85.3333333333333z" />
    <glyph glyph-name="anchor"
      unicode="&#xEA26;"
      horiz-adv-x="128" d="M101.3333333333333 58.6666666666667H90.6666666666667A5.3333333333333 5.3333333333333 0 0 1 90.6666666666667 48H95.52A32 32 0 0 0 69.3333333333333 21.8133333333333V69.3333333333333H74.6666666666667A5.3333333333333 5.3333333333333 0 0 1 74.6666666666667 80H69.3333333333333V86.2933333333333A16 16 0 1 1 58.6666666666667 86.2933333333333V80H53.3333333333333A5.3333333333333 5.3333333333333 0 0 1 53.3333333333333 69.3333333333333H58.6666666666667V21.8133333333333A32 32 0 0 0 32.48 48H37.3333333333333A5.3333333333333 5.3333333333333 0 0 1 37.3333333333333 58.6666666666667H26.6666666666667A5.3333333333333 5.3333333333333 0 0 1 21.3333333333333 53.3333333333333A42.6666666666667 42.6666666666667 0 0 1 106.6666666666667 53.3333333333333A5.3333333333333 5.3333333333333 0 0 1 101.3333333333333 58.6666666666667zM64 96A5.3333333333333 5.3333333333333 0 1 0 69.3333333333333 101.3333333333333A5.3333333333333 5.3333333333333 0 0 0 64 96z" />
    <glyph glyph-name="android"
      unicode="&#xEA27;"
      horiz-adv-x="128" d="M79.872 111.8986666666667L84.992 121.136A1.0293333333333 1.0293333333333 0 0 1 83.1893333333333 122.1333333333333L78.016 112.8A34.8853333333333 34.8853333333333 0 0 1 50 112.8L44.8266666666667 122.1333333333333A1.0293333333333 1.0293333333333 0 0 1 43.0133333333333 121.136L48.1333333333333 111.8986666666667A29.5786666666667 29.5786666666667 0 0 1 31.6426666666667 85.8933333333333H96.3733333333333A29.5786666666667 29.5786666666667 0 0 1 79.872 111.8986666666667zM49.072 97.7386666666667A2.704 2.704 0 1 0 51.776 100.4373333333333A2.704 2.704 0 0 0 49.072 97.7386666666667zM78.9493333333333 97.7386666666667A2.704 2.704 0 1 0 81.6533333333333 100.4373333333333A2.704 2.704 0 0 0 78.9493333333333 97.7386666666667zM31.632 36.4213333333333A7.824 7.824 0 0 1 39.472 28.5866666666667H44.6613333333333V12.5866666666667A7.2533333333333 7.2533333333333 0 1 1 59.1733333333334 12.5866666666667V28.5866666666667H68.848V12.5866666666667A7.2533333333333 7.2533333333333 0 1 1 83.3546666666667 12.5866666666667V28.5866666666667H88.5493333333333A7.824 7.824 0 0 1 96.3786666666667 36.416V83.3333333333333H31.632zM21.6746666666667 84.5813333333333A7.264 7.264 0 0 1 14.4213333333333 77.3226666666667V47.088A7.2533333333333 7.2533333333333 0 1 1 28.928 47.088V77.3226666666667A7.264 7.264 0 0 1 21.6746666666667 84.576zM106.3253333333333 84.5813333333333A7.264 7.264 0 0 1 99.072 77.3226666666667V47.088A7.2533333333333 7.2533333333333 0 1 1 113.5786666666667 47.088V77.3226666666667A7.264 7.264 0 0 1 106.3253333333333 84.576z" />
    <glyph glyph-name="android-alt"
      unicode="&#xEA28;"
      horiz-adv-x="128" d="M16 80A5.3333333333333 5.3333333333333 0 0 1 10.6666666666667 74.6666666666667V53.3333333333333A5.3333333333333 5.3333333333333 0 0 1 21.3333333333333 53.3333333333333V74.6666666666667A5.3333333333333 5.3333333333333 0 0 1 16 80zM112 80A5.3333333333333 5.3333333333333 0 0 1 106.6666666666667 74.6666666666667V53.3333333333333A5.3333333333333 5.3333333333333 0 0 1 117.3333333333333 53.3333333333333V74.6666666666667A5.3333333333333 5.3333333333333 0 0 1 112 80zM89.9466666666667 109.3333333333333A5.3333333333333 5.3333333333333 0 1 1 80.7146666666667 114.6666666666667L77.44 108.9973333333333A31.616 31.616 0 0 1 50.56 108.9973333333333L47.28 114.6666666666667A5.3333333333333 5.3333333333333 0 1 1 38.048 109.3333333333333L41.7386666666667 102.944A31.888 31.888 0 0 1 32 80V37.3333333333333A5.3333333333333 5.3333333333333 0 0 1 37.3333333333333 32H48V16A5.3333333333333 5.3333333333333 0 0 1 58.6666666666667 16V32H69.3333333333333V16A5.3333333333333 5.3333333333333 0 0 1 80 16V32H90.6666666666667A5.3333333333333 5.3333333333333 0 0 1 96 37.3333333333333V80A31.888 31.888 0 0 1 86.256 102.944zM85.3333333333333 42.6666666666667H42.6666666666667V69.3333333333333H85.3333333333333zM42.6666666666667 80A21.3333333333333 21.3333333333333 0 0 0 85.3333333333333 80z" />
    <glyph glyph-name="android-phone-slash"
      unicode="&#xEA29;"
      horiz-adv-x="128" d="M60.2087821465153 33.5466666666667A5.3333333333333 5.3333333333333 0 0 1 67.7821154798486 33.5466666666667A6.1333333333333 6.1333333333333 0 0 1 68.9021154798486 35.3066666666667A5.0133333333333 5.0133333333333 0 0 1 68.9021154798486 39.36A6.1333333333333 6.1333333333333 0 0 1 67.7821154798486 41.12A5.3333333333333 5.3333333333333 0 0 1 60.2087821465153 41.12A6.1333333333333 6.1333333333333 0 0 1 59.0887821465153 39.36A5.0133333333333 5.0133333333333 0 0 1 59.0887821465153 35.3066666666667A6.1333333333333 6.1333333333333 0 0 1 60.2087821465153 33.5466666666667zM46.1821154798486 106.6666666666667H85.3287821465153A5.3333333333333 5.3333333333333 0 0 0 90.6621154798486 101.3333333333333V62.1866666666667A5.3333333333333 5.3333333333333 0 0 1 101.3287821465153 62.1866666666667V101.3333333333333A16 16 0 0 1 85.3287821465153 117.3333333333333H46.1821154798486A5.3333333333333 5.3333333333333 0 0 1 46.1821154798486 106.6666666666667zM115.7821154798486 19.7866666666667L19.7821154798486 115.7866666666667A5.3333333333333 5.3333333333333 0 0 1 12.2087821465153 108.2133333333333L26.6621154798486 93.8133333333333V26.6666666666667A16 16 0 0 1 42.6621154798486 10.6666666666667H85.3287821465153A16 16 0 0 1 100.0487821465153 20.4266666666667L108.2087821465153 12.2133333333333A5.3333333333333 5.3333333333333 0 0 1 115.7821154798486 12.2133333333333A5.3333333333333 5.3333333333333 0 0 1 115.7821154798486 19.7866666666667zM90.6621154798486 26.6666666666667A5.3333333333333 5.3333333333333 0 0 0 85.3287821465153 21.3333333333333H42.6621154798486A5.3333333333333 5.3333333333333 0 0 0 37.3287821465153 26.6666666666667V83.1466666666667L90.6621154798486 29.8133333333333z" />
    <glyph glyph-name="angle-double-down"
      unicode="&#xEA2A;"
      horiz-adv-x="128" d="M60.2133333333333 66.88A5.3333333333333 5.3333333333333 0 0 1 67.7866666666667 66.88L83.7866666666667 82.88A5.3333333333333 5.3333333333333 0 1 1 76.2133333333333 90.6666666666667L64 78.1866666666667L51.7866666666667 90.6666666666667A5.3333333333333 5.3333333333333 0 1 1 44.2133333333333 82.88zM76.2133333333333 61.12L64 48.8533333333333L51.7866666666667 61.12A5.3333333333333 5.3333333333333 0 0 1 44.2133333333333 53.3333333333333L60.2133333333333 37.3333333333333A5.3333333333333 5.3333333333333 0 0 1 67.7866666666667 37.3333333333333L83.7866666666667 53.3333333333333A5.3333333333333 5.3333333333333 0 0 1 76.2133333333333 60.9066666666667z" />
    <glyph glyph-name="angle-double-left"
      unicode="&#xEA2B;"
      horiz-adv-x="128" d="M61.0133333333334 83.7866666666667A5.3333333333333 5.3333333333333 0 0 1 53.44 83.7866666666667L37.44 67.7866666666667A5.3333333333333 5.3333333333333 0 0 1 37.44 60.2133333333333L53.44 44.2133333333333A5.3333333333333 5.3333333333333 0 0 1 61.0133333333334 44.2133333333333A5.3333333333333 5.3333333333333 0 0 1 61.0133333333334 51.7866666666667L48.7466666666667 64L61.0133333333334 76.2133333333333A5.3333333333333 5.3333333333333 0 0 1 61.0133333333334 83.7866666666667zM78.08 64L90.56 76.2133333333333A5.3333333333333 5.3333333333333 0 0 1 82.9866666666667 83.7866666666667L66.9866666666667 67.7866666666667A5.3333333333333 5.3333333333333 0 0 1 66.9866666666667 60.2133333333333L82.9866666666667 44.2133333333333A5.3333333333333 5.3333333333333 0 0 1 90.56 44.2133333333333A5.3333333333333 5.3333333333333 0 0 1 90.56 51.7866666666667z" />
    <glyph glyph-name="angle-double-right"
      unicode="&#xEA2C;"
      horiz-adv-x="128" d="M45.1718315260745 83.7866666666667A5.3333333333333 5.3333333333333 0 1 1 37.3851648594078 76.2133333333333L49.8651648594078 64L37.3851648594078 51.7866666666667A5.3333333333333 5.3333333333333 0 0 1 37.3851648594078 44.2133333333333A5.3333333333333 5.3333333333333 0 0 1 44.9584981927412 44.2133333333333L60.9584981927412 60.2133333333333A5.3333333333333 5.3333333333333 0 0 1 60.9584981927412 67.7866666666667zM90.5051648594078 67.7866666666667L74.5051648594078 83.7866666666667A5.3333333333333 5.3333333333333 0 0 1 66.9318315260745 76.2133333333333L79.1984981927411 64L66.9318315260745 51.7866666666667A5.3333333333333 5.3333333333333 0 0 1 66.9318315260745 44.2133333333333A5.3333333333333 5.3333333333333 0 0 1 74.5051648594078 44.2133333333333L90.5051648594078 60.2133333333333A5.3333333333333 5.3333333333333 0 0 1 90.7184981927412 67.7866666666667z" />
    <glyph glyph-name="angle-double-up"
      unicode="&#xEA2D;"
      horiz-adv-x="128" d="M67.8200897202838 61.12A5.3333333333333 5.3333333333333 0 0 1 60.2467563869504 61.12L44.2467563869504 45.12A5.3333333333333 5.3333333333333 0 0 1 51.8200897202838 37.3333333333333L64.0334230536171 49.8133333333333L76.2467563869504 37.3333333333333A5.3333333333333 5.3333333333333 0 0 1 83.8200897202838 37.3333333333333A5.3333333333333 5.3333333333333 0 0 1 83.8200897202838 44.9066666666667zM51.8200897202838 66.88L64.0334230536171 79.1466666666667L76.2467563869504 66.88A5.3333333333333 5.3333333333333 0 0 1 83.8200897202838 66.88A5.3333333333333 5.3333333333333 0 0 1 83.8200897202838 74.4533333333333L67.8200897202838 90.4533333333333A5.3333333333333 5.3333333333333 0 0 1 60.2467563869504 90.4533333333333L44.2467563869504 74.4533333333333A5.3333333333333 5.3333333333333 0 0 1 51.8200897202838 66.88z" />
    <glyph glyph-name="angle-down"
      unicode="&#xEA2E;"
      horiz-adv-x="128" d="M90.5333333333333 79.0933333333333A5.3333333333333 5.3333333333333 0 0 1 83.0133333333333 79.0933333333333L63.8666666666667 60.2133333333333L44.9866666666667 79.0933333333333A5.3333333333333 5.3333333333333 0 0 1 37.4666666666667 79.0933333333333A5.3333333333333 5.3333333333333 0 0 1 37.4666666666667 71.52L60.08 48.9066666666667A5.3333333333333 5.3333333333333 0 0 1 67.6533333333333 48.9066666666667L90.5333333333333 71.52A5.3333333333333 5.3333333333333 0 0 1 90.5333333333333 79.0933333333333z" />
    <glyph glyph-name="angle-left"
      unicode="&#xEA2F;"
      horiz-adv-x="128" d="M60.2266816754895 64L79.1066816754895 82.88A5.3333333333333 5.3333333333333 0 0 1 79.1066816754895 90.4A5.3333333333333 5.3333333333333 0 0 1 71.5333483421562 90.4L48.9200150088229 67.7866666666667A5.3333333333333 5.3333333333333 0 0 1 48.9200150088229 60.2133333333333L71.5333483421562 37.3333333333333A5.3333333333333 5.3333333333333 0 0 1 75.3200150088229 35.7866666666667A5.3333333333333 5.3333333333333 0 0 1 79.1066816754895 37.3333333333333A5.3333333333333 5.3333333333333 0 0 1 79.1066816754895 44.8533333333333z" />
    <glyph glyph-name="angle-left-b"
      unicode="&#xEA30;"
      horiz-adv-x="128" d="M45.0666666666667 59.7333333333333L75.4666666666666 29.8666666666667C77.6 27.7333333333334 80.8 27.7333333333334 82.9333333333333 29.8666666666667C85.0666666666667 32 85.0666666666667 35.2 82.9333333333333 37.3333333333333L56.8 64L82.9333333333333 90.6666666666667C85.0666666666667 92.8 85.0666666666667 96 82.9333333333333 98.1333333333333C81.8666666666667 99.2 80.8 99.7333333333333 79.2 99.7333333333333C77.6 99.7333333333333 76.5333333333333 99.2 75.4666666666667 98.1333333333333L45.0666666666667 68.2666666666667C42.9333333333333 65.6 42.9333333333333 62.4 45.0666666666667 59.7333333333334C45.0666666666667 60.2666666666667 45.0666666666667 60.2666666666667 45.0666666666667 59.7333333333334z" />
    <glyph glyph-name="angle-right"
      unicode="&#xEA31;"
      horiz-adv-x="128" d="M79.0799849911771 67.7866666666667L56.4666516578438 90.4A5.3333333333333 5.3333333333333 0 0 1 48.8933183245105 90.4A5.3333333333333 5.3333333333333 0 0 1 48.8933183245105 82.88L67.7733183245105 64L48.8933183245105 45.12A5.3333333333333 5.3333333333333 0 0 1 48.8933183245105 37.6A5.3333333333333 5.3333333333333 0 0 1 52.6799849911772 36.0533333333333A5.3333333333333 5.3333333333333 0 0 1 56.4666516578438 37.6L79.0799849911772 60.2133333333333A5.3333333333333 5.3333333333333 0 0 1 79.0799849911772 67.7866666666667z" />
    <glyph glyph-name="angle-right-b"
      unicode="&#xEA32;"
      horiz-adv-x="128" d="M82.7969594716179 67.7866666666667L52.6102928049512 97.92A5.3333333333333 5.3333333333333 0 0 1 45.0369594716179 97.92A5.3333333333333 5.3333333333333 0 0 1 45.0369594716179 90.4L71.4369594716179 63.7333333333333L45.0369594716179 37.3333333333333A5.3333333333333 5.3333333333333 0 0 1 45.0369594716179 29.8133333333333A5.3333333333333 5.3333333333333 0 0 1 48.8236261382846 28.2133333333333A5.3333333333333 5.3333333333333 0 0 1 52.6102928049512 29.8133333333333L82.7969594716179 59.9466666666667A5.3333333333333 5.3333333333333 0 0 1 82.7969594716179 67.7866666666667z" />
    <glyph glyph-name="angle-up"
      unicode="&#xEA33;"
      horiz-adv-x="128" d="M90.5976539446534 56.48L67.7176539446534 79.0933333333333A5.3333333333333 5.3333333333333 0 0 1 60.1443206113201 79.0933333333333L37.5309872779867 56.48A5.3333333333333 5.3333333333333 0 0 1 37.5309872779867 48.9066666666667A5.3333333333333 5.3333333333333 0 0 1 45.0509872779867 48.9066666666667L63.9309872779867 67.7866666666667L82.8109872779867 48.9066666666667A5.3333333333333 5.3333333333333 0 0 1 86.5443206113201 47.36A5.3333333333333 5.3333333333333 0 0 1 90.3309872779867 48.9066666666667A5.3333333333333 5.3333333333333 0 0 1 90.5976539446534 56.48z" />
    <glyph glyph-name="angry"
      unicode="&#xEA34;"
      horiz-adv-x="128" d="M53.3333333333333 69.3333333333333A5.3333333333333 5.3333333333333 0 0 1 58.08 72.2666666666667A5.3333333333333 5.3333333333333 0 0 1 55.7333333333333 79.4133333333333L45.0666666666667 84.7466666666667A5.3333333333333 5.3333333333333 0 1 1 40.2666666666667 75.2533333333334L50.9333333333333 69.92A4.96 4.96 0 0 1 53.3333333333333 69.3333333333333zM64 117.3333333333333A53.3333333333333 53.3333333333333 0 1 1 117.3333333333334 64A53.3333333333333 53.3333333333333 0 0 1 64 117.3333333333333zM64 21.3333333333333A42.6666666666667 42.6666666666667 0 1 0 106.6666666666667 64A42.6666666666667 42.6666666666667 0 0 0 64 21.3333333333333zM44.5866666666667 46.24A5.3333333333333 5.3333333333333 0 0 1 43.8933333333333 38.7733333333333A5.3333333333333 5.3333333333333 0 0 1 51.4133333333333 38.08A20.0533333333333 20.0533333333333 0 0 0 76.5866666666667 38.08A5.3333333333333 5.3333333333333 0 0 1 80 36.8533333333333A5.3333333333333 5.3333333333333 0 0 1 83.4133333333333 46.24A30.9866666666667 30.9866666666667 0 0 1 44.5866666666667 46.24zM82.9333333333333 84.7466666666667L72.2666666666667 79.4133333333333A5.3333333333333 5.3333333333333 0 0 1 69.92 72.2666666666667A5.3333333333333 5.3333333333333 0 0 1 74.6666666666667 69.3333333333333A4.96 4.96 0 0 1 77.0666666666667 69.92L87.7333333333333 75.2533333333333A5.3333333333333 5.3333333333333 0 0 1 82.9333333333333 84.7466666666667z" />
    <glyph glyph-name="ankh"
      unicode="&#xEA35;"
      horiz-adv-x="128" d="M96 64H79.52A38.56 38.56 0 0 1 90.6666666666667 90.6666666666667A26.6666666666667 26.6666666666667 0 0 1 37.3333333333333 90.6666666666667A38.56 38.56 0 0 1 48.48 64H32A5.3333333333333 5.3333333333333 0 0 1 32 53.3333333333333H58.6666666666667V16A5.3333333333333 5.3333333333333 0 0 1 69.3333333333333 16V53.3333333333333H96A5.3333333333333 5.3333333333333 0 0 1 96 64zM64 64.8533333333333C59.04 68.16 48 76.9066666666667 48 90.6666666666667A16 16 0 0 0 80 90.6666666666667C80 76.9066666666667 68.96 68.1066666666667 64 64.8533333333333z" />
    <glyph glyph-name="annoyed"
      unicode="&#xEA36;"
      horiz-adv-x="128" d="M48 80A5.3333333333333 5.3333333333333 0 1 1 53.3333333333333 74.6666666666667A5.3333333333333 5.3333333333333 0 0 1 48 80zM80 58.6666666666667A26.6666666666667 26.6666666666667 0 0 1 56.6933333333333 44.96A5.3333333333333 5.3333333333333 0 0 1 58.6666666666667 37.7066666666667A5.3333333333333 5.3333333333333 0 0 1 61.28 37.0133333333334A5.3333333333333 5.3333333333333 0 0 1 65.92 39.7333333333334A16 16 0 0 0 80 48A5.3333333333333 5.3333333333333 0 0 1 80 58.6666666666667zM80 80A5.3333333333333 5.3333333333333 0 1 1 85.3333333333333 74.6666666666667A5.3333333333333 5.3333333333333 0 0 1 80 80zM64 117.3333333333333A53.3333333333333 53.3333333333333 0 1 1 117.3333333333334 64A53.3333333333333 53.3333333333333 0 0 1 64 117.3333333333333zM64 21.3333333333333A42.6666666666667 42.6666666666667 0 1 0 106.6666666666667 64A42.6666666666667 42.6666666666667 0 0 0 64 21.3333333333333z" />
    <glyph glyph-name="annoyed-alt"
      unicode="&#xEA37;"
      horiz-adv-x="128" d="M78.1866666666667 55.68L55.84 47.68A5.3333333333333 5.3333333333333 0 0 1 57.6 37.3333333333333A5.3333333333333 5.3333333333333 0 0 1 59.4133333333333 37.6533333333333L81.8133333333333 45.6533333333333A5.3333333333333 5.3333333333333 0 1 1 78.1866666666667 55.68zM56.8533333333333 82.3466666666667A5.3333333333333 5.3333333333333 0 0 1 49.3333333333333 82.3466666666667A5.3333333333333 5.3333333333333 0 0 0 41.76 82.3466666666667A5.3333333333333 5.3333333333333 0 0 1 34.24 82.3466666666667A5.3333333333333 5.3333333333333 0 0 1 34.24 74.7733333333333A16 16 0 0 1 56.8533333333333 74.7733333333333A5.3333333333333 5.3333333333333 0 0 1 56.64 82.4533333333333zM94.1866666666667 82.3466666666667A5.3333333333333 5.3333333333333 0 0 1 86.6666666666667 82.3466666666667A5.3333333333333 5.3333333333333 0 0 0 79.0933333333333 82.3466666666667A5.3333333333333 5.3333333333333 0 0 1 71.5733333333333 82.3466666666667A5.3333333333333 5.3333333333333 0 0 1 71.5733333333333 74.7733333333333A16 16 0 0 1 94.1866666666667 74.7733333333333A5.3333333333333 5.3333333333333 0 0 1 93.9733333333333 82.4533333333333zM64 117.3333333333333A53.3333333333333 53.3333333333333 0 1 1 117.3333333333334 64A53.3333333333333 53.3333333333333 0 0 1 64 117.3333333333333zM64 21.3333333333333A42.6666666666667 42.6666666666667 0 1 0 106.6666666666667 64A42.6666666666667 42.6666666666667 0 0 0 64 21.3333333333333z" />
    <glyph glyph-name="apple"
      unicode="&#xEA38;"
      horiz-adv-x="128" d="M79.6898945350505 100.32A23.36 23.36 0 0 1 85.3432278683838 117.3333333333333A23.68 23.68 0 0 1 69.3432278683838 109.2266666666667A22.24 22.24 0 0 1 64.0098945350505 92.7466666666667A19.68 19.68 0 0 1 79.6898945350505 100.32zM93.1298945350505 60.64A24.0533333333333 24.0533333333333 0 0 0 104.6498945350505 80.96A24.8533333333333 24.8533333333333 0 0 1 85.1298945350505 91.6266666666667C76.8098945350505 92.48 69.1298945350505 86.7733333333333 64.7032278683838 86.7733333333333S54.0365612017172 91.52 47.1032278683838 91.4133333333333A26.24 26.24 0 0 1 25.0232278683838 77.92C15.6365612017171 61.6 22.6232278683838 37.3333333333333 32.0098945350505 24.16C36.2765612017171 17.7066666666667 41.6098945350505 10.4 48.6498945350505 10.6666666666667S57.9832278683838 15.04 66.1432278683838 15.04S76.8098945350505 10.6666666666667 83.7432278683838 10.8266666666667S95.5832278683838 17.44 100.0632278683838 23.8933333333333A58.6666666666667 58.6666666666667 0 0 1 107.4232278683838 39.0933333333334A23.52 23.52 0 0 0 93.1298945350505 60.64z" />
    <glyph glyph-name="apple-alt"
      unicode="&#xEA39;"
      horiz-adv-x="128" d="M109.3691170136488 44.032A18.0586666666667 18.0586666666667 0 0 0 98.4144503469821 60.7093333333333A18.6506666666667 18.6506666666667 0 0 0 107.4117836803155 76.4266666666667A5.3333333333333 5.3333333333333 0 0 1 109.0117836803155 83.9733333333333A29.728 29.728 0 0 1 87.5931170136488 96.6933333333333A34.2506666666667 34.2506666666667 0 0 1 92.7397836803155 117.904A5.248 5.248 0 0 1 87.2304503469821 122.6613333333333A35.68 35.68 0 0 1 63.5291170136488 110.6026666666667A36.4906666666667 36.4906666666667 0 0 1 55.6357836803155 95.136A28.0746666666667 28.0746666666667 0 0 1 46.9957836803155 96.6186666666667A31.6 31.6 0 0 1 20.3824503469821 80.576C10.3077836803154 63.0986666666667 16.4731170136488 36.9066666666667 27.3744503469821 21.136C31.7477836803154 14.8213333333333 38.3131170136488 5.3386666666667 48.2171170136488 5.3386666666667C48.4144503469821 5.3386666666667 48.6117836803154 5.3386666666667 48.8037836803154 5.3493333333333A25.28 25.28 0 0 1 58.3664503469821 7.8186666666667A17.4613333333333 17.4613333333333 0 0 0 66.0784503469821 9.7066666666667A16.24 16.24 0 0 0 73.3157836803154 7.904A25.344 25.344 0 0 1 83.7797836803154 5.472C93.9824503469821 5.664 100.0091170136488 14.4693333333333 104.4091170136488 20.9013333333333A64.224 64.224 0 0 1 112.4784503469821 37.4773333333334A5.3493333333333 5.3493333333333 0 0 1 109.3637836803154 44.0373333333334zM71.6091170136488 103.6373333333334A26.352 26.352 0 0 0 81.8437836803154 110.688A25.8933333333333 25.8933333333333 0 0 0 76.3131170136488 99.2213333333334A23.4133333333333 23.4133333333333 0 0 0 69.5717836803154 93.6693333333333L69.5557836803154 93.664L69.1024503469821 93.4826666666667C68.1104503469821 93.0933333333333 66.8784503469821 92.608 65.9291170136488 92.2933333333333A25.7333333333333 25.7333333333333 0 0 0 71.6037836803154 103.6373333333334zM95.6091170136488 26.9173333333333C91.3264503469821 20.6613333333333 87.9557836803154 16.2186666666667 83.5877836803154 16.1386666666667A12.624 12.624 0 0 0 77.5611170136488 17.696A26.5066666666667 26.5066666666667 0 0 1 66.0837836803154 20.3733333333333A27.808 27.808 0 0 1 54.1957836803154 17.6373333333333A15.3866666666667 15.3866666666667 0 0 0 48.4037836803154 16.0053333333333H48.2437836803154C43.9077836803154 16.0053333333333 39.2464503469821 22.736 36.1477836803154 27.2106666666667C28.4037836803154 38.4106666666667 21.2571170136488 60.72 29.6251170136488 75.2533333333333A20.8906666666667 20.8906666666667 0 0 0 47.1717836803154 85.952H47.3531170136488A25.376 25.376 0 0 0 56.1104503469821 83.584C56.8037836803154 83.312 57.4971170136488 83.0346666666667 58.1851170136488 82.784C58.3557836803154 82.704 58.5371170136488 82.64 58.7184503469821 82.5813333333333A17.68 17.68 0 0 1 64.6811170136488 81.3173333333333A23.6586666666667 23.6586666666667 0 0 1 73.0224503469821 83.5573333333333A26.432 26.432 0 0 0 84.8731170136488 86.2133333333333A20.1973333333333 20.1973333333333 0 0 0 96.8731170136488 81.6586666666667A28.32 28.32 0 0 1 87.7477836803154 60.6186666666666V60.6133333333333A28.2666666666667 28.2666666666667 0 0 1 100.8144503469821 36.5973333333333A54.3893333333333 54.3893333333333 0 0 0 95.6144503469821 26.9173333333333z" />
    <glyph glyph-name="apps"
      unicode="&#xEA3A;"
      horiz-adv-x="128" d="M53.3333333333333 58.6666666666667H16A5.3333333333333 5.3333333333333 0 0 1 10.6666666666667 53.3333333333333V16A5.3333333333333 5.3333333333333 0 0 1 16 10.6666666666667H53.3333333333333A5.3333333333333 5.3333333333333 0 0 1 58.6666666666667 16V53.3333333333333A5.3333333333333 5.3333333333333 0 0 1 53.3333333333333 58.6666666666667zM48 21.3333333333333H21.3333333333333V48H48zM112 117.3333333333333H74.6666666666667A5.3333333333333 5.3333333333333 0 0 1 69.3333333333333 112V74.6666666666667A5.3333333333333 5.3333333333333 0 0 1 74.6666666666667 69.3333333333333H112A5.3333333333333 5.3333333333333 0 0 1 117.3333333333333 74.6666666666667V112A5.3333333333333 5.3333333333333 0 0 1 112 117.3333333333333zM106.6666666666667 80H80V106.6666666666667H106.6666666666667zM112 58.6666666666667H74.6666666666667A5.3333333333333 5.3333333333333 0 0 1 69.3333333333333 53.3333333333333V16A5.3333333333333 5.3333333333333 0 0 1 74.6666666666667 10.6666666666667H112A5.3333333333333 5.3333333333333 0 0 1 117.3333333333333 16V53.3333333333333A5.3333333333333 5.3333333333333 0 0 1 112 58.6666666666667zM106.6666666666667 21.3333333333333H80V48H106.6666666666667zM53.3333333333333 117.3333333333333H16A5.3333333333333 5.3333333333333 0 0 1 10.6666666666667 112V74.6666666666667A5.3333333333333 5.3333333333333 0 0 1 16 69.3333333333333H53.3333333333333A5.3333333333333 5.3333333333333 0 0 1 58.6666666666667 74.6666666666667V112A5.3333333333333 5.3333333333333 0 0 1 53.3333333333333 117.3333333333333zM48 80H21.3333333333333V106.6666666666667H48z" />
    <glyph glyph-name="archive"
      unicode="&#xEA3B;"
      horiz-adv-x="128" d="M53.3333333333333 53.3333333333333H74.6666666666667A5.3333333333333 5.3333333333333 0 0 1 74.6666666666667 64H53.3333333333333A5.3333333333333 5.3333333333333 0 0 1 53.3333333333333 53.3333333333333zM101.3333333333333 112H26.6666666666667A16 16 0 0 1 10.6666666666667 96V80A5.3333333333333 5.3333333333333 0 0 1 16 74.6666666666667H21.3333333333333V32A16 16 0 0 1 37.3333333333333 16H90.6666666666667A16 16 0 0 1 106.6666666666667 32V74.6666666666667H112A5.3333333333333 5.3333333333333 0 0 1 117.3333333333333 80V96A16 16 0 0 1 101.3333333333333 112zM96 32A5.3333333333333 5.3333333333333 0 0 0 90.6666666666667 26.6666666666667H37.3333333333333A5.3333333333333 5.3333333333333 0 0 0 32 32V74.6666666666667H96zM106.6666666666667 85.3333333333333H21.3333333333333V96A5.3333333333333 5.3333333333333 0 0 0 26.6666666666667 101.3333333333333H101.3333333333333A5.3333333333333 5.3333333333333 0 0 0 106.6666666666667 96z" />
    <glyph glyph-name="archive-alt"
      unicode="&#xEA3C;"
      horiz-adv-x="128" d="M53.3333333333333 58.6666666666667H74.6666666666667A5.3333333333333 5.3333333333333 0 0 1 74.6666666666667 69.3333333333333H53.3333333333333A5.3333333333333 5.3333333333333 0 0 1 53.3333333333333 58.6666666666667zM101.3333333333333 112H26.6666666666667A16 16 0 0 1 21.3333333333333 80.96V32A16 16 0 0 1 37.3333333333333 16H90.6666666666667A16 16 0 0 1 106.6666666666667 32V80.96A16 16 0 0 1 101.3333333333333 112zM96 32A5.3333333333333 5.3333333333333 0 0 0 90.6666666666667 26.6666666666667H37.3333333333333A5.3333333333333 5.3333333333333 0 0 0 32 32V80H96zM101.3333333333333 90.6666666666667H26.6666666666667A5.3333333333333 5.3333333333333 0 0 0 26.6666666666667 101.3333333333333H101.3333333333333A5.3333333333333 5.3333333333333 0 0 0 101.3333333333333 90.6666666666667z" />
    <glyph glyph-name="archway"
      unicode="&#xEA3D;"
      horiz-adv-x="128" d="M117.3333333333333 21.3333333333333H112V85.3333333333333H117.3333333333333A5.3333333333333 5.3333333333333 0 0 1 117.3333333333333 96H112V112A5.3333333333333 5.3333333333333 0 0 1 106.6666666666667 117.3333333333333H21.3333333333333A5.3333333333333 5.3333333333333 0 0 1 16 112V96H10.6666666666667A5.3333333333333 5.3333333333333 0 0 1 10.6666666666667 85.3333333333333H16V21.3333333333333H10.6666666666667A5.3333333333333 5.3333333333333 0 0 1 10.6666666666667 10.6666666666667H117.3333333333333A5.3333333333333 5.3333333333333 0 0 1 117.3333333333333 21.3333333333333zM80 21.3333333333333H48V40.16A33.12 33.12 0 0 0 64 68.5866666666667A33.12 33.12 0 0 0 80 40.16zM101.3333333333333 21.3333333333333H90.6666666666667V40.16A43.5733333333333 43.5733333333333 0 0 1 66.4 79.4133333333333A5.3333333333333 5.3333333333333 0 0 1 61.6 79.4133333333333A43.5733333333333 43.5733333333333 0 0 1 37.3333333333333 40.16V21.3333333333333H26.6666666666667V85.3333333333333H101.3333333333333zM101.3333333333333 96H26.6666666666667V106.6666666666667H101.3333333333333z" />
    <glyph glyph-name="arrow"
      unicode="&#xEA3E;"
      horiz-adv-x="128" d="M51.7866666666667 94.4533333333333A5.3333333333333 5.3333333333333 0 0 1 44.2133333333333 94.4533333333333L17.5466666666667 67.7866666666667A5.3333333333333 5.3333333333333 0 0 1 17.5466666666667 60.2133333333333L44.2133333333333 33.5466666666667A5.3333333333333 5.3333333333333 0 0 1 51.7866666666667 33.5466666666667A5.3333333333333 5.3333333333333 0 0 1 51.7866666666667 41.12L28.8533333333333 64L51.7866666666667 86.88A5.3333333333333 5.3333333333333 0 0 1 51.7866666666667 94.4533333333333zM110.4533333333333 67.7866666666667L83.7866666666667 94.4533333333334A5.3333333333333 5.3333333333333 0 0 1 76.2133333333333 86.88L99.1466666666667 64L76.2133333333333 41.12A5.3333333333333 5.3333333333333 0 0 1 76.2133333333333 33.5466666666667A5.3333333333333 5.3333333333333 0 0 1 83.7866666666667 33.5466666666667L110.4533333333333 60.2133333333333A5.3333333333333 5.3333333333333 0 0 1 110.4533333333333 67.7866666666667z" />
    <glyph glyph-name="arrow-break"
      unicode="&#xEA3F;"
      horiz-adv-x="128" d="M37.3333333333333 69.3333333333333H90.6666666666667A5.3333333333333 5.3333333333333 0 0 1 90.6666666666667 80H69.3333333333333V99.1466666666667L73.5466666666667 94.88A5.3333333333333 5.3333333333333 0 0 1 81.12 94.88A5.3333333333333 5.3333333333333 0 0 1 81.12 102.4533333333333L67.7866666666667 115.7866666666667A5.3333333333333 5.3333333333333 0 0 1 66.0266666666667 116.9066666666667A5.3333333333333 5.3333333333333 0 0 1 61.9733333333333 116.9066666666667A5.3333333333333 5.3333333333333 0 0 1 60.2133333333333 115.7866666666667L46.88 102.4533333333333A5.3333333333333 5.3333333333333 0 0 1 54.4533333333333 94.88L58.6666666666667 99.1466666666667V80H37.3333333333333A5.3333333333333 5.3333333333333 0 0 1 37.3333333333333 69.3333333333333zM90.6666666666667 58.6666666666667H37.3333333333333A5.3333333333333 5.3333333333333 0 0 1 37.3333333333333 48H58.6666666666667V28.8533333333333L54.4533333333333 33.12A5.3333333333333 5.3333333333333 0 0 1 46.88 25.5466666666667L60.2133333333334 12.2133333333333A5.3333333333333 5.3333333333333 0 0 1 61.9733333333333 11.0933333333333A5.0133333333333 5.0133333333333 0 0 1 66.0266666666667 11.0933333333333A5.3333333333333 5.3333333333333 0 0 1 67.7866666666667 12.2133333333333L81.12 25.5466666666667A5.3333333333333 5.3333333333333 0 0 1 73.5466666666667 33.12L69.3333333333333 28.8533333333333V48H90.6666666666667A5.3333333333333 5.3333333333333 0 0 1 90.6666666666667 58.6666666666667z" />
    <glyph glyph-name="arrow-circle-down"
      unicode="&#xEA40;"
      horiz-adv-x="128" d="M60.2133333333333 44.2133333333333A5.3333333333333 5.3333333333333 0 0 1 61.9733333333333 43.0933333333333A5.3333333333333 5.3333333333333 0 0 1 66.0266666666667 43.0933333333333A5.3333333333333 5.3333333333333 0 0 1 67.7866666666667 44.2133333333333L83.7866666666667 60.2133333333333A5.3333333333333 5.3333333333333 0 0 1 76.2133333333333 67.7866666666667L69.3333333333333 60.8533333333333V80A5.3333333333333 5.3333333333333 0 0 1 58.6666666666667 80V60.8533333333333L51.7866666666667 67.7866666666667A5.3333333333333 5.3333333333333 0 0 1 44.2133333333333 67.7866666666667A5.3333333333333 5.3333333333333 0 0 1 44.2133333333333 60.2133333333333zM64 10.6666666666667A53.3333333333333 53.3333333333333 0 1 1 10.6666666666667 64A53.3333333333333 53.3333333333333 0 0 1 64 10.6666666666667zM64 106.6666666666667A42.6666666666667 42.6666666666667 0 1 0 21.3333333333333 64A42.6666666666667 42.6666666666667 0 0 0 64 106.6666666666667z" />
    <glyph glyph-name="arrow-circle-left"
      unicode="&#xEA41;"
      horiz-adv-x="128" d="M44.2133333333333 67.7866666666667A5.3333333333333 5.3333333333333 0 0 1 43.0933333333333 66.0266666666667A5.3333333333333 5.3333333333333 0 0 1 43.0933333333333 61.9733333333333A5.3333333333333 5.3333333333333 0 0 1 44.2133333333333 60.2133333333333L60.2133333333333 44.2133333333333A5.3333333333333 5.3333333333333 0 0 1 67.7866666666667 51.7866666666667L60.8533333333333 58.6666666666667H80A5.3333333333333 5.3333333333333 0 0 1 80 69.3333333333333H60.8533333333333L67.7866666666667 76.2133333333333A5.3333333333333 5.3333333333333 0 0 1 67.7866666666667 83.7866666666667A5.3333333333333 5.3333333333333 0 0 1 60.2133333333334 83.7866666666667zM10.6666666666667 64A53.3333333333333 53.3333333333333 0 1 1 64 117.3333333333333A53.3333333333333 53.3333333333333 0 0 1 10.6666666666667 64zM106.6666666666667 64A42.6666666666667 42.6666666666667 0 1 0 64 106.6666666666667A42.6666666666667 42.6666666666667 0 0 0 106.6666666666667 64z" />
    <glyph glyph-name="arrow-circle-right"
      unicode="&#xEA42;"
      horiz-adv-x="128" d="M83.7866666666667 60.2133333333333A5.3333333333333 5.3333333333333 0 0 1 84.9066666666667 61.9733333333333A5.3333333333333 5.3333333333333 0 0 1 84.9066666666667 66.0266666666667A5.3333333333333 5.3333333333333 0 0 1 83.7866666666667 67.7866666666667L67.7866666666667 83.7866666666667A5.3333333333333 5.3333333333333 0 0 1 60.2133333333334 76.2133333333333L67.1466666666667 69.3333333333333H48A5.3333333333333 5.3333333333333 0 0 1 48 58.6666666666667H67.1466666666667L60.2133333333333 51.7866666666667A5.3333333333333 5.3333333333333 0 0 1 60.2133333333333 44.2133333333333A5.3333333333333 5.3333333333333 0 0 1 67.7866666666667 44.2133333333333zM117.3333333333334 64A53.3333333333333 53.3333333333333 0 1 1 64 10.6666666666667A53.3333333333333 53.3333333333333 0 0 1 117.3333333333334 64zM21.3333333333333 64A42.6666666666667 42.6666666666667 0 1 0 64 21.3333333333333A42.6666666666667 42.6666666666667 0 0 0 21.3333333333333 64z" />
    <glyph glyph-name="arrow-circle-up"
      unicode="&#xEA43;"
      horiz-adv-x="128" d="M67.7866666666667 83.7866666666667A5.3333333333333 5.3333333333333 0 0 1 66.0266666666667 84.9066666666667A5.3333333333333 5.3333333333333 0 0 1 61.9733333333333 84.9066666666667A5.3333333333333 5.3333333333333 0 0 1 60.2133333333334 83.7866666666667L44.2133333333333 67.7866666666667A5.3333333333333 5.3333333333333 0 0 1 51.7866666666667 60.2133333333333L58.6666666666667 67.1466666666667V48A5.3333333333333 5.3333333333333 0 0 1 69.3333333333333 48V67.1466666666667L76.2133333333333 60.2133333333333A5.3333333333333 5.3333333333333 0 0 1 83.7866666666667 60.2133333333333A5.3333333333333 5.3333333333333 0 0 1 83.7866666666667 67.7866666666667zM64 117.3333333333333A53.3333333333333 53.3333333333333 0 1 1 117.3333333333334 64A53.3333333333333 53.3333333333333 0 0 1 64 117.3333333333333zM64 21.3333333333333A42.6666666666667 42.6666666666667 0 1 0 106.6666666666667 64A42.6666666666667 42.6666666666667 0 0 0 64 21.3333333333333z" />
    <glyph glyph-name="arrow-compress-h"
      unicode="&#xEA44;"
      horiz-adv-x="128" d="M64 101.3333333333333A5.3333333333333 5.3333333333333 0 0 1 58.6666666666667 96V32A5.3333333333333 5.3333333333333 0 0 1 69.3333333333333 32V96A5.3333333333333 5.3333333333333 0 0 1 64 101.3333333333333zM57.12 67.7866666666667L43.7866666666667 81.12A5.3333333333333 5.3333333333333 0 1 1 36.2133333333333 73.5466666666667L40.48 69.3333333333333H16A5.3333333333333 5.3333333333333 0 0 1 16 58.6666666666667H40.48L36.2133333333333 54.4533333333334A5.3333333333333 5.3333333333333 0 0 1 36.2133333333333 46.88A5.3333333333333 5.3333333333333 0 0 1 43.7866666666667 46.88L57.12 60.2133333333333A5.3333333333333 5.3333333333333 0 0 1 58.24 61.9733333333333A5.0133333333333 5.0133333333333 0 0 1 58.24 66.0266666666667A5.3333333333333 5.3333333333333 0 0 1 57.12 67.7866666666667zM112 69.3333333333333H87.52L91.7866666666667 73.5466666666667A5.3333333333333 5.3333333333333 0 0 1 84.2133333333333 81.12L70.88 67.7866666666667A5.3333333333333 5.3333333333333 0 0 1 70.88 60.2133333333333L84.2133333333333 46.88A5.3333333333333 5.3333333333333 0 0 1 91.7866666666667 46.88A5.3333333333333 5.3333333333333 0 0 1 91.7866666666667 54.4533333333333L87.52 58.6666666666667H112A5.3333333333333 5.3333333333333 0 0 1 112 69.3333333333333z" />
    <glyph glyph-name="arrow-down"
      unicode="&#xEA45;"
      horiz-adv-x="128" d="M94.4487821465153 67.7866666666667A5.3333333333333 5.3333333333333 0 0 1 86.875448813182 67.7866666666667L69.3287821465153 50.1866666666667V90.6666666666667A5.3333333333333 5.3333333333333 0 0 1 58.6621154798486 90.6666666666667V50.1866666666667L41.1154488131819 67.7866666666667A5.3333333333333 5.3333333333333 0 0 1 33.5421154798486 60.2133333333333L60.2087821465153 33.5466666666667A5.3333333333333 5.3333333333333 0 0 1 61.9687821465153 32.4266666666667A5.0133333333333 5.0133333333333 0 0 1 66.0221154798486 32.4266666666667A5.3333333333333 5.3333333333333 0 0 1 67.7821154798486 33.5466666666667L94.4487821465153 60.2133333333333A5.3333333333333 5.3333333333333 0 0 1 94.4487821465153 67.7866666666667z" />
    <glyph glyph-name="arrow-down-left"
      unicode="&#xEA46;"
      horiz-adv-x="128" d="M90.6557556552403 42.6666666666667H50.1757556552403L94.442422321907 86.88A5.3333333333333 5.3333333333333 0 1 1 86.8690889885736 94.4533333333333L42.6557556552403 50.1866666666667V90.6666666666667A5.3333333333333 5.3333333333333 0 0 1 31.9890889885736 90.6666666666667V37.3333333333333A5.3333333333333 5.3333333333333 0 0 1 32.4157556552403 35.3066666666667A5.3333333333333 5.3333333333333 0 0 1 35.2957556552403 32.4266666666667A5.3333333333333 5.3333333333333 0 0 1 37.3224223219069 32H90.6557556552403A5.3333333333333 5.3333333333333 0 0 1 90.6557556552403 42.6666666666667z" />
    <glyph glyph-name="arrow-down-right"
      unicode="&#xEA47;"
      horiz-adv-x="128" d="M90.6775776780931 96A5.3333333333333 5.3333333333333 0 0 1 85.3442443447597 90.6666666666667V50.1866666666667L41.1309110114264 94.4533333333334A5.3333333333333 5.3333333333333 0 0 1 33.5575776780931 86.88L77.8242443447597 42.6666666666667H37.3442443447597A5.3333333333333 5.3333333333333 0 0 1 37.3442443447597 32H90.6775776780931A5.3333333333333 5.3333333333333 0 0 1 92.7042443447597 32.4266666666667A5.3333333333333 5.3333333333333 0 0 1 95.5842443447597 35.3066666666667A5.3333333333333 5.3333333333333 0 0 1 96.0109110114264 37.3333333333333V90.6666666666667A5.3333333333333 5.3333333333333 0 0 1 90.6775776780931 96z" />
    <glyph glyph-name="arrow-from-right"
      unicode="&#xEA48;"
      horiz-adv-x="128" d="M16.0132972970341 106.6666666666667A5.3333333333333 5.3333333333333 0 0 1 10.6799639637007 101.3333333333333V26.6666666666667A5.3333333333333 5.3333333333333 0 0 1 21.3466306303674 26.6666666666667V101.3333333333333A5.3333333333333 5.3333333333333 0 0 1 16.0132972970341 106.6666666666667zM116.9199639637008 66.0266666666667A5.3333333333333 5.3333333333333 0 0 1 115.7999639637007 67.7866666666667L94.4666306303674 89.12A5.3333333333333 5.3333333333333 0 1 1 86.8932972970341 81.5466666666667L99.1599639637007 69.3333333333333H37.3466306303674A5.3333333333333 5.3333333333333 0 0 1 37.3466306303674 58.6666666666667H99.1599639637007L86.8932972970341 46.4533333333334A5.3333333333333 5.3333333333333 0 0 1 86.8932972970341 38.88A5.3333333333333 5.3333333333333 0 0 1 94.4666306303674 38.88L115.7999639637007 60.2133333333333A5.3333333333333 5.3333333333333 0 0 1 116.9199639637008 61.9733333333333A5.3333333333333 5.3333333333333 0 0 1 116.9199639637008 66.0266666666667z" />
    <glyph glyph-name="arrow-from-top"
      unicode="&#xEA49;"
      horiz-adv-x="128" d="M81.5466666666667 41.12L69.3333333333333 28.8533333333333V90.6666666666667A5.3333333333333 5.3333333333333 0 0 1 58.6666666666667 90.6666666666667V28.8533333333333L46.4533333333333 41.12A5.3333333333333 5.3333333333333 0 1 1 38.88 33.5466666666667L60.2133333333333 12.2133333333333A5.3333333333333 5.3333333333333 0 0 1 61.9733333333333 11.0933333333333A5.0133333333333 5.0133333333333 0 0 1 66.0266666666667 11.0933333333333A5.3333333333333 5.3333333333333 0 0 1 67.7866666666667 12.2133333333333L89.12 33.5466666666667A5.3333333333333 5.3333333333333 0 0 1 81.5466666666667 41.12zM101.3333333333333 117.3333333333333H26.6666666666667A5.3333333333333 5.3333333333333 0 0 1 26.6666666666667 106.6666666666667H101.3333333333333A5.3333333333333 5.3333333333333 0 0 1 101.3333333333333 117.3333333333333z" />
    <glyph glyph-name="arrow-growth"
      unicode="&#xEA4A;"
      horiz-adv-x="128" d="M116.9221288649111 92.6933333333333A5.3333333333333 5.3333333333333 0 0 1 114.0421288649111 95.5733333333333A5.3333333333333 5.3333333333333 0 0 1 112.0154621982445 96H85.3487955315778A5.3333333333333 5.3333333333333 0 0 1 85.3487955315778 85.3333333333333H99.1621288649111L69.3487955315778 55.52L51.8021288649111 73.12A5.3333333333333 5.3333333333333 0 0 1 44.2287955315778 73.12L12.2287955315778 41.12A5.3333333333333 5.3333333333333 0 0 1 12.2287955315778 33.5466666666667A5.3333333333333 5.3333333333333 0 0 1 19.8021288649111 33.5466666666667L48.0154621982445 61.8133333333333L65.5621288649111 44.2133333333333A5.3333333333333 5.3333333333333 0 0 1 73.1354621982445 44.2133333333333L106.6821288649111 77.8133333333333V64A5.3333333333333 5.3333333333333 0 0 1 117.3487955315778 64V90.6666666666667A5.3333333333333 5.3333333333333 0 0 1 116.9221288649111 92.6933333333333z" />
    <glyph glyph-name="arrow-left"
      unicode="&#xEA4B;"
      horiz-adv-x="128" d="M90.6533693696326 69.3333333333333H50.1733693696326L67.7733693696326 86.88A5.3333333333333 5.3333333333333 0 1 1 60.2000360362993 94.4533333333333L33.5333693696326 67.7866666666667A5.3333333333333 5.3333333333333 0 0 1 32.4133693696326 66.0266666666667A5.3333333333333 5.3333333333333 0 0 1 32.4133693696326 61.9733333333333A5.3333333333333 5.3333333333333 0 0 1 33.5333693696326 60.2133333333333L60.2000360362993 33.5466666666667A5.3333333333333 5.3333333333333 0 0 1 67.7733693696326 33.5466666666667A5.3333333333333 5.3333333333333 0 0 1 67.7733693696326 41.12L50.1733693696326 58.6666666666667H90.6533693696326A5.3333333333333 5.3333333333333 0 0 1 90.6533693696326 69.3333333333333z" />
    </font>
</defs>
</svg>
