<?xml version="1.0" standalone="no"?><!DOCTYPE svg PUBLIC "-//W3C//DTD SVG 1.1//EN" "http://www.w3.org/Graphics/SVG/1.1/DTD/svg11.dtd" ><svg version="1.1" xmlns="http://www.w3.org/2000/svg"><defs><font horiz-adv-x="0" id="font"><font-face ascent="750" bbox="-120 -180 843 893" cap-height="614" descent="-250" font-family="Copyright Klim Type Foundry" font-stretch="normal" font-style="normal" font-weight="300" units-per-em="1000" x-height="444" /><missing-glyph horiz-adv-x="608" /><glyph d="M283 571 152 244H414ZM512 0 426 214H140L55 0H24L270 614H297L543 0Z" glyph-name="A" horiz-adv-x="567" unicode="A" /><glyph d="M432 583 214 244H432ZM432 0V214H195L57 0H24L417 614H795V584H463V332H763V302H463V30H795V0Z" glyph-name="AE" horiz-adv-x="855" unicode="&#198;" /><glyph d="M432 583 214 244H432ZM432 0V214H195L57 0H24L417 614H795V584H463V332H763V302H463V30H795V0ZM619 663H586L671 780H704Z" glyph-name="AEacute" horiz-adv-x="855" unicode="&#508;" /><glyph d="M283 571 152 244H414ZM512 0 426 214H140L55 0H24L270 614H297L543 0ZM303 663H270L355 780H388Z" glyph-name="Aacute" horiz-adv-x="567" unicode="&#193;" /><glyph d="M283 571 152 244H414ZM512 0 426 214H140L55 0H24L270 614H297L543 0ZM283 663Q243 663 216.5 692.5Q190 722 190 777H217Q217 734 236 711Q255 688 283 688Q311 688 330 711Q349 734 349 777H376Q376 722 349.5 692.5Q323 663 283 663Z" glyph-name="Abreve" horiz-adv-x="567" unicode="&#258;" /><glyph d="M283 571 152 244H414ZM512 0 426 214H140L55 0H24L270 614H297L543 0ZM296 783 387 666H356L283 758L210 666H179L270 783Z" glyph-name="Acircumflex" horiz-adv-x="567" unicode="&#194;" /><glyph d="M283 571 152 244H414ZM512 0 426 214H140L55 0H24L270 614H297L543 0ZM317 710Q317 720 323.5 726.5Q330 733 340 733Q350 733 356.5 726.5Q363 720 363 710Q363 700 356.5 693.5Q350 687 340 687Q330 687 323.5 693.5Q317 700 317 710ZM203 710Q203 720 209.5 726.5Q216 733 226 733Q236 733 242.5 726.5Q249 720 249 710Q249 700 242.5 693.5Q236 687 226 687Q216 687 209.5 693.5Q203 700 203 710Z" glyph-name="Adieresis" horiz-adv-x="567" unicode="&#196;" /><glyph d="M283 571 152 244H414ZM512 0 426 214H140L55 0H24L270 614H297L543 0ZM296 663H263L178 780H211Z" glyph-name="Agrave" horiz-adv-x="567" unicode="&#192;" /><glyph d="M283 571 152 244H414ZM512 0 426 214H140L55 0H24L270 614H297L543 0ZM187 670V697H380V670Z" glyph-name="Amacron" horiz-adv-x="567" unicode="&#256;" /><glyph d="M270 614H297L543 0Q510 -57 501 -81Q492 -105 492 -124Q492 -140 499.5 -147.5Q507 -155 518 -155Q529 -155 537.5 -151.5Q546 -148 555 -141V-166Q546 -173 536.5 -176Q527 -179 516 -179Q496 -179 480.5 -166Q465 -153 465 -124Q465 -102 476 -76.5Q487 -51 515 0H512L426 214H140L55 0H24ZM283 571 152 244H414Z" glyph-name="Aogonek" horiz-adv-x="567" unicode="&#260;" /><glyph d="M283 571 152 244H414ZM512 0 426 214H140L55 0H24L270 614H297L543 0ZM360 724Q360 692 337.5 669.5Q315 647 283 647Q251 647 228.5 669.5Q206 692 206 724Q206 756 228.5 778.5Q251 801 283 801Q315 801 337.5 778.5Q360 756 360 724ZM335 724Q335 746 320 761Q305 776 283 776Q261 776 246 761Q231 746 231 724Q231 702 246 687Q261 672 283 672Q305 672 320 687Q335 702 335 724Z" glyph-name="Aring" horiz-adv-x="567" unicode="&#197;" /><glyph d="M297 811H268L328 893H357ZM364 712Q364 684 340.5 664Q317 644 283 644Q250 644 226.5 664Q203 684 203 712Q203 741 226.5 761Q250 781 283 781Q317 781 340.5 761Q364 741 364 712ZM338 712Q338 731 322 744Q306 757 283 757Q261 757 245 744Q229 731 229 712Q229 693 245 680.5Q261 668 283 668Q306 668 322 680.5Q338 693 338 712ZM283 571 152 244H414ZM512 0 426 214H140L55 0H24L270 614H297L543 0Z" glyph-name="Aringacute" horiz-adv-x="567" unicode="&#506;" /><glyph d="M283 571 152 244H414ZM512 0 426 214H140L55 0H24L270 614H297L543 0ZM376 759H402Q402 716 386 690Q370 664 339 664Q299 664 278 699Q257 734 229 734Q210 734 200.5 715.5Q191 697 191 667H165Q165 710 181 736Q197 762 228 762Q268 762 289 727Q310 692 338 692Q357 692 366.5 710.5Q376 729 376 759Z" glyph-name="Atilde" horiz-adv-x="567" unicode="&#195;" /><glyph d="M344 319Q405 311 440.5 267.5Q476 224 476 166Q476 88 424 44Q372 0 279 0H83V614H261Q354 614 403.5 573Q453 532 453 458Q453 394 419 362Q385 330 344 319ZM114 331H261Q338 331 380 362.5Q422 394 422 457Q422 520 380 552Q338 584 261 584H114ZM114 303V30H285Q363 30 404 67.5Q445 105 445 166Q445 227 404 265Q363 303 285 303Z" glyph-name="B" horiz-adv-x="513" unicode="B" /><glyph d="M40 307Q40 454 120 538Q200 622 312 622Q368 622 409 608Q450 594 481 569V533Q443 566 402 579Q361 592 312 592Q211 592 141.5 516.5Q72 441 72 307Q72 173 141.5 97.5Q211 22 312 22Q361 22 402 36Q443 50 481 82V45Q450 20 409 6Q368 -8 312 -8Q200 -8 120 76Q40 160 40 307Z" glyph-name="C" horiz-adv-x="531" unicode="C" /><glyph d="M40 307Q40 454 120 538Q200 622 312 622Q368 622 409 608Q450 594 481 569V533Q443 566 402 579Q361 592 312 592Q211 592 141.5 516.5Q72 441 72 307Q72 173 141.5 97.5Q211 22 312 22Q361 22 402 36Q443 50 481 82V45Q450 20 409 6Q368 -8 312 -8Q200 -8 120 76Q40 160 40 307ZM330 663H297L382 780H415Z" glyph-name="Cacute" horiz-adv-x="531" unicode="&#262;" /><glyph d="M40 307Q40 454 120 538Q200 622 312 622Q368 622 409 608Q450 594 481 569V533Q443 566 402 579Q361 592 312 592Q211 592 141.5 516.5Q72 441 72 307Q72 173 141.5 97.5Q211 22 312 22Q361 22 402 36Q443 50 481 82V45Q450 20 409 6Q368 -8 312 -8Q200 -8 120 76Q40 160 40 307ZM305 656 214 773H245L318 681L391 773H422L331 656Z" glyph-name="Ccaron" horiz-adv-x="531" unicode="&#268;" /><glyph d="M40 307Q40 454 120 538Q200 622 312 622Q368 622 409 608Q450 594 481 569V533Q443 566 402 579Q361 592 312 592Q211 592 141.5 516.5Q72 441 72 307Q72 173 141.5 97.5Q211 22 312 22Q361 22 402 36Q443 50 481 82V45Q450 20 409 6Q368 -8 312 -8Q200 -8 120 76Q40 160 40 307ZM270 -170H241L296 -46H325Z" glyph-name="Ccedilla" horiz-adv-x="531" unicode="&#199;" /><glyph d="M40 307Q40 454 120 538Q200 622 312 622Q368 622 409 608Q450 594 481 569V533Q443 566 402 579Q361 592 312 592Q211 592 141.5 516.5Q72 441 72 307Q72 173 141.5 97.5Q211 22 312 22Q361 22 402 36Q443 50 481 82V45Q450 20 409 6Q368 -8 312 -8Q200 -8 120 76Q40 160 40 307ZM331 783 422 666H391L318 758L245 666H214L305 783Z" glyph-name="Ccircumflex" horiz-adv-x="531" unicode="&#264;" /><glyph d="M40 307Q40 454 120 538Q200 622 312 622Q368 622 409 608Q450 594 481 569V533Q443 566 402 579Q361 592 312 592Q211 592 141.5 516.5Q72 441 72 307Q72 173 141.5 97.5Q211 22 312 22Q361 22 402 36Q443 50 481 82V45Q450 20 409 6Q368 -8 312 -8Q200 -8 120 76Q40 160 40 307ZM341 709Q341 699 334.5 692Q328 685 318 685Q308 685 301.5 692Q295 699 295 709Q295 719 301.5 726Q308 733 318 733Q328 733 334.5 726Q341 719 341 709Z" glyph-name="Cdotaccent" horiz-adv-x="531" unicode="&#266;" /><glyph d="M83 0V614H262Q394 614 477 530.5Q560 447 560 307Q560 167 477 83.5Q394 0 262 0ZM114 30H264Q383 30 455.5 106Q528 182 528 307Q528 432 455.5 508Q383 584 264 584H114Z" glyph-name="D" horiz-adv-x="600" unicode="D" /><glyph d="M83 0V614H262Q394 614 477 530.5Q560 447 560 307Q560 167 477 83.5Q394 0 262 0ZM114 30H264Q383 30 455.5 106Q528 182 528 307Q528 432 455.5 508Q383 584 264 584H114ZM262 656 171 773H202L275 681L348 773H379L288 656Z" glyph-name="Dcaron" horiz-adv-x="600" unicode="&#270;" /><glyph d="M274 0H95V304H35V332H95V614H274Q406 614 489 530.5Q572 447 572 307Q572 167 489 83.5Q406 0 274 0ZM126 30H276Q395 30 467.5 106Q540 182 540 307Q540 432 467.5 508Q395 584 276 584H126V332H261V304H126Z" glyph-name="Dcroat" horiz-adv-x="612" unicode="&#272;" /><glyph d="M83 614H456V584H114V332H424V302H114V30H456V0H83Z" glyph-name="E" horiz-adv-x="516" unicode="E" /><glyph d="M83 614H456V584H114V332H424V302H114V30H456V0H83ZM287 663H254L339 780H372Z" glyph-name="Eacute" horiz-adv-x="516" unicode="&#201;" /><glyph d="M83 614H456V584H114V332H424V302H114V30H456V0H83ZM275 663Q235 663 208.5 692.5Q182 722 182 777H209Q209 734 228 711Q247 688 275 688Q303 688 322 711Q341 734 341 777H368Q368 722 341.5 692.5Q315 663 275 663Z" glyph-name="Ebreve" horiz-adv-x="516" unicode="&#276;" /><glyph d="M83 614H456V584H114V332H424V302H114V30H456V0H83ZM262 656 171 773H202L275 681L348 773H379L288 656Z" glyph-name="Ecaron" horiz-adv-x="516" unicode="&#282;" /><glyph d="M83 614H456V584H114V332H424V302H114V30H456V0H83ZM288 783 379 666H348L275 758L202 666H171L262 783Z" glyph-name="Ecircumflex" horiz-adv-x="516" unicode="&#202;" /><glyph d="M83 614H456V584H114V332H424V302H114V30H456V0H83ZM309 710Q309 720 315.5 726.5Q322 733 332 733Q342 733 348.5 726.5Q355 720 355 710Q355 700 348.5 693.5Q342 687 332 687Q322 687 315.5 693.5Q309 700 309 710ZM195 710Q195 720 201.5 726.5Q208 733 218 733Q228 733 234.5 726.5Q241 720 241 710Q241 700 234.5 693.5Q228 687 218 687Q208 687 201.5 693.5Q195 700 195 710Z" glyph-name="Edieresis" horiz-adv-x="516" unicode="&#203;" /><glyph d="M83 614H456V584H114V332H424V302H114V30H456V0H83ZM298 709Q298 699 291.5 692Q285 685 275 685Q265 685 258.5 692Q252 699 252 709Q252 719 258.5 726Q265 733 275 733Q285 733 291.5 726Q298 719 298 709Z" glyph-name="Edotaccent" horiz-adv-x="516" unicode="&#278;" /><glyph d="M83 614H456V584H114V332H424V302H114V30H456V0H83ZM292 663H259L174 780H207Z" glyph-name="Egrave" horiz-adv-x="516" unicode="&#200;" /><glyph d="M83 614H456V584H114V332H424V302H114V30H456V0H83ZM179 670V697H372V670Z" glyph-name="Emacron" horiz-adv-x="516" unicode="&#274;" /><glyph d="M258 -141V-107Q287 -131 313.5 -140.5Q340 -150 371 -150Q434 -150 466 -111Q498 -72 498 18L113 565V0H83V614H113L498 70V614H528V17Q528 -84 486.5 -132Q445 -180 371 -180Q334 -180 305 -168Q276 -156 258 -141Z" glyph-name="Eng" horiz-adv-x="611" unicode="&#330;" /><glyph d="M83 614H456V584H114V332H424V302H114V30H456V0H423Q391 -54 382 -79Q373 -105 373 -124Q373 -140 380.5 -147.5Q388 -155 399 -155Q410 -155 418.5 -151.5Q427 -148 436 -141V-166Q427 -173 417.5 -176Q408 -179 397 -179Q377 -179 361.5 -166Q346 -153 346 -124Q346 -102 357 -75Q368 -49 395 0H83Z" glyph-name="Eogonek" horiz-adv-x="516" unicode="&#280;" /><glyph d="M274 0H95V304H35V332H95V614H274Q406 614 489 530.5Q572 447 572 307Q572 167 489 83.5Q406 0 274 0ZM126 30H276Q395 30 467.5 106Q540 182 540 307Q540 432 467.5 508Q395 584 276 584H126V332H261V304H126Z" glyph-name="Eth" horiz-adv-x="612" unicode="&#208;" /><glyph d="M478 45Q451 20 414.5 6Q378 -8 329 -8Q242 -8 176 56.5Q110 121 93 236H30V263H90Q89 273 88.5 284.5Q88 296 88 307Q88 317 88 326.5Q88 336 89 346H30V373H92Q108 490 174.5 556Q241 622 329 622Q378 622 414.5 608Q451 594 478 569V533Q444 566 408 579Q372 592 329 592Q251 592 195 533.5Q139 475 124 373H357L350 346H122Q121 337 120.5 327Q120 317 120 307Q120 296 120.5 284.5Q121 273 122 263H337L330 236H125Q141 136 196 79Q251 22 329 22Q372 22 408 36Q444 50 478 82Z" glyph-name="Euro" horiz-adv-x="518" unicode="&#8364;" /><glyph d="M484 45Q457 20 420.5 6Q384 -8 335 -8Q248 -8 182 56.5Q116 121 99 236H36V263H96Q95 273 94.5 284.5Q94 296 94 307Q94 317 94 326.5Q94 336 95 346H36V373H98Q114 490 180.5 556Q247 622 335 622Q384 622 420.5 608Q457 594 484 569V533Q450 566 414 579Q378 592 335 592Q257 592 201 533.5Q145 475 130 373H363L356 346H128Q127 337 126.5 327Q126 317 126 307Q126 296 126.5 284.5Q127 273 128 263H343L336 236H131Q147 136 202 79Q257 22 335 22Q378 22 414 36Q450 50 484 82Z" glyph-name="Euro.lt" horiz-adv-x="520" /><glyph d="M114 0H83V614H425V584H114V330H410V301H114Z" glyph-name="F" horiz-adv-x="465" unicode="F" /><glyph d="M314 22Q370 22 411.5 35Q453 48 493 82V278H323V305H522V75Q479 25 423.5 8.5Q368 -8 314 -8Q201 -8 120.5 76.5Q40 161 40 307Q40 454 120 538Q200 622 317 622Q371 622 418.5 605.5Q466 589 499 561V523Q461 560 413.5 576Q366 592 317 592Q210 592 141 516.5Q72 441 72 307Q72 173 141 97.5Q210 22 314 22Z" glyph-name="G" horiz-adv-x="582" unicode="G" /><glyph d="M314 22Q370 22 411.5 35Q453 48 493 82V278H323V305H522V75Q479 25 423.5 8.5Q368 -8 314 -8Q201 -8 120.5 76.5Q40 161 40 307Q40 454 120 538Q200 622 317 622Q371 622 418.5 605.5Q466 589 499 561V523Q461 560 413.5 576Q366 592 317 592Q210 592 141 516.5Q72 441 72 307Q72 173 141 97.5Q210 22 314 22ZM319 663Q279 663 252.5 692.5Q226 722 226 777H253Q253 734 272 711Q291 688 319 688Q347 688 366 711Q385 734 385 777H412Q412 722 385.5 692.5Q359 663 319 663Z" glyph-name="Gbreve" horiz-adv-x="582" unicode="&#286;" /><glyph d="M314 22Q370 22 411.5 35Q453 48 493 82V278H323V305H522V75Q479 25 423.5 8.5Q368 -8 314 -8Q201 -8 120.5 76.5Q40 161 40 307Q40 454 120 538Q200 622 317 622Q371 622 418.5 605.5Q466 589 499 561V523Q461 560 413.5 576Q366 592 317 592Q210 592 141 516.5Q72 441 72 307Q72 173 141 97.5Q210 22 314 22ZM332 783 423 666H392L319 758L246 666H215L306 783Z" glyph-name="Gcircumflex" horiz-adv-x="582" unicode="&#284;" /><glyph d="M314 22Q370 22 411.5 35Q453 48 493 82V278H323V305H522V75Q479 25 423.5 8.5Q368 -8 314 -8Q201 -8 120.5 76.5Q40 161 40 307Q40 454 120 538Q200 622 317 622Q371 622 418.5 605.5Q466 589 499 561V523Q461 560 413.5 576Q366 592 317 592Q210 592 141 516.5Q72 441 72 307Q72 173 141 97.5Q210 22 314 22ZM287 -170 321 -100Q313 -99 306.5 -92.5Q300 -86 300 -75Q300 -64 307.5 -56Q315 -48 326 -48Q337 -48 344.5 -56Q352 -64 352 -75Q352 -84 349.5 -91Q347 -98 343 -105L311 -170Z" glyph-name="Gcommaaccent" horiz-adv-x="582" unicode="&#290;" /><glyph d="M314 22Q370 22 411.5 35Q453 48 493 82V278H323V305H522V75Q479 25 423.5 8.5Q368 -8 314 -8Q201 -8 120.5 76.5Q40 161 40 307Q40 454 120 538Q200 622 317 622Q371 622 418.5 605.5Q466 589 499 561V523Q461 560 413.5 576Q366 592 317 592Q210 592 141 516.5Q72 441 72 307Q72 173 141 97.5Q210 22 314 22ZM342 709Q342 699 335.5 692Q329 685 319 685Q309 685 302.5 692Q296 699 296 709Q296 719 302.5 726Q309 733 319 733Q329 733 335.5 726Q342 719 342 709Z" glyph-name="Gdotaccent" horiz-adv-x="582" unicode="&#288;" /><glyph d="M534 614H565V0H534V302H114V0H83V614H114V332H534Z" glyph-name="H" horiz-adv-x="648" unicode="H" /><glyph d="M126 300H546V444H126ZM126 272V0H95V444H35V472H95V614H126V472H546V614H577V472H637V444H577V0H546V272Z" glyph-name="Hbar" horiz-adv-x="672" unicode="&#294;" /><glyph d="M534 614H565V0H534V302H114V0H83V614H114V332H534ZM337 783 428 666H397L324 758L251 666H220L311 783Z" glyph-name="Hcircumflex" horiz-adv-x="648" unicode="&#292;" /><glyph d="M114 614V0H83V614Z" glyph-name="I" horiz-adv-x="197" unicode="I" /><glyph d="M114 614V0H83V614ZM203 31V65Q232 41 258.5 31.5Q285 22 316 22Q379 22 410.5 61Q442 100 442 189V614H473V189Q473 88 431.5 40Q390 -8 316 -8Q279 -8 250 4Q221 16 203 31Z" glyph-name="IJ" horiz-adv-x="544" unicode="&#306;" /><glyph d="M114 614V0H83V614ZM110 663H77L162 780H195Z" glyph-name="Iacute" horiz-adv-x="197" unicode="&#205;" /><glyph d="M114 614V0H83V614ZM98 663Q58 663 31.5 692.5Q5 722 5 777H32Q32 734 51 711Q70 688 98 688Q126 688 145 711Q164 734 164 777H191Q191 722 164.5 692.5Q138 663 98 663Z" glyph-name="Ibreve" horiz-adv-x="197" unicode="&#300;" /><glyph d="M114 614V0H83V614ZM111 783 202 666H171L98 758L25 666H-6L85 783Z" glyph-name="Icircumflex" horiz-adv-x="197" unicode="&#206;" /><glyph d="M114 614V0H83V614ZM132 710Q132 720 138.5 726.5Q145 733 155 733Q165 733 171.5 726.5Q178 720 178 710Q178 700 171.5 693.5Q165 687 155 687Q145 687 138.5 693.5Q132 700 132 710ZM18 710Q18 720 24.5 726.5Q31 733 41 733Q51 733 57.5 726.5Q64 720 64 710Q64 700 57.5 693.5Q51 687 41 687Q31 687 24.5 693.5Q18 700 18 710Z" glyph-name="Idieresis" horiz-adv-x="197" unicode="&#207;" /><glyph d="M114 614V0H83V614ZM121 709Q121 699 114.5 692Q108 685 98 685Q88 685 81.5 692Q75 699 75 709Q75 719 81.5 726Q88 733 98 733Q108 733 114.5 726Q121 719 121 709Z" glyph-name="Idotaccent" horiz-adv-x="197" unicode="&#304;" /><glyph d="M114 614V0H83V614ZM115 663H82L-3 780H30Z" glyph-name="Igrave" horiz-adv-x="197" unicode="&#204;" /><glyph d="M114 614V0H83V614ZM2 670V697H195V670Z" glyph-name="Imacron" horiz-adv-x="197" unicode="&#298;" /><glyph d="M114 614V0Q83 -55 73.5 -80Q64 -105 64 -124Q64 -140 71.5 -147.5Q79 -155 90 -155Q101 -155 109.5 -151.5Q118 -148 127 -141V-166Q118 -173 108.5 -176Q99 -179 88 -179Q68 -179 52.5 -166Q37 -153 37 -124Q37 -102 47.5 -75.5Q58 -49 86 0H83V614Z" glyph-name="Iogonek" horiz-adv-x="197" unicode="&#302;" /><glyph d="M114 614V0H83V614ZM191 759H217Q217 716 201 690Q185 664 154 664Q114 664 93 699Q72 734 44 734Q25 734 15.5 715.5Q6 697 6 667H-20Q-20 710 -4 736Q12 762 43 762Q83 762 104 727Q125 692 153 692Q172 692 181.5 710.5Q191 729 191 759Z" glyph-name="Itilde" horiz-adv-x="197" unicode="&#296;" /><glyph d="M26 31V65Q55 41 81.5 31.5Q108 22 139 22Q202 22 233.5 61Q265 100 265 189V614H296V189Q296 88 254.5 40Q213 -8 139 -8Q102 -8 73 4Q44 16 26 31Z" glyph-name="J" horiz-adv-x="367" unicode="J" /><glyph d="M26 31V65Q55 41 81.5 31.5Q108 22 139 22Q202 22 233.5 61Q265 100 265 189V614H296V189Q296 88 254.5 40Q213 -8 139 -8Q102 -8 73 4Q44 16 26 31ZM294 783 385 666H354L281 758L208 666H177L268 783Z" glyph-name="Jcircumflex" horiz-adv-x="367" unicode="&#308;" /><glyph d="M114 614V329L449 614H492L144 319L500 0H457L114 304V0H83V614Z" glyph-name="K" horiz-adv-x="520" unicode="K" /><glyph d="M114 614V329L449 614H492L144 319L500 0H457L114 304V0H83V614ZM211 -170 245 -100Q237 -99 230.5 -92.5Q224 -86 224 -75Q224 -64 231.5 -56Q239 -48 250 -48Q261 -48 268.5 -56Q276 -64 276 -75Q276 -84 273.5 -91Q271 -98 267 -105L235 -170Z" glyph-name="Kcommaaccent" horiz-adv-x="520" unicode="&#310;" /><glyph d="M83 0V614H114V30H462V0Z" glyph-name="L" horiz-adv-x="502" unicode="L" /><glyph d="M83 0V614H114V30H462V0ZM122 663H89L174 780H207Z" glyph-name="Lacute" horiz-adv-x="502" unicode="&#313;" /><glyph d="M83 0V614H114V30H462V0ZM288 457H262L294 614H320Z" glyph-name="Lcaron" horiz-adv-x="502" unicode="&#317;" /><glyph d="M83 0V614H114V30H462V0ZM240 -170 274 -100Q266 -99 259.5 -92.5Q253 -86 253 -75Q253 -64 260.5 -56Q268 -48 279 -48Q290 -48 297.5 -56Q305 -64 305 -75Q305 -84 302.5 -91Q300 -98 296 -105L264 -170Z" glyph-name="Lcommaaccent" horiz-adv-x="502" unicode="&#315;" /><glyph d="M83 0V614H114V30H462V0ZM380 307Q380 297 373.5 290Q367 283 357 283Q347 283 340.5 290Q334 297 334 307Q334 317 340.5 324Q347 331 357 331Q367 331 373.5 324Q380 317 380 307Z" glyph-name="Ldot" horiz-adv-x="502" unicode="&#319;" /><glyph d="M469 0H90V285L30 261V292L90 316V614H121V328L280 391V360L121 297V30H469Z" glyph-name="Lslash" horiz-adv-x="509" unicode="&#321;" /><glyph d="M364 145H361L113 550V0H83V614H109L363 198L618 614H641V0H611V550Z" glyph-name="M" horiz-adv-x="724" unicode="M" /><glyph d="M528 614V0H511L113 565V0H83V614H113L498 70V614Z" glyph-name="N" horiz-adv-x="611" unicode="N" /><glyph glyph-name="NULL" horiz-adv-x="0" /><glyph d="M528 614V0H511L113 565V0H83V614H113L498 70V614ZM317 663H284L369 780H402Z" glyph-name="Nacute" horiz-adv-x="611" unicode="&#323;" /><glyph d="M528 614V0H511L113 565V0H83V614H113L498 70V614ZM292 656 201 773H232L305 681L378 773H409L318 656Z" glyph-name="Ncaron" horiz-adv-x="611" unicode="&#327;" /><glyph d="M528 614V0H511L113 565V0H83V614H113L498 70V614ZM273 -170 307 -100Q299 -99 292.5 -92.5Q286 -86 286 -75Q286 -64 293.5 -56Q301 -48 312 -48Q323 -48 330.5 -56Q338 -64 338 -75Q338 -84 335.5 -91Q333 -98 329 -105L297 -170Z" glyph-name="Ncommaaccent" horiz-adv-x="611" unicode="&#325;" /><glyph d="M528 614V0H511L113 565V0H83V614H113L498 70V614ZM398 759H424Q424 716 408 690Q392 664 361 664Q321 664 300 699Q279 734 251 734Q232 734 222.5 715.5Q213 697 213 667H187Q187 710 203 736Q219 762 250 762Q290 762 311 727Q332 692 360 692Q379 692 388.5 710.5Q398 729 398 759Z" glyph-name="Ntilde" horiz-adv-x="611" unicode="&#209;" /><glyph d="M574 307Q574 165 497.5 78.5Q421 -8 307 -8Q194 -8 117 78.5Q40 165 40 307Q40 449 117 535.5Q194 622 307 622Q421 622 497.5 535.5Q574 449 574 307ZM542 307Q542 433 476.5 512.5Q411 592 307 592Q204 592 138 512.5Q72 433 72 307Q72 181 138 101.5Q204 22 307 22Q411 22 476.5 101.5Q542 181 542 307Z" glyph-name="O" horiz-adv-x="614" unicode="O" /><glyph d="M787 614V584H455V332H755V302H455V30H787V0H338Q206 0 123 83.5Q40 167 40 307Q40 447 123 530.5Q206 614 338 614ZM336 30H424V584H336Q217 584 144.5 508Q72 432 72 307Q72 182 144.5 106Q217 30 336 30Z" glyph-name="OE" horiz-adv-x="847" unicode="&#338;" /><glyph d="M574 307Q574 165 497.5 78.5Q421 -8 307 -8Q194 -8 117 78.5Q40 165 40 307Q40 449 117 535.5Q194 622 307 622Q421 622 497.5 535.5Q574 449 574 307ZM542 307Q542 433 476.5 512.5Q411 592 307 592Q204 592 138 512.5Q72 433 72 307Q72 181 138 101.5Q204 22 307 22Q411 22 476.5 101.5Q542 181 542 307ZM319 663H286L371 780H404Z" glyph-name="Oacute" horiz-adv-x="614" unicode="&#211;" /><glyph d="M574 307Q574 165 497.5 78.5Q421 -8 307 -8Q194 -8 117 78.5Q40 165 40 307Q40 449 117 535.5Q194 622 307 622Q421 622 497.5 535.5Q574 449 574 307ZM542 307Q542 433 476.5 512.5Q411 592 307 592Q204 592 138 512.5Q72 433 72 307Q72 181 138 101.5Q204 22 307 22Q411 22 476.5 101.5Q542 181 542 307ZM307 663Q267 663 240.5 692.5Q214 722 214 777H241Q241 734 260 711Q279 688 307 688Q335 688 354 711Q373 734 373 777H400Q400 722 373.5 692.5Q347 663 307 663Z" glyph-name="Obreve" horiz-adv-x="614" unicode="&#334;" /><glyph d="M574 307Q574 165 497.5 78.5Q421 -8 307 -8Q194 -8 117 78.5Q40 165 40 307Q40 449 117 535.5Q194 622 307 622Q421 622 497.5 535.5Q574 449 574 307ZM542 307Q542 433 476.5 512.5Q411 592 307 592Q204 592 138 512.5Q72 433 72 307Q72 181 138 101.5Q204 22 307 22Q411 22 476.5 101.5Q542 181 542 307ZM320 783 411 666H380L307 758L234 666H203L294 783Z" glyph-name="Ocircumflex" horiz-adv-x="614" unicode="&#212;" /><glyph d="M574 307Q574 165 497.5 78.5Q421 -8 307 -8Q194 -8 117 78.5Q40 165 40 307Q40 449 117 535.5Q194 622 307 622Q421 622 497.5 535.5Q574 449 574 307ZM542 307Q542 433 476.5 512.5Q411 592 307 592Q204 592 138 512.5Q72 433 72 307Q72 181 138 101.5Q204 22 307 22Q411 22 476.5 101.5Q542 181 542 307ZM341 710Q341 720 347.5 726.5Q354 733 364 733Q374 733 380.5 726.5Q387 720 387 710Q387 700 380.5 693.5Q374 687 364 687Q354 687 347.5 693.5Q341 700 341 710ZM227 710Q227 720 233.5 726.5Q240 733 250 733Q260 733 266.5 726.5Q273 720 273 710Q273 700 266.5 693.5Q260 687 250 687Q240 687 233.5 693.5Q227 700 227 710Z" glyph-name="Odieresis" horiz-adv-x="614" unicode="&#214;" /><glyph d="M574 307Q574 165 497.5 78.5Q421 -8 307 -8Q194 -8 117 78.5Q40 165 40 307Q40 449 117 535.5Q194 622 307 622Q421 622 497.5 535.5Q574 449 574 307ZM542 307Q542 433 476.5 512.5Q411 592 307 592Q204 592 138 512.5Q72 433 72 307Q72 181 138 101.5Q204 22 307 22Q411 22 476.5 101.5Q542 181 542 307ZM324 663H291L206 780H239Z" glyph-name="Ograve" horiz-adv-x="614" unicode="&#210;" /><glyph d="M574 307Q574 165 497.5 78.5Q421 -8 307 -8Q194 -8 117 78.5Q40 165 40 307Q40 449 117 535.5Q194 622 307 622Q421 622 497.5 535.5Q574 449 574 307ZM542 307Q542 433 476.5 512.5Q411 592 307 592Q204 592 138 512.5Q72 433 72 307Q72 181 138 101.5Q204 22 307 22Q411 22 476.5 101.5Q542 181 542 307ZM375 663H344L423 780H454ZM272 663H241L320 780H351Z" glyph-name="Ohungarumlaut" horiz-adv-x="614" unicode="&#336;" /><glyph d="M574 307Q574 165 497.5 78.5Q421 -8 307 -8Q194 -8 117 78.5Q40 165 40 307Q40 449 117 535.5Q194 622 307 622Q421 622 497.5 535.5Q574 449 574 307ZM542 307Q542 433 476.5 512.5Q411 592 307 592Q204 592 138 512.5Q72 433 72 307Q72 181 138 101.5Q204 22 307 22Q411 22 476.5 101.5Q542 181 542 307ZM211 670V697H404V670Z" glyph-name="Omacron" horiz-adv-x="614" unicode="&#332;" /><glyph d="M77 307Q77 247 92 197Q107 147 135 110L474 522Q444 556 402.5 574Q361 592 312 592Q209 592 143 512.5Q77 433 77 307ZM312 22Q416 22 481.5 101.5Q547 181 547 307Q547 364 532.5 413Q518 462 493 499L154 88Q184 57 224.5 39.5Q265 22 312 22ZM312 -8Q261 -8 215 11Q169 30 135 64L67 -18L45 0L115 86Q82 126 63.5 182.5Q45 239 45 307Q45 449 122 535.5Q199 622 312 622Q366 622 412.5 602.5Q459 583 494 546L550 614L572 596L513 524Q544 484 561.5 428.5Q579 373 579 307Q579 165 502.5 78.5Q426 -8 312 -8Z" glyph-name="Oslash" horiz-adv-x="624" unicode="&#216;" /><glyph d="M77 307Q77 247 92 197Q107 147 135 110L474 522Q444 556 402.5 574Q361 592 312 592Q209 592 143 512.5Q77 433 77 307ZM312 22Q416 22 481.5 101.5Q547 181 547 307Q547 364 532.5 413Q518 462 493 499L154 88Q184 57 224.5 39.5Q265 22 312 22ZM312 -8Q261 -8 215 11Q169 30 135 64L67 -18L45 0L115 86Q82 126 63.5 182.5Q45 239 45 307Q45 449 122 535.5Q199 622 312 622Q366 622 412.5 602.5Q459 583 494 546L550 614L572 596L513 524Q544 484 561.5 428.5Q579 373 579 307Q579 165 502.5 78.5Q426 -8 312 -8ZM324 663H291L376 780H409Z" glyph-name="Oslashacute" horiz-adv-x="624" unicode="&#510;" /><glyph d="M574 307Q574 165 497.5 78.5Q421 -8 307 -8Q194 -8 117 78.5Q40 165 40 307Q40 449 117 535.5Q194 622 307 622Q421 622 497.5 535.5Q574 449 574 307ZM542 307Q542 433 476.5 512.5Q411 592 307 592Q204 592 138 512.5Q72 433 72 307Q72 181 138 101.5Q204 22 307 22Q411 22 476.5 101.5Q542 181 542 307ZM400 759H426Q426 716 410 690Q394 664 363 664Q323 664 302 699Q281 734 253 734Q234 734 224.5 715.5Q215 697 215 667H189Q189 710 205 736Q221 762 252 762Q292 762 313 727Q334 692 362 692Q381 692 390.5 710.5Q400 729 400 759Z" glyph-name="Otilde" horiz-adv-x="614" unicode="&#213;" /><glyph d="M292 279H114V0H83V614H292Q380 614 433.5 571Q487 528 487 447Q487 364 433.5 321.5Q380 279 292 279ZM291 309Q368 309 412 345Q456 381 456 447Q456 513 412 548.5Q368 584 291 584H114V309Z" glyph-name="P" horiz-adv-x="523" unicode="P" /><glyph d="M506 -28 455 39Q424 17 386.5 4.5Q349 -8 307 -8Q194 -8 117 78.5Q40 165 40 307Q40 449 117 535.5Q194 622 307 622Q421 622 497.5 535.5Q574 449 574 307Q574 226 548 161.5Q522 97 476 56L527 -10ZM307 22Q344 22 376.5 33Q409 44 437 63L385 131L406 148L458 81Q498 118 520 176.5Q542 235 542 307Q542 433 476.5 512.5Q411 592 307 592Q204 592 138 512.5Q72 433 72 307Q72 181 138 101.5Q204 22 307 22Z" glyph-name="Q" horiz-adv-x="614" unicode="Q" /><glyph d="M114 584V309H284Q361 309 405 345Q449 381 449 447Q449 513 405 548.5Q361 584 284 584ZM114 0H83V614H286Q373 614 426.5 571Q480 528 480 447Q480 374 437 332Q394 290 322 282L511 0H475L286 280H114Z" glyph-name="R" horiz-adv-x="547" unicode="R" /><glyph d="M114 584V309H284Q361 309 405 345Q449 381 449 447Q449 513 405 548.5Q361 584 284 584ZM114 0H83V614H286Q373 614 426.5 571Q480 528 480 447Q480 374 437 332Q394 290 322 282L511 0H475L286 280H114ZM271 663H238L323 780H356Z" glyph-name="Racute" horiz-adv-x="547" unicode="&#340;" /><glyph d="M114 584V309H284Q361 309 405 345Q449 381 449 447Q449 513 405 548.5Q361 584 284 584ZM114 0H83V614H286Q373 614 426.5 571Q480 528 480 447Q480 374 437 332Q394 290 322 282L511 0H475L286 280H114ZM246 656 155 773H186L259 681L332 773H363L272 656Z" glyph-name="Rcaron" horiz-adv-x="547" unicode="&#344;" /><glyph d="M114 584V309H284Q361 309 405 345Q449 381 449 447Q449 513 405 548.5Q361 584 284 584ZM114 0H83V614H286Q373 614 426.5 571Q480 528 480 447Q480 374 437 332Q394 290 322 282L511 0H475L286 280H114ZM227 -170 261 -100Q253 -99 246.5 -92.5Q240 -86 240 -75Q240 -64 247.5 -56Q255 -48 266 -48Q277 -48 284.5 -56Q292 -64 292 -75Q292 -84 289.5 -91Q287 -98 283 -105L251 -170Z" glyph-name="Rcommaaccent" horiz-adv-x="547" unicode="&#342;" /><glyph d="M37 55V95Q82 53 127.5 37.5Q173 22 226 22Q297 22 338 57.5Q379 93 379 150Q379 200 350.5 226.5Q322 253 260 281L169 321Q127 340 84 372Q41 404 41 471Q41 547 95 584.5Q149 622 219 622Q265 622 310 608.5Q355 595 387 570V532Q353 562 311.5 577Q270 592 219 592Q159 592 115.5 561.5Q72 531 72 471Q72 422 104.5 395.5Q137 369 188 347L282 306Q348 276 379 241.5Q410 207 410 150Q410 81 358 36.5Q306 -8 226 -8Q164 -8 115.5 9.5Q67 27 37 55Z" glyph-name="S" horiz-adv-x="454" unicode="S" /><glyph d="M37 55V95Q82 53 127.5 37.5Q173 22 226 22Q297 22 338 57.5Q379 93 379 150Q379 200 350.5 226.5Q322 253 260 281L169 321Q127 340 84 372Q41 404 41 471Q41 547 95 584.5Q149 622 219 622Q265 622 310 608.5Q355 595 387 570V532Q353 562 311.5 577Q270 592 219 592Q159 592 115.5 561.5Q72 531 72 471Q72 422 104.5 395.5Q137 369 188 347L282 306Q348 276 379 241.5Q410 207 410 150Q410 81 358 36.5Q306 -8 226 -8Q164 -8 115.5 9.5Q67 27 37 55ZM241 663H208L293 780H326Z" glyph-name="Sacute" horiz-adv-x="454" unicode="&#346;" /><glyph d="M37 55V95Q82 53 127.5 37.5Q173 22 226 22Q297 22 338 57.5Q379 93 379 150Q379 200 350.5 226.5Q322 253 260 281L169 321Q127 340 84 372Q41 404 41 471Q41 547 95 584.5Q149 622 219 622Q265 622 310 608.5Q355 595 387 570V532Q353 562 311.5 577Q270 592 219 592Q159 592 115.5 561.5Q72 531 72 471Q72 422 104.5 395.5Q137 369 188 347L282 306Q348 276 379 241.5Q410 207 410 150Q410 81 358 36.5Q306 -8 226 -8Q164 -8 115.5 9.5Q67 27 37 55ZM216 656 125 773H156L229 681L302 773H333L242 656Z" glyph-name="Scaron" horiz-adv-x="454" unicode="&#352;" /><glyph d="M37 55V95Q82 53 127.5 37.5Q173 22 226 22Q297 22 338 57.5Q379 93 379 150Q379 200 350.5 226.5Q322 253 260 281L169 321Q127 340 84 372Q41 404 41 471Q41 547 95 584.5Q149 622 219 622Q265 622 310 608.5Q355 595 387 570V532Q353 562 311.5 577Q270 592 219 592Q159 592 115.5 561.5Q72 531 72 471Q72 422 104.5 395.5Q137 369 188 347L282 306Q348 276 379 241.5Q410 207 410 150Q410 81 358 36.5Q306 -8 226 -8Q164 -8 115.5 9.5Q67 27 37 55ZM189 -170H160L215 -46H244Z" glyph-name="Scedilla" horiz-adv-x="454" unicode="&#350;" /><glyph d="M37 55V95Q82 53 127.5 37.5Q173 22 226 22Q297 22 338 57.5Q379 93 379 150Q379 200 350.5 226.5Q322 253 260 281L169 321Q127 340 84 372Q41 404 41 471Q41 547 95 584.5Q149 622 219 622Q265 622 310 608.5Q355 595 387 570V532Q353 562 311.5 577Q270 592 219 592Q159 592 115.5 561.5Q72 531 72 471Q72 422 104.5 395.5Q137 369 188 347L282 306Q348 276 379 241.5Q410 207 410 150Q410 81 358 36.5Q306 -8 226 -8Q164 -8 115.5 9.5Q67 27 37 55ZM242 783 333 666H302L229 758L156 666H125L216 783Z" glyph-name="Scircumflex" horiz-adv-x="454" unicode="&#348;" /><glyph d="M37 55V95Q82 53 127.5 37.5Q173 22 226 22Q297 22 338 57.5Q379 93 379 150Q379 200 350.5 226.5Q322 253 260 281L169 321Q127 340 84 372Q41 404 41 471Q41 547 95 584.5Q149 622 219 622Q265 622 310 608.5Q355 595 387 570V532Q353 562 311.5 577Q270 592 219 592Q159 592 115.5 561.5Q72 531 72 471Q72 422 104.5 395.5Q137 369 188 347L282 306Q348 276 379 241.5Q410 207 410 150Q410 81 358 36.5Q306 -8 226 -8Q164 -8 115.5 9.5Q67 27 37 55ZM191 -170 225 -100Q217 -99 210.5 -92.5Q204 -86 204 -75Q204 -64 211.5 -56Q219 -48 230 -48Q241 -48 248.5 -56Q256 -64 256 -75Q256 -84 253.5 -91Q251 -98 247 -105L215 -170Z" glyph-name="Scommaaccent" horiz-adv-x="454" unicode="&#536;" /><glyph d="M31 584V614H527V584H294V0H263V584Z" glyph-name="T" horiz-adv-x="558" unicode="T" /><glyph d="M414 304H294V0H263V304H143V332H263V584H31V614H527V584H294V332H414Z" glyph-name="Tbar" horiz-adv-x="558" unicode="&#358;" /><glyph d="M31 584V614H527V584H294V0H263V584ZM266 656 175 773H206L279 681L352 773H383L292 656Z" glyph-name="Tcaron" horiz-adv-x="558" unicode="&#356;" /><glyph d="M31 584V614H527V584H294V0H263V584ZM247 -170 281 -100Q273 -99 266.5 -92.5Q260 -86 260 -75Q260 -64 267.5 -56Q275 -48 286 -48Q297 -48 304.5 -56Q312 -64 312 -75Q312 -84 309.5 -91Q307 -98 303 -105L271 -170Z" glyph-name="Tcommaaccent" horiz-adv-x="558" unicode="&#354;" /><glyph d="M299 147H114V0H83V614H114V482H299Q387 482 437 439Q487 396 487 315Q487 232 437 189.5Q387 147 299 147ZM298 177Q375 177 415.5 213Q456 249 456 315Q456 381 415.5 416.5Q375 452 298 452H114V177Z" glyph-name="Thorn" horiz-adv-x="523" unicode="&#222;" /><glyph d="M301 -8Q207 -8 139 53.5Q71 115 71 241V614H102V246Q102 132 160 76.5Q218 21 301 21Q384 21 443 76.5Q502 132 502 246V614H533V241Q533 115 464 53.5Q395 -8 301 -8Z" glyph-name="U" horiz-adv-x="604" unicode="U" /><glyph d="M301 -8Q207 -8 139 53.5Q71 115 71 241V614H102V246Q102 132 160 76.5Q218 21 301 21Q384 21 443 76.5Q502 132 502 246V614H533V241Q533 115 464 53.5Q395 -8 301 -8ZM314 663H281L366 780H399Z" glyph-name="Uacute" horiz-adv-x="604" unicode="&#218;" /><glyph d="M301 -8Q207 -8 139 53.5Q71 115 71 241V614H102V246Q102 132 160 76.5Q218 21 301 21Q384 21 443 76.5Q502 132 502 246V614H533V241Q533 115 464 53.5Q395 -8 301 -8ZM302 663Q262 663 235.5 692.5Q209 722 209 777H236Q236 734 255 711Q274 688 302 688Q330 688 349 711Q368 734 368 777H395Q395 722 368.5 692.5Q342 663 302 663Z" glyph-name="Ubreve" horiz-adv-x="604" unicode="&#364;" /><glyph d="M301 -8Q207 -8 139 53.5Q71 115 71 241V614H102V246Q102 132 160 76.5Q218 21 301 21Q384 21 443 76.5Q502 132 502 246V614H533V241Q533 115 464 53.5Q395 -8 301 -8ZM315 783 406 666H375L302 758L229 666H198L289 783Z" glyph-name="Ucircumflex" horiz-adv-x="604" unicode="&#219;" /><glyph d="M301 -8Q207 -8 139 53.5Q71 115 71 241V614H102V246Q102 132 160 76.5Q218 21 301 21Q384 21 443 76.5Q502 132 502 246V614H533V241Q533 115 464 53.5Q395 -8 301 -8ZM336 710Q336 720 342.5 726.5Q349 733 359 733Q369 733 375.5 726.5Q382 720 382 710Q382 700 375.5 693.5Q369 687 359 687Q349 687 342.5 693.5Q336 700 336 710ZM222 710Q222 720 228.5 726.5Q235 733 245 733Q255 733 261.5 726.5Q268 720 268 710Q268 700 261.5 693.5Q255 687 245 687Q235 687 228.5 693.5Q222 700 222 710Z" glyph-name="Udieresis" horiz-adv-x="604" unicode="&#220;" /><glyph d="M301 -8Q207 -8 139 53.5Q71 115 71 241V614H102V246Q102 132 160 76.5Q218 21 301 21Q384 21 443 76.5Q502 132 502 246V614H533V241Q533 115 464 53.5Q395 -8 301 -8ZM319 663H286L201 780H234Z" glyph-name="Ugrave" horiz-adv-x="604" unicode="&#217;" /><glyph d="M301 -8Q207 -8 139 53.5Q71 115 71 241V614H102V246Q102 132 160 76.5Q218 21 301 21Q384 21 443 76.5Q502 132 502 246V614H533V241Q533 115 464 53.5Q395 -8 301 -8ZM370 663H339L418 780H449ZM267 663H236L315 780H346Z" glyph-name="Uhungarumlaut" horiz-adv-x="604" unicode="&#368;" /><glyph d="M301 -8Q207 -8 139 53.5Q71 115 71 241V614H102V246Q102 132 160 76.5Q218 21 301 21Q384 21 443 76.5Q502 132 502 246V614H533V241Q533 115 464 53.5Q395 -8 301 -8ZM206 670V697H399V670Z" glyph-name="Umacron" horiz-adv-x="604" unicode="&#362;" /><glyph d="M301 -8Q207 -8 139 53.5Q71 115 71 241V614H102V246Q102 132 160 76.5Q218 21 301 21Q384 21 443 76.5Q502 132 502 246V614H533V241Q533 157 501.5 106Q470 55 423 21Q373 -16 353.5 -53.5Q334 -91 334 -122Q334 -138 341.5 -146.5Q349 -155 360 -155Q371 -155 379.5 -151.5Q388 -148 397 -141V-166Q388 -173 378.5 -176Q369 -179 358 -179Q338 -179 322.5 -165Q307 -151 307 -122Q307 -94 321.5 -62Q336 -30 370 1Q354 -3 336.5 -5.5Q319 -8 301 -8Z" glyph-name="Uogonek" horiz-adv-x="604" unicode="&#370;" /><glyph d="M301 -8Q207 -8 139 53.5Q71 115 71 241V614H102V246Q102 132 160 76.5Q218 21 301 21Q384 21 443 76.5Q502 132 502 246V614H533V241Q533 115 464 53.5Q395 -8 301 -8ZM379 724Q379 692 356.5 669.5Q334 647 302 647Q270 647 247.5 669.5Q225 692 225 724Q225 756 247.5 778.5Q270 801 302 801Q334 801 356.5 778.5Q379 756 379 724ZM354 724Q354 746 339 761Q324 776 302 776Q280 776 265 761Q250 746 250 724Q250 702 265 687Q280 672 302 672Q324 672 339 687Q354 702 354 724Z" glyph-name="Uring" horiz-adv-x="604" unicode="&#366;" /><glyph d="M301 -8Q207 -8 139 53.5Q71 115 71 241V614H102V246Q102 132 160 76.5Q218 21 301 21Q384 21 443 76.5Q502 132 502 246V614H533V241Q533 115 464 53.5Q395 -8 301 -8ZM395 759H421Q421 716 405 690Q389 664 358 664Q318 664 297 699Q276 734 248 734Q229 734 219.5 715.5Q210 697 210 667H184Q184 710 200 736Q216 762 247 762Q287 762 308 727Q329 692 357 692Q376 692 385.5 710.5Q395 729 395 759Z" glyph-name="Utilde" horiz-adv-x="604" unicode="&#360;" /><glyph d="M296 0H270L24 614H56L283 46L511 614H543Z" glyph-name="V" horiz-adv-x="567" unicode="V" /><glyph d="M363 614H389L544 57L698 614H729L558 0H531L376 555L222 0H195L24 614H55L209 57Z" glyph-name="W" horiz-adv-x="753" unicode="W" /><glyph d="M363 614H389L544 57L698 614H729L558 0H531L376 555L222 0H195L24 614H55L209 57ZM388 663H355L440 780H473Z" glyph-name="Wacute" horiz-adv-x="753" unicode="&#7810;" /><glyph d="M363 614H389L544 57L698 614H729L558 0H531L376 555L222 0H195L24 614H55L209 57ZM389 783 480 666H449L376 758L303 666H272L363 783Z" glyph-name="Wcircumflex" horiz-adv-x="753" unicode="&#372;" /><glyph d="M363 614H389L544 57L698 614H729L558 0H531L376 555L222 0H195L24 614H55L209 57ZM410 710Q410 720 416.5 726.5Q423 733 433 733Q443 733 449.5 726.5Q456 720 456 710Q456 700 449.5 693.5Q443 687 433 687Q423 687 416.5 693.5Q410 700 410 710ZM296 710Q296 720 302.5 726.5Q309 733 319 733Q329 733 335.5 726.5Q342 720 342 710Q342 700 335.5 693.5Q329 687 319 687Q309 687 302.5 693.5Q296 700 296 710Z" glyph-name="Wdieresis" horiz-adv-x="753" unicode="&#7812;" /><glyph d="M363 614H389L544 57L698 614H729L558 0H531L376 555L222 0H195L24 614H55L209 57ZM393 663H360L275 780H308Z" glyph-name="Wgrave" horiz-adv-x="753" unicode="&#7808;" /><glyph d="M493 614 281 311 499 0H464L263 286L63 0H29L246 310L34 614H69L264 335L459 614Z" glyph-name="X" horiz-adv-x="528" unicode="X" /><glyph d="M260 297 465 614H499L275 268V0H244V268L20 614H55Z" glyph-name="Y" horiz-adv-x="519" unicode="Y" /><glyph d="M260 297 465 614H499L275 268V0H244V268L20 614H55ZM271 663H238L323 780H356Z" glyph-name="Yacute" horiz-adv-x="519" unicode="&#221;" /><glyph d="M260 297 465 614H499L275 268V0H244V268L20 614H55ZM272 783 363 666H332L259 758L186 666H155L246 783Z" glyph-name="Ycircumflex" horiz-adv-x="519" unicode="&#374;" /><glyph d="M260 297 465 614H499L275 268V0H244V268L20 614H55ZM293 710Q293 720 299.5 726.5Q306 733 316 733Q326 733 332.5 726.5Q339 720 339 710Q339 700 332.5 693.5Q326 687 316 687Q306 687 299.5 693.5Q293 700 293 710ZM179 710Q179 720 185.5 726.5Q192 733 202 733Q212 733 218.5 726.5Q225 720 225 710Q225 700 218.5 693.5Q212 687 202 687Q192 687 185.5 693.5Q179 700 179 710Z" glyph-name="Ydieresis" horiz-adv-x="519" unicode="&#376;" /><glyph d="M260 297 465 614H499L275 268V0H244V268L20 614H55ZM276 663H243L158 780H191Z" glyph-name="Ygrave" horiz-adv-x="519" unicode="&#7922;" /><glyph d="M476 30V0H27V4L427 584H43V614H479V610L80 30Z" glyph-name="Z" horiz-adv-x="509" unicode="Z" /><glyph d="M476 30V0H27V4L427 584H43V614H479V610L80 30ZM275 663H242L327 780H360Z" glyph-name="Zacute" horiz-adv-x="509" unicode="&#377;" /><glyph d="M476 30V0H27V4L427 584H43V614H479V610L80 30ZM250 656 159 773H190L263 681L336 773H367L276 656Z" glyph-name="Zcaron" horiz-adv-x="509" unicode="&#381;" /><glyph d="M476 30V0H27V4L427 584H43V614H479V610L80 30ZM286 709Q286 699 279.5 692Q273 685 263 685Q253 685 246.5 692Q240 699 240 709Q240 719 246.5 726Q253 733 263 733Q273 733 279.5 726Q286 719 286 709Z" glyph-name="Zdotaccent" horiz-adv-x="509" unicode="&#379;" /><glyph glyph-name="_229" horiz-adv-x="0" /><glyph d="M326 95V159Q315 190 278.5 211.5Q242 233 198 233Q146 233 105.5 206Q65 179 65 127Q65 75 105.5 48Q146 21 198 21Q242 21 278.5 42.5Q315 64 326 95ZM326 206V317Q326 365 295.5 394.5Q265 424 213 424Q174 424 141.5 413Q109 402 81 384V416Q104 431 138.5 441.5Q173 452 213 452Q277 452 316.5 416.5Q356 381 356 319V0H326V48Q310 29 275.5 11Q241 -7 198 -7Q131 -7 83 29.5Q35 66 35 127Q35 188 83 224.5Q131 261 198 261Q241 261 275.5 243Q310 225 326 206Z" glyph-name="a" horiz-adv-x="426" unicode="a" /><glyph d="M326 95V159Q315 190 278.5 211.5Q242 233 198 233Q146 233 105.5 206Q65 179 65 127Q65 75 105.5 48Q146 21 198 21Q242 21 278.5 42.5Q315 64 326 95ZM326 206V317Q326 365 295.5 394.5Q265 424 213 424Q174 424 141.5 413Q109 402 81 384V416Q104 431 138.5 441.5Q173 452 213 452Q277 452 316.5 416.5Q356 381 356 319V0H326V48Q310 29 275.5 11Q241 -7 198 -7Q131 -7 83 29.5Q35 66 35 127Q35 188 83 224.5Q131 261 198 261Q241 261 275.5 243Q310 225 326 206ZM229 523H196L281 650H314Z" glyph-name="aacute" horiz-adv-x="426" unicode="&#225;" /><glyph d="M326 95V159Q315 190 278.5 211.5Q242 233 198 233Q146 233 105.5 206Q65 179 65 127Q65 75 105.5 48Q146 21 198 21Q242 21 278.5 42.5Q315 64 326 95ZM326 206V317Q326 365 295.5 394.5Q265 424 213 424Q174 424 141.5 413Q109 402 81 384V416Q104 431 138.5 441.5Q173 452 213 452Q277 452 316.5 416.5Q356 381 356 319V0H326V48Q310 29 275.5 11Q241 -7 198 -7Q131 -7 83 29.5Q35 66 35 127Q35 188 83 224.5Q131 261 198 261Q241 261 275.5 243Q310 225 326 206ZM217 510Q177 510 150.5 539.5Q124 569 124 624H151Q151 581 170 558Q189 535 217 535Q245 535 264 558Q283 581 283 624H310Q310 569 283.5 539.5Q257 510 217 510Z" glyph-name="abreve" horiz-adv-x="426" unicode="&#259;" /><glyph d="M326 95V159Q315 190 278.5 211.5Q242 233 198 233Q146 233 105.5 206Q65 179 65 127Q65 75 105.5 48Q146 21 198 21Q242 21 278.5 42.5Q315 64 326 95ZM326 206V317Q326 365 295.5 394.5Q265 424 213 424Q174 424 141.5 413Q109 402 81 384V416Q104 431 138.5 441.5Q173 452 213 452Q277 452 316.5 416.5Q356 381 356 319V0H326V48Q310 29 275.5 11Q241 -7 198 -7Q131 -7 83 29.5Q35 66 35 127Q35 188 83 224.5Q131 261 198 261Q241 261 275.5 243Q310 225 326 206ZM230 643 321 516H290L217 619L144 516H113L204 643Z" glyph-name="acircumflex" horiz-adv-x="426" unicode="&#226;" /><glyph d="M224 523H191L276 650H309Z" glyph-name="acute" horiz-adv-x="500" unicode="&#180;" /><glyph d="M224 663H191L276 780H309Z" glyph-name="acute.cap" horiz-adv-x="500" /><glyph d="M326 95V159Q315 190 278.5 211.5Q242 233 198 233Q146 233 105.5 206Q65 179 65 127Q65 75 105.5 48Q146 21 198 21Q242 21 278.5 42.5Q315 64 326 95ZM326 206V317Q326 365 295.5 394.5Q265 424 213 424Q174 424 141.5 413Q109 402 81 384V416Q104 431 138.5 441.5Q173 452 213 452Q277 452 316.5 416.5Q356 381 356 319V0H326V48Q310 29 275.5 11Q241 -7 198 -7Q131 -7 83 29.5Q35 66 35 127Q35 188 83 224.5Q131 261 198 261Q241 261 275.5 243Q310 225 326 206ZM251 570Q251 580 257.5 586.5Q264 593 274 593Q284 593 290.5 586.5Q297 580 297 570Q297 560 290.5 553.5Q284 547 274 547Q264 547 257.5 553.5Q251 560 251 570ZM137 570Q137 580 143.5 586.5Q150 593 160 593Q170 593 176.5 586.5Q183 580 183 570Q183 560 176.5 553.5Q170 547 160 547Q150 547 143.5 553.5Q137 560 137 570Z" glyph-name="adieresis" horiz-adv-x="426" unicode="&#228;" /><glyph d="M526 -8Q460 -8 414.5 24.5Q369 57 347 112Q329 69 288.5 31Q248 -7 181 -7Q118 -7 76.5 28Q35 63 35 122Q35 182 83 217Q131 252 198 252H327V300Q327 357 296 390.5Q265 424 213 424Q174 424 141.5 413Q109 402 81 384V416Q104 431 138.5 441.5Q173 452 213 452Q272 452 308.5 419Q345 386 351 340Q373 390 413 421Q453 452 511 452Q596 452 640 392Q684 332 684 236V225H355Q355 122 404 71Q453 20 526 20Q563 20 593 30Q623 40 651 64V31Q627 11 595 1.5Q563 -8 526 -8ZM511 424Q447 424 405 377Q363 330 356 252H653Q651 317 618.5 370.5Q586 424 511 424ZM181 20Q239 20 276 56.5Q313 93 327 139V225H198Q146 225 105.5 199Q65 173 65 122Q65 72 98.5 46Q132 20 181 20Z" glyph-name="ae" horiz-adv-x="722" unicode="&#230;" /><glyph d="M526 -8Q460 -8 414.5 24.5Q369 57 347 112Q329 69 288.5 31Q248 -7 181 -7Q118 -7 76.5 28Q35 63 35 122Q35 182 83 217Q131 252 198 252H327V300Q327 357 296 390.5Q265 424 213 424Q174 424 141.5 413Q109 402 81 384V416Q104 431 138.5 441.5Q173 452 213 452Q272 452 308.5 419Q345 386 351 340Q373 390 413 421Q453 452 511 452Q596 452 640 392Q684 332 684 236V225H355Q355 122 404 71Q453 20 526 20Q563 20 593 30Q623 40 651 64V31Q627 11 595 1.5Q563 -8 526 -8ZM511 424Q447 424 405 377Q363 330 356 252H653Q651 317 618.5 370.5Q586 424 511 424ZM181 20Q239 20 276 56.5Q313 93 327 139V225H198Q146 225 105.5 199Q65 173 65 122Q65 72 98.5 46Q132 20 181 20ZM371 523H338L423 650H456Z" glyph-name="aeacute" horiz-adv-x="722" unicode="&#509;" /><glyph d="M326 95V159Q315 190 278.5 211.5Q242 233 198 233Q146 233 105.5 206Q65 179 65 127Q65 75 105.5 48Q146 21 198 21Q242 21 278.5 42.5Q315 64 326 95ZM326 206V317Q326 365 295.5 394.5Q265 424 213 424Q174 424 141.5 413Q109 402 81 384V416Q104 431 138.5 441.5Q173 452 213 452Q277 452 316.5 416.5Q356 381 356 319V0H326V48Q310 29 275.5 11Q241 -7 198 -7Q131 -7 83 29.5Q35 66 35 127Q35 188 83 224.5Q131 261 198 261Q241 261 275.5 243Q310 225 326 206ZM234 523H201L116 650H149Z" glyph-name="agrave" horiz-adv-x="426" unicode="&#224;" /><glyph d="M326 95V159Q315 190 278.5 211.5Q242 233 198 233Q146 233 105.5 206Q65 179 65 127Q65 75 105.5 48Q146 21 198 21Q242 21 278.5 42.5Q315 64 326 95ZM326 206V317Q326 365 295.5 394.5Q265 424 213 424Q174 424 141.5 413Q109 402 81 384V416Q104 431 138.5 441.5Q173 452 213 452Q277 452 316.5 416.5Q356 381 356 319V0H326V48Q310 29 275.5 11Q241 -7 198 -7Q131 -7 83 29.5Q35 66 35 127Q35 188 83 224.5Q131 261 198 261Q241 261 275.5 243Q310 225 326 206ZM121 542V569H314V542Z" glyph-name="amacron" horiz-adv-x="426" unicode="&#257;" /><glyph d="M226 21Q281 21 324.5 42Q368 63 399 99L182 330Q133 315 100.5 273Q68 231 68 177Q68 111 113.5 66Q159 21 226 21ZM493 0 418 79Q384 39 335 15.5Q286 -8 226 -8Q145 -8 91 45.5Q37 99 37 177Q37 237 72.5 284.5Q108 332 162 351Q136 380 120.5 408.5Q105 437 105 474Q105 541 149.5 581.5Q194 622 258 622Q292 622 327 611.5Q362 601 388 582V546Q361 567 330.5 580.5Q300 594 258 594Q205 594 170.5 562.5Q136 531 136 474Q136 432 159 401.5Q182 371 216 335L417 122Q441 159 454 204.5Q467 250 468 300H498Q497 246 481 194.5Q465 143 436 102L532 0Z" glyph-name="ampersand" horiz-adv-x="555" unicode="&amp;" /><glyph d="M328 0H326V48Q310 29 275.5 11Q241 -7 198 -7Q131 -7 83 29.5Q35 66 35 127Q35 188 83 224.5Q131 261 198 261Q241 261 275.5 243Q310 225 326 206V317Q326 365 295.5 394.5Q265 424 213 424Q174 424 141.5 413Q109 402 81 384V416Q104 431 138.5 441.5Q173 452 213 452Q277 452 316.5 416.5Q356 381 356 319V0Q325 -55 315.5 -80Q306 -105 306 -124Q306 -140 313.5 -147.5Q321 -155 332 -155Q343 -155 351.5 -151.5Q360 -148 369 -141V-166Q360 -173 350.5 -176Q341 -179 330 -179Q310 -179 294.5 -166Q279 -153 279 -124Q279 -102 289.5 -75.5Q300 -49 328 0ZM326 95V159Q315 190 278.5 211.5Q242 233 198 233Q146 233 105.5 206Q65 179 65 127Q65 75 105.5 48Q146 21 198 21Q242 21 278.5 42.5Q315 64 326 95Z" glyph-name="aogonek" horiz-adv-x="426" unicode="&#261;" /><glyph d="M72 301V335Q97 361 121 372Q145 383 167 383Q213 383 250 357.5Q287 332 330 332Q352 332 377 344Q402 356 428 384V350Q402 323 377 312.5Q352 302 330 302Q284 302 247.5 327.5Q211 353 167 353Q145 353 121 340Q97 327 72 301ZM72 203V237Q97 263 121 274Q145 285 167 285Q213 285 250 259.5Q287 234 330 234Q352 234 377 246Q402 258 428 286V252Q402 225 377 214.5Q352 204 330 204Q284 204 247.5 229.5Q211 255 167 255Q145 255 121 242Q97 229 72 203Z" glyph-name="approxequal" horiz-adv-x="500" unicode="&#8776;" /><glyph d="M82 301V335Q107 361 131 372Q155 383 177 383Q223 383 260 357.5Q297 332 340 332Q362 332 387 344Q412 356 438 384V350Q412 323 387 312.5Q362 302 340 302Q294 302 257.5 327.5Q221 353 177 353Q155 353 131 340Q107 327 82 301ZM82 203V237Q107 263 131 274Q155 285 177 285Q223 285 260 259.5Q297 234 340 234Q362 234 387 246Q412 258 438 286V252Q412 225 387 214.5Q362 204 340 204Q294 204 257.5 229.5Q221 255 177 255Q155 255 131 242Q107 229 82 203Z" glyph-name="approxequal.lt" horiz-adv-x="520" /><glyph d="M326 95V159Q315 190 278.5 211.5Q242 233 198 233Q146 233 105.5 206Q65 179 65 127Q65 75 105.5 48Q146 21 198 21Q242 21 278.5 42.5Q315 64 326 95ZM326 206V317Q326 365 295.5 394.5Q265 424 213 424Q174 424 141.5 413Q109 402 81 384V416Q104 431 138.5 441.5Q173 452 213 452Q277 452 316.5 416.5Q356 381 356 319V0H326V48Q310 29 275.5 11Q241 -7 198 -7Q131 -7 83 29.5Q35 66 35 127Q35 188 83 224.5Q131 261 198 261Q241 261 275.5 243Q310 225 326 206ZM294 580Q294 548 271.5 525.5Q249 503 217 503Q185 503 162.5 525.5Q140 548 140 580Q140 612 162.5 634.5Q185 657 217 657Q249 657 271.5 634.5Q294 612 294 580ZM269 580Q269 602 254 617Q239 632 217 632Q195 632 180 617Q165 602 165 580Q165 558 180 543Q195 528 217 528Q239 528 254 543Q269 558 269 580Z" glyph-name="aring" horiz-adv-x="426" unicode="&#229;" /><glyph d="M232 649H203L263 731H292ZM299 550Q299 522 275.5 502Q252 482 218 482Q185 482 161.5 502Q138 522 138 550Q138 579 161.5 599Q185 619 218 619Q252 619 275.5 599Q299 579 299 550ZM273 550Q273 569 257 582Q241 595 218 595Q196 595 180 582Q164 569 164 550Q164 531 180 518.5Q196 506 218 506Q241 506 257 518.5Q273 531 273 550ZM326 95V159Q315 190 278.5 211.5Q242 233 198 233Q146 233 105.5 206Q65 179 65 127Q65 75 105.5 48Q146 21 198 21Q242 21 278.5 42.5Q315 64 326 95ZM326 206V317Q326 365 295.5 394.5Q265 424 213 424Q174 424 141.5 413Q109 402 81 384V416Q104 431 138.5 441.5Q173 452 213 452Q277 452 316.5 416.5Q356 381 356 319V0H326V48Q310 29 275.5 11Q241 -7 198 -7Q131 -7 83 29.5Q35 66 35 127Q35 188 83 224.5Q131 261 198 261Q241 261 275.5 243Q310 225 326 206Z" glyph-name="aringacute" horiz-adv-x="426" unicode="&#507;" /><glyph d="M137 614H157L264 443H229L147 573L65 443H30Z" glyph-name="asciicircum" horiz-adv-x="294" unicode="^" /><glyph d="M325 324H357Q357 278 335 250Q313 222 273 222Q224 222 193.5 259.5Q163 297 126 297Q100 297 86 277Q72 257 72 226H40Q40 272 62.5 300Q85 328 125 328Q174 328 203.5 290Q233 252 272 252Q298 252 311.5 272Q325 292 325 324Z" glyph-name="asciitilde" horiz-adv-x="397" unicode="~" /><glyph d="M128 518 32 573 44 593 139 538V648H163V538L258 593L270 573L174 518L270 463L258 443L163 498V388H139V498L44 443L32 463Z" glyph-name="asterisk" horiz-adv-x="302" unicode="*" /><glyph d="M540 379 493 115Q486 76 503 63.5Q520 51 546 51Q611 51 658 106Q705 161 705 266Q705 379 623 454.5Q541 530 410 530Q257 530 163 427.5Q69 325 69 184Q69 23 174.5 -52Q280 -127 411 -127Q473 -127 527 -113.5Q581 -100 615 -83V-112Q578 -128 525 -141Q472 -154 411 -154Q270 -154 155 -73.5Q40 7 40 184Q40 338 142.5 448Q245 558 410 558Q554 558 644 474Q734 390 734 266Q734 146 676 85Q618 24 546 24Q512 24 488 41Q464 58 462 89Q443 66 413 46.5Q383 27 348 27Q284 27 252.5 69.5Q221 112 221 172Q221 252 270 319Q319 386 400 386Q439 386 465.5 365.5Q492 345 502 322L512 379ZM468 133 494 282Q482 315 458 337Q434 359 401 359Q331 359 290 298.5Q249 238 249 172Q249 117 276.5 85.5Q304 54 348 54Q386 54 415.5 76.5Q445 99 468 133Z" glyph-name="at" horiz-adv-x="774" unicode="@" /><glyph d="M540 471 493 207Q486 168 503 155.5Q520 143 546 143Q611 143 658 198Q705 253 705 358Q705 471 623 546.5Q541 622 410 622Q257 622 163 519.5Q69 417 69 276Q69 115 174.5 40Q280 -35 411 -35Q473 -35 527 -21.5Q581 -8 615 9V-20Q578 -36 525 -49Q472 -62 411 -62Q270 -62 155 18.5Q40 99 40 276Q40 430 142.5 540Q245 650 410 650Q554 650 644 566Q734 482 734 358Q734 238 676 177Q618 116 546 116Q512 116 488 133Q464 150 462 181Q443 158 413 138.5Q383 119 348 119Q284 119 252.5 161.5Q221 204 221 264Q221 344 270 411Q319 478 400 478Q439 478 465.5 457.5Q492 437 502 414L512 471ZM468 225 494 374Q482 407 458 429Q434 451 401 451Q331 451 290 390.5Q249 330 249 264Q249 209 276.5 177.5Q304 146 348 146Q386 146 415.5 168.5Q445 191 468 225Z" glyph-name="at.cap" horiz-adv-x="774" /><glyph d="M326 95V159Q315 190 278.5 211.5Q242 233 198 233Q146 233 105.5 206Q65 179 65 127Q65 75 105.5 48Q146 21 198 21Q242 21 278.5 42.5Q315 64 326 95ZM326 206V317Q326 365 295.5 394.5Q265 424 213 424Q174 424 141.5 413Q109 402 81 384V416Q104 431 138.5 441.5Q173 452 213 452Q277 452 316.5 416.5Q356 381 356 319V0H326V48Q310 29 275.5 11Q241 -7 198 -7Q131 -7 83 29.5Q35 66 35 127Q35 188 83 224.5Q131 261 198 261Q241 261 275.5 243Q310 225 326 206ZM310 619H336Q336 576 320 550Q304 524 273 524Q233 524 212 559Q191 594 163 594Q144 594 134.5 575.5Q125 557 125 527H99Q99 570 115 596Q131 622 162 622Q202 622 223 587Q244 552 272 552Q291 552 300.5 570.5Q310 589 310 619Z" glyph-name="atilde" horiz-adv-x="426" unicode="&#227;" /><glyph d="M105 77V0H75V650H105V367Q125 400 164.5 426Q204 452 253 452Q351 452 396.5 382Q442 312 442 222Q442 132 396.5 62Q351 -8 253 -8Q204 -8 164.5 18Q125 44 105 77ZM105 324V120Q131 71 170 46Q209 21 253 21Q328 21 369.5 78Q411 135 411 222Q411 309 369.5 366Q328 423 253 423Q209 423 170 398Q131 373 105 324Z" glyph-name="b" horiz-adv-x="484" unicode="b" /><glyph d="M34 650 282 -84H253L5 650Z" glyph-name="backslash" horiz-adv-x="287" unicode="\" /><glyph d="M34 670 282 -64H253L5 670Z" glyph-name="backslash.cap" horiz-adv-x="287" /><glyph d="M83 -84V650H112V-84Z" glyph-name="bar" horiz-adv-x="195" unicode="|" /><glyph d="M83 -64V670H112V-64Z" glyph-name="bar.cap" horiz-adv-x="195" /><glyph d="M135 218V-5Q135 -31 147.5 -43.5Q160 -56 182 -56H300V-84H182Q149 -84 127.5 -62Q106 -40 106 -5V218Q106 243 94.5 256Q83 269 59 269H20V297H59Q83 297 94.5 310Q106 323 106 348V571Q106 606 127.5 628Q149 650 182 650H300V622H182Q160 622 147.5 609.5Q135 597 135 571V348Q135 326 124.5 309.5Q114 293 98 283Q114 273 124.5 256Q135 239 135 218Z" glyph-name="braceleft" horiz-adv-x="330" unicode="{" /><glyph d="M135 233V10Q135 -16 147.5 -28.5Q160 -41 182 -41H300V-69H182Q149 -69 127.5 -47Q106 -25 106 10V233Q106 258 94.5 271Q83 284 59 284H20V312H59Q83 312 94.5 325Q106 338 106 363V586Q106 621 127.5 643Q149 665 182 665H300V637H182Q160 637 147.5 624.5Q135 612 135 586V363Q135 341 124.5 324.5Q114 308 98 298Q114 288 124.5 271Q135 254 135 233Z" glyph-name="braceleft.cap" horiz-adv-x="330" /><glyph d="M195 -5V218Q195 239 205.5 256Q216 273 232 283Q216 293 205.5 309.5Q195 326 195 348V571Q195 597 182.5 609.5Q170 622 148 622H30V650H148Q181 650 202.5 628Q224 606 224 571V348Q224 323 235.5 310Q247 297 271 297H310V269H271Q247 269 235.5 256Q224 243 224 218V-5Q224 -40 202.5 -62Q181 -84 148 -84H30V-56H148Q170 -56 182.5 -43.5Q195 -31 195 -5Z" glyph-name="braceright" horiz-adv-x="330" unicode="}" /><glyph d="M195 10V233Q195 254 205.5 271Q216 288 232 298Q216 308 205.5 324.5Q195 341 195 363V586Q195 612 182.5 624.5Q170 637 148 637H30V665H148Q181 665 202.5 643Q224 621 224 586V363Q224 338 235.5 325Q247 312 271 312H310V284H271Q247 284 235.5 271Q224 258 224 233V10Q224 -25 202.5 -47Q181 -69 148 -69H30V-41H148Q170 -41 182.5 -28.5Q195 -16 195 10Z" glyph-name="braceright.cap" horiz-adv-x="330" /><glyph d="M112 622V-56H280V-84H83V650H280V622Z" glyph-name="bracketleft" horiz-adv-x="310" unicode="[" /><glyph d="M112 637V-41H280V-69H83V665H280V637Z" glyph-name="bracketleft.cap" horiz-adv-x="310" /><glyph d="M198 -56V622H30V650H227V-84H30V-56Z" glyph-name="bracketright" horiz-adv-x="310" unicode="]" /><glyph d="M198 -41V637H30V665H227V-69H30V-41Z" glyph-name="bracketright.cap" horiz-adv-x="310" /><glyph d="M250 510Q210 510 183.5 539.5Q157 569 157 624H184Q184 581 203 558Q222 535 250 535Q278 535 297 558Q316 581 316 624H343Q343 569 316.5 539.5Q290 510 250 510Z" glyph-name="breve" horiz-adv-x="500" unicode="&#728;" /><glyph d="M250 663Q210 663 183.5 692.5Q157 722 157 777H184Q184 734 203 711Q222 688 250 688Q278 688 297 711Q316 734 316 777H343Q343 722 316.5 692.5Q290 663 250 663Z" glyph-name="breve.cap" horiz-adv-x="500" /><glyph d="M285 259Q285 206 249 171.5Q213 137 162 137Q111 137 75.5 171.5Q40 206 40 259Q40 312 75.5 346.5Q111 381 162 381Q213 381 249 346.5Q285 312 285 259Z" glyph-name="bullet" horiz-adv-x="325" unicode="&#8226;" /><glyph d="M285 299Q285 246 249 211.5Q213 177 162 177Q111 177 75.5 211.5Q40 246 40 299Q40 352 75.5 386.5Q111 421 162 421Q213 421 249 386.5Q285 352 285 299Z" glyph-name="bullet.cap" horiz-adv-x="325" /><glyph d="M42 222Q42 326 99 389Q156 452 244 452Q276 452 307 442.5Q338 433 360 413V380Q333 404 305 414Q277 424 244 424Q174 424 123.5 371Q73 318 73 222Q73 126 123.5 73Q174 20 244 20Q277 20 305 30Q333 40 360 64V31Q338 11 307 1.5Q276 -8 244 -8Q156 -8 99 55Q42 118 42 222Z" glyph-name="c" horiz-adv-x="400" unicode="c" /><glyph d="M42 222Q42 326 99 389Q156 452 244 452Q276 452 307 442.5Q338 433 360 413V380Q333 404 305 414Q277 424 244 424Q174 424 123.5 371Q73 318 73 222Q73 126 123.5 73Q174 20 244 20Q277 20 305 30Q333 40 360 64V31Q338 11 307 1.5Q276 -8 244 -8Q156 -8 99 55Q42 118 42 222ZM253 523H220L305 650H338Z" glyph-name="cacute" horiz-adv-x="400" unicode="&#263;" /><glyph d="M354 645 263 518H237L146 645H177L250 543L323 645Z" glyph-name="caron" horiz-adv-x="500" unicode="&#711;" /><glyph d="M247 493H221L253 650H279Z" glyph-name="caron.Slovak" horiz-adv-x="500" /><glyph d="M237 656 146 773H177L250 681L323 773H354L263 656Z" glyph-name="caron.cap" horiz-adv-x="500" /><glyph d="M42 222Q42 326 99 389Q156 452 244 452Q276 452 307 442.5Q338 433 360 413V380Q333 404 305 414Q277 424 244 424Q174 424 123.5 371Q73 318 73 222Q73 126 123.5 73Q174 20 244 20Q277 20 305 30Q333 40 360 64V31Q338 11 307 1.5Q276 -8 244 -8Q156 -8 99 55Q42 118 42 222ZM345 645 254 518H228L137 645H168L241 543L314 645Z" glyph-name="ccaron" horiz-adv-x="400" unicode="&#269;" /><glyph d="M42 222Q42 326 99 389Q156 452 244 452Q276 452 307 442.5Q338 433 360 413V380Q333 404 305 414Q277 424 244 424Q174 424 123.5 371Q73 318 73 222Q73 126 123.5 73Q174 20 244 20Q277 20 305 30Q333 40 360 64V31Q338 11 307 1.5Q276 -8 244 -8Q156 -8 99 55Q42 118 42 222ZM201 -170H172L227 -46H256Z" glyph-name="ccedilla" horiz-adv-x="400" unicode="&#231;" /><glyph d="M42 222Q42 326 99 389Q156 452 244 452Q276 452 307 442.5Q338 433 360 413V380Q333 404 305 414Q277 424 244 424Q174 424 123.5 371Q73 318 73 222Q73 126 123.5 73Q174 20 244 20Q277 20 305 30Q333 40 360 64V31Q338 11 307 1.5Q276 -8 244 -8Q156 -8 99 55Q42 118 42 222ZM254 643 345 516H314L241 619L168 516H137L228 643Z" glyph-name="ccircumflex" horiz-adv-x="400" unicode="&#265;" /><glyph d="M42 222Q42 326 99 389Q156 452 244 452Q276 452 307 442.5Q338 433 360 413V380Q333 404 305 414Q277 424 244 424Q174 424 123.5 371Q73 318 73 222Q73 126 123.5 73Q174 20 244 20Q277 20 305 30Q333 40 360 64V31Q338 11 307 1.5Q276 -8 244 -8Q156 -8 99 55Q42 118 42 222ZM264 579Q264 569 257.5 562Q251 555 241 555Q231 555 224.5 562Q218 569 218 579Q218 589 224.5 596Q231 603 241 603Q251 603 257.5 596Q264 589 264 579Z" glyph-name="cdotaccent" horiz-adv-x="400" unicode="&#267;" /><glyph d="M235 -170H206L261 -46H290Z" glyph-name="cedilla" horiz-adv-x="500" unicode="&#184;" /><glyph d="M235 -170H206L261 -46H290Z" glyph-name="cedilla.alt" horiz-adv-x="500" /><glyph d="M360 41Q339 22 310.5 12.5Q282 3 251 2V-82H223V3Q143 10 92.5 72Q42 134 42 232Q42 330 92.5 392Q143 454 223 461V549H251V462Q282 461 310.5 451.5Q339 442 360 423V390Q333 414 305 424Q277 434 244 434Q174 434 123.5 381Q73 328 73 232Q73 136 123.5 83Q174 30 244 30Q277 30 305 40Q333 50 360 74Z" glyph-name="cent" horiz-adv-x="400" unicode="&#162;" /><glyph d="M411 41Q390 22 361.5 12.5Q333 3 302 2V-82H274V3Q194 10 143.5 72Q93 134 93 232Q93 330 143.5 392Q194 454 274 461V549H302V462Q333 461 361.5 451.5Q390 442 411 423V390Q384 414 356 424Q328 434 295 434Q225 434 174.5 381Q124 328 124 232Q124 136 174.5 83Q225 30 295 30Q328 30 356 40Q384 50 411 74Z" glyph-name="cent.lt" horiz-adv-x="520" /><glyph d="M263 643 354 516H323L250 619L177 516H146L237 643Z" glyph-name="circumflex" horiz-adv-x="500" unicode="&#710;" /><glyph d="M263 783 354 666H323L250 758L177 666H146L237 783Z" glyph-name="circumflex.cap" horiz-adv-x="500" /><glyph d="M33 25Q33 36 41 44Q49 52 59 52Q69 52 77 44Q85 36 85 25Q85 14 77 6Q69 -2 59 -2Q49 -2 41 6Q33 14 33 25ZM33 365Q33 376 41 384Q49 392 59 392Q69 392 77 384Q85 376 85 365Q85 354 77 346Q69 338 59 338Q49 338 41 346Q33 354 33 365Z" glyph-name="colon" horiz-adv-x="118" unicode=":" /><glyph d="M104 25Q104 36 112 44Q120 52 130 52Q140 52 148 44Q156 36 156 25Q156 14 148 6Q140 -2 130 -2Q120 -2 112 6Q104 14 104 25ZM104 365Q104 376 112 384Q120 392 130 392Q140 392 148 384Q156 376 156 365Q156 354 148 346Q140 338 130 338Q120 338 112 346Q104 354 104 365Z" glyph-name="colon.tab" horiz-adv-x="260" /><glyph d="M7 -97 54 0Q46 1 39.5 7.5Q33 14 33 25Q33 36 40.5 44Q48 52 59 52Q70 52 77.5 44Q85 36 85 25Q85 16 82.5 9Q80 2 76 -5L31 -97Z" glyph-name="comma" horiz-adv-x="118" unicode="," /><glyph d="M78 -97 125 0Q117 1 110.5 7.5Q104 14 104 25Q104 36 111.5 44Q119 52 130 52Q141 52 148.5 44Q156 36 156 25Q156 16 153.5 9Q151 2 147 -5L102 -97Z" glyph-name="comma.tab" horiz-adv-x="260" /><glyph d="M217 -170 251 -100Q243 -99 236.5 -92.5Q230 -86 230 -75Q230 -64 237.5 -56Q245 -48 256 -48Q267 -48 274.5 -56Q282 -64 282 -75Q282 -84 279.5 -91Q277 -98 273 -105L241 -170Z" glyph-name="commaaccent" horiz-adv-x="500" unicode="&#63171;" /><glyph d="M282 650 248 580Q256 579 262.5 572.5Q269 566 269 555Q269 544 261.5 536Q254 528 243 528Q232 528 224.5 536Q217 544 217 555Q217 564 219.5 571Q222 578 226 585L258 650Z" glyph-name="commaturn" horiz-adv-x="500" /><glyph d="M670 307Q670 170 577 81Q484 -8 355 -8Q226 -8 133 81Q40 170 40 307Q40 444 133 533Q226 622 355 622Q484 622 577 533Q670 444 670 307ZM644 307Q644 432 559 514Q474 596 355 596Q236 596 151 514Q66 432 66 307Q66 182 151 100Q236 18 355 18Q474 18 559 100Q644 182 644 307ZM183 309Q183 401 234 454.5Q285 508 358 508Q393 508 419 499Q445 490 464 475V440Q440 461 414.5 470Q389 479 359 479Q297 479 255.5 433Q214 387 214 309Q214 231 255.5 185Q297 139 359 139Q389 139 414.5 148Q440 157 464 178V143Q445 128 419 119Q393 110 358 110Q285 110 234 163.5Q183 217 183 309Z" glyph-name="copyright" horiz-adv-x="710" unicode="&#169;" /><glyph d="M379 120V324Q353 373 314 398Q275 423 231 423Q156 423 114.5 366Q73 309 73 222Q73 135 114.5 78Q156 21 231 21Q275 21 314 46Q353 71 379 120ZM379 0V77Q359 44 319.5 18Q280 -8 231 -8Q133 -8 87.5 62Q42 132 42 222Q42 312 87.5 382Q133 452 231 452Q280 452 319.5 426Q359 400 379 367V650H409V0Z" glyph-name="d" horiz-adv-x="484" unicode="d" /><glyph d="M257 532H158V330H130V532H31V558H130V650H158V558H257Z" glyph-name="dagger" horiz-adv-x="288" unicode="&#8224;" /><glyph d="M257 424H158V330H130V424H31V450H130V530H31V556H130V650H158V556H257V530H158V450H257Z" glyph-name="daggerdbl" horiz-adv-x="288" unicode="&#8225;" /><glyph d="M379 120V324Q353 373 314 398Q275 423 231 423Q156 423 114.5 366Q73 309 73 222Q73 135 114.5 78Q156 21 231 21Q275 21 314 46Q353 71 379 120ZM379 0V77Q359 44 319.5 18Q280 -8 231 -8Q133 -8 87.5 62Q42 132 42 222Q42 312 87.5 382Q133 452 231 452Q280 452 319.5 426Q359 400 379 367V650H409V0ZM495 493H469L501 650H527Z" glyph-name="dcaron" horiz-adv-x="484" unicode="&#271;" /><glyph d="M379 120V324Q353 373 314 398Q275 423 231 423Q156 423 114.5 366Q73 309 73 222Q73 135 114.5 78Q156 21 231 21Q275 21 314 46Q353 71 379 120ZM379 77Q359 44 319.5 18Q280 -8 231 -8Q133 -8 87.5 62Q42 132 42 222Q42 312 87.5 382Q133 452 231 452Q280 452 319.5 426Q359 400 379 367V527H258V552H379V650H409V552H459V527H409V0H379Z" glyph-name="dcroat" horiz-adv-x="484" unicode="&#273;" /><glyph d="M257 515Q257 470 226 439Q195 408 151 408Q107 408 76 439Q45 470 45 515Q45 560 76 591Q107 622 151 622Q195 622 226 591Q257 560 257 515ZM73 515Q73 482 96 459Q119 436 151 436Q183 436 206 459Q229 482 229 515Q229 548 206 571Q183 594 151 594Q119 594 96 571Q73 548 73 515Z" glyph-name="degree" horiz-adv-x="302" unicode="&#176;" /><glyph d="M284 570Q284 580 290.5 586.5Q297 593 307 593Q317 593 323.5 586.5Q330 580 330 570Q330 560 323.5 553.5Q317 547 307 547Q297 547 290.5 553.5Q284 560 284 570ZM170 570Q170 580 176.5 586.5Q183 593 193 593Q203 593 209.5 586.5Q216 580 216 570Q216 560 209.5 553.5Q203 547 193 547Q183 547 176.5 553.5Q170 560 170 570Z" glyph-name="dieresis" horiz-adv-x="500" unicode="&#168;" /><glyph d="M284 710Q284 720 290.5 726.5Q297 733 307 733Q317 733 323.5 726.5Q330 720 330 710Q330 700 323.5 693.5Q317 687 307 687Q297 687 290.5 693.5Q284 700 284 710ZM170 710Q170 720 176.5 726.5Q183 733 193 733Q203 733 209.5 726.5Q216 720 216 710Q216 700 209.5 693.5Q203 687 193 687Q183 687 176.5 693.5Q170 700 170 710Z" glyph-name="dieresis.cap" horiz-adv-x="500" /><glyph d="M221 440Q221 451 229 459Q237 467 247 467Q257 467 265 459Q273 451 273 440Q273 429 265 421Q257 413 247 413Q237 413 229 421Q221 429 221 440ZM70 278V307H425V278ZM221 146Q221 157 229 165Q237 173 247 173Q257 173 265 165Q273 157 273 146Q273 135 265 127Q257 119 247 119Q237 119 229 127Q221 135 221 146Z" glyph-name="divide" horiz-adv-x="495" unicode="&#247;" /><glyph d="M233 440Q233 451 241 459Q249 467 259 467Q269 467 277 459Q285 451 285 440Q285 429 277 421Q269 413 259 413Q249 413 241 421Q233 429 233 440ZM82 278V307H437V278ZM233 146Q233 157 241 165Q249 173 259 173Q269 173 277 165Q285 157 285 146Q285 135 277 127Q269 119 259 119Q249 119 241 127Q233 135 233 146Z" glyph-name="divide.lt" horiz-adv-x="520" /><glyph d="M229 -82H201V17Q153 19 111.5 35Q70 51 45 74V113Q86 74 130.5 60Q175 46 220 46Q285 46 322.5 77.5Q360 109 360 162Q360 208 334 233Q308 258 251 283L167 320Q128 337 88 366.5Q48 396 48 459Q48 526 94 560.5Q140 595 201 598V687H229V598Q268 596 305 583Q342 570 368 550V513Q337 541 298.5 554.5Q260 568 213 568Q157 568 117.5 541Q78 514 78 459Q78 413 108 389.5Q138 366 185 345L272 307Q333 279 362 246.5Q391 214 391 162Q391 100 344.5 59.5Q298 19 229 16Z" glyph-name="dollar" horiz-adv-x="435" unicode="$" /><glyph d="M271 -82H243V17Q195 19 153.5 35Q112 51 87 74V113Q128 74 172.5 60Q217 46 262 46Q327 46 364.5 77.5Q402 109 402 162Q402 208 376 233Q350 258 293 283L209 320Q170 337 130 366.5Q90 396 90 459Q90 526 136 560.5Q182 595 243 598V687H271V598Q310 596 347 583Q384 570 410 550V513Q379 541 340.5 554.5Q302 568 255 568Q199 568 159.5 541Q120 514 120 459Q120 413 150 389.5Q180 366 227 345L314 307Q375 279 404 246.5Q433 214 433 162Q433 100 386.5 59.5Q340 19 271 16Z" glyph-name="dollar.lt" horiz-adv-x="520" /><glyph d="M273 579Q273 569 266.5 562Q260 555 250 555Q240 555 233.5 562Q227 569 227 579Q227 589 233.5 596Q240 603 250 603Q260 603 266.5 596Q273 589 273 579Z" glyph-name="dotaccent" horiz-adv-x="500" unicode="&#729;" /><glyph d="M273 709Q273 699 266.5 692Q260 685 250 685Q240 685 233.5 692Q227 699 227 709Q227 719 233.5 726Q240 733 250 733Q260 733 266.5 726Q273 719 273 709Z" glyph-name="dotaccent.cap" horiz-adv-x="500" /><glyph d="M273 -114Q273 -124 266.5 -131Q260 -138 250 -138Q240 -138 233.5 -131Q227 -124 227 -114Q227 -104 233.5 -97Q240 -90 250 -90Q260 -90 266.5 -97Q273 -104 273 -114Z" glyph-name="dotbelow" horiz-adv-x="500" /><glyph d="M105 444V0H75V444Z" glyph-name="dotlessi" horiz-adv-x="180" unicode="&#305;" /><glyph d="M105 444V-73Q105 -127 77.5 -152.5Q50 -178 6 -178Q1 -178 -3.5 -177.5Q-8 -177 -11 -176V-148Q-8 -149 -3.5 -149.5Q1 -150 6 -150Q37 -150 56 -134Q75 -118 75 -69V444Z" glyph-name="dotlessj" horiz-adv-x="180" unicode="&#567;" /><glyph d="M229 424Q166 424 124 377.5Q82 331 75 252H371Q369 317 336.5 370.5Q304 424 229 424ZM369 31Q345 11 313 1.5Q281 -8 244 -8Q153 -8 97.5 53Q42 114 42 218Q42 319 92 385.5Q142 452 229 452Q314 452 358 392Q402 332 402 236V225H73V218Q73 123 122 71.5Q171 20 244 20Q281 20 311 30Q341 40 369 64Z" glyph-name="e" horiz-adv-x="440" unicode="e" /><glyph d="M229 424Q166 424 124 377.5Q82 331 75 252H371Q369 317 336.5 370.5Q304 424 229 424ZM369 31Q345 11 313 1.5Q281 -8 244 -8Q153 -8 97.5 53Q42 114 42 218Q42 319 92 385.5Q142 452 229 452Q314 452 358 392Q402 332 402 236V225H73V218Q73 123 122 71.5Q171 20 244 20Q281 20 311 30Q341 40 369 64ZM244 523H211L296 650H329Z" glyph-name="eacute" horiz-adv-x="440" unicode="&#233;" /><glyph d="M229 424Q166 424 124 377.5Q82 331 75 252H371Q369 317 336.5 370.5Q304 424 229 424ZM369 31Q345 11 313 1.5Q281 -8 244 -8Q153 -8 97.5 53Q42 114 42 218Q42 319 92 385.5Q142 452 229 452Q314 452 358 392Q402 332 402 236V225H73V218Q73 123 122 71.5Q171 20 244 20Q281 20 311 30Q341 40 369 64ZM232 510Q192 510 165.5 539.5Q139 569 139 624H166Q166 581 185 558Q204 535 232 535Q260 535 279 558Q298 581 298 624H325Q325 569 298.5 539.5Q272 510 232 510Z" glyph-name="ebreve" horiz-adv-x="440" unicode="&#277;" /><glyph d="M229 424Q166 424 124 377.5Q82 331 75 252H371Q369 317 336.5 370.5Q304 424 229 424ZM369 31Q345 11 313 1.5Q281 -8 244 -8Q153 -8 97.5 53Q42 114 42 218Q42 319 92 385.5Q142 452 229 452Q314 452 358 392Q402 332 402 236V225H73V218Q73 123 122 71.5Q171 20 244 20Q281 20 311 30Q341 40 369 64ZM336 645 245 518H219L128 645H159L232 543L305 645Z" glyph-name="ecaron" horiz-adv-x="440" unicode="&#283;" /><glyph d="M229 424Q166 424 124 377.5Q82 331 75 252H371Q369 317 336.5 370.5Q304 424 229 424ZM369 31Q345 11 313 1.5Q281 -8 244 -8Q153 -8 97.5 53Q42 114 42 218Q42 319 92 385.5Q142 452 229 452Q314 452 358 392Q402 332 402 236V225H73V218Q73 123 122 71.5Q171 20 244 20Q281 20 311 30Q341 40 369 64ZM245 643 336 516H305L232 619L159 516H128L219 643Z" glyph-name="ecircumflex" horiz-adv-x="440" unicode="&#234;" /><glyph d="M229 424Q166 424 124 377.5Q82 331 75 252H371Q369 317 336.5 370.5Q304 424 229 424ZM369 31Q345 11 313 1.5Q281 -8 244 -8Q153 -8 97.5 53Q42 114 42 218Q42 319 92 385.5Q142 452 229 452Q314 452 358 392Q402 332 402 236V225H73V218Q73 123 122 71.5Q171 20 244 20Q281 20 311 30Q341 40 369 64ZM266 570Q266 580 272.5 586.5Q279 593 289 593Q299 593 305.5 586.5Q312 580 312 570Q312 560 305.5 553.5Q299 547 289 547Q279 547 272.5 553.5Q266 560 266 570ZM152 570Q152 580 158.5 586.5Q165 593 175 593Q185 593 191.5 586.5Q198 580 198 570Q198 560 191.5 553.5Q185 547 175 547Q165 547 158.5 553.5Q152 560 152 570Z" glyph-name="edieresis" horiz-adv-x="440" unicode="&#235;" /><glyph d="M229 424Q166 424 124 377.5Q82 331 75 252H371Q369 317 336.5 370.5Q304 424 229 424ZM369 31Q345 11 313 1.5Q281 -8 244 -8Q153 -8 97.5 53Q42 114 42 218Q42 319 92 385.5Q142 452 229 452Q314 452 358 392Q402 332 402 236V225H73V218Q73 123 122 71.5Q171 20 244 20Q281 20 311 30Q341 40 369 64ZM255 579Q255 569 248.5 562Q242 555 232 555Q222 555 215.5 562Q209 569 209 579Q209 589 215.5 596Q222 603 232 603Q242 603 248.5 596Q255 589 255 579Z" glyph-name="edotaccent" horiz-adv-x="440" unicode="&#279;" /><glyph d="M229 424Q166 424 124 377.5Q82 331 75 252H371Q369 317 336.5 370.5Q304 424 229 424ZM369 31Q345 11 313 1.5Q281 -8 244 -8Q153 -8 97.5 53Q42 114 42 218Q42 319 92 385.5Q142 452 229 452Q314 452 358 392Q402 332 402 236V225H73V218Q73 123 122 71.5Q171 20 244 20Q281 20 311 30Q341 40 369 64ZM249 523H216L131 650H164Z" glyph-name="egrave" horiz-adv-x="440" unicode="&#232;" /><glyph d="M238 -8Q148 -8 91 43.5Q34 95 34 168Q34 224 70 269Q106 314 166 331Q117 347 89 385Q61 423 61 469Q61 531 110 576.5Q159 622 238 622Q318 622 366.5 576.5Q415 531 415 469Q415 423 387 385Q359 347 310 331Q370 314 406.5 269Q443 224 443 168Q443 95 385.5 43.5Q328 -8 238 -8ZM238 344Q305 344 345 381.5Q385 419 385 469Q385 519 345 556.5Q305 594 238 594Q172 594 131.5 556.5Q91 519 91 469Q91 419 131.5 381.5Q172 344 238 344ZM238 20Q315 20 364 64Q413 108 413 168Q413 228 364 272Q315 316 238 316Q161 316 112.5 272Q64 228 64 168Q64 108 112.5 64Q161 20 238 20Z" glyph-name="eight" horiz-adv-x="477" unicode="8" /><glyph d="M259 -8Q168 -8 109.5 43.5Q51 95 51 168Q51 224 87.5 269Q124 314 186 331Q136 347 107.5 385Q79 423 79 469Q79 531 128.5 576.5Q178 622 259 622Q341 622 390.5 576.5Q440 531 440 469Q440 423 411.5 385Q383 347 333 331Q395 314 432 269Q469 224 469 168Q469 95 410 43.5Q351 -8 259 -8ZM259 344Q328 344 369 381.5Q410 419 410 469Q410 519 369 556.5Q328 594 259 594Q192 594 150.5 556.5Q109 519 109 469Q109 419 150.5 381.5Q192 344 259 344ZM259 20Q338 20 388.5 64Q439 108 439 168Q439 228 388.5 272Q338 316 259 316Q181 316 131 272Q81 228 81 168Q81 108 131 64Q181 20 259 20Z" glyph-name="eight.lt" horiz-adv-x="520" /><glyph d="M309 25Q309 36 317 44Q325 52 335 52Q345 52 353 44Q361 36 361 25Q361 14 353 6Q345 -2 335 -2Q325 -2 317 6Q309 14 309 25ZM171 25Q171 36 179 44Q187 52 197 52Q207 52 215 44Q223 36 223 25Q223 14 215 6Q207 -2 197 -2Q187 -2 179 6Q171 14 171 25ZM33 25Q33 36 41 44Q49 52 59 52Q69 52 77 44Q85 36 85 25Q85 14 77 6Q69 -2 59 -2Q49 -2 41 6Q33 14 33 25Z" glyph-name="ellipsis" horiz-adv-x="394" unicode="&#8230;" /><glyph d="M229 424Q166 424 124 377.5Q82 331 75 252H371Q369 317 336.5 370.5Q304 424 229 424ZM369 31Q345 11 313 1.5Q281 -8 244 -8Q153 -8 97.5 53Q42 114 42 218Q42 319 92 385.5Q142 452 229 452Q314 452 358 392Q402 332 402 236V225H73V218Q73 123 122 71.5Q171 20 244 20Q281 20 311 30Q341 40 369 64ZM136 542V569H329V542Z" glyph-name="emacron" horiz-adv-x="440" unicode="&#275;" /><glyph d="M40 245V272H806V245Z" glyph-name="emdash" horiz-adv-x="846" unicode="&#8212;" /><glyph d="M40 285V312H806V285Z" glyph-name="emdash.cap" horiz-adv-x="846" /><glyph d="M40 245V272H435V245Z" glyph-name="endash" horiz-adv-x="475" unicode="&#8211;" /><glyph d="M40 285V312H435V285Z" glyph-name="endash.cap" horiz-adv-x="475" /><glyph d="M379 -69V292Q379 348 349 385.5Q319 423 254 423Q203 423 163.5 391.5Q124 360 105 318V0H75V444H105V362Q126 398 166 425Q206 452 256 452Q331 452 370 408.5Q409 365 409 296V-73Q409 -127 381.5 -152.5Q354 -178 310 -178Q305 -178 300.5 -177.5Q296 -177 293 -176V-148Q296 -149 300.5 -149.5Q305 -150 310 -150Q341 -150 360 -134Q379 -118 379 -69Z" glyph-name="eng" horiz-adv-x="479" unicode="&#331;" /><glyph d="M224 -124Q224 -91 242.5 -60Q261 -29 292 -1Q280 -4 268.5 -6Q257 -8 244 -8Q153 -8 97.5 53Q42 114 42 218Q42 319 92 385.5Q142 452 229 452Q314 452 358 392Q402 332 402 236V225H73Q72 124 121.5 72Q171 20 244 20Q281 20 311 30Q341 40 369 64V31Q361 25 352 19Q343 13 328 3Q298 -19 274.5 -54.5Q251 -90 251 -124Q251 -140 258.5 -147.5Q266 -155 277 -155Q288 -155 296.5 -151.5Q305 -148 314 -141V-166Q305 -173 295.5 -176Q286 -179 275 -179Q255 -179 239.5 -166Q224 -153 224 -124ZM229 424Q166 424 124 377.5Q82 331 74 252H371Q369 317 336.5 370.5Q304 424 229 424Z" glyph-name="eogonek" horiz-adv-x="440" unicode="&#281;" /><glyph d="M72 339V368H428V339ZM72 219V248H428V219Z" glyph-name="equal" horiz-adv-x="500" unicode="=" /><glyph d="M82 339V368H438V339ZM82 219V248H438V219Z" glyph-name="equal.lt" horiz-adv-x="520" /><glyph d="M233 -8Q147 -8 94.5 56Q42 120 42 222Q42 324 94.5 388Q147 452 233 452Q276 452 308.5 433.5Q341 415 365 384H367Q351 419 325 461Q299 503 259 546L137 506L128 530L239 567Q219 587 195 607Q171 627 143 646V650H180Q203 634 225.5 615.5Q248 597 268 576L346 602L354 578L287 556Q349 488 386.5 401.5Q424 315 424 222Q424 120 371.5 56Q319 -8 233 -8ZM393 222Q393 313 348.5 368.5Q304 424 233 424Q162 424 117.5 368.5Q73 313 73 222Q73 131 117.5 75.5Q162 20 233 20Q304 20 348.5 75.5Q393 131 393 222Z" glyph-name="eth" horiz-adv-x="466" unicode="&#240;" /><glyph d="M92 192 88 614H120L116 192ZM78 25Q78 36 86 44Q94 52 104 52Q114 52 122 44Q130 36 130 25Q130 14 122 6Q114 -2 104 -2Q94 -2 86 6Q78 14 78 25Z" glyph-name="exclam" horiz-adv-x="208" unicode="!" /><glyph d="M104 466Q94 466 86 474Q78 482 78 493Q78 504 86 512Q94 520 104 520Q114 520 122 512Q130 504 130 493Q130 482 122 474Q114 466 104 466ZM88 -96 92 326H116L120 -96Z" glyph-name="exclamdown" horiz-adv-x="208" unicode="&#161;" /><glyph d="M104 562Q94 562 86 570Q78 578 78 589Q78 600 86 608Q94 616 104 616Q114 616 122 608Q130 600 130 589Q130 578 122 570Q114 562 104 562ZM88 0 92 422H116L120 0Z" glyph-name="exclamdown.cap" horiz-adv-x="208" /><glyph d="M255 651V621Q245 625 234.5 627.5Q224 630 211 630Q174 630 149 602.5Q124 575 124 524V444H231V416H124V0H94V416H24V444H94V528Q94 585 127 621.5Q160 658 211 658Q222 658 233.5 656.5Q245 655 255 651Z" glyph-name="f" horiz-adv-x="236" unicode="f" /><glyph d="M472 651V621Q462 625 451.5 627.5Q441 630 428 630Q391 630 366 602.5Q341 575 341 524V444H448V416H341V0H311V416H124V0H94V416H24V444H94V522Q94 579 127 615.5Q160 652 211 652Q222 652 233.5 650.5Q245 649 255 645V615Q245 619 234.5 621.5Q224 624 211 624Q174 624 149 596.5Q124 569 124 518V444H311V528Q311 585 344 621.5Q377 658 428 658Q439 658 450.5 656.5Q462 655 472 651Z" glyph-name="f_f" horiz-adv-x="453" unicode="&#64256;" /><glyph d="M255 651V621Q245 625 234.5 627.5Q224 630 211 630Q174 630 149 602.5Q124 575 124 524V444H231V416H124V0H94V416H24V444H94V528Q94 585 127 621.5Q160 658 211 658Q222 658 233.5 656.5Q245 655 255 651ZM349 579Q349 569 342.5 562Q336 555 326 555Q316 555 309.5 562Q303 569 303 579Q303 589 309.5 596Q316 603 326 603Q336 603 342.5 596Q349 589 349 579ZM341 444V0H311V444Z" glyph-name="fi" horiz-adv-x="416" unicode="&#64257;" /><glyph d="M193 371Q277 371 337 319Q397 267 397 182Q397 96 337 44Q277 -8 193 -8Q139 -8 99.5 6Q60 20 31 42V83Q64 50 105.5 35.5Q147 21 193 21Q264 21 315 65.5Q366 110 366 182Q366 253 315 297.5Q264 342 193 342Q145 342 117.5 332.5Q90 323 64 311V614H363V584H94V353Q110 360 136 365.5Q162 371 193 371Z" glyph-name="five" horiz-adv-x="435" unicode="5" /><glyph d="M236 371Q326 371 389.5 319Q453 267 453 182Q453 96 389.5 44Q326 -8 236 -8Q178 -8 136 6Q94 20 63 42V83Q98 50 142.5 35.5Q187 21 236 21Q311 21 366.5 65Q422 109 422 182Q422 254 366.5 298Q311 342 236 342Q185 342 155.5 332.5Q126 323 98 311V614H417V584H128V353Q146 360 174 365.5Q202 371 236 371Z" glyph-name="five.lt" horiz-adv-x="520" /><glyph d="M255 651V621Q245 625 234.5 627.5Q224 630 211 630Q174 630 149 602.5Q124 575 124 524V444H231V416H124V0H94V416H24V444H94V528Q94 585 127 621.5Q160 658 211 658Q222 658 233.5 656.5Q245 655 255 651ZM341 650V0H311V650Z" glyph-name="fl" horiz-adv-x="416" unicode="&#64258;" /><glyph d="M-5 -170Q-20 -170 -33.5 -167Q-47 -164 -60 -158V-128Q-47 -135 -34 -138.5Q-21 -142 -5 -142Q32 -142 50 -115Q68 -88 75 -45L137 306H65V332H142L170 492Q180 547 210.5 584.5Q241 622 292 622Q307 622 321.5 619Q336 616 349 610V580Q336 587 322 590.5Q308 594 292 594Q255 594 232 565.5Q209 537 200 488L172 332H280V306H168L105 -49Q96 -99 71 -134.5Q46 -170 -5 -170Z" glyph-name="florin" horiz-adv-x="369" unicode="&#402;" /><glyph d="M110 -170Q95 -170 81.5 -167Q68 -164 55 -158V-128Q68 -135 81 -138.5Q94 -142 110 -142Q147 -142 165 -115Q183 -88 190 -45L252 306H180V332H257L285 492Q295 547 325.5 584.5Q356 622 407 622Q422 622 436.5 619Q451 616 464 610V580Q451 587 437 590.5Q423 594 407 594Q370 594 347 565.5Q324 537 315 488L287 332H395V306H283L220 -49Q211 -99 186 -134.5Q161 -170 110 -170Z" glyph-name="florin.lt" horiz-adv-x="520" /><glyph d="M265 614 68 189H314V344H345V189H467V159H345V0H314V159H23V163L234 614Z" glyph-name="four" horiz-adv-x="494" unicode="4" /><glyph d="M283 614 86 189H332V344H363V189H485V159H363V0H332V159H41V163L252 614Z" glyph-name="four.lt" horiz-adv-x="520" /><glyph d="M319 614 -90 0H-120L289 614Z" glyph-name="fraction" horiz-adv-x="199" unicode="&#8260;" /><glyph d="M374 130V324Q349 372 310 397.5Q271 423 228 423Q155 423 114 368Q73 313 73 227Q73 141 114 86Q155 31 228 31Q271 31 310 56.5Q349 82 374 130ZM374 29V86Q354 54 315.5 28Q277 2 228 2Q132 2 87 70Q42 138 42 227Q42 316 87 384Q132 452 228 452Q277 452 315.5 426Q354 400 374 368V444H404V30Q404 -75 346.5 -127Q289 -179 209 -179Q168 -179 132.5 -166.5Q97 -154 74 -135V-97Q105 -126 140 -138Q175 -150 209 -150Q278 -150 326 -106.5Q374 -63 374 29Z" glyph-name="g" horiz-adv-x="479" unicode="g" /><glyph d="M374 130V324Q349 372 310 397.5Q271 423 228 423Q155 423 114 368Q73 313 73 227Q73 141 114 86Q155 31 228 31Q271 31 310 56.5Q349 82 374 130ZM374 29V86Q354 54 315.5 28Q277 2 228 2Q132 2 87 70Q42 138 42 227Q42 316 87 384Q132 452 228 452Q277 452 315.5 426Q354 400 374 368V444H404V30Q404 -75 346.5 -127Q289 -179 209 -179Q168 -179 132.5 -166.5Q97 -154 74 -135V-97Q105 -126 140 -138Q175 -150 209 -150Q278 -150 326 -106.5Q374 -63 374 29ZM243 510Q203 510 176.5 539.5Q150 569 150 624H177Q177 581 196 558Q215 535 243 535Q271 535 290 558Q309 581 309 624H336Q336 569 309.5 539.5Q283 510 243 510Z" glyph-name="gbreve" horiz-adv-x="479" unicode="&#287;" /><glyph d="M374 130V324Q349 372 310 397.5Q271 423 228 423Q155 423 114 368Q73 313 73 227Q73 141 114 86Q155 31 228 31Q271 31 310 56.5Q349 82 374 130ZM374 29V86Q354 54 315.5 28Q277 2 228 2Q132 2 87 70Q42 138 42 227Q42 316 87 384Q132 452 228 452Q277 452 315.5 426Q354 400 374 368V444H404V30Q404 -75 346.5 -127Q289 -179 209 -179Q168 -179 132.5 -166.5Q97 -154 74 -135V-97Q105 -126 140 -138Q175 -150 209 -150Q278 -150 326 -106.5Q374 -63 374 29ZM256 643 347 516H316L243 619L170 516H139L230 643Z" glyph-name="gcircumflex" horiz-adv-x="479" unicode="&#285;" /><glyph d="M374 130V324Q349 372 310 397.5Q271 423 228 423Q155 423 114 368Q73 313 73 227Q73 141 114 86Q155 31 228 31Q271 31 310 56.5Q349 82 374 130ZM374 29V86Q354 54 315.5 28Q277 2 228 2Q132 2 87 70Q42 138 42 227Q42 316 87 384Q132 452 228 452Q277 452 315.5 426Q354 400 374 368V444H404V30Q404 -75 346.5 -127Q289 -179 209 -179Q168 -179 132.5 -166.5Q97 -154 74 -135V-97Q105 -126 140 -138Q175 -150 209 -150Q278 -150 326 -106.5Q374 -63 374 29ZM276 650 242 580Q250 579 256.5 572.5Q263 566 263 555Q263 544 255.5 536Q248 528 237 528Q226 528 218.5 536Q211 544 211 555Q211 564 213.5 571Q216 578 220 585L252 650Z" glyph-name="gcommaaccent" horiz-adv-x="479" unicode="&#291;" /><glyph d="M374 130V324Q349 372 310 397.5Q271 423 228 423Q155 423 114 368Q73 313 73 227Q73 141 114 86Q155 31 228 31Q271 31 310 56.5Q349 82 374 130ZM374 29V86Q354 54 315.5 28Q277 2 228 2Q132 2 87 70Q42 138 42 227Q42 316 87 384Q132 452 228 452Q277 452 315.5 426Q354 400 374 368V444H404V30Q404 -75 346.5 -127Q289 -179 209 -179Q168 -179 132.5 -166.5Q97 -154 74 -135V-97Q105 -126 140 -138Q175 -150 209 -150Q278 -150 326 -106.5Q374 -63 374 29ZM266 579Q266 569 259.5 562Q253 555 243 555Q233 555 226.5 562Q220 569 220 579Q220 589 226.5 596Q233 603 243 603Q253 603 259.5 596Q266 589 266 579Z" glyph-name="gdotaccent" horiz-adv-x="479" unicode="&#289;" /><glyph d="M75 0V528Q75 585 108 621.5Q141 658 192 658Q203 658 214.5 656.5Q226 655 236 651V621Q226 625 215.5 627.5Q205 630 192 630Q155 630 130 602.5Q105 575 105 524V444H443V440L267 228Q338 202 387.5 153.5Q437 105 437 28Q437 -64 369 -122Q301 -180 172 -179V-151Q288 -152 347 -102.5Q406 -53 406 28Q406 98 355.5 142.5Q305 187 226 215V219L388 416H105V0Z" glyph-name="germandbls" horiz-adv-x="473" unicode="&#223;" /><glyph d="M287 372Q318 369 347 356Q376 343 399.5 319.5Q423 296 437 262.5Q451 229 451 187Q451 142 437.5 106Q424 70 399.5 44.5Q375 19 342 5.5Q309 -8 269 -8Q255 -8 241 -6Q227 -4 214.5 -0.5Q202 3 190.5 8.5Q179 14 169 20V52Q182 43 194 36.5Q206 30 218 26.5Q230 23 242.5 21.5Q255 20 269 20Q303 20 331 31Q359 42 379 63.5Q399 85 409.5 116.5Q420 148 420 187Q420 227 406.5 258.5Q393 290 367.5 312Q342 334 308 345Q274 356 234 356H190V384H234Q262 384 285.5 394Q309 404 327 422Q345 440 354.5 463.5Q364 487 364 513Q364 537 356 558.5Q348 580 332 596Q316 612 293.5 621Q271 630 243 630Q210 630 184 618.5Q158 607 140.5 585.5Q123 564 114 534.5Q105 505 105 469V0H75V470Q75 510 85.5 544Q96 578 117 603.5Q138 629 170 643.5Q202 658 243 658Q277 658 305.5 646.5Q334 635 354 615Q374 595 384.5 569Q395 543 395 513Q395 485 386.5 462Q378 439 363 421Q348 403 328.5 391Q309 379 287 372Z" glyph-name="germandbls.alt" horiz-adv-x="494" /><glyph d="M309 523H276L191 650H224Z" glyph-name="grave" horiz-adv-x="500" unicode="`" /><glyph d="M309 663H276L191 780H224Z" glyph-name="grave.cap" horiz-adv-x="500" /><glyph d="M324 303V279L65 130V162L293 291L65 420V452Z" glyph-name="greater" horiz-adv-x="379" unicode="&gt;" /><glyph d="M389 303V279L130 130V162L358 291L130 420V452Z" glyph-name="greater.lt" horiz-adv-x="520" /><glyph d="M325 333V309L66 197V227L286 321L66 414V445ZM325 155V126H66V155Z" glyph-name="greaterequal" horiz-adv-x="379" unicode="&#8805;" /><glyph d="M389 333V309L130 197V227L350 321L130 414V445ZM389 155V126H130V155Z" glyph-name="greaterequal.lt" horiz-adv-x="520" /><glyph d="M257 94H224L132 222L224 350H257L165 222ZM150 94H117L25 222L117 350H150L58 222Z" glyph-name="guillemotleft" horiz-adv-x="282" unicode="&#171;" /><glyph d="M257 184H224L132 312L224 440H257L165 312ZM150 184H117L25 312L117 440H150L58 312Z" glyph-name="guillemotleft.cap" horiz-adv-x="282" /><glyph d="M58 94H25L117 222L25 350H58L150 222ZM165 94H132L224 222L132 350H165L257 222Z" glyph-name="guillemotright" horiz-adv-x="282" unicode="&#187;" /><glyph d="M58 184H25L117 312L25 440H58L150 312ZM165 184H132L224 312L132 440H165L257 312Z" glyph-name="guillemotright.cap" horiz-adv-x="282" /><glyph d="M150 94H117L25 222L117 350H150L58 222Z" glyph-name="guilsinglleft" horiz-adv-x="175" unicode="&#8249;" /><glyph d="M150 184H117L25 312L117 440H150L58 312Z" glyph-name="guilsinglleft.cap" horiz-adv-x="175" /><glyph d="M58 94H25L117 222L25 350H58L150 222Z" glyph-name="guilsinglright" horiz-adv-x="175" unicode="&#8250;" /><glyph d="M58 184H25L117 312L25 440H58L150 312Z" glyph-name="guilsinglright.cap" horiz-adv-x="175" /><glyph d="M75 0V650H105V362Q126 398 166 425Q206 452 256 452Q331 452 370 408.5Q409 365 409 296V0H379V292Q379 348 349 385.5Q319 423 254 423Q203 423 163.5 391.5Q124 360 105 318V0Z" glyph-name="h" horiz-adv-x="479" unicode="h" /><glyph d="M105 318V0H75V527H25V552H75V650H105V552H226V527H105V362Q126 398 166 425Q206 452 256 452Q331 452 370 408.5Q409 365 409 296V0H379V292Q379 348 349 385.5Q319 423 254 423Q203 423 163.5 391.5Q124 360 105 318Z" glyph-name="hbar" horiz-adv-x="479" unicode="&#295;" /><glyph d="M75 0V650H105V362Q126 398 166 425Q206 452 256 452Q331 452 370 408.5Q409 365 409 296V0H379V292Q379 348 349 385.5Q319 423 254 423Q203 423 163.5 391.5Q124 360 105 318V0ZM255 783 346 666H315L242 758L169 666H138L229 783Z" glyph-name="hcircumflex" horiz-adv-x="479" unicode="&#293;" /><glyph d="M277 523H246L325 650H356ZM174 523H143L222 650H253Z" glyph-name="hungarumlaut" horiz-adv-x="500" unicode="&#733;" /><glyph d="M277 663H246L325 780H356ZM174 663H143L222 780H253Z" glyph-name="hungarumlaut.cap" horiz-adv-x="500" /><glyph d="M40 244V273H281V244Z" glyph-name="hyphen" horiz-adv-x="321" unicode="-" /><glyph d="M40 284V313H281V284Z" glyph-name="hyphen.cap" horiz-adv-x="321" /><glyph d="M113 579Q113 569 106.5 562Q100 555 90 555Q80 555 73.5 562Q67 569 67 579Q67 589 73.5 596Q80 603 90 603Q100 603 106.5 596Q113 589 113 579ZM105 444V0H75V444Z" glyph-name="i" horiz-adv-x="180" unicode="i" /><glyph d="M105 444V0H75V444ZM102 523H69L154 650H187Z" glyph-name="iacute" horiz-adv-x="180" unicode="&#237;" /><glyph d="M91 510Q56 510 32.5 539.5Q9 569 9 624H35Q35 581 50.5 558Q66 535 91 535Q116 535 131.5 558Q147 581 147 624H173Q173 569 149.5 539.5Q126 510 91 510ZM105 444V0H75V444Z" glyph-name="ibreve" horiz-adv-x="180" unicode="&#301;" /><glyph d="M103 643 174 516H144L90 616L36 516H6L77 643ZM105 444V0H75V444Z" glyph-name="icircumflex" horiz-adv-x="180" unicode="&#238;" /><glyph d="M114 570Q114 580 120.5 586.5Q127 593 137 593Q147 593 153.5 586.5Q160 580 160 570Q160 560 153.5 553.5Q147 547 137 547Q127 547 120.5 553.5Q114 560 114 570ZM20 570Q20 580 26.5 586.5Q33 593 43 593Q53 593 59.5 586.5Q66 580 66 570Q66 560 59.5 553.5Q53 547 43 547Q33 547 26.5 553.5Q20 560 20 570ZM105 444V0H75V444Z" glyph-name="idieresis" horiz-adv-x="180" unicode="&#239;" /><glyph d="M105 444V0H75V444ZM113 579Q113 569 106.5 562Q100 555 90 555Q80 555 73.5 562Q67 569 67 579Q67 589 73.5 596Q80 603 90 603Q100 603 106.5 596Q113 589 113 579Z" glyph-name="idotaccent" horiz-adv-x="180" /><glyph d="M105 444V0H75V444ZM107 523H74L-11 650H22Z" glyph-name="igrave" horiz-adv-x="180" unicode="&#236;" /><glyph d="M113 579Q113 569 106.5 562Q100 555 90 555Q80 555 73.5 562Q67 569 67 579Q67 589 73.5 596Q80 603 90 603Q100 603 106.5 596Q113 589 113 579ZM105 444V0H75V444ZM293 579Q293 569 286.5 562Q280 555 270 555Q260 555 253.5 562Q247 569 247 579Q247 589 253.5 596Q260 603 270 603Q280 603 286.5 596Q293 589 293 579ZM285 444V-73Q285 -127 257.5 -152.5Q230 -178 186 -178Q181 -178 176.5 -177.5Q172 -177 169 -176V-148Q172 -149 176.5 -149.5Q181 -150 186 -150Q217 -150 236 -134Q255 -118 255 -69V444Z" glyph-name="ij" horiz-adv-x="360" unicode="&#307;" /><glyph d="M20 542V569H163V542ZM105 444V0H75V444Z" glyph-name="imacron" horiz-adv-x="180" unicode="&#299;" /><glyph d="M113 579Q113 569 106.5 562Q100 555 90 555Q80 555 73.5 562Q67 569 67 579Q67 589 73.5 596Q80 603 90 603Q100 603 106.5 596Q113 589 113 579ZM105 444V0Q74 -55 64.5 -80Q55 -105 55 -124Q55 -140 62.5 -147.5Q70 -155 81 -155Q92 -155 100.5 -151.5Q109 -148 118 -141V-166Q109 -173 99.5 -176Q90 -179 79 -179Q59 -179 43.5 -166Q28 -153 28 -124Q28 -102 38.5 -75.5Q49 -49 77 0H75V444Z" glyph-name="iogonek" horiz-adv-x="180" unicode="&#303;" /><glyph d="M157 619H180Q180 576 167.5 550Q155 524 133 524Q102 524 84.5 559Q67 594 48 594Q35 594 29 575.5Q23 557 23 527H0Q0 570 12.5 596Q25 622 47 622Q78 622 95.5 587Q113 552 132 552Q145 552 151 570.5Q157 589 157 619ZM105 444V0H75V444Z" glyph-name="itilde" horiz-adv-x="180" unicode="&#297;" /><glyph d="M113 579Q113 569 106.5 562Q100 555 90 555Q80 555 73.5 562Q67 569 67 579Q67 589 73.5 596Q80 603 90 603Q100 603 106.5 596Q113 589 113 579ZM105 444V-73Q105 -127 77.5 -152.5Q50 -178 6 -178Q1 -178 -3.5 -177.5Q-8 -177 -11 -176V-148Q-8 -149 -3.5 -149.5Q1 -150 6 -150Q37 -150 56 -134Q75 -118 75 -69V444Z" glyph-name="j" horiz-adv-x="180" unicode="j" /><glyph d="M103 643 174 516H144L90 616L36 516H6L77 643ZM105 444V-73Q105 -127 77.5 -152.5Q50 -178 6 -178Q1 -178 -3.5 -177.5Q-8 -177 -11 -176V-148Q-8 -149 -3.5 -149.5Q1 -150 6 -150Q37 -150 56 -134Q75 -118 75 -69V444Z" glyph-name="jcircumflex" horiz-adv-x="180" unicode="&#309;" /><glyph d="M356 0 105 233V0H75V650H105V246L349 444H392L140 240L396 0Z" glyph-name="k" horiz-adv-x="411" unicode="k" /><glyph d="M356 0 105 233V0H75V650H105V246L349 444H392L140 240L396 0ZM169 -170 203 -100Q195 -99 188.5 -92.5Q182 -86 182 -75Q182 -64 189.5 -56Q197 -48 208 -48Q219 -48 226.5 -56Q234 -64 234 -75Q234 -84 231.5 -91Q229 -98 225 -105L193 -170Z" glyph-name="kcommaaccent" horiz-adv-x="411" unicode="&#311;" /><glyph d="M356 0 105 233V0H75V444H105V246L349 444H392L140 240L396 0Z" glyph-name="kgreenlandic" horiz-adv-x="411" unicode="&#312;" /><glyph d="M105 650V0H75V650Z" glyph-name="l" horiz-adv-x="180" unicode="l" /><glyph d="M105 650V0H75V650ZM108 683H75L160 800H193Z" glyph-name="lacute" horiz-adv-x="180" unicode="&#314;" /><glyph d="M105 650V0H75V650ZM192 493H166L198 650H224Z" glyph-name="lcaron" horiz-adv-x="180" unicode="&#318;" /><glyph d="M105 650V0H75V650ZM51 -170 85 -100Q77 -99 70.5 -92.5Q64 -86 64 -75Q64 -64 71.5 -56Q79 -48 90 -48Q101 -48 108.5 -56Q116 -64 116 -75Q116 -84 113.5 -91Q111 -98 107 -105L75 -170Z" glyph-name="lcommaaccent" horiz-adv-x="180" unicode="&#316;" /><glyph d="M105 650V0H75V650ZM249 325Q249 315 242.5 308Q236 301 226 301Q216 301 209.5 308Q203 315 203 325Q203 335 209.5 342Q216 349 226 349Q236 349 242.5 342Q249 335 249 325Z" glyph-name="ldot" horiz-adv-x="272" unicode="&#320;" /><glyph d="M55 279V303L314 452V420L86 291L314 162V130Z" glyph-name="less" horiz-adv-x="379" unicode="&lt;" /><glyph d="M130 279V303L389 452V420L161 291L389 162V130Z" glyph-name="less.lt" horiz-adv-x="520" /><glyph d="M54 309V333L313 445V414L93 321L313 227V197ZM54 126V155H313V126Z" glyph-name="lessequal" horiz-adv-x="379" unicode="&#8804;" /><glyph d="M130 309V333L389 445V414L169 321L389 227V197ZM130 126V155H389V126Z" glyph-name="lessequal.lt" horiz-adv-x="520" /><glyph d="M125 0H95V347L30 300V334L95 382V650H125V401L195 452V418L125 367Z" glyph-name="lslash" horiz-adv-x="220" unicode="&#322;" /><glyph d="M366 358Q383 393 421 422.5Q459 452 507 452Q573 452 606 409.5Q639 367 639 304V0H609V300Q609 355 583.5 389Q558 423 505 423Q459 423 423.5 392.5Q388 362 372 320V0H342V300Q342 355 316.5 389Q291 423 238 423Q192 423 156.5 392.5Q121 362 105 320V0H75V444H105V364Q122 399 157 425.5Q192 452 240 452Q291 452 323 426Q355 400 366 358Z" glyph-name="m" horiz-adv-x="709" unicode="m" /><glyph d="M153 542V569H346V542Z" glyph-name="macron" horiz-adv-x="500" unicode="&#175;" /><glyph d="M153 670V697H346V670Z" glyph-name="macron.cap" horiz-adv-x="500" /><glyph d="M70 278V307H425V278Z" glyph-name="minus" horiz-adv-x="495" unicode="&#8722;" /><glyph d="M82 278V307H437V278Z" glyph-name="minus.lt" horiz-adv-x="520" /><glyph d="M192 290 71 412 91 431 211 309 331 431 351 412 231 290 351 168 331 149 211 270 91 149 71 168Z" glyph-name="multiply" horiz-adv-x="422" unicode="&#215;" /><glyph d="M241 290 120 412 140 431 260 309 380 431 400 412 280 290 400 168 380 149 260 270 140 149 120 168Z" glyph-name="multiply.lt" horiz-adv-x="520" /><glyph d="M75 0V444H105V362Q126 398 166 425Q206 452 256 452Q331 452 370 408.5Q409 365 409 296V0H379V292Q379 348 349 385.5Q319 423 254 423Q203 423 163.5 391.5Q124 360 105 318V0Z" glyph-name="n" horiz-adv-x="479" unicode="n" /><glyph d="M75 0V444H105V362Q126 398 166 425Q206 452 256 452Q331 452 370 408.5Q409 365 409 296V0H379V292Q379 348 349 385.5Q319 423 254 423Q203 423 163.5 391.5Q124 360 105 318V0ZM254 523H221L306 650H339Z" glyph-name="nacute" horiz-adv-x="479" unicode="&#324;" /><glyph d="M75 0V444H105V362Q126 398 166 425Q206 452 256 452Q331 452 370 408.5Q409 365 409 296V0H379V292Q379 348 349 385.5Q319 423 254 423Q203 423 163.5 391.5Q124 360 105 318V0ZM346 645 255 518H229L138 645H169L242 543L315 645Z" glyph-name="ncaron" horiz-adv-x="479" unicode="&#328;" /><glyph d="M75 0V444H105V362Q126 398 166 425Q206 452 256 452Q331 452 370 408.5Q409 365 409 296V0H379V292Q379 348 349 385.5Q319 423 254 423Q203 423 163.5 391.5Q124 360 105 318V0ZM210 -170 244 -100Q236 -99 229.5 -92.5Q223 -86 223 -75Q223 -64 230.5 -56Q238 -48 249 -48Q260 -48 267.5 -56Q275 -64 275 -75Q275 -84 272.5 -91Q270 -98 266 -105L234 -170Z" glyph-name="ncommaaccent" horiz-adv-x="479" unicode="&#326;" /><glyph d="M239 622Q321 622 380 563Q439 504 439 418Q439 388 431 358.5Q423 329 401 289L236 0H204L348 251Q329 235 299.5 224.5Q270 214 239 214Q155 214 96.5 272.5Q38 331 38 418Q38 504 96.5 563Q155 622 239 622ZM68 418Q68 344 118 293Q168 242 239 242Q309 242 359 293Q409 344 409 418Q409 492 359 542.5Q309 593 239 593Q168 593 118 542.5Q68 492 68 418Z" glyph-name="nine" horiz-adv-x="477" unicode="9" /><glyph d="M260 622Q342 622 401 563Q460 504 460 418Q460 388 452 358.5Q444 329 422 289L257 0H225L369 251Q350 235 320.5 224.5Q291 214 260 214Q176 214 117.5 272.5Q59 331 59 418Q59 504 117.5 563Q176 622 260 622ZM89 418Q89 344 139 293Q189 242 260 242Q330 242 380 293Q430 344 430 418Q430 492 380 542.5Q330 593 260 593Q189 593 139 542.5Q89 492 89 418Z" glyph-name="nine.lt" horiz-adv-x="520" /><glyph glyph-name="nonmarkingreturn" horiz-adv-x="221" unicode="" /><glyph d="M428 220H208L137 132H102L173 220H72V248H196L270 339H72V367H292L363 454H398L327 367H428V339H305L231 248H428Z" glyph-name="notequal" horiz-adv-x="500" unicode="&#8800;" /><glyph d="M438 220H218L147 132H112L183 220H82V248H206L280 339H82V367H302L373 454H408L337 367H438V339H315L241 248H438Z" glyph-name="notequal.lt" horiz-adv-x="520" /><glyph d="M75 0V444H105V362Q126 398 166 425Q206 452 256 452Q331 452 370 408.5Q409 365 409 296V0H379V292Q379 348 349 385.5Q319 423 254 423Q203 423 163.5 391.5Q124 360 105 318V0ZM335 619H361Q361 576 345 550Q329 524 298 524Q258 524 237 559Q216 594 188 594Q169 594 159.5 575.5Q150 557 150 527H124Q124 570 140 596Q156 622 187 622Q227 622 248 587Q269 552 297 552Q316 552 325.5 570.5Q335 589 335 619Z" glyph-name="ntilde" horiz-adv-x="479" unicode="&#241;" /><glyph d="M330 228 367 386H199L162 228ZM275 0 323 202H155L107 0H80L128 202H30L36 228H134L172 386H69L74 412H178L226 614H254L206 412H374L422 614H449L401 412H499L493 386H395L357 228H460L455 202H351L303 0Z" glyph-name="numbersign" horiz-adv-x="529" unicode="#" /><glyph d="M424 222Q424 120 371.5 56Q319 -8 233 -8Q147 -8 94.5 56Q42 120 42 222Q42 324 94.5 388Q147 452 233 452Q319 452 371.5 388Q424 324 424 222ZM393 222Q393 313 348.5 368.5Q304 424 233 424Q162 424 117.5 368.5Q73 313 73 222Q73 131 117.5 75.5Q162 20 233 20Q304 20 348.5 75.5Q393 131 393 222Z" glyph-name="o" horiz-adv-x="466" unicode="o" /><glyph d="M424 222Q424 120 371.5 56Q319 -8 233 -8Q147 -8 94.5 56Q42 120 42 222Q42 324 94.5 388Q147 452 233 452Q319 452 371.5 388Q424 324 424 222ZM393 222Q393 313 348.5 368.5Q304 424 233 424Q162 424 117.5 368.5Q73 313 73 222Q73 131 117.5 75.5Q162 20 233 20Q304 20 348.5 75.5Q393 131 393 222ZM245 523H212L297 650H330Z" glyph-name="oacute" horiz-adv-x="466" unicode="&#243;" /><glyph d="M424 222Q424 120 371.5 56Q319 -8 233 -8Q147 -8 94.5 56Q42 120 42 222Q42 324 94.5 388Q147 452 233 452Q319 452 371.5 388Q424 324 424 222ZM393 222Q393 313 348.5 368.5Q304 424 233 424Q162 424 117.5 368.5Q73 313 73 222Q73 131 117.5 75.5Q162 20 233 20Q304 20 348.5 75.5Q393 131 393 222ZM233 510Q193 510 166.5 539.5Q140 569 140 624H167Q167 581 186 558Q205 535 233 535Q261 535 280 558Q299 581 299 624H326Q326 569 299.5 539.5Q273 510 233 510Z" glyph-name="obreve" horiz-adv-x="466" unicode="&#335;" /><glyph d="M424 222Q424 120 371.5 56Q319 -8 233 -8Q147 -8 94.5 56Q42 120 42 222Q42 324 94.5 388Q147 452 233 452Q319 452 371.5 388Q424 324 424 222ZM393 222Q393 313 348.5 368.5Q304 424 233 424Q162 424 117.5 368.5Q73 313 73 222Q73 131 117.5 75.5Q162 20 233 20Q304 20 348.5 75.5Q393 131 393 222ZM246 643 337 516H306L233 619L160 516H129L220 643Z" glyph-name="ocircumflex" horiz-adv-x="466" unicode="&#244;" /><glyph d="M424 222Q424 120 371.5 56Q319 -8 233 -8Q147 -8 94.5 56Q42 120 42 222Q42 324 94.5 388Q147 452 233 452Q319 452 371.5 388Q424 324 424 222ZM393 222Q393 313 348.5 368.5Q304 424 233 424Q162 424 117.5 368.5Q73 313 73 222Q73 131 117.5 75.5Q162 20 233 20Q304 20 348.5 75.5Q393 131 393 222ZM267 570Q267 580 273.5 586.5Q280 593 290 593Q300 593 306.5 586.5Q313 580 313 570Q313 560 306.5 553.5Q300 547 290 547Q280 547 273.5 553.5Q267 560 267 570ZM153 570Q153 580 159.5 586.5Q166 593 176 593Q186 593 192.5 586.5Q199 580 199 570Q199 560 192.5 553.5Q186 547 176 547Q166 547 159.5 553.5Q153 560 153 570Z" glyph-name="odieresis" horiz-adv-x="466" unicode="&#246;" /><glyph d="M577 424Q514 424 472 377.5Q430 331 423 252H719Q717 317 684.5 370.5Q652 424 577 424ZM393 222Q393 313 348.5 368.5Q304 424 233 424Q162 424 117.5 368.5Q73 313 73 222Q73 131 117.5 75.5Q162 20 233 20Q304 20 348.5 75.5Q393 131 393 222ZM717 31Q693 11 661 1.5Q629 -8 592 -8Q526 -8 477 26.5Q428 61 406 121Q384 63 339 27.5Q294 -8 233 -8Q147 -8 94.5 56Q42 120 42 222Q42 324 94.5 388Q147 452 233 452Q296 452 341.5 415Q387 378 408 318Q427 378 470.5 415Q514 452 577 452Q662 452 706 392Q750 332 750 236V225H421V218Q421 123 470 71.5Q519 20 592 20Q629 20 659 30Q689 40 717 64Z" glyph-name="oe" horiz-adv-x="788" unicode="&#339;" /><glyph d="M274 3H302Q269 -54 259.5 -79.5Q250 -105 250 -124Q250 -140 257.5 -147.5Q265 -155 276 -155Q287 -155 295.5 -151.5Q304 -148 313 -141V-166Q304 -173 294.5 -176Q285 -179 274 -179Q254 -179 238.5 -166Q223 -153 223 -124Q223 -102 234.5 -75Q246 -48 274 3Z" glyph-name="ogonek" horiz-adv-x="500" unicode="&#731;" /><glyph d="M424 222Q424 120 371.5 56Q319 -8 233 -8Q147 -8 94.5 56Q42 120 42 222Q42 324 94.5 388Q147 452 233 452Q319 452 371.5 388Q424 324 424 222ZM393 222Q393 313 348.5 368.5Q304 424 233 424Q162 424 117.5 368.5Q73 313 73 222Q73 131 117.5 75.5Q162 20 233 20Q304 20 348.5 75.5Q393 131 393 222ZM250 523H217L132 650H165Z" glyph-name="ograve" horiz-adv-x="466" unicode="&#242;" /><glyph d="M424 222Q424 120 371.5 56Q319 -8 233 -8Q147 -8 94.5 56Q42 120 42 222Q42 324 94.5 388Q147 452 233 452Q319 452 371.5 388Q424 324 424 222ZM393 222Q393 313 348.5 368.5Q304 424 233 424Q162 424 117.5 368.5Q73 313 73 222Q73 131 117.5 75.5Q162 20 233 20Q304 20 348.5 75.5Q393 131 393 222ZM299 523H268L347 650H378ZM196 523H165L244 650H275Z" glyph-name="ohungarumlaut" horiz-adv-x="466" unicode="&#337;" /><glyph d="M424 222Q424 120 371.5 56Q319 -8 233 -8Q147 -8 94.5 56Q42 120 42 222Q42 324 94.5 388Q147 452 233 452Q319 452 371.5 388Q424 324 424 222ZM393 222Q393 313 348.5 368.5Q304 424 233 424Q162 424 117.5 368.5Q73 313 73 222Q73 131 117.5 75.5Q162 20 233 20Q304 20 348.5 75.5Q393 131 393 222ZM137 542V569H330V542Z" glyph-name="omacron" horiz-adv-x="466" unicode="&#333;" /><glyph d="M234 616V0H203V578L36 492V525L214 616Z" glyph-name="one" horiz-adv-x="330" unicode="1" /><glyph d="M70 0V30H267V578L78 480V513L278 616H298V30H467V0Z" glyph-name="one.lt" horiz-adv-x="520" /><glyph d="M166 616V287H137V580L52 536V567L148 616ZM518 614 109 0H79L488 614ZM425 27H578V0H372V2L477 127Q503 158 521.5 184Q540 210 540 242Q540 270 523 288Q506 306 472 306Q444 306 420 292Q396 278 379 260V292Q395 309 420 321Q445 333 474 333Q519 333 544 308Q569 283 569 243Q569 206 548 176Q527 146 499 112Z" glyph-name="onehalf" horiz-adv-x="632" unicode="&#189;" /><glyph d="M166 616V287H137V580L52 536V567L148 616ZM518 614 109 0H79L488 614ZM477 328 374 105H488V186H516V105H576V79H516V0H488V79H333V82L448 328Z" glyph-name="onequarter" horiz-adv-x="626" unicode="&#188;" /><glyph d="M140 616V287H111V580L26 536V567L122 616Z" glyph-name="onesuperior" horiz-adv-x="196" unicode="&#185;" /><glyph d="M208 387V426Q201 445 178.5 458Q156 471 128 471Q96 471 70.5 455Q45 439 45 407Q45 375 70.5 358.5Q96 342 128 342Q156 342 178.5 355Q201 368 208 387ZM208 464V527Q208 558 188 576Q168 594 134 594Q109 594 87.5 587Q66 580 48 568V597Q63 607 86.5 614Q110 621 137 621Q183 621 210 596.5Q237 572 237 529V321H208V350Q198 339 176 327.5Q154 316 126 316Q81 316 49 340.5Q17 365 17 407Q17 447 49 472Q81 497 127 497Q153 497 175.5 486Q198 475 208 464Z" glyph-name="ordfeminine" horiz-adv-x="275" unicode="&#170;" /><glyph d="M279 468Q279 401 243.5 358Q208 315 150 315Q92 315 56 358Q20 401 20 468Q20 536 56 578.5Q92 621 150 621Q208 621 243.5 578.5Q279 536 279 468ZM250 468Q250 525 222.5 560Q195 595 150 595Q105 595 77.5 560Q50 525 50 468Q50 411 77.5 376.5Q105 342 150 342Q195 342 222.5 376.5Q250 411 250 468Z" glyph-name="ordmasculine" horiz-adv-x="300" unicode="&#186;" /><glyph d="M78 222Q78 181 87.5 146Q97 111 114 85L345 379Q325 401 297.5 412.5Q270 424 238 424Q167 424 122.5 368.5Q78 313 78 222ZM238 20Q309 20 353.5 75.5Q398 131 398 222Q398 263 388.5 298Q379 333 362 359L131 65Q151 43 178.5 31.5Q206 20 238 20ZM238 -8Q201 -8 169 5Q137 18 113 41L67 -17L46 -2L95 61Q72 91 59.5 132Q47 173 47 222Q47 324 99.5 388Q152 452 238 452Q275 452 307 439Q339 426 363 403L406 457L427 442L381 383Q404 353 416.5 312Q429 271 429 222Q429 120 376.5 56Q324 -8 238 -8Z" glyph-name="oslash" horiz-adv-x="476" unicode="&#248;" /><glyph d="M78 222Q78 181 87.5 146Q97 111 114 85L345 379Q325 401 297.5 412.5Q270 424 238 424Q167 424 122.5 368.5Q78 313 78 222ZM238 20Q309 20 353.5 75.5Q398 131 398 222Q398 263 388.5 298Q379 333 362 359L131 65Q151 43 178.5 31.5Q206 20 238 20ZM238 -8Q201 -8 169 5Q137 18 113 41L67 -17L46 -2L95 61Q72 91 59.5 132Q47 173 47 222Q47 324 99.5 388Q152 452 238 452Q275 452 307 439Q339 426 363 403L406 457L427 442L381 383Q404 353 416.5 312Q429 271 429 222Q429 120 376.5 56Q324 -8 238 -8ZM249 523H216L301 650H334Z" glyph-name="oslashacute" horiz-adv-x="476" unicode="&#511;" /><glyph d="M424 222Q424 120 371.5 56Q319 -8 233 -8Q147 -8 94.5 56Q42 120 42 222Q42 324 94.5 388Q147 452 233 452Q319 452 371.5 388Q424 324 424 222ZM393 222Q393 313 348.5 368.5Q304 424 233 424Q162 424 117.5 368.5Q73 313 73 222Q73 131 117.5 75.5Q162 20 233 20Q304 20 348.5 75.5Q393 131 393 222ZM326 619H352Q352 576 336 550Q320 524 289 524Q249 524 228 559Q207 594 179 594Q160 594 150.5 575.5Q141 557 141 527H115Q115 570 131 596Q147 622 178 622Q218 622 239 587Q260 552 288 552Q307 552 316.5 570.5Q326 589 326 619Z" glyph-name="otilde" horiz-adv-x="466" unicode="&#245;" /><glyph d="M105 324V120Q131 71 170 46Q209 21 253 21Q328 21 369.5 78Q411 135 411 222Q411 309 369.5 366Q328 423 253 423Q209 423 170 398Q131 373 105 324ZM105 77V-170H75V444H105V367Q125 400 164.5 426Q204 452 253 452Q351 452 396.5 382Q442 312 442 222Q442 132 396.5 62Q351 -8 253 -8Q204 -8 164.5 18Q125 44 105 77Z" glyph-name="p" horiz-adv-x="484" unicode="p" /><glyph d="M208 -90V366Q142 366 81 395.5Q20 425 20 490Q20 555 81 584.5Q142 614 208 614H237V-90ZM303 -90V614H332V-90Z" glyph-name="paragraph" horiz-adv-x="415" unicode="&#182;" /><glyph d="M30 283Q30 420 103 519Q176 618 298 650V622Q204 599 132 509.5Q60 420 60 283Q60 146 132 56.5Q204 -33 298 -56V-84Q176 -52 103 47Q30 146 30 283Z" glyph-name="parenleft" horiz-adv-x="328" unicode="(" /><glyph d="M30 298Q30 435 103 534Q176 633 298 665V637Q204 614 132 524.5Q60 435 60 298Q60 161 132 71.5Q204 -18 298 -41V-69Q176 -37 103 62Q30 161 30 298Z" glyph-name="parenleft.cap" horiz-adv-x="328" /><glyph d="M30 650Q152 618 225 519Q298 420 298 283Q298 146 225 47Q152 -52 30 -84V-56Q124 -33 196 56.5Q268 146 268 283Q268 420 196 509.5Q124 599 30 622Z" glyph-name="parenright" horiz-adv-x="328" unicode=")" /><glyph d="M30 665Q152 633 225 534Q298 435 298 298Q298 161 225 62Q152 -37 30 -69V-41Q124 -18 196 71.5Q268 161 268 298Q268 435 196 524.5Q124 614 30 637Z" glyph-name="parenright.cap" horiz-adv-x="328" /><glyph d="M285 499Q285 448 249 412.5Q213 377 162 377Q111 377 75.5 412.5Q40 448 40 499Q40 550 75.5 586Q111 622 162 622Q213 622 249 586Q285 550 285 499ZM83 0 492 614H522L113 0ZM68 499Q68 460 95.5 432.5Q123 405 162 405Q202 405 229.5 432.5Q257 460 257 499Q257 539 229.5 566.5Q202 594 162 594Q123 594 95.5 566.5Q68 539 68 499ZM565 115Q565 64 529.5 28Q494 -8 443 -8Q392 -8 356 28Q320 64 320 115Q320 166 356 201.5Q392 237 443 237Q494 237 529.5 201.5Q565 166 565 115ZM537 115Q537 154 509.5 181.5Q482 209 443 209Q403 209 375.5 181.5Q348 154 348 115Q348 75 375.5 47.5Q403 20 443 20Q482 20 509.5 47.5Q537 75 537 115Z" glyph-name="percent" horiz-adv-x="605" unicode="%" /><glyph d="M18 499Q18 550 53.5 586Q89 622 140 622Q191 622 227 586Q263 550 263 499Q263 448 227 412.5Q191 377 140 377Q89 377 53.5 412.5Q18 448 18 499ZM41 0 450 614H480L71 0ZM46 499Q46 460 73.5 432.5Q101 405 140 405Q180 405 207.5 432.5Q235 460 235 499Q235 539 207.5 566.5Q180 594 140 594Q101 594 73.5 566.5Q46 539 46 499ZM503 115Q503 64 467.5 28Q432 -8 381 -8Q330 -8 294 28Q258 64 258 115Q258 166 294 201.5Q330 237 381 237Q432 237 467.5 201.5Q503 166 503 115ZM475 115Q475 154 447.5 181.5Q420 209 381 209Q341 209 313.5 181.5Q286 154 286 115Q286 75 313.5 47.5Q341 20 381 20Q420 20 447.5 47.5Q475 75 475 115Z" glyph-name="percent.lt" horiz-adv-x="520" /><glyph d="M33 25Q33 36 41 44Q49 52 59 52Q69 52 77 44Q85 36 85 25Q85 14 77 6Q69 -2 59 -2Q49 -2 41 6Q33 14 33 25Z" glyph-name="period" horiz-adv-x="118" unicode="." /><glyph d="M104 25Q104 36 112 44Q120 52 130 52Q140 52 148 44Q156 36 156 25Q156 14 148 6Q140 -2 130 -2Q120 -2 112 6Q104 14 104 25Z" glyph-name="period.tab" horiz-adv-x="260" /><glyph d="M40 260Q40 271 48 279Q56 287 66 287Q76 287 84 279Q92 271 92 260Q92 249 84 241Q76 233 66 233Q56 233 48 241Q40 249 40 260Z" glyph-name="periodcentered" horiz-adv-x="132" unicode="&#183;" /><glyph d="M40 300Q40 311 48 319Q56 327 66 327Q76 327 84 319Q92 311 92 300Q92 289 84 281Q76 273 66 273Q56 273 48 281Q40 289 40 300Z" glyph-name="periodcentered.cap" horiz-adv-x="132" /><glyph d="M162 377Q111 377 75.5 412.5Q40 448 40 499Q40 550 75.5 586Q111 622 162 622Q213 622 249 586Q285 550 285 499Q285 448 249 412.5Q213 377 162 377ZM83 0 492 614H522L113 0ZM162 594Q123 594 95.5 566.5Q68 539 68 499Q68 460 95.5 432.5Q123 405 162 405Q202 405 229.5 432.5Q257 460 257 499Q257 539 229.5 566.5Q202 594 162 594ZM843 115Q843 64 807.5 28Q772 -8 721 -8Q670 -8 634 28Q598 64 598 115Q598 166 634 201.5Q670 237 721 237Q772 237 807.5 201.5Q843 166 843 115ZM565 115Q565 64 529.5 28Q494 -8 443 -8Q392 -8 356 28Q320 64 320 115Q320 166 356 201.5Q392 237 443 237Q494 237 529.5 201.5Q565 166 565 115ZM815 115Q815 154 787.5 181.5Q760 209 721 209Q681 209 653.5 181.5Q626 154 626 115Q626 75 653.5 47.5Q681 20 721 20Q760 20 787.5 47.5Q815 75 815 115ZM537 115Q537 154 509.5 181.5Q482 209 443 209Q403 209 375.5 181.5Q348 154 348 115Q348 75 375.5 47.5Q403 20 443 20Q482 20 509.5 47.5Q537 75 537 115Z" glyph-name="perthousand" horiz-adv-x="883" unicode="&#8240;" /><glyph d="M18 499Q18 550 53.5 586Q89 622 140 622Q191 622 227 586Q263 550 263 499Q263 448 227 412.5Q191 377 140 377Q89 377 53.5 412.5Q18 448 18 499ZM41 0 450 614H480L71 0ZM46 499Q46 460 73.5 432.5Q101 405 140 405Q180 405 207.5 432.5Q235 460 235 499Q235 539 207.5 566.5Q180 594 140 594Q101 594 73.5 566.5Q46 539 46 499ZM783 115Q783 64 747.5 28Q712 -8 661 -8Q610 -8 574 28Q538 64 538 115Q538 166 574 201.5Q610 237 661 237Q712 237 747.5 201.5Q783 166 783 115ZM503 115Q503 64 467.5 28Q432 -8 381 -8Q330 -8 294 28Q258 64 258 115Q258 166 294 201.5Q330 237 381 237Q432 237 467.5 201.5Q503 166 503 115ZM755 115Q755 154 727.5 181.5Q700 209 661 209Q621 209 593.5 181.5Q566 154 566 115Q566 75 593.5 47.5Q621 20 661 20Q700 20 727.5 47.5Q755 75 755 115ZM475 115Q475 154 447.5 181.5Q420 209 381 209Q341 209 313.5 181.5Q286 154 286 115Q286 75 313.5 47.5Q341 20 381 20Q420 20 447.5 47.5Q475 75 475 115Z" glyph-name="perthousand.lt" horiz-adv-x="800" /><glyph d="M425 278H262V115H233V278H70V307H233V470H262V307H425Z" glyph-name="plus" horiz-adv-x="495" unicode="+" /><glyph d="M437 278H274V115H245V278H82V307H245V470H274V307H437Z" glyph-name="plus.lt" horiz-adv-x="520" /><glyph d="M425 326H262V203H233V326H70V355H233V478H262V355H425ZM70 116V145H425V116Z" glyph-name="plusminus" horiz-adv-x="495" unicode="&#177;" /><glyph d="M437 326H274V203H245V326H82V355H245V478H274V355H437ZM82 116V145H437V116Z" glyph-name="plusminus.lt" horiz-adv-x="520" /><glyph d="M670 307Q670 170 577 81Q484 -8 355 -8Q226 -8 133 81Q40 170 40 307Q40 444 133 533Q226 622 355 622Q484 622 577 533Q670 444 670 307ZM644 307Q644 432 559 514Q474 596 355 596Q236 596 151 514Q66 432 66 307Q66 182 151 100Q236 18 355 18Q474 18 559 100Q644 182 644 307ZM388 282H285V124H255V493H388Q442 493 473.5 466Q505 439 505 388Q505 336 473.5 309Q442 282 388 282ZM388 311Q431 311 453.5 331Q476 351 476 388Q476 424 453.5 444.5Q431 465 388 465H285V311Z" glyph-name="published" horiz-adv-x="710" /><glyph d="M379 -170V77Q359 44 319.5 18Q280 -8 231 -8Q133 -8 87.5 62Q42 132 42 222Q42 312 87.5 382Q133 452 231 452Q280 452 319.5 426Q359 400 379 367V444H409V-170ZM379 120V324Q353 373 314 398Q275 423 231 423Q156 423 114.5 366Q73 309 73 222Q73 135 114.5 78Q156 21 231 21Q275 21 314 46Q353 71 379 120Z" glyph-name="q" horiz-adv-x="484" unicode="q" /><glyph d="M244 297Q272 330 306 369.5Q340 409 340 461Q340 520 303.5 556.5Q267 593 198 593Q146 593 101 564.5Q56 536 24 499V536Q52 569 98 595.5Q144 622 198 622Q281 622 325.5 577.5Q370 533 370 461Q370 407 336 363.5Q302 320 266 280Q243 254 233 235Q223 216 222 193H194Q196 224 208.5 247Q221 270 244 297ZM181 25Q181 36 189 44Q197 52 207 52Q217 52 225 44Q233 36 233 25Q233 14 225 6Q217 -2 207 -2Q197 -2 189 6Q181 14 181 25Z" glyph-name="question" horiz-adv-x="414" unicode="?" /><glyph d="M233 493Q233 482 225 474Q217 466 207 466Q197 466 189 474Q181 482 181 493Q181 504 189 512Q197 520 207 520Q217 520 225 512Q233 504 233 493ZM170 221Q142 188 108 148.5Q74 109 74 57Q74 -2 110.5 -38.5Q147 -75 216 -75Q268 -75 313 -46.5Q358 -18 390 19V-18Q362 -51 316 -77.5Q270 -104 216 -104Q133 -104 88.5 -59.5Q44 -15 44 57Q44 111 78 154.5Q112 198 148 238Q171 264 181 283Q191 302 192 325H220Q218 294 205.5 271Q193 248 170 221Z" glyph-name="questiondown" horiz-adv-x="414" unicode="&#191;" /><glyph d="M233 589Q233 578 225 570Q217 562 207 562Q197 562 189 570Q181 578 181 589Q181 600 189 608Q197 616 207 616Q217 616 225 608Q233 600 233 589ZM170 317Q142 284 108 244.5Q74 205 74 153Q74 94 110.5 57.5Q147 21 216 21Q268 21 313 49.5Q358 78 390 115V78Q362 45 316 18.5Q270 -8 216 -8Q133 -8 88.5 36.5Q44 81 44 153Q44 207 78 250.5Q112 294 148 334Q171 360 181 379Q191 398 192 421H220Q218 390 205.5 367Q193 344 170 317Z" glyph-name="questiondown.cap" horiz-adv-x="415" /><glyph d="M119 434V614H149V434ZM40 434V614H70V434Z" glyph-name="quotedbl" horiz-adv-x="189" unicode="&quot;" /><glyph d="M121 -94 166 -1Q158 0 151.5 6.5Q145 13 145 24Q145 35 152.5 43Q160 51 171 51Q182 51 189.5 43Q197 35 197 24Q197 15 194.5 8Q192 1 188 -6L145 -94ZM20 -94 65 -1Q57 0 50.5 6.5Q44 13 44 24Q44 35 51.5 43Q59 51 70 51Q81 51 88.5 43Q96 35 96 24Q96 15 93.5 8Q91 1 87 -6L44 -94Z" glyph-name="quotedblbase" horiz-adv-x="222" unicode="&#8222;" /><glyph d="M101 614 56 521Q64 520 70.5 513.5Q77 507 77 496Q77 485 69.5 477Q62 469 51 469Q40 469 32.5 477Q25 485 25 496Q25 505 27.5 512Q30 519 34 526L77 614ZM202 614 157 521Q165 520 171.5 513.5Q178 507 178 496Q178 485 170.5 477Q163 469 152 469Q141 469 133.5 477Q126 485 126 496Q126 505 128.5 512Q131 519 135 526L178 614Z" glyph-name="quotedblleft" horiz-adv-x="222" unicode="&#8220;" /><glyph d="M121 477 166 570Q158 571 151.5 577.5Q145 584 145 595Q145 606 152.5 614Q160 622 171 622Q182 622 189.5 614Q197 606 197 595Q197 586 194.5 579Q192 572 188 565L145 477ZM20 477 65 570Q57 571 50.5 577.5Q44 584 44 595Q44 606 51.5 614Q59 622 70 622Q81 622 88.5 614Q96 606 96 595Q96 586 93.5 579Q91 572 87 565L44 477Z" glyph-name="quotedblright" horiz-adv-x="222" unicode="&#8221;" /><glyph d="M101 614 56 521Q64 520 70.5 513.5Q77 507 77 496Q77 485 69.5 477Q62 469 51 469Q40 469 32.5 477Q25 485 25 496Q25 505 27.5 512Q30 519 34 526L77 614Z" glyph-name="quoteleft" horiz-adv-x="121" unicode="&#8216;" /><glyph d="M20 477 65 570Q57 571 50.5 577.5Q44 584 44 595Q44 606 51.5 614Q59 622 70 622Q81 622 88.5 614Q96 606 96 595Q96 586 93.5 579Q91 572 87 565L44 477Z" glyph-name="quoteright" horiz-adv-x="121" unicode="&#8217;" /><glyph d="M20 -94 65 -1Q57 0 50.5 6.5Q44 13 44 24Q44 35 51.5 43Q59 51 70 51Q81 51 88.5 43Q96 35 96 24Q96 15 93.5 8Q91 1 87 -6L44 -94Z" glyph-name="quotesinglbase" horiz-adv-x="101" unicode="&#8218;" /><glyph d="M40 434V614H70V434Z" glyph-name="quotesingle" horiz-adv-x="110" unicode="&apos;" /><glyph d="M268 447V419Q261 421 252.5 422.5Q244 424 234 424Q190 424 157 394Q124 364 105 319V0H75V444H105V363Q121 400 155 426Q189 452 234 452Q245 452 253 450.5Q261 449 268 447Z" glyph-name="r" horiz-adv-x="286" unicode="r" /><glyph d="M268 447V419Q261 421 252.5 422.5Q244 424 234 424Q190 424 157 394Q124 364 105 319V0H75V444H105V363Q121 400 155 426Q189 452 234 452Q245 452 253 450.5Q261 449 268 447ZM183 523H150L235 650H268Z" glyph-name="racute" horiz-adv-x="286" unicode="&#341;" /><glyph d="M268 447V419Q261 421 252.5 422.5Q244 424 234 424Q190 424 157 394Q124 364 105 319V0H75V444H105V363Q121 400 155 426Q189 452 234 452Q245 452 253 450.5Q261 449 268 447ZM275 645 184 518H158L67 645H98L171 543L244 645Z" glyph-name="rcaron" horiz-adv-x="286" unicode="&#345;" /><glyph d="M268 447V419Q261 421 252.5 422.5Q244 424 234 424Q190 424 157 394Q124 364 105 319V0H75V444H105V363Q121 400 155 426Q189 452 234 452Q245 452 253 450.5Q261 449 268 447ZM49 -170 83 -100Q75 -99 68.5 -92.5Q62 -86 62 -75Q62 -64 69.5 -56Q77 -48 88 -48Q99 -48 106.5 -56Q114 -64 114 -75Q114 -84 111.5 -91Q109 -98 105 -105L73 -170Z" glyph-name="rcommaaccent" horiz-adv-x="286" unicode="&#343;" /><glyph d="M392 439Q392 360 338.5 308Q285 256 211 256Q137 256 83.5 308Q30 360 30 439Q30 518 83.5 570Q137 622 211 622Q285 622 338.5 570Q392 518 392 439ZM366 439Q366 507 320 551.5Q274 596 211 596Q148 596 102 551.5Q56 507 56 439Q56 371 102 326.5Q148 282 211 282Q274 282 320 326.5Q366 371 366 439ZM224 450Q240 450 249.5 459Q259 468 259 481Q259 494 249.5 503Q240 512 224 512H174V450ZM207 424H174V346H147V538H221Q250 538 268 523Q286 508 286 481Q286 458 272.5 443.5Q259 429 237 425L293 346H261Z" glyph-name="registered" horiz-adv-x="422" unicode="&#174;" /><glyph d="M327 580Q327 548 304.5 525.5Q282 503 250 503Q218 503 195.5 525.5Q173 548 173 580Q173 612 195.5 634.5Q218 657 250 657Q282 657 304.5 634.5Q327 612 327 580ZM302 580Q302 602 287 617Q272 632 250 632Q228 632 213 617Q198 602 198 580Q198 558 213 543Q228 528 250 528Q272 528 287 543Q302 558 302 580Z" glyph-name="ring" horiz-adv-x="500" unicode="&#730;" /><glyph d="M327 724Q327 692 304.5 669.5Q282 647 250 647Q218 647 195.5 669.5Q173 692 173 724Q173 756 195.5 778.5Q218 801 250 801Q282 801 304.5 778.5Q327 756 327 724ZM302 724Q302 746 287 761Q272 776 250 776Q228 776 213 761Q198 746 198 724Q198 702 213 687Q228 672 250 672Q272 672 287 687Q302 702 302 724Z" glyph-name="ring.cap" horiz-adv-x="500" /><glyph d="M40 34V71Q68 47 101.5 33.5Q135 20 179 20Q224 20 260.5 41.5Q297 63 297 112Q297 143 278 164Q259 185 223 198L139 230Q98 246 70 269.5Q42 293 42 341Q42 395 83.5 423.5Q125 452 181 452Q215 452 249.5 441.5Q284 431 310 412V376Q283 397 253 410.5Q223 424 181 424Q138 424 105.5 402.5Q73 381 73 341Q73 306 95 288.5Q117 271 156 256L241 223Q282 207 305 179.5Q328 152 328 112Q328 55 283.5 23.5Q239 -8 179 -8Q133 -8 97 5Q61 18 40 34Z" glyph-name="s" horiz-adv-x="373" unicode="s" /><glyph d="M40 34V71Q68 47 101.5 33.5Q135 20 179 20Q224 20 260.5 41.5Q297 63 297 112Q297 143 278 164Q259 185 223 198L139 230Q98 246 70 269.5Q42 293 42 341Q42 395 83.5 423.5Q125 452 181 452Q215 452 249.5 441.5Q284 431 310 412V376Q283 397 253 410.5Q223 424 181 424Q138 424 105.5 402.5Q73 381 73 341Q73 306 95 288.5Q117 271 156 256L241 223Q282 207 305 179.5Q328 152 328 112Q328 55 283.5 23.5Q239 -8 179 -8Q133 -8 97 5Q61 18 40 34ZM200 523H167L252 650H285Z" glyph-name="sacute" horiz-adv-x="373" unicode="&#347;" /><glyph d="M40 34V71Q68 47 101.5 33.5Q135 20 179 20Q224 20 260.5 41.5Q297 63 297 112Q297 143 278 164Q259 185 223 198L139 230Q98 246 70 269.5Q42 293 42 341Q42 395 83.5 423.5Q125 452 181 452Q215 452 249.5 441.5Q284 431 310 412V376Q283 397 253 410.5Q223 424 181 424Q138 424 105.5 402.5Q73 381 73 341Q73 306 95 288.5Q117 271 156 256L241 223Q282 207 305 179.5Q328 152 328 112Q328 55 283.5 23.5Q239 -8 179 -8Q133 -8 97 5Q61 18 40 34ZM292 645 201 518H175L84 645H115L188 543L261 645Z" glyph-name="scaron" horiz-adv-x="373" unicode="&#353;" /><glyph d="M40 34V71Q68 47 101.5 33.5Q135 20 179 20Q224 20 260.5 41.5Q297 63 297 112Q297 143 278 164Q259 185 223 198L139 230Q98 246 70 269.5Q42 293 42 341Q42 395 83.5 423.5Q125 452 181 452Q215 452 249.5 441.5Q284 431 310 412V376Q283 397 253 410.5Q223 424 181 424Q138 424 105.5 402.5Q73 381 73 341Q73 306 95 288.5Q117 271 156 256L241 223Q282 207 305 179.5Q328 152 328 112Q328 55 283.5 23.5Q239 -8 179 -8Q133 -8 97 5Q61 18 40 34ZM148 -170H119L174 -46H203Z" glyph-name="scedilla" horiz-adv-x="373" unicode="&#351;" /><glyph d="M40 34V71Q68 47 101.5 33.5Q135 20 179 20Q224 20 260.5 41.5Q297 63 297 112Q297 143 278 164Q259 185 223 198L139 230Q98 246 70 269.5Q42 293 42 341Q42 395 83.5 423.5Q125 452 181 452Q215 452 249.5 441.5Q284 431 310 412V376Q283 397 253 410.5Q223 424 181 424Q138 424 105.5 402.5Q73 381 73 341Q73 306 95 288.5Q117 271 156 256L241 223Q282 207 305 179.5Q328 152 328 112Q328 55 283.5 23.5Q239 -8 179 -8Q133 -8 97 5Q61 18 40 34ZM201 643 292 516H261L188 619L115 516H84L175 643Z" glyph-name="scircumflex" horiz-adv-x="373" unicode="&#349;" /><glyph d="M40 34V71Q68 47 101.5 33.5Q135 20 179 20Q224 20 260.5 41.5Q297 63 297 112Q297 143 278 164Q259 185 223 198L139 230Q98 246 70 269.5Q42 293 42 341Q42 395 83.5 423.5Q125 452 181 452Q215 452 249.5 441.5Q284 431 310 412V376Q283 397 253 410.5Q223 424 181 424Q138 424 105.5 402.5Q73 381 73 341Q73 306 95 288.5Q117 271 156 256L241 223Q282 207 305 179.5Q328 152 328 112Q328 55 283.5 23.5Q239 -8 179 -8Q133 -8 97 5Q61 18 40 34ZM144 -170 178 -100Q170 -99 163.5 -92.5Q157 -86 157 -75Q157 -64 164.5 -56Q172 -48 183 -48Q194 -48 201.5 -56Q209 -64 209 -75Q209 -84 206.5 -91Q204 -98 200 -105L168 -170Z" glyph-name="scommaaccent" horiz-adv-x="373" unicode="&#537;" /><glyph d="M310 281 124 409Q99 400 80 379Q61 358 61 324Q61 293 81 273.5Q101 254 132 233L318 105Q343 114 362 135Q381 156 381 190Q381 221 361 240.5Q341 260 310 281ZM106 431Q94 447 87.5 465.5Q81 484 81 508Q81 563 122.5 592.5Q164 622 220 622Q254 622 288.5 611.5Q323 601 349 582V546Q322 567 292 580.5Q262 594 220 594Q177 594 144.5 572.5Q112 551 112 508Q112 475 129 453.5Q146 432 180 408L328 306Q365 281 388.5 255.5Q412 230 412 190Q412 150 391 123Q370 96 336 83Q348 67 354.5 48.5Q361 30 361 6Q361 -49 319.5 -78.5Q278 -108 222 -108Q188 -108 153.5 -97.5Q119 -87 93 -68V-32Q120 -53 150 -66.5Q180 -80 222 -80Q265 -80 297.5 -58.5Q330 -37 330 6Q330 39 313 60.5Q296 82 262 106L114 208Q77 233 53.5 258.5Q30 284 30 324Q30 364 51 391Q72 418 106 431Z" glyph-name="section" horiz-adv-x="442" unicode="&#167;" /><glyph d="M7 -97 54 0Q46 1 39.5 7.5Q33 14 33 25Q33 36 40.5 44Q48 52 59 52Q70 52 77.5 44Q85 36 85 25Q85 16 82.5 9Q80 2 76 -5L31 -97ZM33 365Q33 376 41 384Q49 392 59 392Q69 392 77 384Q85 376 85 365Q85 354 77 346Q69 338 59 338Q49 338 41 346Q33 354 33 365Z" glyph-name="semicolon" horiz-adv-x="118" unicode=";" /><glyph d="M78 -97 125 0Q117 1 110.5 7.5Q104 14 104 25Q104 36 111.5 44Q119 52 130 52Q141 52 148.5 44Q156 36 156 25Q156 16 153.5 9Q151 2 147 -5L102 -97ZM104 365Q104 376 112 384Q120 392 130 392Q140 392 148 384Q156 376 156 365Q156 354 148 346Q140 338 130 338Q120 338 112 346Q104 354 104 365Z" glyph-name="semicolon.tab" horiz-adv-x="260" /><glyph d="M413 610 135 0H103L372 584H18V614H413Z" glyph-name="seven" horiz-adv-x="433" unicode="7" /><glyph d="M478 610 200 0H168L437 584H53V614H478Z" glyph-name="seven.lt" horiz-adv-x="520" /><glyph d="M238 -8Q156 -8 97 51Q38 110 38 196Q38 226 46 255.5Q54 285 76 325L241 614H273L129 363Q148 379 177.5 389.5Q207 400 238 400Q322 400 380.5 341.5Q439 283 439 196Q439 110 380.5 51Q322 -8 238 -8ZM409 196Q409 270 359 321Q309 372 238 372Q168 372 118 321Q68 270 68 196Q68 122 118 71.5Q168 21 238 21Q309 21 359 71.5Q409 122 409 196Z" glyph-name="six" horiz-adv-x="477" unicode="6" /><glyph d="M259 -8Q177 -8 118 51Q59 110 59 196Q59 226 67 255.5Q75 285 97 325L262 614H294L150 363Q169 379 198.5 389.5Q228 400 259 400Q343 400 401.5 341.5Q460 283 460 196Q460 110 401.5 51Q343 -8 259 -8ZM430 196Q430 270 380 321Q330 372 259 372Q189 372 139 321Q89 270 89 196Q89 122 139 71.5Q189 21 259 21Q330 21 380 71.5Q430 122 430 196Z" glyph-name="six.lt" horiz-adv-x="520" /><glyph d="M5 -84 253 650H282L34 -84Z" glyph-name="slash" horiz-adv-x="287" unicode="/" /><glyph d="M5 -64 253 670H282L34 -64Z" glyph-name="slash.cap" horiz-adv-x="287" /><glyph glyph-name="space" horiz-adv-x="221" unicode=" " /><glyph glyph-name="space.tab" horiz-adv-x="260" /><glyph d="M436 30V0H32V30H100Q111 48 118.5 68Q126 88 126 121V288H32V316H126V408Q126 505 172.5 563.5Q219 622 312 622Q344 622 373 614Q402 606 421 593V562Q400 575 373 584Q346 593 312 593Q231 593 193.5 542.5Q156 492 156 409V316H336V288H156V121Q156 95 149 70Q142 45 131 30Z" glyph-name="sterling" horiz-adv-x="467" unicode="&#163;" /><glyph d="M462 30V0H58V30H126Q137 48 144.5 68Q152 88 152 121V288H58V316H152V408Q152 505 198.5 563.5Q245 622 338 622Q370 622 399 614Q428 606 447 593V562Q426 575 399 584Q372 593 338 593Q257 593 219.5 542.5Q182 492 182 409V316H362V288H182V121Q182 95 175 70Q168 45 157 30Z" glyph-name="sterling.lt" horiz-adv-x="520" /><glyph d="M147 416V0H117V416H20V444H117V556H147V444H254V416Z" glyph-name="t" horiz-adv-x="274" unicode="t" /><glyph d="M231 257H147V0H117V257H38V284H117V416H20V444H117V556H147V444H254V416H147V284H231Z" glyph-name="tbar" horiz-adv-x="274" unicode="&#359;" /><glyph d="M147 416V0H117V416H20V444H117V556H147V444H254V416ZM229 503H203L235 660H261Z" glyph-name="tcaron" horiz-adv-x="274" unicode="&#357;" /><glyph d="M147 416V0H117V416H20V444H117V556H147V444H254V416ZM91 -170 125 -100Q117 -99 110.5 -92.5Q104 -86 104 -75Q104 -64 111.5 -56Q119 -48 130 -48Q141 -48 148.5 -56Q156 -64 156 -75Q156 -84 153.5 -91Q151 -98 147 -105L115 -170Z" glyph-name="tcommaaccent" horiz-adv-x="274" unicode="&#355;" /><glyph d="M105 324V120Q131 71 170 46Q209 21 253 21Q328 21 369.5 78Q411 135 411 222Q411 309 369.5 366Q328 423 253 423Q209 423 170 398Q131 373 105 324ZM105 77V-170H75V650H105V367Q125 400 164.5 426Q204 452 253 452Q351 452 396.5 382Q442 312 442 222Q442 132 396.5 62Q351 -8 253 -8Q204 -8 164.5 18Q125 44 105 77Z" glyph-name="thorn" horiz-adv-x="484" unicode="&#254;" /><glyph d="M31 584V614H392V610L198 370Q276 369 336 318.5Q396 268 396 181Q396 96 336.5 44Q277 -8 193 -8Q139 -8 99.5 6Q60 20 31 42V83Q64 50 105.5 35.5Q147 21 193 21Q264 21 315 65.5Q366 110 366 181Q366 263 302 307.5Q238 352 145 342V346L334 584Z" glyph-name="three" horiz-adv-x="435" unicode="3" /><glyph d="M57 584V614H433V610L231 370Q312 369 374.5 318.5Q437 268 437 181Q437 96 375 44Q313 -8 226 -8Q169 -8 128.5 6Q88 20 57 42V83Q91 50 134.5 35.5Q178 21 226 21Q300 21 353.5 65.5Q407 110 407 181Q407 263 340 307.5Q273 352 177 342V346L373 584Z" glyph-name="three.lt" horiz-adv-x="520" /><glyph d="M548 614 139 0H109L518 614ZM53 587V614H246V612L154 483Q193 480 221 453.5Q249 427 249 384Q249 338 217 309.5Q185 281 140 281Q110 281 89 288.5Q68 296 52 308V342Q70 325 92 316.5Q114 308 139 308Q173 308 197 328.5Q221 349 221 384Q221 424 189.5 445Q158 466 112 462V464L200 587ZM507 328 404 105H518V186H546V105H606V79H546V0H518V79H363V82L478 328Z" glyph-name="threequarters" horiz-adv-x="656" unicode="&#190;" /><glyph d="M27 588V615H220V613L128 484Q167 481 195 454.5Q223 428 223 385Q223 339 191 310.5Q159 282 114 282Q84 282 63 289.5Q42 297 26 309V343Q44 326 66 317.5Q88 309 113 309Q147 309 171 329.5Q195 350 195 385Q195 425 163.5 446Q132 467 86 463V465L174 588Z" glyph-name="threesuperior" horiz-adv-x="253" unicode="&#179;" /><glyph d="M342 619H368Q368 576 352 550Q336 524 305 524Q265 524 244 559Q223 594 195 594Q176 594 166.5 575.5Q157 557 157 527H131Q131 570 147 596Q163 622 194 622Q234 622 255 587Q276 552 304 552Q323 552 332.5 570.5Q342 589 342 619Z" glyph-name="tilde" horiz-adv-x="500" unicode="&#732;" /><glyph d="M342 759H368Q368 716 352 690Q336 664 305 664Q265 664 244 699Q223 734 195 734Q176 734 166.5 715.5Q157 697 157 667H131Q131 710 147 736Q163 762 194 762Q234 762 255 727Q276 692 304 692Q323 692 332.5 710.5Q342 729 342 759Z" glyph-name="tilde.cap" horiz-adv-x="500" /><glyph d="M15 590V614H221V590H132V360H104V590ZM388 422H384L297 562V360H269V614H295L386 466L477 614H501V360H473V562Z" glyph-name="trademark" horiz-adv-x="551" unicode="&#8482;" /><glyph d="M80 30H400V0H20V4L226 239Q277 297 313.5 346.5Q350 396 350 461Q350 520 313.5 556.5Q277 593 208 593Q156 593 111 567.5Q66 542 34 508V545Q64 576 109 599Q154 622 208 622Q291 622 335.5 577.5Q380 533 380 461Q380 389 340 333.5Q300 278 243 215Z" glyph-name="two" horiz-adv-x="435" unicode="2" /><glyph d="M120 30H447V0H60V4L266 239Q317 297 353.5 346.5Q390 396 390 461Q390 520 353.5 556.5Q317 593 248 593Q196 593 151 567.5Q106 542 74 508V545Q104 576 149 599Q194 622 248 622Q331 622 375.5 577.5Q420 533 420 461Q420 389 380 333.5Q340 278 283 215Z" glyph-name="two.lt" horiz-adv-x="520" /><glyph d="M74 314H227V287H21V289L126 414Q152 445 170.5 471Q189 497 189 529Q189 557 172 575Q155 593 121 593Q93 593 69 579Q45 565 28 547V579Q44 596 69 608Q94 620 123 620Q168 620 193 595Q218 570 218 530Q218 493 197 463Q176 433 148 399Z" glyph-name="twosuperior" horiz-adv-x="255" unicode="&#178;" /><glyph d="M402 444V0H372V82Q351 46 312 19Q273 -8 223 -8Q148 -8 109 35.5Q70 79 70 148V444H100V152Q100 96 130 58.5Q160 21 225 21Q276 21 314.5 52.5Q353 84 372 126V444Z" glyph-name="u" horiz-adv-x="477" unicode="u" /><glyph d="M402 444V0H372V82Q351 46 312 19Q273 -8 223 -8Q148 -8 109 35.5Q70 79 70 148V444H100V152Q100 96 130 58.5Q160 21 225 21Q276 21 314.5 52.5Q353 84 372 126V444ZM248 523H215L300 650H333Z" glyph-name="uacute" horiz-adv-x="477" unicode="&#250;" /><glyph d="M402 444V0H372V82Q351 46 312 19Q273 -8 223 -8Q148 -8 109 35.5Q70 79 70 148V444H100V152Q100 96 130 58.5Q160 21 225 21Q276 21 314.5 52.5Q353 84 372 126V444ZM236 510Q196 510 169.5 539.5Q143 569 143 624H170Q170 581 189 558Q208 535 236 535Q264 535 283 558Q302 581 302 624H329Q329 569 302.5 539.5Q276 510 236 510Z" glyph-name="ubreve" horiz-adv-x="477" unicode="&#365;" /><glyph d="M402 444V0H372V82Q351 46 312 19Q273 -8 223 -8Q148 -8 109 35.5Q70 79 70 148V444H100V152Q100 96 130 58.5Q160 21 225 21Q276 21 314.5 52.5Q353 84 372 126V444ZM249 643 340 516H309L236 619L163 516H132L223 643Z" glyph-name="ucircumflex" horiz-adv-x="477" unicode="&#251;" /><glyph d="M402 444V0H372V82Q351 46 312 19Q273 -8 223 -8Q148 -8 109 35.5Q70 79 70 148V444H100V152Q100 96 130 58.5Q160 21 225 21Q276 21 314.5 52.5Q353 84 372 126V444ZM270 570Q270 580 276.5 586.5Q283 593 293 593Q303 593 309.5 586.5Q316 580 316 570Q316 560 309.5 553.5Q303 547 293 547Q283 547 276.5 553.5Q270 560 270 570ZM156 570Q156 580 162.5 586.5Q169 593 179 593Q189 593 195.5 586.5Q202 580 202 570Q202 560 195.5 553.5Q189 547 179 547Q169 547 162.5 553.5Q156 560 156 570Z" glyph-name="udieresis" horiz-adv-x="477" unicode="&#252;" /><glyph d="M402 444V0H372V82Q351 46 312 19Q273 -8 223 -8Q148 -8 109 35.5Q70 79 70 148V444H100V152Q100 96 130 58.5Q160 21 225 21Q276 21 314.5 52.5Q353 84 372 126V444ZM253 523H220L135 650H168Z" glyph-name="ugrave" horiz-adv-x="477" unicode="&#249;" /><glyph d="M402 444V0H372V82Q351 46 312 19Q273 -8 223 -8Q148 -8 109 35.5Q70 79 70 148V444H100V152Q100 96 130 58.5Q160 21 225 21Q276 21 314.5 52.5Q353 84 372 126V444ZM302 523H271L350 650H381ZM199 523H168L247 650H278Z" glyph-name="uhungarumlaut" horiz-adv-x="477" unicode="&#369;" /><glyph d="M402 444V0H372V82Q351 46 312 19Q273 -8 223 -8Q148 -8 109 35.5Q70 79 70 148V444H100V152Q100 96 130 58.5Q160 21 225 21Q276 21 314.5 52.5Q353 84 372 126V444ZM140 542V569H333V542Z" glyph-name="umacron" horiz-adv-x="477" unicode="&#363;" /><glyph d="M20 -73V-42H321V-73Z" glyph-name="underscore" horiz-adv-x="341" unicode="_" /><glyph d="M166 616V287H137V580L52 536V567L148 616ZM518 614 109 0H79L488 614ZM393 301V328H586V326L494 197Q533 194 561 167.5Q589 141 589 98Q589 52 557 23.5Q525 -5 480 -5Q450 -5 429 2.5Q408 10 392 22V56Q410 39 432 30.5Q454 22 479 22Q513 22 537 42.5Q561 63 561 98Q561 138 529.5 159Q498 180 452 176V178L540 301Z" glyph-name="uni2153" horiz-adv-x="645" unicode="&#8531;" /><glyph d="M100 312H253V285H47V287L152 412Q178 443 196.5 469Q215 495 215 527Q215 555 198 573Q181 591 147 591Q119 591 95 577Q71 563 54 545V577Q70 594 95 606Q120 618 149 618Q194 618 219 593Q244 568 244 528Q244 491 223 461Q202 431 174 397ZM567 614 158 0H128L537 614ZM442 301V328H635V326L543 197Q582 194 610 167.5Q638 141 638 98Q638 52 606 23.5Q574 -5 529 -5Q499 -5 478 2.5Q457 10 441 22V56Q459 39 481 30.5Q503 22 528 22Q562 22 586 42.5Q610 63 610 98Q610 138 578.5 159Q547 180 501 176V178L589 301Z" glyph-name="uni2154" horiz-adv-x="694" unicode="&#8532;" /><glyph d="M166 616V287H137V580L52 536V567L148 616ZM518 614 109 0H79L488 614ZM476 -5Q428 -5 396.5 22Q365 49 365 90Q365 121 384 144Q403 167 432 174Q408 183 393 203Q378 223 378 248Q378 285 405.5 309Q433 333 476 333Q518 333 545.5 309Q573 285 573 248Q573 223 558 203Q543 183 519 174Q548 167 567 144Q586 121 586 90Q586 49 554.5 22Q523 -5 476 -5ZM476 187Q506 187 525.5 204.5Q545 222 545 247Q545 272 525.5 290Q506 308 476 308Q445 308 425.5 290Q406 272 406 247Q406 222 425.5 204.5Q445 187 476 187ZM476 20Q512 20 535 40.5Q558 61 558 91Q558 121 535 141.5Q512 162 476 162Q439 162 416.5 141.5Q394 121 394 91Q394 61 416.5 40.5Q439 20 476 20Z" glyph-name="uni215B" horiz-adv-x="638" unicode="&#8539;" /><glyph d="M548 614 139 0H109L518 614ZM53 587V614H246V612L154 483Q193 480 221 453.5Q249 427 249 384Q249 338 217 309.5Q185 281 140 281Q110 281 89 288.5Q68 296 52 308V342Q70 325 92 316.5Q114 308 139 308Q173 308 197 328.5Q221 349 221 384Q221 424 189.5 445Q158 466 112 462V464L200 587ZM506 -5Q458 -5 426.5 22Q395 49 395 90Q395 121 414 144Q433 167 462 174Q438 183 423 203Q408 223 408 248Q408 285 435.5 309Q463 333 506 333Q548 333 575.5 309Q603 285 603 248Q603 223 588 203Q573 183 549 174Q578 167 597 144Q616 121 616 90Q616 49 584.5 22Q553 -5 506 -5ZM506 187Q536 187 555.5 204.5Q575 222 575 247Q575 272 555.5 290Q536 308 506 308Q475 308 455.5 290Q436 272 436 247Q436 222 455.5 204.5Q475 187 506 187ZM506 20Q542 20 565 40.5Q588 61 588 91Q588 121 565 141.5Q542 162 506 162Q469 162 446.5 141.5Q424 121 424 91Q424 61 446.5 40.5Q469 20 506 20Z" glyph-name="uni215C" horiz-adv-x="668" unicode="&#8540;" /><glyph d="M548 614 139 0H109L518 614ZM140 489Q186 489 219 461.5Q252 434 252 386Q252 338 219 310Q186 282 139 282Q111 282 90 289.5Q69 297 53 309V343Q71 326 92.5 317.5Q114 309 138 309Q173 309 198.5 330Q224 351 224 386Q224 421 198.5 442Q173 463 138 463Q114 463 99 458.5Q84 454 69 447V615H234V588H94V482Q102 485 114 487Q126 489 140 489ZM506 -5Q458 -5 426.5 22Q395 49 395 90Q395 121 414 144Q433 167 462 174Q438 183 423 203Q408 223 408 248Q408 285 435.5 309Q463 333 506 333Q548 333 575.5 309Q603 285 603 248Q603 223 588 203Q573 183 549 174Q578 167 597 144Q616 121 616 90Q616 49 584.5 22Q553 -5 506 -5ZM506 187Q536 187 555.5 204.5Q575 222 575 247Q575 272 555.5 290Q536 308 506 308Q475 308 455.5 290Q436 272 436 247Q436 222 455.5 204.5Q475 187 506 187ZM506 20Q542 20 565 40.5Q588 61 588 91Q588 121 565 141.5Q542 162 506 162Q469 162 446.5 141.5Q424 121 424 91Q424 61 446.5 40.5Q469 20 506 20Z" glyph-name="uni215D" horiz-adv-x="668" unicode="&#8541;" /><glyph d="M262 612 113 286H83L221 587H46V614H262ZM498 614 89 0H59L468 614ZM456 -5Q408 -5 376.5 22Q345 49 345 90Q345 121 364 144Q383 167 412 174Q388 183 373 203Q358 223 358 248Q358 285 385.5 309Q413 333 456 333Q498 333 525.5 309Q553 285 553 248Q553 223 538 203Q523 183 499 174Q528 167 547 144Q566 121 566 90Q566 49 534.5 22Q503 -5 456 -5ZM456 187Q486 187 505.5 204.5Q525 222 525 247Q525 272 505.5 290Q486 308 456 308Q425 308 405.5 290Q386 272 386 247Q386 222 405.5 204.5Q425 187 456 187ZM456 20Q492 20 515 40.5Q538 61 538 91Q538 121 515 141.5Q492 162 456 162Q419 162 396.5 141.5Q374 121 374 91Q374 61 396.5 40.5Q419 20 456 20Z" glyph-name="uni215E" horiz-adv-x="618" unicode="&#8542;" /><glyph d="M402 444V0Q371 -55 361.5 -80Q352 -105 352 -124Q352 -140 359.5 -147.5Q367 -155 378 -155Q389 -155 397.5 -151.5Q406 -148 415 -141V-166Q406 -173 396.5 -176Q387 -179 376 -179Q356 -179 340.5 -166Q325 -153 325 -124Q325 -102 335.5 -75.5Q346 -49 374 0H372V82Q351 46 312 19Q273 -8 223 -8Q148 -8 109 35.5Q70 79 70 148V444H100V152Q100 96 130 58.5Q160 21 225 21Q276 21 314.5 52.5Q353 84 372 126V444Z" glyph-name="uogonek" horiz-adv-x="477" unicode="&#371;" /><glyph d="M402 444V0H372V82Q351 46 312 19Q273 -8 223 -8Q148 -8 109 35.5Q70 79 70 148V444H100V152Q100 96 130 58.5Q160 21 225 21Q276 21 314.5 52.5Q353 84 372 126V444ZM313 580Q313 548 290.5 525.5Q268 503 236 503Q204 503 181.5 525.5Q159 548 159 580Q159 612 181.5 634.5Q204 657 236 657Q268 657 290.5 634.5Q313 612 313 580ZM288 580Q288 602 273 617Q258 632 236 632Q214 632 199 617Q184 602 184 580Q184 558 199 543Q214 528 236 528Q258 528 273 543Q288 558 288 580Z" glyph-name="uring" horiz-adv-x="477" unicode="&#367;" /><glyph d="M402 444V0H372V82Q351 46 312 19Q273 -8 223 -8Q148 -8 109 35.5Q70 79 70 148V444H100V152Q100 96 130 58.5Q160 21 225 21Q276 21 314.5 52.5Q353 84 372 126V444ZM329 619H355Q355 576 339 550Q323 524 292 524Q252 524 231 559Q210 594 182 594Q163 594 153.5 575.5Q144 557 144 527H118Q118 570 134 596Q150 622 181 622Q221 622 242 587Q263 552 291 552Q310 552 319.5 570.5Q329 589 329 619Z" glyph-name="utilde" horiz-adv-x="477" unicode="&#361;" /><glyph d="M218 0H198L18 444H50L208 50L366 444H398Z" glyph-name="v" horiz-adv-x="416" unicode="v" /><glyph d="M304 444 420 59 539 444H568L432 0H411L293 389L175 0H154L18 444H47L166 59L282 444Z" glyph-name="w" horiz-adv-x="586" unicode="w" /><glyph d="M304 444 420 59 539 444H568L432 0H411L293 389L175 0H154L18 444H47L166 59L282 444ZM305 523H272L357 650H390Z" glyph-name="wacute" horiz-adv-x="586" unicode="&#7811;" /><glyph d="M304 444 420 59 539 444H568L432 0H411L293 389L175 0H154L18 444H47L166 59L282 444ZM306 643 397 516H366L293 619L220 516H189L280 643Z" glyph-name="wcircumflex" horiz-adv-x="586" unicode="&#373;" /><glyph d="M304 444 420 59 539 444H568L432 0H411L293 389L175 0H154L18 444H47L166 59L282 444ZM327 570Q327 580 333.5 586.5Q340 593 350 593Q360 593 366.5 586.5Q373 580 373 570Q373 560 366.5 553.5Q360 547 350 547Q340 547 333.5 553.5Q327 560 327 570ZM213 570Q213 580 219.5 586.5Q226 593 236 593Q246 593 252.5 586.5Q259 580 259 570Q259 560 252.5 553.5Q246 547 236 547Q226 547 219.5 553.5Q213 560 213 570Z" glyph-name="wdieresis" horiz-adv-x="586" unicode="&#7813;" /><glyph d="M304 444 420 59 539 444H568L432 0H411L293 389L175 0H154L18 444H47L166 59L282 444ZM310 523H277L192 650H225Z" glyph-name="wgrave" horiz-adv-x="586" unicode="&#7809;" /><glyph d="M385 444 226 226 390 0H356L209 202L61 0H28L192 225L33 444H67L209 248L352 444Z" glyph-name="x" horiz-adv-x="418" unicode="x" /><glyph d="M149 -170H118L193 13L18 444H51L208 50L366 444H398Z" glyph-name="y" horiz-adv-x="416" unicode="y" /><glyph d="M149 -170H118L193 13L18 444H51L208 50L366 444H398ZM220 523H187L272 650H305Z" glyph-name="yacute" horiz-adv-x="416" unicode="&#253;" /><glyph d="M149 -170H118L193 13L18 444H51L208 50L366 444H398ZM221 643 312 516H281L208 619L135 516H104L195 643Z" glyph-name="ycircumflex" horiz-adv-x="416" unicode="&#375;" /><glyph d="M149 -170H118L193 13L18 444H51L208 50L366 444H398ZM242 570Q242 580 248.5 586.5Q255 593 265 593Q275 593 281.5 586.5Q288 580 288 570Q288 560 281.5 553.5Q275 547 265 547Q255 547 248.5 553.5Q242 560 242 570ZM128 570Q128 580 134.5 586.5Q141 593 151 593Q161 593 167.5 586.5Q174 580 174 570Q174 560 167.5 553.5Q161 547 151 547Q141 547 134.5 553.5Q128 560 128 570Z" glyph-name="ydieresis" horiz-adv-x="416" unicode="&#255;" /><glyph d="M424 151H267V0H236V151H79V178H236V261H79V288H236L32 614H67L252 316L437 614H471L267 288H424V261H267V178H424Z" glyph-name="yen" horiz-adv-x="503" unicode="&#165;" /><glyph d="M432 151H275V0H244V151H87V178H244V261H87V288H244L40 614H75L260 316L445 614H479L275 288H432V261H275V178H432Z" glyph-name="yen.lt" horiz-adv-x="520" /><glyph d="M149 -170H118L193 13L18 444H51L208 50L366 444H398ZM225 523H192L107 650H140Z" glyph-name="ygrave" horiz-adv-x="416" unicode="&#7923;" /><glyph d="M372 28V0H38V4L323 416H50V444H373V440L89 28Z" glyph-name="z" horiz-adv-x="411" unicode="z" /><glyph d="M372 28V0H38V4L323 416H50V444H373V440L89 28ZM217 523H184L269 650H302Z" glyph-name="zacute" horiz-adv-x="411" unicode="&#378;" /><glyph d="M372 28V0H38V4L323 416H50V444H373V440L89 28ZM309 645 218 518H192L101 645H132L205 543L278 645Z" glyph-name="zcaron" horiz-adv-x="411" unicode="&#382;" /><glyph d="M372 28V0H38V4L323 416H50V444H373V440L89 28ZM228 579Q228 569 221.5 562Q215 555 205 555Q195 555 188.5 562Q182 569 182 579Q182 589 188.5 596Q195 603 205 603Q215 603 221.5 596Q228 589 228 579Z" glyph-name="zdotaccent" horiz-adv-x="411" unicode="&#380;" /><glyph d="M267 -8Q167 -8 105.5 79.5Q44 167 44 307Q44 447 105.5 534.5Q167 622 267 622Q367 622 428.5 534.5Q490 447 490 307Q490 167 428.5 79.5Q367 -8 267 -8ZM267 593Q180 593 127.5 513Q75 433 75 307Q75 181 127.5 101Q180 21 267 21Q354 21 406.5 101Q459 181 459 307Q459 433 406.5 513Q354 593 267 593Z" glyph-name="zero" horiz-adv-x="534" unicode="0" /><glyph d="M260 -8Q160 -8 99.5 79.5Q39 167 39 307Q39 447 99.5 534.5Q160 622 260 622Q360 622 420.5 534.5Q481 447 481 307Q481 167 420.5 79.5Q360 -8 260 -8ZM260 593Q173 593 121.5 513Q70 433 70 307Q70 181 121.5 101Q173 21 260 21Q347 21 398.5 101Q450 181 450 307Q450 433 398.5 513Q347 593 260 593Z" glyph-name="zero.lt" horiz-adv-x="520" /></font>
</defs>
</svg>
