<?xml version="1.0" standalone="no"?><!DOCTYPE svg PUBLIC "-//W3C//DTD SVG 1.1//EN" "http://www.w3.org/Graphics/SVG/1.1/DTD/svg11.dtd" ><svg version="1.1" xmlns="http://www.w3.org/2000/svg"><defs><font horiz-adv-x="0" id="font"><font-face ascent="750" bbox="-120 -201 908 894" cap-height="614" descent="-250" font-family="Copyright Klim Type Foundry" font-stretch="normal" font-style="normal" font-weight="400" units-per-em="1000" x-height="444" /><missing-glyph horiz-adv-x="608" /><glyph glyph-name=".null" horiz-adv-x="0" /><glyph d="M297 516 197 254H398ZM495 0 424 185H171L101 0H21L261 614H335L575 0Z" glyph-name="A" horiz-adv-x="596" unicode="A" /><glyph d="M437 550 257 254H437ZM437 0V185H215L103 0H21L390 614H811V544H514V350H782V280H514V71H811V0Z" glyph-name="AE" horiz-adv-x="862" unicode="&#198;" /><glyph d="M620 668H544L624 785H711ZM437 550 257 254H437ZM437 0V185H215L103 0H21L390 614H811V544H514V350H782V280H514V71H811V0Z" glyph-name="AEacute" horiz-adv-x="862" unicode="&#508;" /><glyph d="M297 516 197 254H398ZM495 0 424 185H171L101 0H21L261 614H335L575 0ZM333 668H257L337 785H424Z" glyph-name="Aacute" horiz-adv-x="596" unicode="&#193;" /><glyph d="M297 516 197 254H398ZM495 0 424 185H171L101 0H21L261 614H335L575 0ZM298 666Q247 666 215 697Q183 728 183 786H240Q240 754 256.5 738Q273 722 298 722Q324 722 340.5 738Q357 754 357 786H414Q414 728 382 697Q350 666 298 666Z" glyph-name="Abreve" horiz-adv-x="596" unicode="&#258;" /><glyph d="M297 516 197 254H398ZM495 0 424 185H171L101 0H21L261 614H335L575 0ZM333 791 425 669H357L298 740L239 669H171L263 791Z" glyph-name="Acircumflex" horiz-adv-x="596" unicode="&#194;" /><glyph d="M297 516 197 254H398ZM495 0 424 185H171L101 0H21L261 614H335L575 0ZM323 722Q323 741 336 754.5Q349 768 368 768Q387 768 401 754.5Q415 741 415 722Q415 703 401 689.5Q387 676 368 676Q349 676 336 689.5Q323 703 323 722ZM182 722Q182 741 196 754.5Q210 768 229 768Q248 768 261.5 754.5Q275 741 275 722Q275 703 261.5 689.5Q248 676 229 676Q210 676 196 689.5Q182 703 182 722Z" glyph-name="Adieresis" horiz-adv-x="596" unicode="&#196;" /><glyph d="M297 516 197 254H398ZM495 0 424 185H171L101 0H21L261 614H335L575 0ZM337 668H262L170 785H257Z" glyph-name="Agrave" horiz-adv-x="596" unicode="&#192;" /><glyph d="M297 516 197 254H398ZM495 0 424 185H171L101 0H21L261 614H335L575 0ZM192 671V732H405V671Z" glyph-name="Amacron" horiz-adv-x="596" unicode="&#256;" /><glyph d="M261 614H335L575 0Q545 -49 535 -68.5Q525 -88 525 -106Q525 -119 531.5 -125.5Q538 -132 548 -132Q558 -132 566 -128Q574 -124 585 -117V-167Q574 -175 561.5 -180.5Q549 -186 533 -186Q501 -186 483.5 -168Q466 -150 466 -120Q466 -92 480.5 -65Q495 -38 519 0H495L424 185H171L101 0H21ZM297 516 197 254H398Z" glyph-name="Aogonek" horiz-adv-x="596" unicode="&#260;" /><glyph d="M297 516 197 254H398ZM495 0 424 185H171L101 0H21L261 614H335L575 0ZM385 734Q385 698 360 673Q335 648 298 648Q261 648 236 673Q211 698 211 734Q211 771 236 796Q261 821 298 821Q335 821 360 796Q385 771 385 734ZM343 734Q343 753 330 766.5Q317 780 298 780Q279 780 266 766.5Q253 753 253 734Q253 715 266 702Q279 689 298 689Q317 689 330 702Q343 715 343 734Z" glyph-name="Aring" horiz-adv-x="596" unicode="&#197;" /><glyph d="M339 808H265L320 894H406ZM386 711Q386 680 360 658.5Q334 637 297 637Q260 637 234.5 658.5Q209 680 209 711Q209 742 234.5 763.5Q260 785 297 785Q334 785 360 763.5Q386 742 386 711ZM344 711Q344 727 330 737Q316 747 297 747Q278 747 264.5 737Q251 727 251 711Q251 695 264.5 685Q278 675 297 675Q316 675 330 685Q344 695 344 711ZM297 516 197 254H398ZM495 0 424 185H171L101 0H21L261 614H335L575 0Z" glyph-name="Aringacute" horiz-adv-x="596" unicode="&#506;" /><glyph d="M297 516 197 254H398ZM495 0 424 185H171L101 0H21L261 614H335L575 0ZM384 784H432Q432 731 412.5 698Q393 665 356 665Q319 665 296 693Q273 721 246 721Q229 721 220.5 707Q212 693 212 668H163Q163 721 182.5 754Q202 787 239 787Q276 787 299 759Q322 731 350 731Q366 731 374.5 745Q383 759 384 784Z" glyph-name="Atilde" horiz-adv-x="596" unicode="&#195;" /><glyph d="M388 318Q437 305 468 264.5Q499 224 499 173Q499 89 444 44.5Q389 0 295 0H73V614H275Q370 614 424 572Q478 530 478 451Q478 397 451 363Q424 329 388 318ZM150 347H275Q336 347 369 372Q402 397 402 447Q402 497 369 521Q336 545 275 545H150ZM150 281V69H295Q357 69 389.5 98Q422 127 422 175Q422 224 389.5 252.5Q357 281 295 281Z" glyph-name="B" horiz-adv-x="538" unicode="B" /><glyph d="M37 307Q37 450 120 536.5Q203 623 325 623Q378 623 419 609Q460 595 490 570V487Q453 521 413 536.5Q373 552 326 552Q233 552 174.5 484.5Q116 417 116 307Q116 197 174.5 129.5Q233 62 326 62Q373 62 413 77.5Q453 93 490 127V44Q460 19 419 5Q378 -9 325 -9Q203 -9 120 77.5Q37 164 37 307Z" glyph-name="C" horiz-adv-x="540" unicode="C" /><glyph d="M37 307Q37 450 120 536.5Q203 623 325 623Q378 623 419 609Q460 595 490 570V487Q453 521 413 536.5Q373 552 326 552Q233 552 174.5 484.5Q116 417 116 307Q116 197 174.5 129.5Q233 62 326 62Q373 62 413 77.5Q453 93 490 127V44Q460 19 419 5Q378 -9 325 -9Q203 -9 120 77.5Q37 164 37 307ZM358 668H282L362 785H449Z" glyph-name="Cacute" horiz-adv-x="540" unicode="&#262;" /><glyph d="M37 307Q37 450 120 536.5Q203 623 325 623Q378 623 419 609Q460 595 490 570V487Q453 521 413 536.5Q373 552 326 552Q233 552 174.5 484.5Q116 417 116 307Q116 197 174.5 129.5Q233 62 326 62Q373 62 413 77.5Q453 93 490 127V44Q460 19 419 5Q378 -9 325 -9Q203 -9 120 77.5Q37 164 37 307ZM291 666 199 787H267L326 716L385 787H453L361 666Z" glyph-name="Ccaron" horiz-adv-x="540" unicode="&#268;" /><glyph d="M37 307Q37 450 120 536.5Q203 623 325 623Q378 623 419 609Q460 595 490 570V487Q453 521 413 536.5Q373 552 326 552Q233 552 174.5 484.5Q116 417 116 307Q116 197 174.5 129.5Q233 62 326 62Q373 62 413 77.5Q453 93 490 127V44Q460 19 419 5Q378 -9 325 -9Q203 -9 120 77.5Q37 164 37 307ZM295 -183H224L290 -51H364Z" glyph-name="Ccedilla" horiz-adv-x="540" unicode="&#199;" /><glyph d="M37 307Q37 450 120 536.5Q203 623 325 623Q378 623 419 609Q460 595 490 570V487Q453 521 413 536.5Q373 552 326 552Q233 552 174.5 484.5Q116 417 116 307Q116 197 174.5 129.5Q233 62 326 62Q373 62 413 77.5Q453 93 490 127V44Q460 19 419 5Q378 -9 325 -9Q203 -9 120 77.5Q37 164 37 307ZM361 791 453 669H385L326 740L267 669H199L291 791Z" glyph-name="Ccircumflex" horiz-adv-x="540" unicode="&#264;" /><glyph d="M371 721Q371 702 356.5 687.5Q342 673 323 673Q304 673 289.5 687.5Q275 702 275 721Q275 741 289.5 755.5Q304 770 323 770Q342 770 356.5 755.5Q371 741 371 721ZM37 307Q37 450 120 536.5Q203 623 325 623Q378 623 419 609Q460 595 490 570V487Q453 521 413 536.5Q373 552 326 552Q233 552 174.5 484.5Q116 417 116 307Q116 197 174.5 129.5Q233 62 326 62Q373 62 413 77.5Q453 93 490 127V44Q460 19 419 5Q378 -9 325 -9Q203 -9 120 77.5Q37 164 37 307Z" glyph-name="Cdotaccent" horiz-adv-x="540" unicode="&#266;" /><glyph d="M73 0V614H270Q404 614 486 530.5Q568 447 568 307Q568 167 486 83.5Q404 0 270 0ZM152 71H269Q373 71 431.5 135.5Q490 200 490 307Q490 414 431.5 479Q373 544 269 544H152Z" glyph-name="D" horiz-adv-x="605" unicode="D" /><glyph d="M245 666 153 787H221L280 716L339 787H407L315 666ZM73 0V614H270Q404 614 486 530.5Q568 447 568 307Q568 167 486 83.5Q404 0 270 0ZM152 71H269Q373 71 431.5 135.5Q490 200 490 307Q490 414 431.5 479Q373 544 269 544H152Z" glyph-name="Dcaron" horiz-adv-x="605" unicode="&#270;" /><glyph d="M285 0H88V284H32V351H88V614H285Q419 614 501 530.5Q583 447 583 307Q583 167 501 83.5Q419 0 285 0ZM167 71H284Q388 71 446.5 135.5Q505 200 505 307Q505 414 446.5 479Q388 544 284 544H167V351H290V284H167Z" glyph-name="Dcroat" horiz-adv-x="620" unicode="&#272;" /><glyph d="M73 614H464V544H151V350H435V280H151V71H464V0H73Z" glyph-name="E" horiz-adv-x="515" unicode="E" /><glyph d="M305 668H229L309 785H396ZM73 614H464V544H151V350H435V280H151V71H464V0H73Z" glyph-name="Eacute" horiz-adv-x="515" unicode="&#201;" /><glyph d="M273 666Q222 666 190 697Q158 728 158 786H215Q215 754 231.5 738Q248 722 273 722Q299 722 315.5 738Q332 754 332 786H389Q389 728 357 697Q325 666 273 666ZM73 614H464V544H151V350H435V280H151V71H464V0H73Z" glyph-name="Ebreve" horiz-adv-x="515" unicode="&#276;" /><glyph d="M238 666 146 787H214L273 716L332 787H400L308 666ZM73 614H464V544H151V350H435V280H151V71H464V0H73Z" glyph-name="Ecaron" horiz-adv-x="515" unicode="&#282;" /><glyph d="M73 614H464V544H151V350H435V280H151V71H464V0H73ZM308 791 400 669H332L273 740L214 669H146L238 791Z" glyph-name="Ecircumflex" horiz-adv-x="515" unicode="&#202;" /><glyph d="M298 722Q298 741 311 754.5Q324 768 343 768Q362 768 376 754.5Q390 741 390 722Q390 703 376 689.5Q362 676 343 676Q324 676 311 689.5Q298 703 298 722ZM157 722Q157 741 171 754.5Q185 768 204 768Q223 768 236.5 754.5Q250 741 250 722Q250 703 236.5 689.5Q223 676 204 676Q185 676 171 689.5Q157 703 157 722ZM73 614H464V544H151V350H435V280H151V71H464V0H73Z" glyph-name="Edieresis" horiz-adv-x="515" unicode="&#203;" /><glyph d="M321 721Q321 702 306.5 687.5Q292 673 273 673Q254 673 239.5 687.5Q225 702 225 721Q225 741 239.5 755.5Q254 770 273 770Q292 770 306.5 755.5Q321 741 321 721ZM73 614H464V544H151V350H435V280H151V71H464V0H73Z" glyph-name="Edotaccent" horiz-adv-x="515" unicode="&#278;" /><glyph d="M313 668H238L146 785H233ZM73 614H464V544H151V350H435V280H151V71H464V0H73Z" glyph-name="Egrave" horiz-adv-x="515" unicode="&#200;" /><glyph d="M167 671V732H380V671ZM73 614H464V544H151V350H435V280H151V71H464V0H73Z" glyph-name="Emacron" horiz-adv-x="515" unicode="&#274;" /><glyph d="M266 -159V-81Q291 -97 315 -105.5Q339 -114 368 -114Q422 -114 448 -82Q474 -50 475 25L149 488V0H73V614H148L475 147V614H550V27Q550 -83 504.5 -135Q459 -187 372 -187Q340 -187 312.5 -178Q285 -169 266 -159Z" glyph-name="Eng" horiz-adv-x="623" unicode="&#330;" /><glyph d="M73 614H464V544H151V350H435V280H151V71H464V0H431Q403 -46 393 -66Q382 -88 382 -106Q382 -119 388 -125.5Q394 -132 404 -132Q414 -132 422.5 -128Q431 -124 441 -117V-167Q431 -175 418 -180.5Q405 -186 389 -186Q357 -186 340 -168Q323 -150 323 -120Q323 -92 338 -64Q352 -37 375 0H73Z" glyph-name="Eogonek" horiz-adv-x="515" unicode="&#280;" /><glyph d="M285 0H88V284H32V351H88V614H285Q419 614 501 530.5Q583 447 583 307Q583 167 501 83.5Q419 0 285 0ZM167 71H284Q388 71 446.5 135.5Q505 200 505 307Q505 414 446.5 479Q388 544 284 544H167V351H290V284H167Z" glyph-name="Eth" horiz-adv-x="620" unicode="&#208;" /><glyph d="M470 27Q445 10 413.5 0.5Q382 -9 343 -9Q250 -9 180.5 50Q111 109 87 210H23V270H77Q77 279 76.5 288Q76 297 76 307Q76 315 76 323.5Q76 332 77 339H23V399H86Q109 503 179.5 563Q250 623 343 623Q382 623 413.5 613.5Q445 604 470 587V509Q442 532 410.5 543Q379 554 343 554Q279 554 231 512Q183 470 164 399H368L356 339H153Q152 332 152 323.5Q152 315 152 307Q152 297 152.5 288Q153 279 154 270H345L333 210H165Q185 141 232.5 100.5Q280 60 343 60Q379 60 410.5 71Q442 82 470 105Z" glyph-name="Euro" horiz-adv-x="504" unicode="&#8364;" /><glyph d="M483 27Q458 10 426.5 0.5Q395 -9 356 -9Q263 -9 193.5 50Q124 109 100 210H37V270H90Q90 279 89.5 288Q89 297 89 307Q89 315 89 323.5Q89 332 90 339H37V399H99Q122 503 192.5 563Q263 623 356 623Q395 623 426.5 613.5Q458 604 483 587V509Q455 532 423.5 543Q392 554 357 554Q292 554 244 512Q196 470 177 399H381L369 339H166Q165 332 165 323.5Q165 315 165 307Q165 297 165.5 288Q166 279 167 270H359L346 210H178Q198 141 246 100.5Q294 60 357 60Q392 60 423.5 71Q455 82 483 105Z" glyph-name="Euro.lt" horiz-adv-x="520" /><glyph d="M152 0H73V614H448V544H152V337H430V267H152Z" glyph-name="F" horiz-adv-x="485" unicode="F" /><glyph d="M326 61Q368 61 402.5 72Q437 83 467 108V253H332V319H540V79Q496 30 438.5 10.5Q381 -9 324 -9Q196 -9 116.5 78Q37 165 37 307Q37 450 122 536.5Q207 623 333 623Q387 623 432.5 608Q478 593 510 568V484Q471 519 427 535.5Q383 552 333 552Q237 552 176.5 484.5Q116 417 116 307Q116 197 173 129Q230 61 326 61Z" glyph-name="G" horiz-adv-x="593" unicode="G" /><glyph d="M331 666Q280 666 248 697Q216 728 216 786H273Q273 754 289.5 738Q306 722 331 722Q357 722 373.5 738Q390 754 390 786H447Q447 728 415 697Q383 666 331 666ZM326 61Q368 61 402.5 72Q437 83 467 108V253H332V319H540V79Q496 30 438.5 10.5Q381 -9 324 -9Q196 -9 116.5 78Q37 165 37 307Q37 450 122 536.5Q207 623 333 623Q387 623 432.5 608Q478 593 510 568V484Q471 519 427 535.5Q383 552 333 552Q237 552 176.5 484.5Q116 417 116 307Q116 197 173 129Q230 61 326 61Z" glyph-name="Gbreve" horiz-adv-x="593" unicode="&#286;" /><glyph d="M326 61Q368 61 402.5 72Q437 83 467 108V253H332V319H540V79Q496 30 438.5 10.5Q381 -9 324 -9Q196 -9 116.5 78Q37 165 37 307Q37 450 122 536.5Q207 623 333 623Q387 623 432.5 608Q478 593 510 568V484Q471 519 427 535.5Q383 552 333 552Q237 552 176.5 484.5Q116 417 116 307Q116 197 173 129Q230 61 326 61ZM366 791 458 669H390L331 740L272 669H204L296 791Z" glyph-name="Gcircumflex" horiz-adv-x="593" unicode="&#284;" /><glyph d="M286 -201 325 -137Q308 -135 296.5 -123Q285 -111 285 -93Q285 -72 299.5 -58.5Q314 -45 335 -45Q355 -45 369.5 -59Q384 -73 384 -95Q384 -111 377 -125Q370 -139 362 -152L333 -201ZM326 61Q368 61 402.5 72Q437 83 467 108V253H332V319H540V79Q496 30 438.5 10.5Q381 -9 324 -9Q196 -9 116.5 78Q37 165 37 307Q37 450 122 536.5Q207 623 333 623Q387 623 432.5 608Q478 593 510 568V484Q471 519 427 535.5Q383 552 333 552Q237 552 176.5 484.5Q116 417 116 307Q116 197 173 129Q230 61 326 61Z" glyph-name="Gcommaaccent" horiz-adv-x="593" unicode="&#290;" /><glyph d="M376 721Q376 702 361.5 687.5Q347 673 328 673Q309 673 294.5 687.5Q280 702 280 721Q280 741 294.5 755.5Q309 770 328 770Q347 770 361.5 755.5Q376 741 376 721ZM326 61Q368 61 402.5 72Q437 83 467 108V253H332V319H540V79Q496 30 438.5 10.5Q381 -9 324 -9Q196 -9 116.5 78Q37 165 37 307Q37 450 122 536.5Q207 623 333 623Q387 623 432.5 608Q478 593 510 568V484Q471 519 427 535.5Q383 552 333 552Q237 552 176.5 484.5Q116 417 116 307Q116 197 173 129Q230 61 326 61Z" glyph-name="Gdotaccent" horiz-adv-x="593" unicode="&#288;" /><glyph d="M499 614H578V0H499V280H152V0H73V614H152V351H499Z" glyph-name="H" horiz-adv-x="651" unicode="H" /><glyph d="M166 310H513V430H166ZM166 244V0H87V430H32V496H87V614H166V496H513V614H592V496H647V430H592V0H513V244Z" glyph-name="Hbar" horiz-adv-x="679" unicode="&#294;" /><glyph d="M499 614H578V0H499V280H152V0H73V614H152V351H499ZM360 791 452 669H384L325 740L266 669H198L290 791Z" glyph-name="Hcircumflex" horiz-adv-x="651" unicode="&#292;" /><glyph d="M152 614V0H73V614Z" glyph-name="I" horiz-adv-x="225" unicode="I" /><glyph d="M152 614V0H73V614ZM228 26V107Q257 86 284.5 74.5Q312 63 346 63Q400 63 425 97Q450 131 450 207V614H529V204Q529 94 482.5 42.5Q436 -9 348 -9Q311 -9 279 2Q247 13 228 26Z" glyph-name="IJ" horiz-adv-x="590" unicode="&#306;" /><glyph d="M152 614V0H73V614ZM144 668H68L148 785H235Z" glyph-name="Iacute" horiz-adv-x="225" unicode="&#205;" /><glyph d="M152 614V0H73V614ZM112 666Q61 666 29 697Q-3 728 -3 786H54Q54 754 70.5 738Q87 722 112 722Q138 722 154.5 738Q171 754 171 786H228Q228 728 196 697Q164 666 112 666Z" glyph-name="Ibreve" horiz-adv-x="225" unicode="&#300;" /><glyph d="M152 614V0H73V614ZM147 791 239 669H171L112 740L53 669H-15L77 791Z" glyph-name="Icircumflex" horiz-adv-x="225" unicode="&#206;" /><glyph d="M152 614V0H73V614ZM137 722Q137 741 150 754.5Q163 768 182 768Q201 768 215 754.5Q229 741 229 722Q229 703 215 689.5Q201 676 182 676Q163 676 150 689.5Q137 703 137 722ZM-4 722Q-4 741 10 754.5Q24 768 43 768Q62 768 75.5 754.5Q89 741 89 722Q89 703 75.5 689.5Q62 676 43 676Q24 676 10 689.5Q-4 703 -4 722Z" glyph-name="Idieresis" horiz-adv-x="225" unicode="&#207;" /><glyph d="M152 614V0H73V614ZM160 721Q160 702 145.5 687.5Q131 673 112 673Q93 673 78.5 687.5Q64 702 64 721Q64 741 78.5 755.5Q93 770 112 770Q131 770 145.5 755.5Q160 741 160 721Z" glyph-name="Idotaccent" horiz-adv-x="225" unicode="&#304;" /><glyph d="M152 614V0H73V614ZM153 668H78L-14 785H73Z" glyph-name="Igrave" horiz-adv-x="225" unicode="&#204;" /><glyph d="M152 614V0H73V614ZM6 671V732H219V671Z" glyph-name="Imacron" horiz-adv-x="225" unicode="&#298;" /><glyph d="M152 614V0Q122 -49 112 -68.5Q102 -88 102 -106Q102 -119 108.5 -125.5Q115 -132 125 -132Q135 -132 143.5 -128Q152 -124 162 -117V-167Q152 -175 139 -180.5Q126 -186 110 -186Q78 -186 61 -168Q44 -150 44 -120Q44 -92 58.5 -64.5Q73 -37 96 0H73V614Z" glyph-name="Iogonek" horiz-adv-x="225" unicode="&#302;" /><glyph d="M152 614V0H73V614ZM199 784H247Q247 731 227.5 698Q208 665 171 665Q134 665 111 693Q88 721 61 721Q44 721 35.5 707Q27 693 27 668H-22Q-22 721 -2.5 754Q17 787 54 787Q91 787 114 759Q137 731 165 731Q181 731 189.5 745Q198 759 199 784Z" glyph-name="Itilde" horiz-adv-x="225" unicode="&#296;" /><glyph d="M29 26V107Q58 86 85.5 74.5Q113 63 147 63Q201 63 226 97Q251 131 251 207V614H330V204Q330 94 283.5 42.5Q237 -9 149 -9Q112 -9 80 2Q48 13 29 26Z" glyph-name="J" horiz-adv-x="391" unicode="J" /><glyph d="M29 26V107Q58 86 85.5 74.5Q113 63 147 63Q201 63 226 97Q251 131 251 207V614H330V204Q330 94 283.5 42.5Q237 -9 149 -9Q112 -9 80 2Q48 13 29 26ZM326 791 418 669H350L291 740L232 669H164L256 791Z" glyph-name="Jcircumflex" horiz-adv-x="391" unicode="&#308;" /><glyph d="M152 614V341L429 614H528L226 320L537 0H435L152 289V0H73V614Z" glyph-name="K" horiz-adv-x="553" unicode="K" /><glyph d="M216 -201 255 -137Q238 -135 226.5 -123Q215 -111 215 -93Q215 -72 229.5 -58.5Q244 -45 265 -45Q285 -45 299.5 -59Q314 -73 314 -95Q314 -111 307 -125Q300 -139 292 -152L263 -201ZM152 614V341L429 614H528L226 320L537 0H435L152 289V0H73V614Z" glyph-name="Kcommaaccent" horiz-adv-x="553" unicode="&#310;" /><glyph d="M73 0V614H152V71H465V0Z" glyph-name="L" horiz-adv-x="504" unicode="L" /><glyph d="M156 668H80L160 785H247ZM73 0V614H152V71H465V0Z" glyph-name="Lacute" horiz-adv-x="504" unicode="&#313;" /><glyph d="M321 450H261L294 614H354ZM73 0V614H152V71H465V0Z" glyph-name="Lcaron" horiz-adv-x="504" unicode="&#317;" /><glyph d="M231 -201 270 -137Q253 -135 241.5 -123Q230 -111 230 -93Q230 -72 244.5 -58.5Q259 -45 280 -45Q300 -45 314.5 -59Q329 -73 329 -95Q329 -111 322 -125Q315 -139 307 -152L278 -201ZM73 0V614H152V71H465V0Z" glyph-name="Lcommaaccent" horiz-adv-x="504" unicode="&#315;" /><glyph d="M73 0V614H152V71H465V0ZM412 307Q412 288 397.5 273.5Q383 259 364 259Q345 259 330.5 273.5Q316 288 316 307Q316 327 330.5 341Q345 355 364 355Q383 355 397.5 341Q412 327 412 307Z" glyph-name="Ldot" horiz-adv-x="504" unicode="&#319;" /><glyph d="M484 0H92V251L30 226V299L92 324V614H171V354L325 416V344L171 282V71H484Z" glyph-name="Lslash" horiz-adv-x="523" unicode="&#321;" /><glyph d="M365 137H361L150 472V0H73V614H146L364 261L581 614H650V0H573V472Z" glyph-name="M" horiz-adv-x="723" unicode="M" /><glyph d="M550 614V0H492L149 488V0H73V614H148L475 147V614Z" glyph-name="N" horiz-adv-x="623" unicode="N" /><glyph d="M343 668H267L347 785H434ZM550 614V0H492L149 488V0H73V614H148L475 147V614Z" glyph-name="Nacute" horiz-adv-x="623" unicode="&#323;" /><glyph d="M277 666 185 787H253L312 716L371 787H439L347 666ZM550 614V0H492L149 488V0H73V614H148L475 147V614Z" glyph-name="Ncaron" horiz-adv-x="623" unicode="&#327;" /><glyph d="M266 -201 305 -137Q288 -135 276.5 -123Q265 -111 265 -93Q265 -72 279.5 -58.5Q294 -45 315 -45Q335 -45 349.5 -59Q364 -73 364 -95Q364 -111 357 -125Q350 -139 342 -152L313 -201ZM550 614V0H492L149 488V0H73V614H148L475 147V614Z" glyph-name="Ncommaaccent" horiz-adv-x="623" unicode="&#325;" /><glyph d="M398 784H446Q446 731 426.5 698Q407 665 370 665Q333 665 310 693Q287 721 260 721Q243 721 234.5 707Q226 693 226 668H177Q177 721 196.5 754Q216 787 253 787Q290 787 313 759Q336 731 364 731Q380 731 388.5 745Q397 759 398 784ZM550 614V0H492L149 488V0H73V614H148L475 147V614Z" glyph-name="Ntilde" horiz-adv-x="623" unicode="&#209;" /><glyph d="M592 307Q592 169 513.5 80Q435 -9 314 -9Q194 -9 115.5 80Q37 169 37 307Q37 446 115.5 534.5Q194 623 314 623Q435 623 513.5 534.5Q592 446 592 307ZM513 307Q513 414 458 483Q403 552 314 552Q226 552 171 483Q116 414 116 307Q116 200 171 131Q226 62 314 62Q403 62 458 131Q513 200 513 307Z" glyph-name="O" horiz-adv-x="629" unicode="O" /><glyph d="M780 614V544H482V350H750V280H482V71H780V0H335Q201 0 119 83.5Q37 167 37 307Q37 447 119 530.5Q201 614 335 614ZM337 71H405V544H337Q233 544 174.5 479Q116 414 116 307Q116 200 174.5 135.5Q233 71 337 71Z" glyph-name="OE" horiz-adv-x="830" unicode="&#338;" /><glyph d="M346 668H270L350 785H437ZM592 307Q592 169 513.5 80Q435 -9 314 -9Q194 -9 115.5 80Q37 169 37 307Q37 446 115.5 534.5Q194 623 314 623Q435 623 513.5 534.5Q592 446 592 307ZM513 307Q513 414 458 483Q403 552 314 552Q226 552 171 483Q116 414 116 307Q116 200 171 131Q226 62 314 62Q403 62 458 131Q513 200 513 307Z" glyph-name="Oacute" horiz-adv-x="629" unicode="&#211;" /><glyph d="M314 666Q263 666 231 697Q199 728 199 786H256Q256 754 272.5 738Q289 722 314 722Q340 722 356.5 738Q373 754 373 786H430Q430 728 398 697Q366 666 314 666ZM592 307Q592 169 513.5 80Q435 -9 314 -9Q194 -9 115.5 80Q37 169 37 307Q37 446 115.5 534.5Q194 623 314 623Q435 623 513.5 534.5Q592 446 592 307ZM513 307Q513 414 458 483Q403 552 314 552Q226 552 171 483Q116 414 116 307Q116 200 171 131Q226 62 314 62Q403 62 458 131Q513 200 513 307Z" glyph-name="Obreve" horiz-adv-x="629" unicode="&#334;" /><glyph d="M592 307Q592 169 513.5 80Q435 -9 314 -9Q194 -9 115.5 80Q37 169 37 307Q37 446 115.5 534.5Q194 623 314 623Q435 623 513.5 534.5Q592 446 592 307ZM513 307Q513 414 458 483Q403 552 314 552Q226 552 171 483Q116 414 116 307Q116 200 171 131Q226 62 314 62Q403 62 458 131Q513 200 513 307ZM349 791 441 669H373L314 740L255 669H187L279 791Z" glyph-name="Ocircumflex" horiz-adv-x="629" unicode="&#212;" /><glyph d="M339 722Q339 741 352 754.5Q365 768 384 768Q403 768 417 754.5Q431 741 431 722Q431 703 417 689.5Q403 676 384 676Q365 676 352 689.5Q339 703 339 722ZM198 722Q198 741 212 754.5Q226 768 245 768Q264 768 277.5 754.5Q291 741 291 722Q291 703 277.5 689.5Q264 676 245 676Q226 676 212 689.5Q198 703 198 722ZM592 307Q592 169 513.5 80Q435 -9 314 -9Q194 -9 115.5 80Q37 169 37 307Q37 446 115.5 534.5Q194 623 314 623Q435 623 513.5 534.5Q592 446 592 307ZM513 307Q513 414 458 483Q403 552 314 552Q226 552 171 483Q116 414 116 307Q116 200 171 131Q226 62 314 62Q403 62 458 131Q513 200 513 307Z" glyph-name="Odieresis" horiz-adv-x="629" unicode="&#214;" /><glyph d="M355 668H280L188 785H275ZM592 307Q592 169 513.5 80Q435 -9 314 -9Q194 -9 115.5 80Q37 169 37 307Q37 446 115.5 534.5Q194 623 314 623Q435 623 513.5 534.5Q592 446 592 307ZM513 307Q513 414 458 483Q403 552 314 552Q226 552 171 483Q116 414 116 307Q116 200 171 131Q226 62 314 62Q403 62 458 131Q513 200 513 307Z" glyph-name="Ograve" horiz-adv-x="629" unicode="&#210;" /><glyph d="M592 307Q592 169 513.5 80Q435 -9 314 -9Q194 -9 115.5 80Q37 169 37 307Q37 446 115.5 534.5Q194 623 314 623Q435 623 513.5 534.5Q592 446 592 307ZM513 307Q513 414 458 483Q403 552 314 552Q226 552 171 483Q116 414 116 307Q116 200 171 131Q226 62 314 62Q403 62 458 131Q513 200 513 307ZM413 668H348L414 785H481ZM290 668H225L292 785H358Z" glyph-name="Ohungarumlaut" horiz-adv-x="629" unicode="&#336;" /><glyph d="M208 671V732H421V671ZM592 307Q592 169 513.5 80Q435 -9 314 -9Q194 -9 115.5 80Q37 169 37 307Q37 446 115.5 534.5Q194 623 314 623Q435 623 513.5 534.5Q592 446 592 307ZM513 307Q513 414 458 483Q403 552 314 552Q226 552 171 483Q116 414 116 307Q116 200 171 131Q226 62 314 62Q403 62 458 131Q513 200 513 307Z" glyph-name="Omacron" horiz-adv-x="629" unicode="&#332;" /><glyph d="M121 307Q121 261 131 220.5Q141 180 160 149L444 507Q420 529 388.5 540.5Q357 552 319 552Q231 552 176 483Q121 414 121 307ZM319 62Q408 62 463 131Q518 200 518 307Q518 353 508.5 392Q499 431 481 462L198 105Q221 84 251.5 73Q282 62 319 62ZM319 -9Q271 -9 229 6Q187 21 153 48L103 -15L56 18L112 89Q79 130 60.5 186Q42 242 42 307Q42 446 120.5 534.5Q199 623 319 623Q368 623 411.5 607.5Q455 592 489 564L536 623L582 590L529 523Q561 482 579 427Q597 372 597 307Q597 169 518.5 80Q440 -9 319 -9Z" glyph-name="Oslash" horiz-adv-x="639" unicode="&#216;" /><glyph d="M121 307Q121 261 131 220.5Q141 180 160 149L444 507Q420 529 388.5 540.5Q357 552 319 552Q231 552 176 483Q121 414 121 307ZM319 62Q408 62 463 131Q518 200 518 307Q518 353 508.5 392Q499 431 481 462L198 105Q221 84 251.5 73Q282 62 319 62ZM319 -9Q271 -9 229 6Q187 21 153 48L103 -15L56 18L112 89Q79 130 60.5 186Q42 242 42 307Q42 446 120.5 534.5Q199 623 319 623Q368 623 411.5 607.5Q455 592 489 564L536 623L582 590L529 523Q561 482 579 427Q597 372 597 307Q597 169 518.5 80Q440 -9 319 -9ZM351 668H275L355 785H442Z" glyph-name="Oslashacute" horiz-adv-x="639" unicode="&#510;" /><glyph d="M401 784H449Q449 731 429.5 698Q410 665 373 665Q336 665 313 693Q290 721 263 721Q246 721 237.5 707Q229 693 229 668H180Q180 721 199.5 754Q219 787 256 787Q293 787 316 759Q339 731 367 731Q383 731 391.5 745Q400 759 401 784ZM592 307Q592 169 513.5 80Q435 -9 314 -9Q194 -9 115.5 80Q37 169 37 307Q37 446 115.5 534.5Q194 623 314 623Q435 623 513.5 534.5Q592 446 592 307ZM513 307Q513 414 458 483Q403 552 314 552Q226 552 171 483Q116 414 116 307Q116 200 171 131Q226 62 314 62Q403 62 458 131Q513 200 513 307Z" glyph-name="Otilde" horiz-adv-x="629" unicode="&#213;" /><glyph d="M300 246H152V0H73V614H300Q393 614 449 567Q505 520 505 430Q505 340 449 293Q393 246 300 246ZM299 316Q361 316 394 347.5Q427 379 427 430Q427 482 394 513.5Q361 545 299 545H152V316Z" glyph-name="P" horiz-adv-x="537" unicode="P" /><glyph d="M500 -36 450 27Q420 10 385.5 0.5Q351 -9 314 -9Q194 -9 115.5 80Q37 169 37 307Q37 446 115.5 534.5Q194 623 314 623Q435 623 513.5 534.5Q592 446 592 307Q592 234 568.5 172.5Q545 111 503 69L554 5ZM314 62Q340 62 363.5 67.5Q387 73 406 83L354 149L408 189L459 125Q485 156 499 202.5Q513 249 513 307Q513 414 458 483Q403 552 314 552Q226 552 171 483Q116 414 116 307Q116 200 171 131Q226 62 314 62Z" glyph-name="Q" horiz-adv-x="628" unicode="Q" /><glyph d="M152 545V327H296Q356 327 390 356Q424 385 424 436Q424 487 390 516Q356 545 296 545ZM73 0V614H298Q391 614 446.5 568.5Q502 523 502 436Q502 361 460 317Q418 273 346 263L527 0H437L261 260H152V0Z" glyph-name="R" horiz-adv-x="552" unicode="R" /><glyph d="M152 545V327H296Q356 327 390 356Q424 385 424 436Q424 487 390 516Q356 545 296 545ZM73 0V614H298Q391 614 446.5 568.5Q502 523 502 436Q502 361 460 317Q418 273 346 263L527 0H437L261 260H152V0ZM303 668H227L307 785H394Z" glyph-name="Racute" horiz-adv-x="552" unicode="&#340;" /><glyph d="M236 666 144 787H212L271 716L330 787H398L306 666ZM152 545V327H296Q356 327 390 356Q424 385 424 436Q424 487 390 516Q356 545 296 545ZM73 0V614H298Q391 614 446.5 568.5Q502 523 502 436Q502 361 460 317Q418 273 346 263L527 0H437L261 260H152V0Z" glyph-name="Rcaron" horiz-adv-x="552" unicode="&#344;" /><glyph d="M225 -201 264 -137Q247 -135 235.5 -123Q224 -111 224 -93Q224 -72 238.5 -58.5Q253 -45 274 -45Q294 -45 308.5 -59Q323 -73 323 -95Q323 -111 316 -125Q309 -139 301 -152L272 -201ZM152 545V327H296Q356 327 390 356Q424 385 424 436Q424 487 390 516Q356 545 296 545ZM73 0V614H298Q391 614 446.5 568.5Q502 523 502 436Q502 361 460 317Q418 273 346 263L527 0H437L261 260H152V0Z" glyph-name="Rcommaaccent" horiz-adv-x="552" unicode="&#342;" /><glyph d="M41 48V133Q84 96 132 78.5Q180 61 234 61Q293 61 329 86Q365 111 365 158Q365 198 340.5 219.5Q316 241 267 261L177 296Q123 317 81 353.5Q39 390 39 462Q39 541 98 582Q157 623 236 623Q286 623 332 610Q378 597 412 573V490Q375 519 332.5 536.5Q290 554 237 554Q186 554 151 531.5Q116 509 116 463Q116 424 140.5 403.5Q165 383 208 367L305 329Q375 302 408 262Q441 222 441 159Q441 81 382 36Q323 -9 234 -9Q172 -9 122 7Q72 23 41 48Z" glyph-name="S" horiz-adv-x="481" unicode="S" /><glyph d="M41 48V133Q84 96 132 78.5Q180 61 234 61Q293 61 329 86Q365 111 365 158Q365 198 340.5 219.5Q316 241 267 261L177 296Q123 317 81 353.5Q39 390 39 462Q39 541 98 582Q157 623 236 623Q286 623 332 610Q378 597 412 573V490Q375 519 332.5 536.5Q290 554 237 554Q186 554 151 531.5Q116 509 116 463Q116 424 140.5 403.5Q165 383 208 367L305 329Q375 302 408 262Q441 222 441 159Q441 81 382 36Q323 -9 234 -9Q172 -9 122 7Q72 23 41 48ZM279 668H203L283 785H370Z" glyph-name="Sacute" horiz-adv-x="481" unicode="&#346;" /><glyph d="M41 48V133Q84 96 132 78.5Q180 61 234 61Q293 61 329 86Q365 111 365 158Q365 198 340.5 219.5Q316 241 267 261L177 296Q123 317 81 353.5Q39 390 39 462Q39 541 98 582Q157 623 236 623Q286 623 332 610Q378 597 412 573V490Q375 519 332.5 536.5Q290 554 237 554Q186 554 151 531.5Q116 509 116 463Q116 424 140.5 403.5Q165 383 208 367L305 329Q375 302 408 262Q441 222 441 159Q441 81 382 36Q323 -9 234 -9Q172 -9 122 7Q72 23 41 48ZM212 666 120 787H188L247 716L306 787H374L282 666Z" glyph-name="Scaron" horiz-adv-x="481" unicode="&#352;" /><glyph d="M41 48V133Q84 96 132 78.5Q180 61 234 61Q293 61 329 86Q365 111 365 158Q365 198 340.5 219.5Q316 241 267 261L177 296Q123 317 81 353.5Q39 390 39 462Q39 541 98 582Q157 623 236 623Q286 623 332 610Q378 597 412 573V490Q375 519 332.5 536.5Q290 554 237 554Q186 554 151 531.5Q116 509 116 463Q116 424 140.5 403.5Q165 383 208 367L305 329Q375 302 408 262Q441 222 441 159Q441 81 382 36Q323 -9 234 -9Q172 -9 122 7Q72 23 41 48ZM208 -183H137L203 -51H277Z" glyph-name="Scedilla" horiz-adv-x="481" unicode="&#350;" /><glyph d="M41 48V133Q84 96 132 78.5Q180 61 234 61Q293 61 329 86Q365 111 365 158Q365 198 340.5 219.5Q316 241 267 261L177 296Q123 317 81 353.5Q39 390 39 462Q39 541 98 582Q157 623 236 623Q286 623 332 610Q378 597 412 573V490Q375 519 332.5 536.5Q290 554 237 554Q186 554 151 531.5Q116 509 116 463Q116 424 140.5 403.5Q165 383 208 367L305 329Q375 302 408 262Q441 222 441 159Q441 81 382 36Q323 -9 234 -9Q172 -9 122 7Q72 23 41 48ZM282 791 374 669H306L247 740L188 669H120L212 791Z" glyph-name="Scircumflex" horiz-adv-x="481" unicode="&#348;" /><glyph d="M199 -201 238 -137Q221 -135 209.5 -123Q198 -111 198 -93Q198 -72 212.5 -58.5Q227 -45 248 -45Q268 -45 282.5 -59Q297 -73 297 -95Q297 -111 290 -125Q283 -139 275 -152L246 -201ZM41 48V133Q84 96 132 78.5Q180 61 234 61Q293 61 329 86Q365 111 365 158Q365 198 340.5 219.5Q316 241 267 261L177 296Q123 317 81 353.5Q39 390 39 462Q39 541 98 582Q157 623 236 623Q286 623 332 610Q378 597 412 573V490Q375 519 332.5 536.5Q290 554 237 554Q186 554 151 531.5Q116 509 116 463Q116 424 140.5 403.5Q165 383 208 367L305 329Q375 302 408 262Q441 222 441 159Q441 81 382 36Q323 -9 234 -9Q172 -9 122 7Q72 23 41 48Z" glyph-name="Scommaaccent" horiz-adv-x="481" unicode="&#536;" /><glyph d="M30 544V614H537V544H323V0H244V544Z" glyph-name="T" horiz-adv-x="567" unicode="T" /><glyph d="M436 284H323V0H244V284H131V351H244V544H30V614H537V544H323V351H436Z" glyph-name="Tbar" horiz-adv-x="567" unicode="&#358;" /><glyph d="M249 666 157 787H225L284 716L343 787H411L319 666ZM30 544V614H537V544H323V0H244V544Z" glyph-name="Tcaron" horiz-adv-x="567" unicode="&#356;" /><glyph d="M238 -201 277 -137Q260 -135 248.5 -123Q237 -111 237 -93Q237 -72 251.5 -58.5Q266 -45 287 -45Q307 -45 321.5 -59Q336 -73 336 -95Q336 -111 329 -125Q322 -139 314 -152L285 -201ZM30 544V614H537V544H323V0H244V544Z" glyph-name="Tcommaaccent" horiz-adv-x="567" unicode="&#354;" /><glyph d="M303 131H152V0H73V614H152V499H303Q396 499 450.5 452Q505 405 505 315Q505 225 450.5 178Q396 131 303 131ZM301 200Q363 200 395 232Q427 264 427 315Q427 367 395 398.5Q363 430 301 430H152V200Z" glyph-name="Thorn" horiz-adv-x="537" unicode="&#222;" /><glyph d="M303 -9Q199 -9 131 54.5Q63 118 63 244V614H141V253Q141 155 185 108Q229 61 303 61Q377 61 421 108Q465 155 465 253V614H544V243Q544 118 475.5 54.5Q407 -9 303 -9Z" glyph-name="U" horiz-adv-x="607" unicode="U" /><glyph d="M335 668H259L339 785H426ZM303 -9Q199 -9 131 54.5Q63 118 63 244V614H141V253Q141 155 185 108Q229 61 303 61Q377 61 421 108Q465 155 465 253V614H544V243Q544 118 475.5 54.5Q407 -9 303 -9Z" glyph-name="Uacute" horiz-adv-x="607" unicode="&#218;" /><glyph d="M303 666Q252 666 220 697Q188 728 188 786H245Q245 754 261.5 738Q278 722 303 722Q329 722 345.5 738Q362 754 362 786H419Q419 728 387 697Q355 666 303 666ZM303 -9Q199 -9 131 54.5Q63 118 63 244V614H141V253Q141 155 185 108Q229 61 303 61Q377 61 421 108Q465 155 465 253V614H544V243Q544 118 475.5 54.5Q407 -9 303 -9Z" glyph-name="Ubreve" horiz-adv-x="607" unicode="&#364;" /><glyph d="M303 -9Q199 -9 131 54.5Q63 118 63 244V614H141V253Q141 155 185 108Q229 61 303 61Q377 61 421 108Q465 155 465 253V614H544V243Q544 118 475.5 54.5Q407 -9 303 -9ZM338 791 430 669H362L303 740L244 669H176L268 791Z" glyph-name="Ucircumflex" horiz-adv-x="607" unicode="&#219;" /><glyph d="M328 722Q328 741 341 754.5Q354 768 373 768Q392 768 406 754.5Q420 741 420 722Q420 703 406 689.5Q392 676 373 676Q354 676 341 689.5Q328 703 328 722ZM187 722Q187 741 201 754.5Q215 768 234 768Q253 768 266.5 754.5Q280 741 280 722Q280 703 266.5 689.5Q253 676 234 676Q215 676 201 689.5Q187 703 187 722ZM303 -9Q199 -9 131 54.5Q63 118 63 244V614H141V253Q141 155 185 108Q229 61 303 61Q377 61 421 108Q465 155 465 253V614H544V243Q544 118 475.5 54.5Q407 -9 303 -9Z" glyph-name="Udieresis" horiz-adv-x="607" unicode="&#220;" /><glyph d="M344 668H269L177 785H264ZM303 -9Q199 -9 131 54.5Q63 118 63 244V614H141V253Q141 155 185 108Q229 61 303 61Q377 61 421 108Q465 155 465 253V614H544V243Q544 118 475.5 54.5Q407 -9 303 -9Z" glyph-name="Ugrave" horiz-adv-x="607" unicode="&#217;" /><glyph d="M303 -9Q199 -9 131 54.5Q63 118 63 244V614H141V253Q141 155 185 108Q229 61 303 61Q377 61 421 108Q465 155 465 253V614H544V243Q544 118 475.5 54.5Q407 -9 303 -9ZM402 668H337L403 785H470ZM279 668H214L281 785H347Z" glyph-name="Uhungarumlaut" horiz-adv-x="607" unicode="&#368;" /><glyph d="M197 671V732H410V671ZM303 -9Q199 -9 131 54.5Q63 118 63 244V614H141V253Q141 155 185 108Q229 61 303 61Q377 61 421 108Q465 155 465 253V614H544V243Q544 118 475.5 54.5Q407 -9 303 -9Z" glyph-name="Umacron" horiz-adv-x="607" unicode="&#362;" /><glyph d="M303 -9Q199 -9 131 54.5Q63 118 63 244V614H141V253Q141 155 185 108Q229 61 303 61Q377 61 421 108Q465 155 465 253V614H544V243Q544 160 515 109Q486 58 435 21Q382 -16 362.5 -48.5Q343 -81 343 -106Q343 -118 349.5 -125Q356 -132 366 -132Q376 -132 384 -128Q392 -124 403 -117V-167Q392 -175 379.5 -180.5Q367 -186 351 -186Q319 -186 301.5 -168Q284 -150 284 -119Q284 -91 298.5 -62Q313 -33 341 -6Q335 -7 322 -8Q309 -9 303 -9Z" glyph-name="Uogonek" horiz-adv-x="607" unicode="&#370;" /><glyph d="M303 -9Q199 -9 131 54.5Q63 118 63 244V614H141V253Q141 155 185 108Q229 61 303 61Q377 61 421 108Q465 155 465 253V614H544V243Q544 118 475.5 54.5Q407 -9 303 -9ZM390 734Q390 698 365 673Q340 648 303 648Q266 648 241 673Q216 698 216 734Q216 771 241 796Q266 821 303 821Q340 821 365 796Q390 771 390 734ZM348 734Q348 753 335 766.5Q322 780 303 780Q284 780 271 766.5Q258 753 258 734Q258 715 271 702Q284 689 303 689Q322 689 335 702Q348 715 348 734Z" glyph-name="Uring" horiz-adv-x="607" unicode="&#366;" /><glyph d="M390 784H438Q438 731 418.5 698Q399 665 362 665Q325 665 302 693Q279 721 252 721Q235 721 226.5 707Q218 693 218 668H169Q169 721 188.5 754Q208 787 245 787Q282 787 305 759Q328 731 356 731Q372 731 380.5 745Q389 759 390 784ZM303 -9Q199 -9 131 54.5Q63 118 63 244V614H141V253Q141 155 185 108Q229 61 303 61Q377 61 421 108Q465 155 465 253V614H544V243Q544 118 475.5 54.5Q407 -9 303 -9Z" glyph-name="Utilde" horiz-adv-x="607" unicode="&#360;" /><glyph d="M332 0H258L21 614H104L296 104L489 614H569Z" glyph-name="V" horiz-adv-x="590" unicode="V" /><glyph d="M353 614H416L546 126L672 614H748L585 0H513L384 479L253 0H182L19 614H97L223 126Z" glyph-name="W" horiz-adv-x="767" unicode="W" /><glyph d="M420 668H344L424 785H511ZM353 614H416L546 126L672 614H748L585 0H513L384 479L253 0H182L19 614H97L223 126Z" glyph-name="Wacute" horiz-adv-x="767" unicode="&#7810;" /><glyph d="M353 614H416L546 126L672 614H748L585 0H513L384 479L253 0H182L19 614H97L223 126ZM418 791 510 669H442L383 740L324 669H256L348 791Z" glyph-name="Wcircumflex" horiz-adv-x="767" unicode="&#372;" /><glyph d="M408 722Q408 741 421 754.5Q434 768 453 768Q472 768 486 754.5Q500 741 500 722Q500 703 486 689.5Q472 676 453 676Q434 676 421 689.5Q408 703 408 722ZM267 722Q267 741 281 754.5Q295 768 314 768Q333 768 346.5 754.5Q360 741 360 722Q360 703 346.5 689.5Q333 676 314 676Q295 676 281 689.5Q267 703 267 722ZM353 614H416L546 126L672 614H748L585 0H513L384 479L253 0H182L19 614H97L223 126Z" glyph-name="Wdieresis" horiz-adv-x="767" unicode="&#7812;" /><glyph d="M421 668H346L254 785H341ZM353 614H416L546 126L672 614H748L585 0H513L384 479L253 0H182L19 614H97L223 126Z" glyph-name="Wgrave" horiz-adv-x="767" unicode="&#7808;" /><glyph d="M532 614 323 314 541 0H451L277 250L104 0H17L234 312L25 614H115L279 375L445 614Z" glyph-name="X" horiz-adv-x="557" unicode="X" /><glyph d="M280 324 457 614H541L317 253V0H239V253L17 614H103Z" glyph-name="Y" horiz-adv-x="557" unicode="Y" /><glyph d="M280 324 457 614H541L317 253V0H239V253L17 614H103ZM311 668H235L315 785H402Z" glyph-name="Yacute" horiz-adv-x="557" unicode="&#221;" /><glyph d="M280 324 457 614H541L317 253V0H239V253L17 614H103ZM314 791 406 669H338L279 740L220 669H152L244 791Z" glyph-name="Ycircumflex" horiz-adv-x="557" unicode="&#374;" /><glyph d="M280 324 457 614H541L317 253V0H239V253L17 614H103ZM303 722Q303 741 316 754.5Q329 768 348 768Q367 768 381 754.5Q395 741 395 722Q395 703 381 689.5Q367 676 348 676Q329 676 316 689.5Q303 703 303 722ZM162 722Q162 741 176 754.5Q190 768 209 768Q228 768 241.5 754.5Q255 741 255 722Q255 703 241.5 689.5Q228 676 209 676Q190 676 176 689.5Q162 703 162 722Z" glyph-name="Ydieresis" horiz-adv-x="557" unicode="&#376;" /><glyph d="M280 324 457 614H541L317 253V0H239V253L17 614H103ZM319 668H244L152 785H239Z" glyph-name="Ygrave" horiz-adv-x="557" unicode="&#7922;" /><glyph d="M492 71V0H30V4L371 544H45V614H495V610L156 71Z" glyph-name="Z" horiz-adv-x="529" unicode="Z" /><glyph d="M492 71V0H30V4L371 544H45V614H495V610L156 71ZM307 668H231L311 785H398Z" glyph-name="Zacute" horiz-adv-x="529" unicode="&#377;" /><glyph d="M240 666 148 787H216L275 716L334 787H402L310 666ZM492 71V0H30V4L371 544H45V614H495V610L156 71Z" glyph-name="Zcaron" horiz-adv-x="529" unicode="&#381;" /><glyph d="M323 721Q323 702 308.5 687.5Q294 673 275 673Q256 673 241.5 687.5Q227 702 227 721Q227 741 241.5 755.5Q256 770 275 770Q294 770 308.5 755.5Q323 741 323 721ZM492 71V0H30V4L371 544H45V614H495V610L156 71Z" glyph-name="Zdotaccent" horiz-adv-x="529" unicode="&#379;" /><glyph d="M314 110V156Q305 181 275.5 196Q246 211 211 211Q171 211 138 192.5Q105 174 105 134Q105 94 138 74.5Q171 55 211 55Q246 55 275.5 70Q305 85 314 110ZM314 237V295Q314 336 285.5 360Q257 384 208 384Q171 384 140.5 373.5Q110 363 82 345V416Q104 432 141.5 442.5Q179 453 220 453Q298 453 342.5 412Q387 371 387 301V0H314V33Q301 20 269.5 6Q238 -8 199 -8Q131 -8 82.5 30Q34 68 34 134Q34 196 83 234.5Q132 273 203 273Q237 273 268.5 261.5Q300 250 314 237Z" glyph-name="a" horiz-adv-x="448" unicode="a" /><glyph d="M314 110V156Q305 181 275.5 196Q246 211 211 211Q171 211 138 192.5Q105 174 105 134Q105 94 138 74.5Q171 55 211 55Q246 55 275.5 70Q305 85 314 110ZM314 237V295Q314 336 285.5 360Q257 384 208 384Q171 384 140.5 373.5Q110 363 82 345V416Q104 432 141.5 442.5Q179 453 220 453Q298 453 342.5 412Q387 371 387 301V0H314V33Q301 20 269.5 6Q238 -8 199 -8Q131 -8 82.5 30Q34 68 34 134Q34 196 83 234.5Q132 273 203 273Q237 273 268.5 261.5Q300 250 314 237ZM259 516H190L270 650H348Z" glyph-name="aacute" horiz-adv-x="448" unicode="&#225;" /><glyph d="M314 110V156Q305 181 275.5 196Q246 211 211 211Q171 211 138 192.5Q105 174 105 134Q105 94 138 74.5Q171 55 211 55Q246 55 275.5 70Q305 85 314 110ZM314 237V295Q314 336 285.5 360Q257 384 208 384Q171 384 140.5 373.5Q110 363 82 345V416Q104 432 141.5 442.5Q179 453 220 453Q298 453 342.5 412Q387 371 387 301V0H314V33Q301 20 269.5 6Q238 -8 199 -8Q131 -8 82.5 30Q34 68 34 134Q34 196 83 234.5Q132 273 203 273Q237 273 268.5 261.5Q300 250 314 237ZM229 500Q179 500 147 533Q115 566 115 628H172Q172 594 186.5 574.5Q201 555 229 555Q257 555 271.5 574.5Q286 594 286 628H343Q343 566 311 533Q279 500 229 500Z" glyph-name="abreve" horiz-adv-x="448" unicode="&#259;" /><glyph d="M314 110V156Q305 181 275.5 196Q246 211 211 211Q171 211 138 192.5Q105 174 105 134Q105 94 138 74.5Q171 55 211 55Q246 55 275.5 70Q305 85 314 110ZM314 237V295Q314 336 285.5 360Q257 384 208 384Q171 384 140.5 373.5Q110 363 82 345V416Q104 432 141.5 442.5Q179 453 220 453Q298 453 342.5 412Q387 371 387 301V0H314V33Q301 20 269.5 6Q238 -8 199 -8Q131 -8 82.5 30Q34 68 34 134Q34 196 83 234.5Q132 273 203 273Q237 273 268.5 261.5Q300 250 314 237ZM264 645 356 509H291L229 597L167 509H102L194 645Z" glyph-name="acircumflex" horiz-adv-x="448" unicode="&#226;" /><glyph d="M240 516H171L251 650H329Z" glyph-name="acute" horiz-adv-x="500" unicode="&#180;" /><glyph d="M242 668H166L246 785H333Z" glyph-name="acute.cap" horiz-adv-x="500" /><glyph d="M314 110V156Q305 181 275.5 196Q246 211 211 211Q171 211 138 192.5Q105 174 105 134Q105 94 138 74.5Q171 55 211 55Q246 55 275.5 70Q305 85 314 110ZM314 237V295Q314 336 285.5 360Q257 384 208 384Q171 384 140.5 373.5Q110 363 82 345V416Q104 432 141.5 442.5Q179 453 220 453Q298 453 342.5 412Q387 371 387 301V0H314V33Q301 20 269.5 6Q238 -8 199 -8Q131 -8 82.5 30Q34 68 34 134Q34 196 83 234.5Q132 273 203 273Q237 273 268.5 261.5Q300 250 314 237ZM254 571Q254 591 267 604.5Q280 618 299 618Q318 618 332 604.5Q346 591 346 571Q346 552 332 538.5Q318 525 299 525Q280 525 267 538.5Q254 552 254 571ZM113 571Q113 591 127 604.5Q141 618 160 618Q179 618 192.5 604.5Q206 591 206 571Q206 552 192.5 538.5Q179 525 160 525Q141 525 127 538.5Q113 552 113 571Z" glyph-name="adieresis" horiz-adv-x="448" unicode="&#228;" /><glyph d="M522 -9Q466 -9 422.5 13.5Q379 36 352 77Q327 42 287.5 17Q248 -8 193 -8Q127 -8 80.5 29Q34 66 34 128Q34 192 83.5 229Q133 266 205 266H315V290Q315 334 286 359Q257 384 208 384Q171 384 140.5 373.5Q110 363 82 345V416Q104 432 141.5 442.5Q179 453 220 453Q274 453 310.5 431Q347 409 363 373Q386 409 422.5 431Q459 453 506 453Q596 453 642.5 392Q689 331 689 234V207H383Q387 129 429 93Q471 57 531 57Q568 57 597.5 67Q627 77 658 99V30Q631 9 596.5 0Q562 -9 522 -9ZM507 389Q463 389 429 358Q395 327 386 266H616Q614 315 587.5 352Q561 389 507 389ZM199 55Q242 55 272 78Q302 101 315 136V207H210Q170 207 137.5 189Q105 171 105 132Q105 93 133.5 74Q162 55 199 55Z" glyph-name="ae" horiz-adv-x="723" unicode="&#230;" /><glyph d="M405 516H336L416 650H494ZM522 -9Q466 -9 422.5 13.5Q379 36 352 77Q327 42 287.5 17Q248 -8 193 -8Q127 -8 80.5 29Q34 66 34 128Q34 192 83.5 229Q133 266 205 266H315V290Q315 334 286 359Q257 384 208 384Q171 384 140.5 373.5Q110 363 82 345V416Q104 432 141.5 442.5Q179 453 220 453Q274 453 310.5 431Q347 409 363 373Q386 409 422.5 431Q459 453 506 453Q596 453 642.5 392Q689 331 689 234V207H383Q387 129 429 93Q471 57 531 57Q568 57 597.5 67Q627 77 658 99V30Q631 9 596.5 0Q562 -9 522 -9ZM507 389Q463 389 429 358Q395 327 386 266H616Q614 315 587.5 352Q561 389 507 389ZM199 55Q242 55 272 78Q302 101 315 136V207H210Q170 207 137.5 189Q105 171 105 132Q105 93 133.5 74Q162 55 199 55Z" glyph-name="aeacute" horiz-adv-x="723" unicode="&#509;" /><glyph d="M314 110V156Q305 181 275.5 196Q246 211 211 211Q171 211 138 192.5Q105 174 105 134Q105 94 138 74.5Q171 55 211 55Q246 55 275.5 70Q305 85 314 110ZM314 237V295Q314 336 285.5 360Q257 384 208 384Q171 384 140.5 373.5Q110 363 82 345V416Q104 432 141.5 442.5Q179 453 220 453Q298 453 342.5 412Q387 371 387 301V0H314V33Q301 20 269.5 6Q238 -8 199 -8Q131 -8 82.5 30Q34 68 34 134Q34 196 83 234.5Q132 273 203 273Q237 273 268.5 261.5Q300 250 314 237ZM268 516H199L110 650H188Z" glyph-name="agrave" horiz-adv-x="448" unicode="&#224;" /><glyph d="M314 110V156Q305 181 275.5 196Q246 211 211 211Q171 211 138 192.5Q105 174 105 134Q105 94 138 74.5Q171 55 211 55Q246 55 275.5 70Q305 85 314 110ZM314 237V295Q314 336 285.5 360Q257 384 208 384Q171 384 140.5 373.5Q110 363 82 345V416Q104 432 141.5 442.5Q179 453 220 453Q298 453 342.5 412Q387 371 387 301V0H314V33Q301 20 269.5 6Q238 -8 199 -8Q131 -8 82.5 30Q34 68 34 134Q34 196 83 234.5Q132 273 203 273Q237 273 268.5 261.5Q300 250 314 237ZM123 530V591H336V530Z" glyph-name="amacron" horiz-adv-x="448" unicode="&#257;" /><glyph d="M238 54Q280 54 313.5 69Q347 84 372 110L194 300Q158 287 134.5 254Q111 221 111 179Q111 125 146.5 89.5Q182 54 238 54ZM475 0 415 64Q381 30 336.5 10.5Q292 -9 238 -9Q151 -9 95 44.5Q39 98 39 179Q39 234 71 279Q103 324 152 347Q129 375 115.5 403Q102 431 102 468Q102 540 150.5 581.5Q199 623 270 623Q307 623 340.5 613Q374 603 402 584V506Q374 529 342 544Q310 559 270 559Q230 559 202.5 536Q175 513 175 470Q175 436 195 409.5Q215 383 241 355L413 172Q426 201 433.5 235.5Q441 270 442 308H512Q511 259 497.5 210.5Q484 162 460 122L574 0Z" glyph-name="ampersand" horiz-adv-x="588" unicode="&amp;" /><glyph d="M331 0H314V33Q301 20 269.5 6Q238 -8 199 -8Q131 -8 82.5 30Q34 68 34 134Q34 196 83 234.5Q132 273 203 273Q237 273 268.5 261.5Q300 250 314 237V295Q314 336 285.5 360Q257 384 208 384Q171 384 140.5 373.5Q110 363 82 345V416Q104 432 141.5 442.5Q179 453 220 453Q298 453 342.5 412Q387 371 387 301V0Q358 -49 348 -68.5Q338 -88 338 -106Q338 -119 344.5 -125.5Q351 -132 361 -132Q371 -132 379 -128Q387 -124 398 -117V-167Q387 -175 374.5 -180.5Q362 -186 346 -186Q313 -186 296 -168Q279 -150 279 -120Q279 -92 293.5 -64.5Q308 -37 331 0ZM314 110V156Q305 181 275.5 196Q246 211 211 211Q171 211 138 192.5Q105 174 105 134Q105 94 138 74.5Q171 55 211 55Q246 55 275.5 70Q305 85 314 110Z" glyph-name="aogonek" horiz-adv-x="448" unicode="&#261;" /><glyph d="M79 308V370Q107 392 133.5 401Q160 410 185 410Q235 410 275 389.5Q315 369 364 369Q389 369 416 379.5Q443 390 473 412V351Q443 329 416 319Q389 309 364 309Q314 309 274 330Q234 351 185 351Q160 351 133.5 340.5Q107 330 79 308ZM79 184V245Q107 267 133.5 276.5Q160 286 185 286Q235 286 275 265Q315 244 364 244Q389 244 416 254Q443 264 473 287V226Q443 204 416 194.5Q389 185 364 185Q314 185 274 205.5Q234 226 185 226Q160 226 133.5 216Q107 206 79 184Z" glyph-name="approxequal" horiz-adv-x="551" unicode="&#8776;" /><glyph d="M62 308V370Q90 392 117 401Q144 410 169 410Q219 410 259 389.5Q299 369 348 369Q373 369 400 379.5Q427 390 457 412V351Q427 329 400 319Q373 309 348 309Q298 309 258 330Q218 351 169 351Q144 351 117 340.5Q90 330 62 308ZM62 184V245Q90 267 117 276.5Q144 286 169 286Q219 286 259 265Q299 244 348 244Q373 244 400 254Q427 264 457 287V226Q427 204 400 194.5Q373 185 348 185Q298 185 258 205.5Q218 226 169 226Q144 226 117 216Q90 206 62 184Z" glyph-name="approxequal.lt" horiz-adv-x="520" /><glyph d="M314 110V156Q305 181 275.5 196Q246 211 211 211Q171 211 138 192.5Q105 174 105 134Q105 94 138 74.5Q171 55 211 55Q246 55 275.5 70Q305 85 314 110ZM314 237V295Q314 336 285.5 360Q257 384 208 384Q171 384 140.5 373.5Q110 363 82 345V416Q104 432 141.5 442.5Q179 453 220 453Q298 453 342.5 412Q387 371 387 301V0H314V33Q301 20 269.5 6Q238 -8 199 -8Q131 -8 82.5 30Q34 68 34 134Q34 196 83 234.5Q132 273 203 273Q237 273 268.5 261.5Q300 250 314 237ZM316 580Q316 543 291 518.5Q266 494 229 494Q192 494 167 518.5Q142 543 142 580Q142 617 167 641.5Q192 666 229 666Q266 666 291 641.5Q316 617 316 580ZM274 580Q274 599 261 612Q248 625 229 625Q210 625 197 612Q184 599 184 580Q184 561 197 548Q210 535 229 535Q248 535 261 548Q274 561 274 580Z" glyph-name="aring" horiz-adv-x="448" unicode="&#229;" /><glyph d="M267 647H193L248 733H334ZM314 550Q314 519 288 497.5Q262 476 225 476Q188 476 162.5 497.5Q137 519 137 550Q137 581 162.5 602.5Q188 624 225 624Q262 624 288 602.5Q314 581 314 550ZM272 550Q272 566 258 576.5Q244 587 225 587Q206 587 192.5 576.5Q179 566 179 550Q179 534 192.5 524Q206 514 225 514Q244 514 258 524Q272 534 272 550ZM314 110V156Q305 181 275.5 196Q246 211 211 211Q171 211 138 192.5Q105 174 105 134Q105 94 138 74.5Q171 55 211 55Q246 55 275.5 70Q305 85 314 110ZM314 237V295Q314 336 285.5 360Q257 384 208 384Q171 384 140.5 373.5Q110 363 82 345V416Q104 432 141.5 442.5Q179 453 220 453Q298 453 342.5 412Q387 371 387 301V0H314V33Q301 20 269.5 6Q238 -8 199 -8Q131 -8 82.5 30Q34 68 34 134Q34 196 83 234.5Q132 273 203 273Q237 273 268.5 261.5Q300 250 314 237Z" glyph-name="aringacute" horiz-adv-x="448" unicode="&#507;" /><glyph d="M142 614H216L340 420H262L179 548L96 420H17Z" glyph-name="asciicircum" horiz-adv-x="357" unicode="^" /><glyph d="M315 335H378Q378 275 352.5 240.5Q327 206 281 206Q235 206 206 239Q177 272 146 272Q125 272 114 256Q103 240 103 210H40Q40 270 65.5 304Q91 338 137 338Q183 338 211.5 305Q240 272 272 272Q292 272 303.5 288.5Q315 305 315 335Z" glyph-name="asciitilde" horiz-adv-x="418" unicode="~" /><glyph d="M121 506 31 559 53 597 144 545V649H188V545L279 597L301 559L210 506L301 454L279 416L188 468V363H144V468L53 416L31 454Z" glyph-name="asterisk" horiz-adv-x="332" unicode="*" /><glyph d="M560 381 517 138Q512 108 522.5 96Q533 84 557 84Q610 84 646 133Q682 182 682 271Q682 379 605 444.5Q528 510 411 510Q271 510 182.5 418Q94 326 94 188Q94 29 197 -34.5Q300 -98 412 -98Q478 -98 532 -84.5Q586 -71 629 -52V-109Q592 -127 535 -140.5Q478 -154 412 -154Q267 -154 149.5 -72.5Q32 9 32 188Q32 344 137 455Q242 566 411 566Q558 566 650 481Q742 396 742 271Q742 149 681.5 89.5Q621 30 547 30Q512 30 484.5 45Q457 60 447 88Q432 63 403.5 47Q375 31 345 31Q282 31 247.5 74Q213 117 213 179Q213 260 263.5 325Q314 390 395 390Q429 390 452.5 375.5Q476 361 486 344L493 381ZM450 151 473 275Q465 297 445.5 312.5Q426 328 399 328Q345 328 313.5 282Q282 236 282 182Q282 142 302.5 117.5Q323 93 359 93Q390 93 412 110Q434 127 450 151Z" glyph-name="at" horiz-adv-x="774" unicode="@" /><glyph d="M560 473 517 230Q512 200 522.5 188Q533 176 557 176Q610 176 646 225Q682 274 682 363Q682 471 605 536.5Q528 602 411 602Q271 602 182.5 510Q94 418 94 280Q94 121 197 57.5Q300 -6 412 -6Q478 -6 532 7.5Q586 21 629 40V-17Q592 -35 535 -48.5Q478 -62 412 -62Q267 -62 149.5 19.5Q32 101 32 280Q32 436 137 547Q242 658 411 658Q558 658 650 573Q742 488 742 363Q742 241 681.5 181.5Q621 122 547 122Q512 122 484.5 137Q457 152 447 180Q432 155 403.5 139Q375 123 345 123Q282 123 247.5 166Q213 209 213 271Q213 352 263.5 417Q314 482 395 482Q429 482 452.5 467.5Q476 453 486 436L493 473ZM450 243 473 367Q465 389 445.5 404.5Q426 420 399 420Q345 420 313.5 374Q282 328 282 274Q282 234 302.5 209.5Q323 185 359 185Q390 185 412 202Q434 219 450 243Z" glyph-name="at.cap" horiz-adv-x="774" /><glyph d="M314 110V156Q305 181 275.5 196Q246 211 211 211Q171 211 138 192.5Q105 174 105 134Q105 94 138 74.5Q171 55 211 55Q246 55 275.5 70Q305 85 314 110ZM314 237V295Q314 336 285.5 360Q257 384 208 384Q171 384 140.5 373.5Q110 363 82 345V416Q104 432 141.5 442.5Q179 453 220 453Q298 453 342.5 412Q387 371 387 301V0H314V33Q301 20 269.5 6Q238 -8 199 -8Q131 -8 82.5 30Q34 68 34 134Q34 196 83 234.5Q132 273 203 273Q237 273 268.5 261.5Q300 250 314 237ZM313 633H361Q361 580 341.5 547.5Q322 515 285 515Q251 515 228 544Q205 573 181 573Q164 573 155.5 558Q147 543 147 518H99Q99 571 118.5 603.5Q138 636 175 636Q210 636 232.5 607Q255 578 279 578Q295 578 303.5 593Q312 608 313 633Z" glyph-name="atilde" horiz-adv-x="448" unicode="&#227;" /><glyph d="M142 52V0H66V650H142V392Q158 416 192 434.5Q226 453 267 453Q364 453 415.5 384Q467 315 467 222Q467 128 415.5 59.5Q364 -9 267 -9Q226 -9 192 9.5Q158 28 142 52ZM142 312V132Q159 98 190 78.5Q221 59 256 59Q319 59 355 105.5Q391 152 391 222Q391 292 355 338.5Q319 385 256 385Q221 385 190 365.5Q159 346 142 312Z" glyph-name="b" horiz-adv-x="502" unicode="b" /><glyph d="M80 650 328 -84H253L5 650Z" glyph-name="backslash" horiz-adv-x="333" unicode="\" /><glyph d="M80 670 328 -64H253L5 670Z" glyph-name="backslash.cap" horiz-adv-x="333" /><glyph d="M73 -84V650H146V-84Z" glyph-name="bar" horiz-adv-x="219" unicode="|" /><glyph d="M73 -64V670H146V-64Z" glyph-name="bar.cap" horiz-adv-x="219" /><glyph d="M175 206V21Q175 3 184.5 -6.5Q194 -16 211 -16H316V-84H212Q163 -84 132 -52.5Q101 -21 101 28V211Q101 229 92.5 238.5Q84 248 66 248H20V318H66Q84 318 92.5 327Q101 336 101 355V538Q101 587 132 618.5Q163 650 212 650H316V582H211Q194 582 184.5 572.5Q175 563 175 545V360Q175 332 163 313Q151 294 132 283Q151 272 163 253Q175 234 175 206Z" glyph-name="braceleft" horiz-adv-x="339" unicode="{" /><glyph d="M175 225V39Q175 21 184.5 12Q194 3 211 3H316V-66H212Q163 -66 132 -34.5Q101 -3 101 47V230Q101 248 92.5 257Q84 266 66 266H20V336H66Q84 336 92.5 345.5Q101 355 101 373V556Q101 606 132 637Q163 668 212 668H316V600H211Q194 600 184.5 591Q175 582 175 563V378Q175 350 163 331Q151 312 132 301Q151 290 163 271.5Q175 253 175 225Z" glyph-name="braceleft.cap" horiz-adv-x="339" /><glyph d="M164 21V206Q164 234 176 253Q188 272 207 283Q188 294 176 313Q164 332 164 360V545Q164 563 154.5 572.5Q145 582 128 582H23V650H127Q176 650 207 618.5Q238 587 238 538V355Q238 336 246.5 327Q255 318 273 318H319V248H273Q255 248 246.5 238.5Q238 229 238 211V28Q238 -21 207 -52.5Q176 -84 127 -84H23V-16H128Q145 -16 154.5 -6.5Q164 3 164 21Z" glyph-name="braceright" horiz-adv-x="339" unicode="}" /><glyph d="M164 39V225Q164 253 176 271.5Q188 290 207 301Q188 312 176 331Q164 350 164 378V563Q164 582 154.5 591Q145 600 128 600H23V668H127Q176 668 207 637Q238 606 238 556V373Q238 355 246.5 345.5Q255 336 273 336H319V266H273Q255 266 246.5 257Q238 248 238 230V47Q238 -3 207 -34.5Q176 -66 127 -66H23V3H128Q145 3 154.5 12Q164 21 164 39Z" glyph-name="braceright.cap" horiz-adv-x="339" /><glyph d="M145 582V-16H290V-84H73V650H290V582Z" glyph-name="bracketleft" horiz-adv-x="313" unicode="[" /><glyph d="M145 600V3H290V-66H73V668H290V600Z" glyph-name="bracketleft.cap" horiz-adv-x="313" /><glyph d="M168 -16V582H23V650H240V-84H23V-16Z" glyph-name="bracketright" horiz-adv-x="313" unicode="]" /><glyph d="M168 3V600H23V668H240V-66H23V3Z" glyph-name="bracketright.cap" horiz-adv-x="313" /><glyph d="M250 500Q200 500 168 533Q136 566 136 628H193Q193 594 207.5 574.5Q222 555 250 555Q278 555 292.5 574.5Q307 594 307 628H364Q364 566 332 533Q300 500 250 500Z" glyph-name="breve" horiz-adv-x="500" unicode="&#728;" /><glyph d="M249 666Q198 666 166 697Q134 728 134 786H191Q191 754 207.5 738Q224 722 249 722Q275 722 291.5 738Q308 754 308 786H365Q365 728 333 697Q301 666 249 666Z" glyph-name="breve.cap" horiz-adv-x="500" /><glyph d="M308 261Q308 201 268 163Q228 125 171 125Q114 125 74.5 163Q35 201 35 261Q35 321 74.5 359Q114 397 171 397Q228 397 268 359Q308 321 308 261Z" glyph-name="bullet" horiz-adv-x="343" unicode="&#8226;" /><glyph d="M308 301Q308 241 268 203Q228 165 171 165Q114 165 74.5 203Q35 241 35 301Q35 361 74.5 399Q114 437 171 437Q228 437 268 399Q308 361 308 301Z" glyph-name="bullet.cap" horiz-adv-x="343" /><glyph d="M35 222Q35 328 97 390.5Q159 453 249 453Q281 453 313 444.5Q345 436 368 416V340Q344 364 315 375Q286 386 254 386Q195 386 153 342Q111 298 111 222Q111 146 153 102Q195 58 254 58Q286 58 315 69Q344 80 368 104V28Q345 8 313 -0.5Q281 -9 249 -9Q159 -9 97 53.5Q35 116 35 222Z" glyph-name="c" horiz-adv-x="405" unicode="c" /><glyph d="M279 516H210L290 650H368ZM35 222Q35 328 97 390.5Q159 453 249 453Q281 453 313 444.5Q345 436 368 416V340Q344 364 315 375Q286 386 254 386Q195 386 153 342Q111 298 111 222Q111 146 153 102Q195 58 254 58Q286 58 315 69Q344 80 368 104V28Q345 8 313 -0.5Q281 -9 249 -9Q159 -9 97 53.5Q35 116 35 222Z" glyph-name="cacute" horiz-adv-x="405" unicode="&#263;" /><glyph d="M377 646 285 510H215L123 646H188L250 559L312 646Z" glyph-name="caron" horiz-adv-x="500" unicode="&#711;" /><glyph d="M258 486H198L231 650H291Z" glyph-name="caron.Slovak" horiz-adv-x="500" /><glyph d="M215 666 123 787H191L250 716L309 787H377L285 666Z" glyph-name="caron.cap" horiz-adv-x="500" /><glyph d="M369 646 277 510H207L115 646H180L242 559L304 646ZM35 222Q35 328 97 390.5Q159 453 249 453Q281 453 313 444.5Q345 436 368 416V340Q344 364 315 375Q286 386 254 386Q195 386 153 342Q111 298 111 222Q111 146 153 102Q195 58 254 58Q286 58 315 69Q344 80 368 104V28Q345 8 313 -0.5Q281 -9 249 -9Q159 -9 97 53.5Q35 116 35 222Z" glyph-name="ccaron" horiz-adv-x="405" unicode="&#269;" /><glyph d="M35 222Q35 328 97 390.5Q159 453 249 453Q281 453 313 444.5Q345 436 368 416V340Q344 364 315 375Q286 386 254 386Q195 386 153 342Q111 298 111 222Q111 146 153 102Q195 58 254 58Q286 58 315 69Q344 80 368 104V28Q345 8 313 -0.5Q281 -9 249 -9Q159 -9 97 53.5Q35 116 35 222ZM221 -183H150L216 -51H290Z" glyph-name="ccedilla" horiz-adv-x="405" unicode="&#231;" /><glyph d="M273 645 365 509H300L238 597L176 509H111L203 645ZM35 222Q35 328 97 390.5Q159 453 249 453Q281 453 313 444.5Q345 436 368 416V340Q344 364 315 375Q286 386 254 386Q195 386 153 342Q111 298 111 222Q111 146 153 102Q195 58 254 58Q286 58 315 69Q344 80 368 104V28Q345 8 313 -0.5Q281 -9 249 -9Q159 -9 97 53.5Q35 116 35 222Z" glyph-name="ccircumflex" horiz-adv-x="405" unicode="&#265;" /><glyph d="M35 222Q35 328 97 390.5Q159 453 249 453Q281 453 313 444.5Q345 436 368 416V340Q344 364 315 375Q286 386 254 386Q195 386 153 342Q111 298 111 222Q111 146 153 102Q195 58 254 58Q286 58 315 69Q344 80 368 104V28Q345 8 313 -0.5Q281 -9 249 -9Q159 -9 97 53.5Q35 116 35 222ZM290 578Q290 559 275.5 544.5Q261 530 242 530Q223 530 208.5 544.5Q194 559 194 578Q194 598 208.5 612Q223 626 242 626Q261 626 275.5 612Q290 598 290 578Z" glyph-name="cdotaccent" horiz-adv-x="405" unicode="&#267;" /><glyph d="M250 -183H179L245 -51H319Z" glyph-name="cedilla" horiz-adv-x="500" unicode="&#184;" /><glyph d="M250 -183H179L245 -51H319Z" glyph-name="cedilla.alt" horiz-adv-x="500" /><glyph d="M368 38Q349 22 324.5 13.5Q300 5 275 2V-87H207V5Q133 18 84 78.5Q35 139 35 232Q35 325 84 385.5Q133 446 207 459V548H275V462Q300 459 324.5 450.5Q349 442 368 426V350Q344 374 315 385Q286 396 254 396Q195 396 153 352Q111 308 111 232Q111 156 153 112Q195 68 254 68Q286 68 315 79Q344 90 368 114Z" glyph-name="cent" horiz-adv-x="405" unicode="&#162;" /><glyph d="M420 38Q401 22 376.5 13.5Q352 5 327 2V-87H258V5Q184 19 135 79Q86 139 86 232Q86 325 135 385Q184 445 258 459V548H327V462Q352 459 376.5 450.5Q401 442 420 426V350Q395 374 366.5 385Q338 396 305 396Q246 396 204 352Q162 308 162 232Q162 156 204 112Q246 68 305 68Q338 68 366.5 79Q395 90 420 114Z" glyph-name="cent.lt" horiz-adv-x="520" /><glyph d="M285 645 377 509H312L250 597L188 509H123L215 645Z" glyph-name="circumflex" horiz-adv-x="500" unicode="&#710;" /><glyph d="M285 791 377 669H309L250 740L191 669H123L215 791Z" glyph-name="circumflex.cap" horiz-adv-x="500" /><glyph d="M32 49Q32 72 48 88Q64 104 86 104Q108 104 123.5 88Q139 72 139 49Q139 26 123.5 10.5Q108 -5 86 -5Q64 -5 48 10.5Q32 26 32 49ZM32 363Q32 386 48 402Q64 418 86 418Q108 418 123.5 402Q139 386 139 363Q139 340 123.5 324.5Q108 309 86 309Q64 309 48 324.5Q32 340 32 363Z" glyph-name="colon" horiz-adv-x="171" unicode=":" /><glyph d="M76 49Q76 72 92 88Q108 104 130 104Q152 104 167.5 88Q183 72 183 49Q183 26 167.5 10.5Q152 -5 130 -5Q108 -5 92 10.5Q76 26 76 49ZM76 363Q76 386 92 402Q108 418 130 418Q152 418 167.5 402Q183 386 183 363Q183 340 167.5 324.5Q152 309 130 309Q108 309 92 324.5Q76 340 76 363Z" glyph-name="colon.tab" horiz-adv-x="260" /><glyph d="M13 -107 76 -1Q57 2 44.5 14.5Q32 27 32 49Q32 72 48 87Q64 102 86 102Q108 102 123.5 87Q139 72 139 44Q139 28 132.5 11.5Q126 -5 117 -19L64 -107Z" glyph-name="comma" horiz-adv-x="171" unicode="," /><glyph d="M57 -107 120 -1Q102 2 89.5 14.5Q77 27 77 49Q77 72 92.5 87Q108 102 130 102Q152 102 167.5 87Q183 72 183 44Q183 28 177 11.5Q171 -5 161 -19L108 -107Z" glyph-name="comma.tab" horiz-adv-x="260" /><glyph d="M204 -201 243 -137Q226 -135 214.5 -123Q203 -111 203 -93Q203 -72 217.5 -58.5Q232 -45 253 -45Q273 -45 287.5 -59Q302 -73 302 -95Q302 -111 295 -125Q288 -139 280 -152L251 -201Z" glyph-name="commaaccent" horiz-adv-x="500" unicode="&#63171;" /><glyph d="M297 680 257 615Q275 613 286.5 600.5Q298 588 298 569Q298 548 283.5 534.5Q269 521 247 521Q226 521 211.5 535Q197 549 197 572Q197 588 203.5 603Q210 618 219 631L248 680Z" glyph-name="commaturn" horiz-adv-x="500" /><glyph d="M669 307Q669 170 576 80.5Q483 -9 353 -9Q223 -9 130 80.5Q37 170 37 307Q37 444 130 533.5Q223 623 353 623Q483 623 576 533.5Q669 444 669 307ZM630 307Q630 427 548 505.5Q466 584 353 584Q240 584 158 505.5Q76 427 76 307Q76 187 158 108.5Q240 30 353 30Q466 30 548 108.5Q630 187 630 307ZM173 309Q173 399 226.5 453.5Q280 508 363 508Q395 508 420 500.5Q445 493 464 480V407Q442 424 418.5 432.5Q395 441 369 441Q315 441 281 405Q247 369 247 309Q247 249 281 213.5Q315 178 369 178Q395 178 418.5 186Q442 194 464 211V138Q445 125 420 117.5Q395 110 363 110Q280 110 226.5 164.5Q173 219 173 309Z" glyph-name="copyright" horiz-adv-x="706" unicode="&#169;" /><glyph d="M360 132V312Q343 346 312 365.5Q281 385 246 385Q183 385 147 338.5Q111 292 111 222Q111 152 147 105.5Q183 59 246 59Q281 59 312 78.5Q343 98 360 132ZM360 0V52Q344 28 310 9.5Q276 -9 235 -9Q138 -9 86.5 59.5Q35 128 35 222Q35 315 86.5 384Q138 453 235 453Q276 453 310 434.5Q344 416 360 392V650H436V0Z" glyph-name="d" horiz-adv-x="502" unicode="d" /><glyph d="M286 502H187V295H129V502H30V558H129V650H187V558H286Z" glyph-name="dagger" horiz-adv-x="317" unicode="&#8224;" /><glyph d="M292 380H191V295H133V380H34V432H133V512H34V565H133V650H191V565H292V512H191V432H292Z" glyph-name="daggerdbl" horiz-adv-x="325" unicode="&#8225;" /><glyph d="M549 486H489L522 650H582ZM360 132V312Q343 346 312 365.5Q281 385 246 385Q183 385 147 338.5Q111 292 111 222Q111 152 147 105.5Q183 59 246 59Q281 59 312 78.5Q343 98 360 132ZM360 0V52Q344 28 310 9.5Q276 -9 235 -9Q138 -9 86.5 59.5Q35 128 35 222Q35 315 86.5 384Q138 453 235 453Q276 453 310 434.5Q344 416 360 392V650H436V0Z" glyph-name="dcaron" horiz-adv-x="502" unicode="&#271;" /><glyph d="M360 132V312Q343 346 312 365.5Q281 385 246 385Q183 385 147 338.5Q111 292 111 222Q111 152 147 105.5Q183 59 246 59Q281 59 312 78.5Q343 98 360 132ZM360 52Q344 28 310 9.5Q276 -9 235 -9Q138 -9 86.5 59.5Q35 128 35 222Q35 315 86.5 384Q138 453 235 453Q276 453 310 434.5Q344 416 360 392V511H252V565H360V650H436V565H492V511H436V0H360Z" glyph-name="dcroat" horiz-adv-x="502" unicode="&#273;" /><glyph d="M291 499Q291 448 255 411.5Q219 375 168 375Q117 375 81 411.5Q45 448 45 499Q45 550 81 586.5Q117 623 168 623Q219 623 255 586.5Q291 550 291 499ZM100 499Q100 471 120 451Q140 431 168 431Q196 431 216 451Q236 471 236 499Q236 527 216 547.5Q196 568 168 568Q140 568 120 547.5Q100 527 100 499Z" glyph-name="degree" horiz-adv-x="336" unicode="&#176;" /><glyph d="M274 571Q274 591 287 604.5Q300 618 319 618Q338 618 352 604.5Q366 591 366 571Q366 552 352 538.5Q338 525 319 525Q300 525 287 538.5Q274 552 274 571ZM133 571Q133 591 147 604.5Q161 618 180 618Q199 618 212.5 604.5Q226 591 226 571Q226 552 212.5 538.5Q199 525 180 525Q161 525 147 538.5Q133 552 133 571Z" glyph-name="dieresis" horiz-adv-x="500" unicode="&#168;" /><glyph d="M274 722Q274 741 287 754.5Q300 768 319 768Q338 768 352 754.5Q366 741 366 722Q366 703 352 689.5Q338 676 319 676Q300 676 287 689.5Q274 703 274 722ZM133 722Q133 741 147 754.5Q161 768 180 768Q199 768 212.5 754.5Q226 741 226 722Q226 703 212.5 689.5Q199 676 180 676Q161 676 147 689.5Q133 703 133 722Z" glyph-name="dieresis.cap" horiz-adv-x="500" /><glyph d="M220 458Q220 479 234.5 494Q249 509 270 509Q291 509 306 494Q321 479 321 458Q321 437 306 422Q291 407 270 407Q249 407 234.5 422Q220 437 220 458ZM73 266V328H467V266ZM220 136Q220 157 234.5 172Q249 187 270 187Q291 187 306 172Q321 157 321 136Q321 115 306 100Q291 85 270 85Q249 85 234.5 100Q220 115 220 136Z" glyph-name="divide" horiz-adv-x="540" unicode="&#247;" /><glyph d="M210 458Q210 479 224.5 494Q239 509 260 509Q280 509 295 494Q310 479 310 458Q310 437 295 422Q280 407 260 407Q239 407 224.5 422Q210 437 210 458ZM62 266V328H457V266ZM210 136Q210 157 224.5 172Q239 187 260 187Q280 187 295 172Q310 157 310 136Q310 115 295 100Q280 85 260 85Q239 85 224.5 100Q210 115 210 136Z" glyph-name="divide.lt" horiz-adv-x="520" /><glyph d="M263 -89H194V9Q147 13 107 28Q67 43 42 62V144Q82 110 128.5 93.5Q175 77 224 77Q279 77 313 99.5Q347 122 347 166Q347 204 324 224Q301 244 256 263L171 296Q119 316 79.5 350Q40 384 40 453Q40 520 85 558.5Q130 597 194 604V695H263V604Q300 600 333.5 588Q367 576 393 558V478Q358 506 317.5 522Q277 538 227 538Q179 538 146 517.5Q113 497 113 454Q113 417 136.5 398.5Q160 380 200 365L292 329Q358 303 389 265Q420 227 420 167Q420 102 376 61Q332 20 263 11Z" glyph-name="dollar" horiz-adv-x="458" unicode="$" /><glyph d="M293 -89H225V9Q177 13 137.5 28Q98 43 72 62V144Q112 110 158.5 93.5Q205 77 254 77Q309 77 343 99.5Q377 122 377 166Q377 204 354.5 224Q332 244 286 263L201 296Q150 316 110 350Q70 384 70 453Q70 520 115.5 558.5Q161 597 225 604V695H293V604Q330 600 363.5 588Q397 576 423 558V478Q388 506 348 522Q308 538 258 538Q209 538 176 517.5Q143 497 143 454Q143 417 166.5 398.5Q190 380 230 365L322 329Q388 303 419.5 265Q451 227 451 167Q451 102 406.5 61Q362 20 293 11Z" glyph-name="dollar.lt" horiz-adv-x="520" /><glyph d="M298 578Q298 559 283.5 544.5Q269 530 250 530Q231 530 216.5 544.5Q202 559 202 578Q202 598 216.5 612Q231 626 250 626Q269 626 283.5 612Q298 598 298 578Z" glyph-name="dotaccent" horiz-adv-x="500" unicode="&#729;" /><glyph d="M298 721Q298 702 283.5 687.5Q269 673 250 673Q231 673 216.5 687.5Q202 702 202 721Q202 741 216.5 755.5Q231 770 250 770Q269 770 283.5 755.5Q298 741 298 721Z" glyph-name="dotaccent.cap" horiz-adv-x="500" /><glyph d="M298 -108Q298 -128 283.5 -142Q269 -156 250 -156Q231 -156 216.5 -142Q202 -128 202 -108Q202 -88 216.5 -74Q231 -60 250 -60Q269 -60 283.5 -74Q298 -88 298 -108Z" glyph-name="dotbelow" horiz-adv-x="500" /><glyph d="M142 444V0H67V444Z" glyph-name="dotlessi" horiz-adv-x="209" unicode="&#305;" /><glyph d="M142 444V-51Q142 -113 108.5 -146Q75 -179 13 -179Q6 -179 -3.5 -178Q-13 -177 -19 -175V-111Q-15 -112 -7.5 -113Q0 -114 7 -114Q36 -114 51.5 -98.5Q67 -83 67 -46V444Z" glyph-name="dotlessj" horiz-adv-x="207" unicode="&#567;" /><glyph d="M234 389Q191 389 157 359Q123 329 113 268H342Q340 317 314 353Q288 389 234 389ZM384 30Q357 9 323 0Q289 -9 249 -9Q153 -9 94 52.5Q35 114 35 218Q35 321 90 387Q145 453 233 453Q323 453 369 393Q415 333 415 236V209H109Q112 132 155 94.5Q198 57 258 57Q295 57 324.5 67Q354 77 384 99Z" glyph-name="e" horiz-adv-x="450" unicode="e" /><glyph d="M267 516H198L278 650H356ZM234 389Q191 389 157 359Q123 329 113 268H342Q340 317 314 353Q288 389 234 389ZM384 30Q357 9 323 0Q289 -9 249 -9Q153 -9 94 52.5Q35 114 35 218Q35 321 90 387Q145 453 233 453Q323 453 369 393Q415 333 415 236V209H109Q112 132 155 94.5Q198 57 258 57Q295 57 324.5 67Q354 77 384 99Z" glyph-name="eacute" horiz-adv-x="450" unicode="&#233;" /><glyph d="M234 389Q191 389 157 359Q123 329 113 268H342Q340 317 314 353Q288 389 234 389ZM384 30Q357 9 323 0Q289 -9 249 -9Q153 -9 94 52.5Q35 114 35 218Q35 321 90 387Q145 453 233 453Q323 453 369 393Q415 333 415 236V209H109Q112 132 155 94.5Q198 57 258 57Q295 57 324.5 67Q354 77 384 99ZM237 500Q187 500 155 533Q123 566 123 628H180Q180 594 194.5 574.5Q209 555 237 555Q265 555 279.5 574.5Q294 594 294 628H351Q351 566 319 533Q287 500 237 500Z" glyph-name="ebreve" horiz-adv-x="450" unicode="&#277;" /><glyph d="M364 646 272 510H202L110 646H175L237 559L299 646ZM234 389Q191 389 157 359Q123 329 113 268H342Q340 317 314 353Q288 389 234 389ZM384 30Q357 9 323 0Q289 -9 249 -9Q153 -9 94 52.5Q35 114 35 218Q35 321 90 387Q145 453 233 453Q323 453 369 393Q415 333 415 236V209H109Q112 132 155 94.5Q198 57 258 57Q295 57 324.5 67Q354 77 384 99Z" glyph-name="ecaron" horiz-adv-x="450" unicode="&#283;" /><glyph d="M272 645 364 509H299L237 597L175 509H110L202 645ZM234 389Q191 389 157 359Q123 329 113 268H342Q340 317 314 353Q288 389 234 389ZM384 30Q357 9 323 0Q289 -9 249 -9Q153 -9 94 52.5Q35 114 35 218Q35 321 90 387Q145 453 233 453Q323 453 369 393Q415 333 415 236V209H109Q112 132 155 94.5Q198 57 258 57Q295 57 324.5 67Q354 77 384 99Z" glyph-name="ecircumflex" horiz-adv-x="450" unicode="&#234;" /><glyph d="M262 571Q262 591 275 604.5Q288 618 307 618Q326 618 340 604.5Q354 591 354 571Q354 552 340 538.5Q326 525 307 525Q288 525 275 538.5Q262 552 262 571ZM121 571Q121 591 135 604.5Q149 618 168 618Q187 618 200.5 604.5Q214 591 214 571Q214 552 200.5 538.5Q187 525 168 525Q149 525 135 538.5Q121 552 121 571ZM234 389Q191 389 157 359Q123 329 113 268H342Q340 317 314 353Q288 389 234 389ZM384 30Q357 9 323 0Q289 -9 249 -9Q153 -9 94 52.5Q35 114 35 218Q35 321 90 387Q145 453 233 453Q323 453 369 393Q415 333 415 236V209H109Q112 132 155 94.5Q198 57 258 57Q295 57 324.5 67Q354 77 384 99Z" glyph-name="edieresis" horiz-adv-x="450" unicode="&#235;" /><glyph d="M234 389Q191 389 157 359Q123 329 113 268H342Q340 317 314 353Q288 389 234 389ZM384 30Q357 9 323 0Q289 -9 249 -9Q153 -9 94 52.5Q35 114 35 218Q35 321 90 387Q145 453 233 453Q323 453 369 393Q415 333 415 236V209H109Q112 132 155 94.5Q198 57 258 57Q295 57 324.5 67Q354 77 384 99ZM285 578Q285 559 270.5 544.5Q256 530 237 530Q218 530 203.5 544.5Q189 559 189 578Q189 598 203.5 612Q218 626 237 626Q256 626 270.5 612Q285 598 285 578Z" glyph-name="edotaccent" horiz-adv-x="450" unicode="&#279;" /><glyph d="M234 389Q191 389 157 359Q123 329 113 268H342Q340 317 314 353Q288 389 234 389ZM384 30Q357 9 323 0Q289 -9 249 -9Q153 -9 94 52.5Q35 114 35 218Q35 321 90 387Q145 453 233 453Q323 453 369 393Q415 333 415 236V209H109Q112 132 155 94.5Q198 57 258 57Q295 57 324.5 67Q354 77 384 99ZM276 516H207L118 650H196Z" glyph-name="egrave" horiz-adv-x="450" unicode="&#232;" /><glyph d="M243 -9Q155 -9 94.5 39.5Q34 88 34 167Q34 227 68.5 268.5Q103 310 154 323Q111 338 83.5 374.5Q56 411 56 461Q56 535 110.5 579Q165 623 243 623Q321 623 376 579Q431 535 431 461Q431 411 403 374.5Q375 338 333 323Q383 310 418 268.5Q453 227 453 167Q453 88 392.5 39.5Q332 -9 243 -9ZM243 356Q291 356 323.5 384Q356 412 356 457Q356 503 323.5 531Q291 559 243 559Q196 559 163.5 531Q131 503 131 457Q131 412 163.5 384Q196 356 243 356ZM243 55Q301 55 339 88Q377 121 377 173Q377 224 339 257Q301 290 243 290Q186 290 148 257Q110 224 110 173Q110 121 148 88Q186 55 243 55Z" glyph-name="eight" horiz-adv-x="487" unicode="8" /><glyph d="M261 -9Q171 -9 110 39.5Q49 88 49 167Q49 227 84 268.5Q119 310 170 323Q127 338 99 374.5Q71 411 71 461Q71 535 127 579Q183 623 261 623Q341 623 396.5 579Q452 535 452 461Q452 411 424 374.5Q396 338 353 323Q404 310 439 268.5Q474 227 474 167Q474 88 412.5 39.5Q351 -9 261 -9ZM261 356Q310 356 343.5 384Q377 412 377 457Q377 503 343.5 531Q310 559 261 559Q213 559 179.5 531Q146 503 146 457Q146 412 179.5 384Q213 356 261 356ZM261 55Q320 55 359.5 88Q399 121 399 173Q399 224 359.5 257Q320 290 261 290Q203 290 163.5 257Q124 224 124 173Q124 121 163.5 88Q203 55 261 55Z" glyph-name="eight.lt" horiz-adv-x="520" /><glyph d="M415 49Q415 72 431 88Q447 104 469 104Q491 104 506.5 88Q522 72 522 49Q522 26 506.5 10.5Q491 -5 469 -5Q447 -5 431 10.5Q415 26 415 49ZM224 49Q224 72 239.5 88Q255 104 277 104Q299 104 315 88Q331 72 331 49Q331 26 315 10.5Q299 -5 277 -5Q255 -5 239.5 10.5Q224 26 224 49ZM32 49Q32 72 48 88Q64 104 86 104Q108 104 123.5 88Q139 72 139 49Q139 26 123.5 10.5Q108 -5 86 -5Q64 -5 48 10.5Q32 26 32 49Z" glyph-name="ellipsis" horiz-adv-x="554" unicode="&#8230;" /><glyph d="M234 389Q191 389 157 359Q123 329 113 268H342Q340 317 314 353Q288 389 234 389ZM384 30Q357 9 323 0Q289 -9 249 -9Q153 -9 94 52.5Q35 114 35 218Q35 321 90 387Q145 453 233 453Q323 453 369 393Q415 333 415 236V209H109Q112 132 155 94.5Q198 57 258 57Q295 57 324.5 67Q354 77 384 99ZM131 530V591H344V530Z" glyph-name="emacron" horiz-adv-x="450" unicode="&#275;" /><glyph d="M40 231V292H806V231Z" glyph-name="emdash" horiz-adv-x="846" unicode="&#8212;" /><glyph d="M40 271V332H806V271Z" glyph-name="emdash.cap" horiz-adv-x="846" /><glyph d="M40 231V292H435V231Z" glyph-name="endash" horiz-adv-x="475" unicode="&#8211;" /><glyph d="M40 271V332H435V271Z" glyph-name="endash.cap" horiz-adv-x="475" /><glyph d="M353 -46V279Q353 325 329 354.5Q305 384 255 384Q216 384 185 360.5Q154 337 142 301V0H67V444H142V388Q161 414 195.5 433.5Q230 453 273 453Q348 453 388.5 408Q429 363 429 291V-51Q429 -113 395.5 -146Q362 -179 300 -179Q293 -179 283 -178Q273 -177 268 -175V-111Q272 -112 279 -113Q286 -114 293 -114Q322 -114 337.5 -98.5Q353 -83 353 -46Z" glyph-name="eng" horiz-adv-x="489" unicode="&#331;" /><glyph d="M219 -118Q219 -90 232.5 -62.5Q246 -35 274 -7Q270 -8 261.5 -8.5Q253 -9 249 -9Q153 -9 94 52.5Q35 114 35 218Q35 321 90 387Q145 453 233 453Q323 453 369 393Q415 333 415 236V209H109Q112 131 155 94Q198 57 258 57Q295 57 324.5 67Q354 77 384 99V30Q374 23 362.5 16Q351 9 338 0Q315 -19 296.5 -47Q278 -75 278 -102Q278 -118 284.5 -125Q291 -132 301 -132Q311 -132 319.5 -128Q328 -124 338 -117V-167Q328 -175 315 -180.5Q302 -186 286 -186Q255 -186 237 -167.5Q219 -149 219 -118ZM234 389Q190 389 156.5 358.5Q123 328 113 268H342Q340 317 314 353Q288 389 234 389Z" glyph-name="eogonek" horiz-adv-x="450" unicode="&#281;" /><glyph d="M79 337V397H473V337ZM79 199V257H473V199Z" glyph-name="equal" horiz-adv-x="551" unicode="=" /><glyph d="M62 337V397H457V337ZM62 199V257H457V199Z" glyph-name="equal.lt" horiz-adv-x="520" /><glyph d="M239 -9Q148 -9 91.5 55Q35 119 35 220Q35 321 90.5 385.5Q146 450 231 450Q266 450 291.5 437.5Q317 425 334 406H337Q326 431 301.5 463Q277 495 243 529L139 494L121 541L201 568Q178 588 152.5 607.5Q127 627 101 646V650H199Q218 637 237 622.5Q256 608 273 592L358 620L375 573L312 552Q372 485 407.5 401.5Q443 318 443 226Q443 121 386 56Q329 -9 239 -9ZM367 220Q367 292 333 338Q299 384 239 384Q179 384 145 338Q111 292 111 220Q111 148 145 102.5Q179 57 239 57Q299 57 333 102.5Q367 148 367 220Z" glyph-name="eth" horiz-adv-x="478" unicode="&#240;" /><glyph d="M74 193 57 614H146L128 193ZM48 49Q48 72 63.5 88Q79 104 101 104Q123 104 139 88Q155 72 155 49Q155 26 139 10.5Q123 -5 101 -5Q79 -5 63.5 10.5Q48 26 48 49Z" glyph-name="exclam" horiz-adv-x="203" unicode="!" /><glyph d="M101 414Q79 414 63.5 430Q48 446 48 469Q48 492 63.5 507.5Q79 523 101 523Q123 523 139 507.5Q155 492 155 469Q155 446 139 430Q123 414 101 414ZM57 -96 74 325H128L146 -96Z" glyph-name="exclamdown" horiz-adv-x="209" unicode="&#161;" /><glyph d="M101 510Q79 510 63.5 526Q48 542 48 565Q48 588 63.5 603.5Q79 619 101 619Q123 619 139 603.5Q155 588 155 565Q155 542 139 526Q123 510 101 510ZM57 0 74 421H128L146 0Z" glyph-name="exclamdown.cap" horiz-adv-x="203" /><glyph d="M289 649V581Q279 588 266.5 590.5Q254 593 242 593Q209 593 189 572.5Q169 552 169 512V444H269V380H169V0H95V380H20V444H95V518Q95 584 134 621.5Q173 659 231 659Q249 659 262.5 656.5Q276 654 289 649Z" glyph-name="f" horiz-adv-x="289" unicode="f" /><glyph d="M550 649V581Q539 588 527 590.5Q515 593 502 593Q470 593 450 572.5Q430 552 430 512V444H530V380H430V0H355V380H169V0H95V380H20V444H95V512Q95 578 134 615.5Q173 653 231 653Q249 653 262.5 650.5Q276 648 289 643V575Q279 582 266.5 584.5Q254 587 242 587Q209 587 189 566.5Q169 546 169 506V444H355V518Q355 584 394 621.5Q433 659 491 659Q509 659 523 656.5Q537 654 550 649Z" glyph-name="f_f" horiz-adv-x="550" unicode="&#64256;" /><glyph d="M442 578Q442 559 427.5 544.5Q413 530 393 530Q374 530 359.5 544.5Q345 559 345 578Q345 598 359.5 612Q374 626 393 626Q413 626 427.5 612Q442 598 442 578ZM431 444V0H356V444ZM289 649V581Q279 588 266.5 590.5Q254 593 242 593Q209 593 189 572.5Q169 552 169 512V444H269V380H169V0H95V380H20V444H95V518Q95 584 134 621.5Q173 659 231 659Q249 659 262.5 656.5Q276 654 289 649Z" glyph-name="fi" horiz-adv-x="498" unicode="&#64257;" /><glyph d="M196 385Q286 385 349 333.5Q412 282 412 189Q412 96 348.5 43.5Q285 -9 192 -9Q141 -9 102 4.5Q63 18 34 40V125Q67 93 105.5 76Q144 59 189 59Q250 59 294.5 93.5Q339 128 339 189Q339 249 294.5 283.5Q250 318 188 318Q146 318 117.5 310Q89 302 58 289V614H380V544H123V375Q136 380 155 382.5Q174 385 196 385Z" glyph-name="five" horiz-adv-x="446" unicode="5" /><glyph d="M233 385Q327 385 392.5 333.5Q458 282 458 189Q458 96 392 43.5Q326 -9 230 -9Q176 -9 136 4.5Q96 18 65 40V125Q99 93 140 76Q181 59 227 59Q290 59 337.5 93Q385 127 385 189Q385 249 337.5 283.5Q290 318 226 318Q182 318 152.5 310Q123 302 90 289V614H425V544H155V374Q169 378 190 381.5Q211 385 233 385Z" glyph-name="five.lt" horiz-adv-x="520" /><glyph d="M431 650V0H356V650ZM289 649V581Q279 588 266.5 590.5Q254 593 242 593Q209 593 189 572.5Q169 552 169 512V444H269V380H169V0H95V380H20V444H95V518Q95 584 134 621.5Q173 659 231 659Q249 659 262.5 656.5Q276 654 289 649Z" glyph-name="fl" horiz-adv-x="498" unicode="&#64258;" /><glyph d="M18 -177Q-1 -177 -15 -174Q-29 -171 -42 -165V-97Q-29 -104 -12.5 -107.5Q4 -111 17 -111Q50 -111 63.5 -90Q77 -69 84 -33L139 281H68V344H151L175 482Q187 548 227 585.5Q267 623 330 623Q347 623 362.5 620Q378 617 391 611V543Q378 550 363 553.5Q348 557 331 557Q299 557 277.5 536Q256 515 249 476L226 344H322V281H215L158 -39Q147 -102 115 -139.5Q83 -177 18 -177Z" glyph-name="florin" horiz-adv-x="405" unicode="&#402;" /><glyph d="M103 -177Q84 -177 70 -174Q56 -171 43 -165V-97Q56 -104 72.5 -107.5Q89 -111 102 -111Q135 -111 148.5 -90Q162 -69 169 -33L224 281H153V344H236L260 482Q272 548 312 585.5Q352 623 415 623Q432 623 447.5 620Q463 617 476 611V543Q463 550 448 553.5Q433 557 416 557Q384 557 362.5 536Q341 515 334 476L311 344H407V281H300L243 -39Q232 -102 200 -139.5Q168 -177 103 -177Z" glyph-name="florin.lt" horiz-adv-x="520" /><glyph d="M314 614 127 205H309V353H382V205H484V139H382V0H309V139H20V143L237 614Z" glyph-name="four" horiz-adv-x="508" unicode="4" /><glyph d="M323 614 136 205H318V353H391V205H493V139H391V0H318V139H29V143L245 614Z" glyph-name="four.lt" horiz-adv-x="520" /><glyph d="M330 614 -53 0H-120L263 614Z" glyph-name="fraction" horiz-adv-x="210" unicode="&#8260;" /><glyph d="M357 136V317Q340 348 310 367Q280 386 244 386Q181 386 146 340.5Q111 295 111 226Q111 157 146 112Q181 67 244 67Q280 67 310 86Q340 105 357 136ZM357 30V59Q341 36 307.5 17.5Q274 -1 233 -1Q136 -1 85.5 68Q35 137 35 226Q35 315 85.5 384Q136 453 233 453Q274 453 307.5 435Q341 417 357 394V444H433V35Q433 -81 364 -130.5Q295 -180 216 -180Q173 -180 135.5 -169Q98 -158 73 -140V-57Q106 -88 141.5 -100Q177 -112 216 -112Q275 -112 316 -76.5Q357 -41 357 30Z" glyph-name="g" horiz-adv-x="499" unicode="g" /><glyph d="M357 136V317Q340 348 310 367Q280 386 244 386Q181 386 146 340.5Q111 295 111 226Q111 157 146 112Q181 67 244 67Q280 67 310 86Q340 105 357 136ZM357 30V59Q341 36 307.5 17.5Q274 -1 233 -1Q136 -1 85.5 68Q35 137 35 226Q35 315 85.5 384Q136 453 233 453Q274 453 307.5 435Q341 417 357 394V444H433V35Q433 -81 364 -130.5Q295 -180 216 -180Q173 -180 135.5 -169Q98 -158 73 -140V-57Q106 -88 141.5 -100Q177 -112 216 -112Q275 -112 316 -76.5Q357 -41 357 30ZM259 500Q209 500 177 533Q145 566 145 628H202Q202 594 216.5 574.5Q231 555 259 555Q287 555 301.5 574.5Q316 594 316 628H373Q373 566 341 533Q309 500 259 500Z" glyph-name="gbreve" horiz-adv-x="499" unicode="&#287;" /><glyph d="M294 645 386 509H321L259 597L197 509H132L224 645ZM357 136V317Q340 348 310 367Q280 386 244 386Q181 386 146 340.5Q111 295 111 226Q111 157 146 112Q181 67 244 67Q280 67 310 86Q340 105 357 136ZM357 30V59Q341 36 307.5 17.5Q274 -1 233 -1Q136 -1 85.5 68Q35 137 35 226Q35 315 85.5 384Q136 453 233 453Q274 453 307.5 435Q341 417 357 394V444H433V35Q433 -81 364 -130.5Q295 -180 216 -180Q173 -180 135.5 -169Q98 -158 73 -140V-57Q106 -88 141.5 -100Q177 -112 216 -112Q275 -112 316 -76.5Q357 -41 357 30Z" glyph-name="gcircumflex" horiz-adv-x="499" unicode="&#285;" /><glyph d="M306 680 266 615Q284 613 295.5 600.5Q307 588 307 569Q307 548 292.5 534.5Q278 521 256 521Q235 521 220.5 535Q206 549 206 572Q206 588 212.5 603Q219 618 228 631L257 680ZM357 136V317Q340 348 310 367Q280 386 244 386Q181 386 146 340.5Q111 295 111 226Q111 157 146 112Q181 67 244 67Q280 67 310 86Q340 105 357 136ZM357 30V59Q341 36 307.5 17.5Q274 -1 233 -1Q136 -1 85.5 68Q35 137 35 226Q35 315 85.5 384Q136 453 233 453Q274 453 307.5 435Q341 417 357 394V444H433V35Q433 -81 364 -130.5Q295 -180 216 -180Q173 -180 135.5 -169Q98 -158 73 -140V-57Q106 -88 141.5 -100Q177 -112 216 -112Q275 -112 316 -76.5Q357 -41 357 30Z" glyph-name="gcommaaccent" horiz-adv-x="499" unicode="&#291;" /><glyph d="M357 136V317Q340 348 310 367Q280 386 244 386Q181 386 146 340.5Q111 295 111 226Q111 157 146 112Q181 67 244 67Q280 67 310 86Q340 105 357 136ZM357 30V59Q341 36 307.5 17.5Q274 -1 233 -1Q136 -1 85.5 68Q35 137 35 226Q35 315 85.5 384Q136 453 233 453Q274 453 307.5 435Q341 417 357 394V444H433V35Q433 -81 364 -130.5Q295 -180 216 -180Q173 -180 135.5 -169Q98 -158 73 -140V-57Q106 -88 141.5 -100Q177 -112 216 -112Q275 -112 316 -76.5Q357 -41 357 30ZM307 578Q307 559 292.5 544.5Q278 530 259 530Q240 530 225.5 544.5Q211 559 211 578Q211 598 225.5 612Q240 626 259 626Q278 626 292.5 612Q307 598 307 578Z" glyph-name="gdotaccent" horiz-adv-x="499" unicode="&#289;" /><glyph d="M67 0V518Q67 584 106 621.5Q145 659 202 659Q221 659 234.5 656.5Q248 654 261 649V581Q250 588 238 590.5Q226 593 214 593Q181 593 161 572.5Q141 552 141 512V444H470V440L336 232Q388 207 426 160.5Q464 114 464 46Q464 -59 389 -119Q314 -179 186 -179V-113Q280 -114 335 -73Q390 -32 390 46Q390 103 350.5 141Q311 179 248 201V205L359 380H141V0Z" glyph-name="germandbls" horiz-adv-x="500" unicode="&#223;" /><glyph d="M329 516H260L171 650H249Z" glyph-name="grave" horiz-adv-x="500" unicode="`" /><glyph d="M333 668H258L166 785H253Z" glyph-name="grave.cap" horiz-adv-x="500" /><glyph d="M362 334V256L65 105V176L303 295L65 414V485Z" glyph-name="greater" horiz-adv-x="423" unicode="&gt;" /><glyph d="M408 334V256L111 105V176L349 295L111 414V485Z" glyph-name="greater.lt" horiz-adv-x="520" /><glyph d="M364 382V308L67 187V254L296 345L67 435V503ZM364 153V91H67V153Z" glyph-name="greaterequal" horiz-adv-x="427" unicode="&#8805;" /><glyph d="M408 382V308L111 187V254L340 345L111 435V503ZM408 153V91H111V153Z" glyph-name="greaterequal.lt" horiz-adv-x="520" /><glyph d="M332 74H262L170 222L262 370H332L240 222ZM187 74H117L25 222L117 370H187L95 222Z" glyph-name="guillemotleft" horiz-adv-x="357" unicode="&#171;" /><glyph d="M332 158H262L170 305L262 453H332L240 305ZM187 158H117L25 305L117 453H187L95 305Z" glyph-name="guillemotleft.cap" horiz-adv-x="357" /><glyph d="M95 74H25L117 222L25 370H95L187 222ZM240 74H170L262 222L170 370H240L332 222Z" glyph-name="guillemotright" horiz-adv-x="357" unicode="&#187;" /><glyph d="M95 158H25L117 305L25 453H95L187 305ZM240 158H170L262 305L170 453H240L332 305Z" glyph-name="guillemotright.cap" horiz-adv-x="357" /><glyph d="M190 74H117L25 222L117 370H190L98 222Z" glyph-name="guilsinglleft" horiz-adv-x="215" unicode="&#8249;" /><glyph d="M190 158H117L25 305L117 453H190L98 305Z" glyph-name="guilsinglleft.cap" horiz-adv-x="215" /><glyph d="M98 74H25L117 222L25 370H98L190 222Z" glyph-name="guilsinglright" horiz-adv-x="215" unicode="&#8250;" /><glyph d="M98 158H25L117 305L25 453H98L190 305Z" glyph-name="guilsinglright.cap" horiz-adv-x="215" /><glyph d="M67 0V650H142V388Q161 414 195.5 433.5Q230 453 273 453Q348 453 388.5 408Q429 363 429 291V0H353V279Q353 325 329 354.5Q305 384 255 384Q216 384 185 360.5Q154 337 142 301V0Z" glyph-name="h" horiz-adv-x="489" unicode="h" /><glyph d="M142 301V0H67V511H10V565H67V650H142V565H250V511H142V388Q161 414 195.5 433.5Q230 453 273 453Q348 453 388.5 408Q429 363 429 291V0H353V279Q353 325 329 354.5Q305 384 255 384Q216 384 185 360.5Q154 337 142 301Z" glyph-name="hbar" horiz-adv-x="489" unicode="&#295;" /><glyph d="M67 0V650H142V388Q161 414 195.5 433.5Q230 453 273 453Q348 453 388.5 408Q429 363 429 291V0H353V279Q353 325 329 354.5Q305 384 255 384Q216 384 185 360.5Q154 337 142 301V0ZM282 804 374 682H306L247 753L188 682H120L212 804Z" glyph-name="hcircumflex" horiz-adv-x="489" unicode="&#293;" /><glyph d="M307 516H244L311 650H375ZM188 516H125L191 650H256Z" glyph-name="hungarumlaut" horiz-adv-x="500" unicode="&#733;" /><glyph d="M310 668H245L311 785H378ZM187 668H122L189 785H255Z" glyph-name="hungarumlaut.cap" horiz-adv-x="500" /><glyph d="M40 226V296H281V226Z" glyph-name="hyphen" horiz-adv-x="321" unicode="-" /><glyph d="M40 266V336H281V266Z" glyph-name="hyphen.cap" horiz-adv-x="321" /><glyph d="M153 578Q153 559 138.5 544.5Q124 530 104 530Q85 530 70.5 544.5Q56 559 56 578Q56 598 70.5 612Q85 626 104 626Q124 626 138.5 612Q153 598 153 578ZM142 444V0H67V444Z" glyph-name="i" horiz-adv-x="209" unicode="i" /><glyph d="M134 516H65L145 650H223ZM142 444V0H67V444Z" glyph-name="iacute" horiz-adv-x="209" unicode="&#237;" /><glyph d="M105 500Q60 500 31.5 533Q3 566 3 628H58Q58 594 69 574.5Q80 555 105 555Q129 555 140 574.5Q151 594 151 628H206Q206 566 178 533Q150 500 105 500ZM142 444V0H67V444Z" glyph-name="ibreve" horiz-adv-x="209" unicode="&#301;" /><glyph d="M139 645 213 509H149L104 594L59 509H-4L70 645ZM142 444V0H67V444Z" glyph-name="icircumflex" horiz-adv-x="209" unicode="&#238;" /><glyph d="M121 571Q121 591 134 604.5Q147 618 166 618Q185 618 199 604.5Q213 591 213 571Q213 552 199 538.5Q185 525 166 525Q147 525 134 538.5Q121 552 121 571ZM-3 571Q-3 591 10.5 604.5Q24 618 43 618Q62 618 75.5 604.5Q89 591 89 571Q89 552 75.5 538.5Q62 525 43 525Q24 525 10.5 538.5Q-3 552 -3 571ZM142 444V0H67V444Z" glyph-name="idieresis" horiz-adv-x="209" unicode="&#239;" /><glyph d="M142 444V0H67V444ZM152 578Q152 559 137.5 544.5Q123 530 104 530Q85 530 70.5 544.5Q56 559 56 578Q56 598 70.5 612Q85 626 104 626Q123 626 137.5 612Q152 598 152 578Z" glyph-name="idotaccent" horiz-adv-x="209" /><glyph d="M142 444V0H67V444ZM143 516H74L-15 650H63Z" glyph-name="igrave" horiz-adv-x="209" unicode="&#236;" /><glyph d="M153 578Q153 559 138.5 544.5Q124 530 104 530Q85 530 70.5 544.5Q56 559 56 578Q56 598 70.5 612Q85 626 104 626Q124 626 138.5 612Q153 598 153 578ZM142 444V0H67V444ZM362 578Q362 559 347.5 544.5Q333 530 313 530Q294 530 279.5 544.5Q265 559 265 578Q265 598 279.5 612Q294 626 313 626Q333 626 347.5 612Q362 598 362 578ZM351 444V-51Q351 -113 317.5 -146Q284 -179 222 -179Q215 -179 205.5 -178Q196 -177 190 -175V-111Q194 -112 201.5 -113Q209 -114 216 -114Q245 -114 260.5 -98.5Q276 -83 276 -46V444Z" glyph-name="ij" horiz-adv-x="416" unicode="&#307;" /><glyph d="M16 530V591H193V530ZM142 444V0H67V444Z" glyph-name="imacron" horiz-adv-x="209" unicode="&#299;" /><glyph d="M153 578Q153 559 138.5 544.5Q124 530 104 530Q85 530 70.5 544.5Q56 559 56 578Q56 598 70.5 612Q85 626 104 626Q124 626 138.5 612Q153 598 153 578ZM142 444V0Q113 -49 103 -68.5Q93 -88 93 -106Q93 -119 99.5 -125.5Q106 -132 116 -132Q126 -132 134 -128Q142 -124 153 -117V-167Q142 -175 129 -180.5Q116 -186 101 -186Q68 -186 51 -168Q34 -150 34 -120Q34 -92 48.5 -64.5Q63 -37 86 0H67V444Z" glyph-name="iogonek" horiz-adv-x="209" unicode="&#303;" /><glyph d="M168 633H214Q214 580 197.5 547.5Q181 515 150 515Q121 515 102.5 543Q84 571 66 571Q53 571 46.5 557Q40 543 39 518H-7Q-7 571 9.5 603.5Q26 636 57 636Q86 636 105 608Q124 580 142 580Q155 580 161 594Q167 608 168 633ZM142 444V0H67V444Z" glyph-name="itilde" horiz-adv-x="209" unicode="&#297;" /><glyph d="M153 578Q153 559 138.5 544.5Q124 530 104 530Q85 530 70.5 544.5Q56 559 56 578Q56 598 70.5 612Q85 626 104 626Q124 626 138.5 612Q153 598 153 578ZM142 444V-51Q142 -113 108.5 -146Q75 -179 13 -179Q6 -179 -3.5 -178Q-13 -177 -19 -175V-111Q-15 -112 -7.5 -113Q0 -114 7 -114Q36 -114 51.5 -98.5Q67 -83 67 -46V444Z" glyph-name="j" horiz-adv-x="207" unicode="j" /><glyph d="M139 645 213 509H149L104 594L59 509H-4L70 645ZM142 444V-51Q142 -113 108.5 -146Q75 -179 13 -179Q6 -179 -3.5 -178Q-13 -177 -19 -175V-111Q-15 -112 -7.5 -113Q0 -114 7 -114Q36 -114 51.5 -98.5Q67 -83 67 -46V444Z" glyph-name="jcircumflex" horiz-adv-x="207" unicode="&#309;" /><glyph d="M347 0 142 221V0H67V650H142V257L339 444H436L218 241L440 0Z" glyph-name="k" horiz-adv-x="445" unicode="k" /><glyph d="M179 -201 218 -137Q201 -135 189.5 -123Q178 -111 178 -93Q178 -72 192.5 -58.5Q207 -45 228 -45Q248 -45 262.5 -59Q277 -73 277 -95Q277 -111 270 -125Q263 -139 255 -152L226 -201ZM347 0 142 221V0H67V650H142V257L339 444H436L218 241L440 0Z" glyph-name="kcommaaccent" horiz-adv-x="445" unicode="&#311;" /><glyph d="M347 0 142 221V0H67V444H142V257L339 444H436L218 241L440 0Z" glyph-name="kgreenlandic" horiz-adv-x="445" unicode="&#312;" /><glyph d="M142 650V0H67V650Z" glyph-name="l" horiz-adv-x="209" unicode="l" /><glyph d="M142 695H66L146 812H233ZM142 650V0H67V650Z" glyph-name="lacute" horiz-adv-x="209" unicode="&#314;" /><glyph d="M256 486H196L229 650H289ZM142 650V0H67V650Z" glyph-name="lcaron" horiz-adv-x="209" unicode="&#318;" /><glyph d="M56 -201 95 -137Q78 -135 66.5 -123Q55 -111 55 -93Q55 -72 69.5 -58.5Q84 -45 105 -45Q125 -45 139.5 -59Q154 -73 154 -95Q154 -111 147 -125Q140 -139 132 -152L103 -201ZM142 650V0H67V650Z" glyph-name="lcommaaccent" horiz-adv-x="209" unicode="&#316;" /><glyph d="M142 650V0H67V650ZM317 325Q317 306 302.5 291.5Q288 277 269 277Q250 277 235.5 291.5Q221 306 221 325Q221 345 235.5 359Q250 373 269 373Q288 373 302.5 359Q317 345 317 325Z" glyph-name="ldot" horiz-adv-x="332" unicode="&#320;" /><glyph d="M62 256V334L358 485V414L120 295L358 176V105Z" glyph-name="less" horiz-adv-x="423" unicode="&lt;" /><glyph d="M112 256V334L408 485V414L170 295L408 176V105Z" glyph-name="less.lt" horiz-adv-x="520" /><glyph d="M63 308V382L360 503V435L130 345L360 254V187ZM63 91V153H360V91Z" glyph-name="lessequal" horiz-adv-x="427" unicode="&#8804;" /><glyph d="M111 308V382L408 503V435L178 345L408 254V187ZM111 91V153H408V91Z" glyph-name="lessequal.lt" horiz-adv-x="520" /><glyph d="M161 0H86V310L30 275V342L86 378V650H161V414L221 453V385L161 346Z" glyph-name="lslash" horiz-adv-x="246" unicode="&#322;" /><glyph d="M382 382Q403 412 437 432.5Q471 453 517 453Q584 453 620.5 409.5Q657 366 657 294V0H581V282Q581 328 560.5 356.5Q540 385 497 385Q463 385 436 363.5Q409 342 399 306V0H324V282Q324 328 303.5 356.5Q283 385 240 385Q206 385 179 363.5Q152 342 142 306V0H67V444H142V392Q158 418 189.5 435.5Q221 453 262 453Q304 453 335 433Q366 413 382 382Z" glyph-name="m" horiz-adv-x="717" unicode="m" /><glyph d="M143 530V591H356V530Z" glyph-name="macron" horiz-adv-x="500" unicode="&#175;" /><glyph d="M143 671V732H356V671Z" glyph-name="macron.cap" horiz-adv-x="500" /><glyph d="M73 266V328H467V266Z" glyph-name="minus" horiz-adv-x="540" unicode="&#8722;" /><glyph d="M62 266V328H457V266Z" glyph-name="minus.lt" horiz-adv-x="520" /><glyph d="M193 295 71 416 114 458 234 336 356 458 399 416 277 295 399 173 356 130 234 252 114 130 71 173Z" glyph-name="multiply" horiz-adv-x="470" unicode="&#215;" /><glyph d="M218 295 96 416 139 458 259 336 381 458 423 416 302 295 423 173 381 130 259 252 139 130 96 173Z" glyph-name="multiply.lt" horiz-adv-x="520" /><glyph d="M67 0V444H142V388Q161 414 195.5 433.5Q230 453 273 453Q348 453 388.5 408Q429 363 429 291V0H353V279Q353 325 329 354.5Q305 384 255 384Q216 384 185 360.5Q154 337 142 301V0Z" glyph-name="n" horiz-adv-x="489" unicode="n" /><glyph d="M280 516H211L291 650H369ZM67 0V444H142V388Q161 414 195.5 433.5Q230 453 273 453Q348 453 388.5 408Q429 363 429 291V0H353V279Q353 325 329 354.5Q305 384 255 384Q216 384 185 360.5Q154 337 142 301V0Z" glyph-name="nacute" horiz-adv-x="489" unicode="&#324;" /><glyph d="M378 646 286 510H216L124 646H189L251 559L313 646ZM67 0V444H142V388Q161 414 195.5 433.5Q230 453 273 453Q348 453 388.5 408Q429 363 429 291V0H353V279Q353 325 329 354.5Q305 384 255 384Q216 384 185 360.5Q154 337 142 301V0Z" glyph-name="ncaron" horiz-adv-x="489" unicode="&#328;" /><glyph d="M205 -201 244 -137Q227 -135 215.5 -123Q204 -111 204 -93Q204 -72 218.5 -58.5Q233 -45 254 -45Q274 -45 288.5 -59Q303 -73 303 -95Q303 -111 296 -125Q289 -139 281 -152L252 -201ZM67 0V444H142V388Q161 414 195.5 433.5Q230 453 273 453Q348 453 388.5 408Q429 363 429 291V0H353V279Q353 325 329 354.5Q305 384 255 384Q216 384 185 360.5Q154 337 142 301V0Z" glyph-name="ncommaaccent" horiz-adv-x="489" unicode="&#326;" /><glyph d="M241 623Q331 623 390 563Q449 503 449 414Q449 377 437 336.5Q425 296 395 244L255 0H174L303 224Q291 217 272.5 211.5Q254 206 236 206Q148 206 90.5 266Q33 326 33 414Q33 503 92.5 563Q152 623 241 623ZM105 414Q105 355 144 314Q183 273 241 273Q299 273 338 314Q377 355 377 414Q377 474 338 514.5Q299 555 241 555Q183 555 144 514.5Q105 474 105 414Z" glyph-name="nine" horiz-adv-x="482" unicode="9" /><glyph d="M260 623Q350 623 409 563Q468 503 468 414Q468 377 456 336.5Q444 296 414 244L274 0H193L322 224Q310 217 291.5 211.5Q273 206 255 206Q167 206 109.5 266Q52 326 52 414Q52 503 111.5 563Q171 623 260 623ZM124 414Q124 355 163 314Q202 273 260 273Q318 273 357 314Q396 355 396 414Q396 474 357 514.5Q318 555 260 555Q202 555 163 514.5Q124 474 124 414Z" glyph-name="nine.lt" horiz-adv-x="520" /><glyph glyph-name="nonmarkingreturn" horiz-adv-x="221" unicode="" /><glyph d="M473 199H233L166 107H107L174 199H79V256H216L276 338H79V395H317L385 488H444L376 395H473V338H335L275 256H473Z" glyph-name="notequal" horiz-adv-x="551" unicode="&#8800;" /><glyph d="M457 199H217L150 107H91L158 199H62V256H199L259 338H62V395H300L368 488H428L360 395H457V338H319L259 256H457Z" glyph-name="notequal.lt" horiz-adv-x="520" /><glyph d="M67 0V444H142V388Q161 414 195.5 433.5Q230 453 273 453Q348 453 388.5 408Q429 363 429 291V0H353V279Q353 325 329 354.5Q305 384 255 384Q216 384 185 360.5Q154 337 142 301V0ZM331 633H379Q379 580 359.5 547.5Q340 515 303 515Q269 515 246 544Q223 573 199 573Q182 573 173.5 558Q165 543 165 518H117Q117 571 136.5 603.5Q156 636 193 636Q228 636 250.5 607Q273 578 297 578Q313 578 321.5 593Q330 608 331 633Z" glyph-name="ntilde" horiz-adv-x="489" unicode="&#241;" /><glyph d="M341 235 376 379H235L200 235ZM285 0 327 176H186L144 0H77L119 176H23L36 235H133L167 379H65L77 438H181L223 614H291L249 438H390L432 614H499L457 438H552L540 379H443L409 235H511L499 176H395L353 0Z" glyph-name="numbersign" horiz-adv-x="576" unicode="#" /><glyph d="M443 222Q443 121 386 56Q329 -9 239 -9Q148 -9 91.5 56Q35 121 35 222Q35 323 91.5 388Q148 453 239 453Q329 453 386 388Q443 323 443 222ZM367 222Q367 294 333 340.5Q299 387 239 387Q179 387 145 340.5Q111 294 111 222Q111 150 145 103.5Q179 57 239 57Q299 57 333 103.5Q367 150 367 222Z" glyph-name="o" horiz-adv-x="478" unicode="o" /><glyph d="M268 516H199L279 650H357ZM443 222Q443 121 386 56Q329 -9 239 -9Q148 -9 91.5 56Q35 121 35 222Q35 323 91.5 388Q148 453 239 453Q329 453 386 388Q443 323 443 222ZM367 222Q367 294 333 340.5Q299 387 239 387Q179 387 145 340.5Q111 294 111 222Q111 150 145 103.5Q179 57 239 57Q299 57 333 103.5Q367 150 367 222Z" glyph-name="oacute" horiz-adv-x="478" unicode="&#243;" /><glyph d="M443 222Q443 121 386 56Q329 -9 239 -9Q148 -9 91.5 56Q35 121 35 222Q35 323 91.5 388Q148 453 239 453Q329 453 386 388Q443 323 443 222ZM367 222Q367 294 333 340.5Q299 387 239 387Q179 387 145 340.5Q111 294 111 222Q111 150 145 103.5Q179 57 239 57Q299 57 333 103.5Q367 150 367 222ZM239 500Q189 500 157 533Q125 566 125 628H182Q182 594 196.5 574.5Q211 555 239 555Q267 555 281.5 574.5Q296 594 296 628H353Q353 566 321 533Q289 500 239 500Z" glyph-name="obreve" horiz-adv-x="478" unicode="&#335;" /><glyph d="M274 645 366 509H301L239 597L177 509H112L204 645ZM443 222Q443 121 386 56Q329 -9 239 -9Q148 -9 91.5 56Q35 121 35 222Q35 323 91.5 388Q148 453 239 453Q329 453 386 388Q443 323 443 222ZM367 222Q367 294 333 340.5Q299 387 239 387Q179 387 145 340.5Q111 294 111 222Q111 150 145 103.5Q179 57 239 57Q299 57 333 103.5Q367 150 367 222Z" glyph-name="ocircumflex" horiz-adv-x="478" unicode="&#244;" /><glyph d="M264 571Q264 591 277 604.5Q290 618 309 618Q328 618 342 604.5Q356 591 356 571Q356 552 342 538.5Q328 525 309 525Q290 525 277 538.5Q264 552 264 571ZM123 571Q123 591 137 604.5Q151 618 170 618Q189 618 202.5 604.5Q216 591 216 571Q216 552 202.5 538.5Q189 525 170 525Q151 525 137 538.5Q123 552 123 571ZM443 222Q443 121 386 56Q329 -9 239 -9Q148 -9 91.5 56Q35 121 35 222Q35 323 91.5 388Q148 453 239 453Q329 453 386 388Q443 323 443 222ZM367 222Q367 294 333 340.5Q299 387 239 387Q179 387 145 340.5Q111 294 111 222Q111 150 145 103.5Q179 57 239 57Q299 57 333 103.5Q367 150 367 222Z" glyph-name="odieresis" horiz-adv-x="478" unicode="&#246;" /><glyph d="M562 389Q519 389 485 359Q451 329 441 268H671Q669 317 642.5 353Q616 389 562 389ZM367 222Q367 294 333 340.5Q299 387 239 387Q179 387 145 340.5Q111 294 111 222Q111 150 145 103.5Q179 57 239 57Q299 57 333 103.5Q367 150 367 222ZM712 30Q686 9 651.5 0Q617 -9 577 -9Q520 -9 475 14.5Q430 38 403 81Q377 39 334.5 15Q292 -9 239 -9Q148 -9 91.5 56Q35 121 35 222Q35 323 91.5 388Q148 453 239 453Q293 453 335.5 429Q378 405 404 362Q429 404 469.5 428.5Q510 453 561 453Q651 453 697 393Q743 333 743 236V209H437Q440 132 483 94.5Q526 57 586 57Q623 57 652.5 67Q682 77 712 99Z" glyph-name="oe" horiz-adv-x="778" unicode="&#339;" /><glyph d="M249 4H305Q275 -45 264 -66.5Q253 -88 253 -106Q253 -119 259 -125.5Q265 -132 275 -132Q285 -132 293.5 -128Q302 -124 312 -117V-167Q302 -175 289 -180.5Q276 -186 260 -186Q228 -186 211 -168Q194 -150 194 -120Q194 -92 209 -64Q224 -36 249 4Z" glyph-name="ogonek" horiz-adv-x="500" unicode="&#731;" /><glyph d="M443 222Q443 121 386 56Q329 -9 239 -9Q148 -9 91.5 56Q35 121 35 222Q35 323 91.5 388Q148 453 239 453Q329 453 386 388Q443 323 443 222ZM367 222Q367 294 333 340.5Q299 387 239 387Q179 387 145 340.5Q111 294 111 222Q111 150 145 103.5Q179 57 239 57Q299 57 333 103.5Q367 150 367 222ZM277 516H208L119 650H197Z" glyph-name="ograve" horiz-adv-x="478" unicode="&#242;" /><glyph d="M326 516H263L330 650H394ZM207 516H144L210 650H275ZM443 222Q443 121 386 56Q329 -9 239 -9Q148 -9 91.5 56Q35 121 35 222Q35 323 91.5 388Q148 453 239 453Q329 453 386 388Q443 323 443 222ZM367 222Q367 294 333 340.5Q299 387 239 387Q179 387 145 340.5Q111 294 111 222Q111 150 145 103.5Q179 57 239 57Q299 57 333 103.5Q367 150 367 222Z" glyph-name="ohungarumlaut" horiz-adv-x="478" unicode="&#337;" /><glyph d="M133 530V591H346V530ZM443 222Q443 121 386 56Q329 -9 239 -9Q148 -9 91.5 56Q35 121 35 222Q35 323 91.5 388Q148 453 239 453Q329 453 386 388Q443 323 443 222ZM367 222Q367 294 333 340.5Q299 387 239 387Q179 387 145 340.5Q111 294 111 222Q111 150 145 103.5Q179 57 239 57Q299 57 333 103.5Q367 150 367 222Z" glyph-name="omacron" horiz-adv-x="478" unicode="&#333;" /><glyph d="M254 615V0H177V520L25 442V522L207 615Z" glyph-name="one" horiz-adv-x="329" unicode="1" /><glyph d="M68 0V70H243V520L71 432V512L273 615H320V70H474V0Z" glyph-name="one.lt" horiz-adv-x="520" /><glyph d="M191 615V282H129V541L41 497V561L149 615ZM569 614 140 0H73L502 614ZM510 56H631V0H402V2L502 129Q526 160 542 183.5Q558 207 558 232Q558 253 544 267Q530 281 505 281Q479 281 453 265.5Q427 250 411 235V298Q429 314 456.5 326Q484 338 518 338Q566 338 593.5 311.5Q621 285 621 242Q621 208 602 178Q583 148 558 116Z" glyph-name="onehalf" horiz-adv-x="682" unicode="&#189;" /><glyph d="M191 615V282H129V541L41 497V561L149 615ZM569 614 140 0H73L502 614ZM535 333 439 123H515V190H571V123H618V70H571V0H515V70H352V72L471 333Z" glyph-name="onequarter" horiz-adv-x="667" unicode="&#188;" /><glyph d="M173 615V282H110V541L22 497V561L130 615Z" glyph-name="onesuperior" horiz-adv-x="221" unicode="&#185;" /><glyph d="M196 397V424Q191 437 174 446Q157 455 136 455Q114 455 95 444Q76 433 76 411Q76 388 95 377Q114 366 136 366Q157 366 174 375Q191 384 196 397ZM196 481V512Q196 536 178 550.5Q160 565 127 565Q105 565 84 558Q63 551 45 540V600Q61 610 87.5 617Q114 624 142 624Q199 624 230.5 595.5Q262 567 262 516V321H196V342Q188 333 167 324.5Q146 316 121 316Q77 316 44.5 340.5Q12 365 12 410Q12 452 45 478Q78 504 125 504Q147 504 167 496Q187 488 196 481Z" glyph-name="ordfeminine" horiz-adv-x="291" unicode="&#170;" /><glyph d="M296 469Q296 401 257 357.5Q218 314 155 314Q92 314 52.5 357.5Q13 401 13 469Q13 537 52.5 580.5Q92 624 155 624Q218 624 257 580.5Q296 537 296 469ZM228 469Q228 512 208.5 539Q189 566 155 566Q121 566 101.5 539Q82 512 82 469Q82 426 101.5 399.5Q121 373 155 373Q189 373 208.5 399.5Q228 426 228 469Z" glyph-name="ordmasculine" horiz-adv-x="310" unicode="&#186;" /><glyph d="M115 222Q115 194 120.5 169Q126 144 136 124L320 361Q304 374 285 380.5Q266 387 244 387Q184 387 149.5 340.5Q115 294 115 222ZM244 57Q304 57 338.5 103.5Q373 150 373 222Q373 250 367.5 275.5Q362 301 352 321L167 83Q183 70 202 63.5Q221 57 244 57ZM244 -9Q210 -9 179.5 1Q149 11 125 29L81 -28L40 1L89 64Q66 94 53 134.5Q40 175 40 222Q40 323 96.5 388Q153 453 244 453Q278 453 307.5 443.5Q337 434 362 416L403 469L444 440L398 381Q422 350 435 310Q448 270 448 222Q448 121 391 56Q334 -9 244 -9Z" glyph-name="oslash" horiz-adv-x="488" unicode="&#248;" /><glyph d="M115 222Q115 194 120.5 169Q126 144 136 124L320 361Q304 374 285 380.5Q266 387 244 387Q184 387 149.5 340.5Q115 294 115 222ZM244 57Q304 57 338.5 103.5Q373 150 373 222Q373 250 367.5 275.5Q362 301 352 321L167 83Q183 70 202 63.5Q221 57 244 57ZM244 -9Q210 -9 179.5 1Q149 11 125 29L81 -28L40 1L89 64Q66 94 53 134.5Q40 175 40 222Q40 323 96.5 388Q153 453 244 453Q278 453 307.5 443.5Q337 434 362 416L403 469L444 440L398 381Q422 350 435 310Q448 270 448 222Q448 121 391 56Q334 -9 244 -9ZM272 516H203L283 650H361Z" glyph-name="oslashacute" horiz-adv-x="488" unicode="&#511;" /><glyph d="M443 222Q443 121 386 56Q329 -9 239 -9Q148 -9 91.5 56Q35 121 35 222Q35 323 91.5 388Q148 453 239 453Q329 453 386 388Q443 323 443 222ZM367 222Q367 294 333 340.5Q299 387 239 387Q179 387 145 340.5Q111 294 111 222Q111 150 145 103.5Q179 57 239 57Q299 57 333 103.5Q367 150 367 222ZM322 633H370Q370 580 350.5 547.5Q331 515 294 515Q260 515 237 544Q214 573 190 573Q173 573 164.5 558Q156 543 156 518H108Q108 571 127.5 603.5Q147 636 184 636Q219 636 241.5 607Q264 578 288 578Q304 578 312.5 593Q321 608 322 633Z" glyph-name="otilde" horiz-adv-x="478" unicode="&#245;" /><glyph d="M142 312V132Q159 98 190 78.5Q221 59 256 59Q319 59 355 105.5Q391 152 391 222Q391 292 355 338.5Q319 385 256 385Q221 385 190 365.5Q159 346 142 312ZM142 52V-170H67V444H142V392Q159 416 192.5 434.5Q226 453 267 453Q365 453 416 383.5Q467 314 467 222Q467 130 416 60.5Q365 -9 267 -9Q226 -9 192.5 9.5Q159 28 142 52Z" glyph-name="p" horiz-adv-x="502" unicode="p" /><glyph d="M220 -90V301Q147 301 81 338.5Q15 376 15 458Q15 540 81 577Q147 614 220 614H283V-90ZM353 -90V614H416V-90Z" glyph-name="paragraph" horiz-adv-x="489" unicode="&#182;" /><glyph d="M30 283Q30 420 103 519Q176 618 298 650V570Q218 550 161.5 474Q105 398 105 283Q105 168 161.5 92Q218 16 298 -4V-84Q176 -52 103 47Q30 146 30 283Z" glyph-name="parenleft" horiz-adv-x="321" unicode="(" /><glyph d="M30 301Q30 438 103 537Q176 636 298 668V588Q218 569 161.5 492.5Q105 416 105 301Q105 187 161.5 110.5Q218 34 298 14V-66Q176 -34 103 65Q30 164 30 301Z" glyph-name="parenleft.cap" horiz-adv-x="321" /><glyph d="M23 650Q145 618 218 519Q291 420 291 283Q291 146 218 47Q145 -52 23 -84V-4Q103 16 159.5 92Q216 168 216 283Q216 398 159.5 474Q103 550 23 570Z" glyph-name="parenright" horiz-adv-x="321" unicode=")" /><glyph d="M23 668Q145 636 218 537Q291 438 291 301Q291 164 218 65Q145 -34 23 -66V14Q103 34 159.5 110.5Q216 187 216 301Q216 416 159.5 492.5Q103 569 23 588Z" glyph-name="parenright.cap" horiz-adv-x="321" /><glyph d="M299 490Q299 435 260 396Q221 357 166 357Q111 357 72 396Q33 435 33 490Q33 545 72 584Q111 623 166 623Q221 623 260 584Q299 545 299 490ZM99 0 482 614H544L161 0ZM92 490Q92 459 113.5 437.5Q135 416 166 416Q197 416 219 437.5Q241 459 241 490Q241 521 219 543Q197 565 166 565Q135 565 113.5 543Q92 521 92 490ZM609 124Q609 69 570 30Q531 -9 476 -9Q421 -9 382 30Q343 69 343 124Q343 179 382 218Q421 257 476 257Q531 257 570 218Q609 179 609 124ZM550 124Q550 155 528.5 176.5Q507 198 476 198Q445 198 423 176.5Q401 155 401 124Q401 93 423 71Q445 49 476 49Q507 49 528.5 71Q550 93 550 124Z" glyph-name="percent" horiz-adv-x="642" unicode="%" /><glyph d="M19 501Q19 552 54.5 587.5Q90 623 141 623Q192 623 227.5 587.5Q263 552 263 501Q263 451 227.5 415.5Q192 380 141 380Q90 380 54.5 415.5Q19 451 19 501ZM38 0 421 614H483L100 0ZM72 501Q72 473 92 452.5Q112 432 141 432Q169 432 189.5 452.5Q210 473 210 501Q210 530 189.5 550.5Q169 571 141 571Q112 571 92 550.5Q72 530 72 501ZM501 113Q501 62 465.5 26.5Q430 -9 380 -9Q329 -9 293 26.5Q257 62 257 113Q257 163 293 198.5Q329 234 380 234Q430 234 465.5 198.5Q501 163 501 113ZM448 113Q448 141 428 161.5Q408 182 380 182Q351 182 330.5 161.5Q310 141 310 113Q310 84 330.5 63.5Q351 43 380 43Q408 43 428 63.5Q448 84 448 113Z" glyph-name="percent.lt" horiz-adv-x="520" /><glyph d="M32 49Q32 72 48 88Q64 104 86 104Q108 104 123.5 88Q139 72 139 49Q139 26 123.5 10.5Q108 -5 86 -5Q64 -5 48 10.5Q32 26 32 49Z" glyph-name="period" horiz-adv-x="171" unicode="." /><glyph d="M77 49Q77 72 92.5 88Q108 104 130 104Q152 104 167.5 88Q183 72 183 49Q183 26 167.5 10.5Q152 -5 130 -5Q108 -5 92.5 10.5Q77 26 77 49Z" glyph-name="period.tab" horiz-adv-x="260" /><glyph d="M34 262Q34 285 50 301Q66 317 88 317Q110 317 125.5 301Q141 285 141 262Q141 239 125.5 223.5Q110 208 88 208Q66 208 50 223.5Q34 239 34 262Z" glyph-name="periodcentered" horiz-adv-x="176" unicode="&#183;" /><glyph d="M34 302Q34 325 50 341Q66 357 88 357Q110 357 125.5 341Q141 325 141 302Q141 279 125.5 263.5Q110 248 88 248Q66 248 50 263.5Q34 279 34 302Z" glyph-name="periodcentered.cap" horiz-adv-x="176" /><glyph d="M166 357Q111 357 72 396Q33 435 33 490Q33 545 72 584Q111 623 166 623Q221 623 260 584Q299 545 299 490Q299 435 260 396Q221 357 166 357ZM99 0 482 614H544L161 0ZM166 565Q135 565 113.5 543Q92 521 92 490Q92 459 113.5 437.5Q135 416 166 416Q197 416 219 437.5Q241 459 241 490Q241 521 219 543Q197 565 166 565ZM908 124Q908 69 869 30Q830 -9 775 -9Q720 -9 681 30Q642 69 642 124Q642 179 681 218Q720 257 775 257Q830 257 869 218Q908 179 908 124ZM609 124Q609 69 570 30Q531 -9 476 -9Q421 -9 382 30Q343 69 343 124Q343 179 382 218Q421 257 476 257Q531 257 570 218Q609 179 609 124ZM849 124Q849 155 827.5 176.5Q806 198 775 198Q744 198 722 176.5Q700 155 700 124Q700 93 722 71Q744 49 775 49Q806 49 827.5 71Q849 93 849 124ZM550 124Q550 155 528.5 176.5Q507 198 476 198Q445 198 423 176.5Q401 155 401 124Q401 93 423 71Q445 49 476 49Q507 49 528.5 71Q550 93 550 124Z" glyph-name="perthousand" horiz-adv-x="941" unicode="&#8240;" /><glyph d="M23 501Q23 552 58.5 587.5Q94 623 145 623Q196 623 231.5 587.5Q267 552 267 501Q267 451 231.5 415.5Q196 380 145 380Q94 380 58.5 415.5Q23 451 23 501ZM42 0 425 614H487L104 0ZM76 501Q76 473 96 452.5Q116 432 145 432Q173 432 193.5 452.5Q214 473 214 501Q214 530 193.5 550.5Q173 571 145 571Q116 571 96 550.5Q76 530 76 501ZM776 113Q776 62 740.5 26.5Q705 -9 655 -9Q604 -9 568.5 26.5Q533 62 533 113Q533 163 568.5 198.5Q604 234 655 234Q705 234 740.5 198.5Q776 163 776 113ZM505 113Q505 62 469.5 26.5Q434 -9 384 -9Q333 -9 297 26.5Q261 62 261 113Q261 163 297 198.5Q333 234 384 234Q434 234 469.5 198.5Q505 163 505 113ZM724 113Q724 141 703.5 161.5Q683 182 655 182Q626 182 606 161.5Q586 141 586 113Q586 84 606 63.5Q626 43 655 43Q683 43 703.5 63.5Q724 84 724 113ZM452 113Q452 141 432 161.5Q412 182 384 182Q355 182 334.5 161.5Q314 141 314 113Q314 84 334.5 63.5Q355 43 384 43Q412 43 432 63.5Q452 84 452 113Z" glyph-name="perthousand.lt" horiz-adv-x="800" /><glyph d="M467 266H301V100H239V266H73V328H239V494H301V328H467Z" glyph-name="plus" horiz-adv-x="540" unicode="+" /><glyph d="M457 266H291V100H229V266H62V328H229V494H291V328H457Z" glyph-name="plus.lt" horiz-adv-x="520" /><glyph d="M467 327H303V198H241V327H78V389H241V518H303V389H467ZM78 88V150H467V88Z" glyph-name="plusminus" horiz-adv-x="544" unicode="&#177;" /><glyph d="M454 327H290V198H229V327H65V389H229V518H290V389H454ZM65 88V150H454V88Z" glyph-name="plusminus.lt" horiz-adv-x="520" /><glyph d="M669 307Q669 170 576 80.5Q483 -9 353 -9Q223 -9 130 80.5Q37 170 37 307Q37 444 130 533.5Q223 623 353 623Q483 623 576 533.5Q669 444 669 307ZM630 307Q630 427 548 505.5Q466 584 353 584Q240 584 158 505.5Q76 427 76 307Q76 187 158 108.5Q240 30 353 30Q466 30 548 108.5Q630 187 630 307ZM389 254H306V124H237V493H389Q446 493 481.5 462Q517 431 517 374Q517 316 481.5 285Q446 254 389 254ZM385 316Q416 316 432.5 331.5Q449 347 449 374Q449 400 432.5 416Q416 432 385 432H306V316Z" glyph-name="published" horiz-adv-x="706" /><glyph d="M360 -170V52Q343 28 309.5 9.5Q276 -9 235 -9Q137 -9 86 60.5Q35 130 35 222Q35 314 86 383.5Q137 453 235 453Q276 453 309.5 434.5Q343 416 360 392V444H435V-170ZM360 132V312Q343 346 312 365.5Q281 385 246 385Q183 385 147 338.5Q111 292 111 222Q111 152 147 105.5Q183 59 246 59Q281 59 312 78.5Q343 98 360 132Z" glyph-name="q" horiz-adv-x="502" unicode="q" /><glyph d="M224 313Q250 343 279.5 375Q309 407 309 451Q309 497 280.5 524Q252 551 198 551Q144 551 98.5 523.5Q53 496 21 462V544Q52 577 100 600Q148 623 202 623Q287 623 336.5 577Q386 531 386 452Q386 397 352 354.5Q318 312 283 275Q258 248 249.5 229.5Q241 211 240 193H167Q169 230 181.5 255Q194 280 224 313ZM147 49Q147 72 162.5 88Q178 104 200 104Q222 104 238 88Q254 72 254 49Q254 26 238 10.5Q222 -5 200 -5Q178 -5 162.5 10.5Q147 26 147 49Z" glyph-name="question" horiz-adv-x="414" unicode="?" /><glyph d="M267 469Q267 446 251.5 430Q236 414 214 414Q192 414 176 430Q160 446 160 469Q160 492 176 507.5Q192 523 214 523Q236 523 251.5 507.5Q267 492 267 469ZM190 205Q164 175 134.5 143Q105 111 105 67Q105 21 133.5 -6Q162 -33 216 -33Q270 -33 315.5 -5.5Q361 22 393 56V-26Q362 -59 314 -82Q266 -105 212 -105Q127 -105 77.5 -59Q28 -13 28 66Q28 121 62 163.5Q96 206 131 243Q156 270 164.5 288.5Q173 307 174 325H247Q245 288 232.5 263Q220 238 190 205Z" glyph-name="questiondown" horiz-adv-x="414" unicode="&#191;" /><glyph d="M267 565Q267 542 251.5 526Q236 510 214 510Q192 510 176 526Q160 542 160 565Q160 588 176 603.5Q192 619 214 619Q236 619 251.5 603.5Q267 588 267 565ZM190 301Q164 271 134.5 239Q105 207 105 163Q105 117 133.5 90Q162 63 216 63Q270 63 315.5 90.5Q361 118 393 152V70Q362 37 314 14Q266 -9 212 -9Q127 -9 77.5 37Q28 83 28 162Q28 217 62 259.5Q96 302 131 339Q156 366 164.5 384.5Q173 403 174 421H247Q245 384 232.5 359Q220 334 190 301Z" glyph-name="questiondown.cap" horiz-adv-x="414" /><glyph d="M159 395V614H225V395ZM40 395V614H106V395Z" glyph-name="quotedbl" horiz-adv-x="265" unicode="&quot;" /><glyph d="M172 -103 233 0Q214 3 201.5 16Q189 29 189 50Q189 73 205 88Q221 103 243 103Q265 103 280.5 88Q296 73 296 45Q296 29 289.5 13Q283 -3 274 -18L223 -103ZM19 -103 80 0Q61 3 48.5 16Q36 29 36 50Q36 73 52 88Q68 103 90 103Q112 103 127.5 88Q143 73 143 45Q143 29 136.5 13Q130 -3 121 -18L70 -103Z" glyph-name="quotedblbase" horiz-adv-x="321" unicode="&#8222;" /><glyph d="M149 614 88 511Q107 508 119.5 495Q132 482 132 461Q132 438 116 423Q100 408 78 408Q56 408 40.5 423Q25 438 25 466Q25 482 31.5 498Q38 514 47 529L98 614ZM302 614 241 511Q260 508 272.5 495Q285 482 285 461Q285 438 269 423Q253 408 231 408Q209 408 193.5 423Q178 438 178 466Q178 482 184.5 498Q191 514 200 529L251 614Z" glyph-name="quotedblleft" horiz-adv-x="321" unicode="&#8220;" /><glyph d="M19 417 80 520Q61 523 48.5 536Q36 549 36 570Q36 593 52 608Q68 623 90 623Q112 623 127.5 608Q143 593 143 565Q143 549 136.5 533Q130 517 121 502L70 417ZM172 417 233 520Q214 523 201.5 536Q189 549 189 570Q189 593 205 608Q221 623 243 623Q265 623 280.5 608Q296 593 296 565Q296 549 289.5 533Q283 517 274 502L223 417Z" glyph-name="quotedblright" horiz-adv-x="321" unicode="&#8221;" /><glyph d="M149 614 88 511Q107 508 119.5 495Q132 482 132 461Q132 438 116 423Q100 408 78 408Q56 408 40.5 423Q25 438 25 466Q25 482 31.5 498Q38 514 47 529L98 614Z" glyph-name="quoteleft" horiz-adv-x="168" unicode="&#8216;" /><glyph d="M19 417 80 520Q61 523 48.5 536Q36 549 36 570Q36 593 52 608Q68 623 90 623Q112 623 127.5 608Q143 593 143 565Q143 549 136.5 533Q130 517 121 502L70 417Z" glyph-name="quoteright" horiz-adv-x="168" unicode="&#8217;" /><glyph d="M19 -103 80 0Q61 3 48.5 16Q36 29 36 50Q36 73 52 88Q68 103 90 103Q112 103 127.5 88Q143 73 143 45Q143 29 136.5 13Q130 -3 121 -18L70 -103Z" glyph-name="quotesinglbase" horiz-adv-x="161" unicode="&#8218;" /><glyph d="M40 395V614H108V395Z" glyph-name="quotesingle" horiz-adv-x="148" unicode="&apos;" /><glyph d="M295 446V369Q286 375 272.5 378Q259 381 245 381Q210 381 181.5 359Q153 337 142 298V0H67V444H142V386Q156 414 185.5 433.5Q215 453 252 453Q266 453 277.5 451Q289 449 295 446Z" glyph-name="r" horiz-adv-x="321" unicode="r" /><glyph d="M210 516H141L221 650H299ZM295 446V369Q286 375 272.5 378Q259 381 245 381Q210 381 181.5 359Q153 337 142 298V0H67V444H142V386Q156 414 185.5 433.5Q215 453 252 453Q266 453 277.5 451Q289 449 295 446Z" glyph-name="racute" horiz-adv-x="321" unicode="&#341;" /><glyph d="M308 646 216 510H146L54 646H119L181 559L243 646ZM295 446V369Q286 375 272.5 378Q259 381 245 381Q210 381 181.5 359Q153 337 142 298V0H67V444H142V386Q156 414 185.5 433.5Q215 453 252 453Q266 453 277.5 451Q289 449 295 446Z" glyph-name="rcaron" horiz-adv-x="321" unicode="&#345;" /><glyph d="M54 -201 93 -137Q76 -135 64.5 -123Q53 -111 53 -93Q53 -72 67.5 -58.5Q82 -45 103 -45Q123 -45 137.5 -59Q152 -73 152 -95Q152 -111 145 -125Q138 -139 130 -152L101 -201ZM295 446V369Q286 375 272.5 378Q259 381 245 381Q210 381 181.5 359Q153 337 142 298V0H67V444H142V386Q156 414 185.5 433.5Q215 453 252 453Q266 453 277.5 451Q289 449 295 446Z" glyph-name="rcommaaccent" horiz-adv-x="321" unicode="&#343;" /><glyph d="M387 440Q387 361 333.5 309Q280 257 206 257Q132 257 78.5 309Q25 361 25 440Q25 519 78.5 571Q132 623 206 623Q280 623 333.5 571Q387 519 387 440ZM356 440Q356 507 312 550.5Q268 594 206 594Q144 594 99.5 550.5Q55 507 55 440Q55 374 99.5 330.5Q144 287 206 287Q268 287 312 330.5Q356 374 356 440ZM217 449Q231 449 239 457Q247 465 247 475Q247 486 239 494Q231 502 217 502H177V449ZM202 414H177V346H135V538H219Q250 538 268.5 521.5Q287 505 287 475Q287 453 275.5 438Q264 423 245 418L294 346H247Z" glyph-name="registered" horiz-adv-x="412" unicode="&#174;" /><glyph d="M337 580Q337 543 312 518.5Q287 494 250 494Q213 494 188 518.5Q163 543 163 580Q163 617 188 641.5Q213 666 250 666Q287 666 312 641.5Q337 617 337 580ZM295 580Q295 599 282 612Q269 625 250 625Q231 625 218 612Q205 599 205 580Q205 561 218 548Q231 535 250 535Q269 535 282 548Q295 561 295 580Z" glyph-name="ring" horiz-adv-x="500" unicode="&#730;" /><glyph d="M337 734Q337 698 312 673Q287 648 250 648Q213 648 188 673Q163 698 163 734Q163 771 188 796Q213 821 250 821Q287 821 312 796Q337 771 337 734ZM295 734Q295 753 282 766.5Q269 780 250 780Q231 780 218 766.5Q205 753 205 734Q205 715 218 702Q231 689 250 689Q269 689 282 702Q295 715 295 734Z" glyph-name="ring.cap" horiz-adv-x="500" /><glyph d="M41 35V115Q72 87 109.5 71Q147 55 187 55Q224 55 251.5 69.5Q279 84 279 117Q279 142 261.5 156.5Q244 171 215 181L154 202Q104 218 73 246Q42 274 42 328Q42 386 87.5 419.5Q133 453 199 453Q236 453 270 443Q304 433 331 414V336Q303 359 271 374Q239 389 199 389Q165 389 140 374Q115 359 115 331Q115 304 132.5 291.5Q150 279 181 268L249 245Q299 228 326 197.5Q353 167 353 120Q353 59 304.5 25Q256 -9 187 -9Q144 -9 105 3.5Q66 16 41 35Z" glyph-name="s" horiz-adv-x="393" unicode="s" /><glyph d="M233 516H164L244 650H322ZM41 35V115Q72 87 109.5 71Q147 55 187 55Q224 55 251.5 69.5Q279 84 279 117Q279 142 261.5 156.5Q244 171 215 181L154 202Q104 218 73 246Q42 274 42 328Q42 386 87.5 419.5Q133 453 199 453Q236 453 270 443Q304 433 331 414V336Q303 359 271 374Q239 389 199 389Q165 389 140 374Q115 359 115 331Q115 304 132.5 291.5Q150 279 181 268L249 245Q299 228 326 197.5Q353 167 353 120Q353 59 304.5 25Q256 -9 187 -9Q144 -9 105 3.5Q66 16 41 35Z" glyph-name="sacute" horiz-adv-x="393" unicode="&#347;" /><glyph d="M331 646 239 510H169L77 646H142L204 559L266 646ZM41 35V115Q72 87 109.5 71Q147 55 187 55Q224 55 251.5 69.5Q279 84 279 117Q279 142 261.5 156.5Q244 171 215 181L154 202Q104 218 73 246Q42 274 42 328Q42 386 87.5 419.5Q133 453 199 453Q236 453 270 443Q304 433 331 414V336Q303 359 271 374Q239 389 199 389Q165 389 140 374Q115 359 115 331Q115 304 132.5 291.5Q150 279 181 268L249 245Q299 228 326 197.5Q353 167 353 120Q353 59 304.5 25Q256 -9 187 -9Q144 -9 105 3.5Q66 16 41 35Z" glyph-name="scaron" horiz-adv-x="393" unicode="&#353;" /><glyph d="M41 35V115Q72 87 109.5 71Q147 55 187 55Q224 55 251.5 69.5Q279 84 279 117Q279 142 261.5 156.5Q244 171 215 181L154 202Q104 218 73 246Q42 274 42 328Q42 386 87.5 419.5Q133 453 199 453Q236 453 270 443Q304 433 331 414V336Q303 359 271 374Q239 389 199 389Q165 389 140 374Q115 359 115 331Q115 304 132.5 291.5Q150 279 181 268L249 245Q299 228 326 197.5Q353 167 353 120Q353 59 304.5 25Q256 -9 187 -9Q144 -9 105 3.5Q66 16 41 35ZM161 -183H90L156 -51H230Z" glyph-name="scedilla" horiz-adv-x="393" unicode="&#351;" /><glyph d="M239 645 331 509H266L204 597L142 509H77L169 645ZM41 35V115Q72 87 109.5 71Q147 55 187 55Q224 55 251.5 69.5Q279 84 279 117Q279 142 261.5 156.5Q244 171 215 181L154 202Q104 218 73 246Q42 274 42 328Q42 386 87.5 419.5Q133 453 199 453Q236 453 270 443Q304 433 331 414V336Q303 359 271 374Q239 389 199 389Q165 389 140 374Q115 359 115 331Q115 304 132.5 291.5Q150 279 181 268L249 245Q299 228 326 197.5Q353 167 353 120Q353 59 304.5 25Q256 -9 187 -9Q144 -9 105 3.5Q66 16 41 35Z" glyph-name="scircumflex" horiz-adv-x="393" unicode="&#349;" /><glyph d="M141 -201 180 -137Q163 -135 151.5 -123Q140 -111 140 -93Q140 -72 154.5 -58.5Q169 -45 190 -45Q210 -45 224.5 -59Q239 -73 239 -95Q239 -111 232 -125Q225 -139 217 -152L188 -201ZM41 35V115Q72 87 109.5 71Q147 55 187 55Q224 55 251.5 69.5Q279 84 279 117Q279 142 261.5 156.5Q244 171 215 181L154 202Q104 218 73 246Q42 274 42 328Q42 386 87.5 419.5Q133 453 199 453Q236 453 270 443Q304 433 331 414V336Q303 359 271 374Q239 389 199 389Q165 389 140 374Q115 359 115 331Q115 304 132.5 291.5Q150 279 181 268L249 245Q299 228 326 197.5Q353 167 353 120Q353 59 304.5 25Q256 -9 187 -9Q144 -9 105 3.5Q66 16 41 35Z" glyph-name="scommaaccent" horiz-adv-x="393" unicode="&#537;" /><glyph d="M298 280 142 385Q119 378 106.5 360.5Q94 343 94 320Q94 293 114 274.5Q134 256 159 240L315 136Q338 142 350.5 160Q363 178 363 200Q363 227 343 245.5Q323 264 298 280ZM95 433Q86 446 81 462.5Q76 479 76 500Q76 556 121 589.5Q166 623 232 623Q269 623 303.5 613Q338 603 365 584V506Q337 529 304.5 544Q272 559 232 559Q198 559 174 544Q150 529 150 500Q150 474 166 457.5Q182 441 211 422L333 341Q374 314 404 282.5Q434 251 434 202Q434 165 415 134.5Q396 104 362 87Q371 74 376 57.5Q381 41 381 21Q381 -36 336 -69.5Q291 -103 225 -103Q188 -103 153.5 -92.5Q119 -82 92 -63V15Q120 -8 152.5 -23.5Q185 -39 225 -39Q259 -39 283 -23.5Q307 -8 307 21Q307 46 291 63Q275 80 246 99L124 180Q83 207 53 238Q23 269 23 318Q23 355 42 386Q61 417 95 433Z" glyph-name="section" horiz-adv-x="457" unicode="&#167;" /><glyph d="M13 -107 76 -1Q57 2 44.5 14.5Q32 27 32 49Q32 72 48 87Q64 102 86 102Q108 102 123.5 87Q139 72 139 44Q139 28 132.5 11.5Q126 -5 117 -19L64 -107ZM32 363Q32 386 48 402Q64 418 86 418Q108 418 123.5 402Q139 386 139 363Q139 340 123.5 324.5Q108 309 86 309Q64 309 48 324.5Q32 340 32 363Z" glyph-name="semicolon" horiz-adv-x="171" unicode=";" /><glyph d="M57 -107 120 -1Q101 2 88.5 14.5Q76 27 76 49Q76 72 92 87Q108 102 130 102Q152 102 167.5 87Q183 72 183 44Q183 28 176.5 11.5Q170 -5 161 -19L108 -107ZM76 363Q76 386 92 402Q108 418 130 418Q152 418 167.5 402Q183 386 183 363Q183 340 167.5 324.5Q152 309 130 309Q108 309 92 324.5Q76 340 76 363Z" glyph-name="semicolon.tab" horiz-adv-x="260" /><glyph d="M432 611 153 0H74L324 544H18V614H432Z" glyph-name="seven" horiz-adv-x="444" unicode="7" /><glyph d="M489 611 210 0H131L381 544H50V614H489Z" glyph-name="seven.lt" horiz-adv-x="520" /><glyph d="M241 -9Q151 -9 92 51Q33 111 33 200Q33 237 45 277.5Q57 318 87 370L227 614H308L179 390Q191 397 209.5 402.5Q228 408 246 408Q334 408 391.5 348Q449 288 449 200Q449 111 389.5 51Q330 -9 241 -9ZM377 200Q377 259 338 300Q299 341 241 341Q183 341 144 300Q105 259 105 200Q105 140 144 99.5Q183 59 241 59Q299 59 338 99.5Q377 140 377 200Z" glyph-name="six" horiz-adv-x="482" unicode="6" /><glyph d="M260 -9Q171 -9 111.5 51Q52 111 52 200Q52 237 64 277.5Q76 318 106 370L246 614H327L198 390Q210 397 228.5 402.5Q247 408 265 408Q353 408 410.5 348Q468 288 468 200Q468 111 408.5 51Q349 -9 260 -9ZM396 200Q396 259 357 300Q318 341 260 341Q202 341 163 300Q124 259 124 200Q124 140 163 99.5Q202 59 260 59Q318 59 357 99.5Q396 140 396 200Z" glyph-name="six.lt" horiz-adv-x="520" /><glyph d="M5 -84 253 650H328L80 -84Z" glyph-name="slash" horiz-adv-x="333" unicode="/" /><glyph d="M5 -64 253 670H328L80 -64Z" glyph-name="slash.cap" horiz-adv-x="333" /><glyph glyph-name="space" horiz-adv-x="221" unicode=" " /><glyph glyph-name="space.tab" horiz-adv-x="260" /><glyph d="M441 65V0H31V65H92Q102 82 108 102.5Q114 123 114 156V271H31V334H114V409Q114 506 169 564.5Q224 623 317 623Q349 623 378 615Q407 607 426 594V525Q405 538 378 547Q351 556 317 556Q256 556 221.5 516Q187 476 187 405V334H341V271H187V156Q187 130 181 105Q175 80 164 65Z" glyph-name="sterling" horiz-adv-x="467" unicode="&#163;" /><glyph d="M471 65V0H61V65H121Q131 82 137.5 102.5Q144 123 144 156V271H61V334H144V409Q144 506 199 564.5Q254 623 347 623Q379 623 408 615Q437 607 456 594V525Q435 538 408 547Q381 556 347 556Q286 556 251.5 516Q217 476 217 405V334H371V271H217V156Q217 130 211 105Q205 80 194 65Z" glyph-name="sterling.lt" horiz-adv-x="520" /><glyph d="M191 380V0H116V380H23V444H116V561H191V444H294V380Z" glyph-name="t" horiz-adv-x="318" unicode="t" /><glyph d="M271 219H191V0H116V219H43V280H116V380H23V444H116V561H191V444H294V380H191V280H271Z" glyph-name="tbar" horiz-adv-x="318" unicode="&#359;" /><glyph d="M303 496H243L276 660H336ZM191 380V0H116V380H23V444H116V561H191V444H294V380Z" glyph-name="tcaron" horiz-adv-x="318" unicode="&#357;" /><glyph d="M104 -201 143 -137Q126 -135 114.5 -123Q103 -111 103 -93Q103 -72 117.5 -58.5Q132 -45 153 -45Q173 -45 187.5 -59Q202 -73 202 -95Q202 -111 195 -125Q188 -139 180 -152L151 -201ZM191 380V0H116V380H23V444H116V561H191V444H294V380Z" glyph-name="tcommaaccent" horiz-adv-x="318" unicode="&#355;" /><glyph d="M142 312V132Q159 98 190 78.5Q221 59 256 59Q319 59 355 105.5Q391 152 391 222Q391 292 355 338.5Q319 385 256 385Q221 385 190 365.5Q159 346 142 312ZM142 52V-170H67V650H142V392Q159 416 192.5 434.5Q226 453 267 453Q365 453 416 383.5Q467 314 467 222Q467 130 416 60.5Q365 -9 267 -9Q226 -9 192.5 9.5Q159 28 142 52Z" glyph-name="thorn" horiz-adv-x="502" unicode="&#254;" /><glyph d="M33 544V614H396V611L242 367Q310 357 355.5 309.5Q401 262 401 187Q401 97 340 44Q279 -9 196 -9Q138 -9 98 5.5Q58 20 29 42V125Q62 93 104 76Q146 59 191 59Q251 59 290 92Q329 125 329 186Q329 254 274.5 288Q220 322 139 319V322L280 544Z" glyph-name="three" horiz-adv-x="437" unicode="3" /><glyph d="M65 544V614H445V611L281 367Q353 357 401 309Q449 261 449 186Q449 96 385.5 43Q322 -10 235 -10Q175 -10 133.5 4.5Q92 19 61 41V125Q95 92 139 75.5Q183 59 231 59Q293 59 335.5 92Q378 125 378 186Q378 253 319 287.5Q260 322 176 319V322L325 544Z" glyph-name="three.lt" horiz-adv-x="520" /><glyph d="M591 614 162 0H95L524 614ZM54 558V614H264V612L188 482Q222 473 243.5 448Q265 423 265 386Q265 335 230 305.5Q195 276 147 276Q114 276 91 284Q68 292 52 304V366Q71 348 94 339Q117 330 141 330Q169 330 187 344.5Q205 359 205 385Q205 417 177.5 432Q150 447 111 445V447L177 558ZM557 333 461 123H538V190H594V123H641V70H594V0H538V70H374V72L494 333Z" glyph-name="threequarters" horiz-adv-x="689" unicode="&#190;" /><glyph d="M28 558V614H237V612L162 482Q196 473 217.5 448Q239 423 239 386Q239 335 204 306Q169 277 121 277Q88 277 65 284.5Q42 292 26 304V366Q45 349 68 340Q91 331 115 331Q143 331 161 345Q179 359 179 386Q179 417 151.5 432Q124 447 85 445V447L151 558Z" glyph-name="threesuperior" horiz-adv-x="267" unicode="&#179;" /><glyph d="M333 633H381Q381 580 361.5 547.5Q342 515 305 515Q271 515 248 544Q225 573 201 573Q184 573 175.5 558Q167 543 167 518H119Q119 571 138.5 603.5Q158 636 195 636Q230 636 252.5 607Q275 578 299 578Q315 578 323.5 593Q332 608 333 633Z" glyph-name="tilde" horiz-adv-x="500" unicode="&#732;" /><glyph d="M336 784H384Q384 731 364.5 698Q345 665 308 665Q271 665 248 693Q225 721 198 721Q181 721 172.5 707Q164 693 164 668H115Q115 721 134.5 754Q154 787 191 787Q228 787 251 759Q274 731 302 731Q318 731 326.5 745Q335 759 336 784Z" glyph-name="tilde.cap" horiz-adv-x="500" /><glyph d="M18 568V614H235V568H154V360H100V568ZM403 417H398L326 525V360H274V614H323L400 495L478 614H526V360H474V525Z" glyph-name="trademark" horiz-adv-x="569" unicode="&#8482;" /><glyph d="M159 70H412V0H20V4L208 235Q255 292 288.5 341Q322 390 322 447Q322 493 293 523Q264 553 209 553Q156 553 111 527Q66 501 34 468V548Q65 580 113 601.5Q161 623 215 623Q299 623 348.5 576Q398 529 398 450Q398 384 360.5 326Q323 268 272 205Z" glyph-name="two" horiz-adv-x="444" unicode="2" /><glyph d="M183 70H450V0H44V4L232 235Q279 292 312.5 341Q346 390 346 447Q346 493 317.5 523Q289 553 233 553Q180 553 135 527Q90 501 58 468V548Q89 580 137 601.5Q185 623 239 623Q323 623 373 576Q423 529 423 450Q423 384 385 326Q347 268 296 205Z" glyph-name="two.lt" horiz-adv-x="520" /><glyph d="M129 337H249V282H20V284L120 411Q145 442 161 465Q177 488 177 514Q177 535 163 548.5Q149 562 123 562Q97 562 71.5 547Q46 532 29 516V580Q47 596 75 607.5Q103 619 136 619Q184 619 211.5 592.5Q239 566 239 523Q239 489 220.5 459.5Q202 430 177 398Z" glyph-name="twosuperior" horiz-adv-x="275" unicode="&#178;" /><glyph d="M421 444V0H345V56Q326 30 292.5 10.5Q259 -9 216 -9Q141 -9 101 36Q61 81 61 153V444H137V165Q137 119 160.5 89.5Q184 60 234 60Q273 60 303 83.5Q333 107 345 143V444Z" glyph-name="u" horiz-adv-x="487" unicode="u" /><glyph d="M272 516H203L283 650H361ZM421 444V0H345V56Q326 30 292.5 10.5Q259 -9 216 -9Q141 -9 101 36Q61 81 61 153V444H137V165Q137 119 160.5 89.5Q184 60 234 60Q273 60 303 83.5Q333 107 345 143V444Z" glyph-name="uacute" horiz-adv-x="487" unicode="&#250;" /><glyph d="M421 444V0H345V56Q326 30 292.5 10.5Q259 -9 216 -9Q141 -9 101 36Q61 81 61 153V444H137V165Q137 119 160.5 89.5Q184 60 234 60Q273 60 303 83.5Q333 107 345 143V444ZM243 500Q193 500 161 533Q129 566 129 628H186Q186 594 200.5 574.5Q215 555 243 555Q271 555 285.5 574.5Q300 594 300 628H357Q357 566 325 533Q293 500 243 500Z" glyph-name="ubreve" horiz-adv-x="487" unicode="&#365;" /><glyph d="M278 645 370 509H305L243 597L181 509H116L208 645ZM421 444V0H345V56Q326 30 292.5 10.5Q259 -9 216 -9Q141 -9 101 36Q61 81 61 153V444H137V165Q137 119 160.5 89.5Q184 60 234 60Q273 60 303 83.5Q333 107 345 143V444Z" glyph-name="ucircumflex" horiz-adv-x="487" unicode="&#251;" /><glyph d="M268 571Q268 591 281 604.5Q294 618 313 618Q332 618 346 604.5Q360 591 360 571Q360 552 346 538.5Q332 525 313 525Q294 525 281 538.5Q268 552 268 571ZM127 571Q127 591 141 604.5Q155 618 174 618Q193 618 206.5 604.5Q220 591 220 571Q220 552 206.5 538.5Q193 525 174 525Q155 525 141 538.5Q127 552 127 571ZM421 444V0H345V56Q326 30 292.5 10.5Q259 -9 216 -9Q141 -9 101 36Q61 81 61 153V444H137V165Q137 119 160.5 89.5Q184 60 234 60Q273 60 303 83.5Q333 107 345 143V444Z" glyph-name="udieresis" horiz-adv-x="487" unicode="&#252;" /><glyph d="M421 444V0H345V56Q326 30 292.5 10.5Q259 -9 216 -9Q141 -9 101 36Q61 81 61 153V444H137V165Q137 119 160.5 89.5Q184 60 234 60Q273 60 303 83.5Q333 107 345 143V444ZM281 516H212L123 650H201Z" glyph-name="ugrave" horiz-adv-x="487" unicode="&#249;" /><glyph d="M421 444V0H345V56Q326 30 292.5 10.5Q259 -9 216 -9Q141 -9 101 36Q61 81 61 153V444H137V165Q137 119 160.5 89.5Q184 60 234 60Q273 60 303 83.5Q333 107 345 143V444ZM331 516H268L335 650H399ZM212 516H149L215 650H280Z" glyph-name="uhungarumlaut" horiz-adv-x="487" unicode="&#369;" /><glyph d="M421 444V0H345V56Q326 30 292.5 10.5Q259 -9 216 -9Q141 -9 101 36Q61 81 61 153V444H137V165Q137 119 160.5 89.5Q184 60 234 60Q273 60 303 83.5Q333 107 345 143V444ZM137 530V591H350V530Z" glyph-name="umacron" horiz-adv-x="487" unicode="&#363;" /><glyph d="M20 -110V-42H347V-110Z" glyph-name="underscore" horiz-adv-x="367" unicode="_" /><glyph d="M191 615V282H129V541L41 497V561L149 615ZM569 614 140 0H73L502 614ZM428 276V333H638V331L563 200Q597 191 618 166.5Q639 142 639 105Q639 54 604.5 24.5Q570 -5 522 -5Q489 -5 466 3Q443 11 427 23V85Q446 67 468.5 58Q491 49 516 49Q544 49 561.5 63.5Q579 78 579 104Q579 135 551.5 150.5Q524 166 486 164V166L551 276Z" glyph-name="uni2153" horiz-adv-x="693" unicode="&#8531;" /><glyph d="M155 340H275V284H46V286L146 413Q171 444 187 467.5Q203 491 203 517Q203 538 189 551.5Q175 565 149 565Q123 565 97.5 550Q72 535 55 519V582Q73 599 101 610.5Q129 622 162 622Q210 622 237.5 595.5Q265 569 265 526Q265 492 246.5 462Q228 432 203 400ZM629 614 200 0H133L562 614ZM488 276V333H698V331L623 200Q657 191 678 166.5Q699 142 699 105Q699 54 664.5 24.5Q630 -5 582 -5Q549 -5 526 3Q503 11 487 23V85Q506 67 528.5 58Q551 49 576 49Q604 49 621.5 63.5Q639 78 639 104Q639 135 612 150.5Q585 166 546 164V166L611 276Z" glyph-name="uni2154" horiz-adv-x="753" unicode="&#8532;" /><glyph d="M191 615V282H129V541L41 497V561L149 615ZM569 614 140 0H73L502 614ZM519 -4Q469 -4 434 22Q399 48 399 92Q399 123 416 144Q433 165 458 172Q436 182 423.5 201Q411 220 411 245Q411 289 442.5 313.5Q474 338 519 338Q563 338 595 313.5Q627 289 627 245Q627 220 614 201Q601 182 579 172Q604 165 621 144Q638 123 638 92Q638 48 603.5 22Q569 -4 519 -4ZM519 199Q540 199 554 212Q568 225 568 244Q568 264 554 276.5Q540 289 519 289Q497 289 483 276.5Q469 264 469 244Q469 225 483 212Q497 199 519 199ZM519 46Q544 46 560.5 60.5Q577 75 577 97Q577 119 560.5 133Q544 147 519 147Q494 147 477.5 133Q461 119 461 97Q461 75 477.5 60.5Q494 46 519 46Z" glyph-name="uni215B" horiz-adv-x="691" unicode="&#8539;" /><glyph d="M591 614 162 0H95L524 614ZM54 558V614H264V612L188 482Q222 473 243.5 448Q265 423 265 386Q265 335 230 305.5Q195 276 147 276Q114 276 91 284Q68 292 52 304V366Q71 348 94 339Q117 330 141 330Q169 330 187 344.5Q205 359 205 385Q205 417 177.5 432Q150 447 111 445V447L177 558ZM541 -4Q491 -4 456 22Q421 48 421 92Q421 123 438 144Q455 165 480 172Q459 182 446 201Q433 220 433 245Q433 289 465 313.5Q497 338 541 338Q585 338 617 313.5Q649 289 649 245Q649 220 636 201Q623 182 601 172Q626 165 643 144Q660 123 660 92Q660 48 625.5 22Q591 -4 541 -4ZM541 199Q562 199 576.5 212Q591 225 591 244Q591 264 576.5 276.5Q562 289 541 289Q520 289 505.5 276.5Q491 264 491 244Q491 225 505.5 212Q520 199 541 199ZM541 46Q566 46 582.5 60.5Q599 75 599 97Q599 119 582.5 133Q566 147 541 147Q516 147 499.5 133Q483 119 483 97Q483 75 499.5 60.5Q516 46 541 46Z" glyph-name="uni215C" horiz-adv-x="713" unicode="&#8540;" /><glyph d="M595 614 166 0H99L528 614ZM150 495Q200 495 234 466Q268 437 268 386Q268 336 232.5 306.5Q197 277 146 277Q115 277 92.5 284.5Q70 292 54 304V365Q71 349 93.5 339.5Q116 330 141 330Q169 330 189 344Q209 358 209 386Q209 413 188.5 427.5Q168 442 139 442Q118 442 100 438Q82 434 66 428V614H250V558H117V490Q123 492 131.5 493.5Q140 495 150 495ZM545 -4Q495 -4 460 22Q425 48 425 92Q425 123 442 144Q459 165 484 172Q462 182 449.5 201Q437 220 437 245Q437 289 469 313.5Q501 338 545 338Q589 338 621 313.5Q653 289 653 245Q653 220 640 201Q627 182 605 172Q630 165 647 144Q664 123 664 92Q664 48 629.5 22Q595 -4 545 -4ZM545 199Q566 199 580.5 212Q595 225 595 244Q595 264 580.5 276.5Q566 289 545 289Q524 289 509.5 276.5Q495 264 495 244Q495 225 509.5 212Q524 199 545 199ZM545 46Q570 46 586.5 60.5Q603 75 603 97Q603 119 586.5 133Q570 147 545 147Q520 147 503.5 133Q487 119 487 97Q487 75 503.5 60.5Q520 46 545 46Z" glyph-name="uni215D" horiz-adv-x="717" unicode="&#8541;" /><glyph d="M286 612 135 281H69L196 558H46V614H286ZM551 614 123 0H56L484 614ZM502 -4Q451 -4 416.5 22Q382 48 382 92Q382 123 399 144Q416 165 441 172Q419 182 406 201Q393 220 393 245Q393 289 425 313.5Q457 338 502 338Q545 338 577.5 313.5Q610 289 610 245Q610 220 596.5 201Q583 182 562 172Q587 165 604 144Q621 123 621 92Q621 48 586.5 22Q552 -4 502 -4ZM502 199Q523 199 537 212Q551 225 551 244Q551 264 537 276.5Q523 289 502 289Q480 289 465.5 276.5Q451 264 451 244Q451 225 465.5 212Q480 199 502 199ZM502 46Q527 46 543.5 60.5Q560 75 560 97Q560 119 543.5 133Q527 147 502 147Q477 147 460.5 133Q444 119 444 97Q444 75 460.5 60.5Q477 46 502 46Z" glyph-name="uni215E" horiz-adv-x="673" unicode="&#8542;" /><glyph d="M421 444V0Q392 -49 382 -68.5Q372 -88 372 -106Q372 -119 378 -125.5Q384 -132 394 -132Q404 -132 412.5 -128Q421 -124 431 -117V-167Q421 -175 408 -180.5Q395 -186 379 -186Q347 -186 330 -168Q313 -150 313 -120Q313 -92 327.5 -64.5Q342 -37 365 0H345V56Q326 30 292.5 10.5Q259 -9 216 -9Q141 -9 101 36Q61 81 61 153V444H137V165Q137 119 160.5 89.5Q184 60 234 60Q273 60 303 83.5Q333 107 345 143V444Z" glyph-name="uogonek" horiz-adv-x="487" unicode="&#371;" /><glyph d="M330 580Q330 543 305 518.5Q280 494 243 494Q206 494 181 518.5Q156 543 156 580Q156 617 181 641.5Q206 666 243 666Q280 666 305 641.5Q330 617 330 580ZM288 580Q288 599 275 612Q262 625 243 625Q224 625 211 612Q198 599 198 580Q198 561 211 548Q224 535 243 535Q262 535 275 548Q288 561 288 580ZM421 444V0H345V56Q326 30 292.5 10.5Q259 -9 216 -9Q141 -9 101 36Q61 81 61 153V444H137V165Q137 119 160.5 89.5Q184 60 234 60Q273 60 303 83.5Q333 107 345 143V444Z" glyph-name="uring" horiz-adv-x="487" unicode="&#367;" /><glyph d="M421 444V0H345V56Q326 30 292.5 10.5Q259 -9 216 -9Q141 -9 101 36Q61 81 61 153V444H137V165Q137 119 160.5 89.5Q184 60 234 60Q273 60 303 83.5Q333 107 345 143V444ZM327 633H375Q375 580 355.5 547.5Q336 515 299 515Q265 515 242 544Q219 573 195 573Q178 573 169.5 558Q161 543 161 518H113Q113 571 132.5 603.5Q152 636 189 636Q224 636 246.5 607Q269 578 293 578Q309 578 317.5 593Q326 608 327 633Z" glyph-name="utilde" horiz-adv-x="487" unicode="&#361;" /><glyph d="M264 0H190L18 444H99L229 95L358 444H437Z" glyph-name="v" horiz-adv-x="455" unicode="v" /><glyph d="M349 444 440 105 538 444H611L480 0H407L315 337L222 0H149L18 444H93L191 105L282 444Z" glyph-name="w" horiz-adv-x="629" unicode="w" /><glyph d="M344 516H275L355 650H433ZM349 444 440 105 538 444H611L480 0H407L315 337L222 0H149L18 444H93L191 105L282 444Z" glyph-name="wacute" horiz-adv-x="629" unicode="&#7811;" /><glyph d="M350 645 442 509H377L315 597L253 509H188L280 645ZM349 444 440 105 538 444H611L480 0H407L315 337L222 0H149L18 444H93L191 105L282 444Z" glyph-name="wcircumflex" horiz-adv-x="629" unicode="&#373;" /><glyph d="M339 571Q339 591 352 604.5Q365 618 384 618Q403 618 417 604.5Q431 591 431 571Q431 552 417 538.5Q403 525 384 525Q365 525 352 538.5Q339 552 339 571ZM198 571Q198 591 212 604.5Q226 618 245 618Q264 618 277.5 604.5Q291 591 291 571Q291 552 277.5 538.5Q264 525 245 525Q226 525 212 538.5Q198 552 198 571ZM349 444 440 105 538 444H611L480 0H407L315 337L222 0H149L18 444H93L191 105L282 444Z" glyph-name="wdieresis" horiz-adv-x="629" unicode="&#7813;" /><glyph d="M349 444 440 105 538 444H611L480 0H407L315 337L222 0H149L18 444H93L191 105L282 444ZM353 516H284L195 650H273Z" glyph-name="wgrave" horiz-adv-x="629" unicode="&#7809;" /><glyph d="M422 444 266 230 431 0H346L223 173L99 0H18L182 227L27 444H113L225 285L340 444Z" glyph-name="x" horiz-adv-x="449" unicode="x" /><glyph d="M198 -170H124L191 -3L18 444H99L230 94L359 444H437Z" glyph-name="y" horiz-adv-x="455" unicode="y" /><glyph d="M198 -170H124L191 -3L18 444H99L230 94L359 444H437ZM257 516H188L268 650H346Z" glyph-name="yacute" horiz-adv-x="455" unicode="&#253;" /><glyph d="M198 -170H124L191 -3L18 444H99L230 94L359 444H437ZM263 645 355 509H290L228 597L166 509H101L193 645Z" glyph-name="ycircumflex" horiz-adv-x="455" unicode="&#375;" /><glyph d="M198 -170H124L191 -3L18 444H99L230 94L359 444H437ZM252 571Q252 591 265 604.5Q278 618 297 618Q316 618 330 604.5Q344 591 344 571Q344 552 330 538.5Q316 525 297 525Q278 525 265 538.5Q252 552 252 571ZM111 571Q111 591 125 604.5Q139 618 158 618Q177 618 190.5 604.5Q204 591 204 571Q204 552 190.5 538.5Q177 525 158 525Q139 525 125 538.5Q111 552 111 571Z" glyph-name="ydieresis" horiz-adv-x="455" unicode="&#255;" /><glyph d="M463 134H306V0H228V134H71V194H228V264H71V323H198L25 614H109L269 339L428 614H509L336 323H463V264H306V194H463Z" glyph-name="yen" horiz-adv-x="535" unicode="&#165;" /><glyph d="M455 134H298V0H221V134H64V194H221V264H64V323H192L24 614H108L261 339L414 614H495L327 323H455V264H298V194H455Z" glyph-name="yen.lt" horiz-adv-x="520" /><glyph d="M198 -170H124L191 -3L18 444H99L230 94L359 444H437ZM266 516H197L108 650H186Z" glyph-name="ygrave" horiz-adv-x="455" unicode="&#7923;" /><glyph d="M385 64V0H31V4L270 380H42V444H386V440L148 64Z" glyph-name="z" horiz-adv-x="424" unicode="z" /><glyph d="M243 516H174L254 650H332ZM385 64V0H31V4L270 380H42V444H386V440L148 64Z" glyph-name="zacute" horiz-adv-x="424" unicode="&#378;" /><glyph d="M340 646 248 510H178L86 646H151L213 559L275 646ZM385 64V0H31V4L270 380H42V444H386V440L148 64Z" glyph-name="zcaron" horiz-adv-x="424" unicode="&#382;" /><glyph d="M385 64V0H31V4L270 380H42V444H386V440L148 64ZM261 578Q261 559 246.5 544.5Q232 530 213 530Q194 530 179.5 544.5Q165 559 165 578Q165 598 179.5 612Q194 626 213 626Q232 626 246.5 612Q261 598 261 578Z" glyph-name="zdotaccent" horiz-adv-x="424" unicode="&#380;" /><glyph d="M269 -9Q167 -9 103.5 79Q40 167 40 307Q40 447 103.5 535Q167 623 269 623Q371 623 434.5 535Q498 447 498 307Q498 167 434.5 79Q371 -9 269 -9ZM269 552Q194 552 155.5 483Q117 414 117 307Q117 200 155.5 131Q194 62 269 62Q343 62 382 131Q421 200 421 307Q421 414 382 483Q343 552 269 552Z" glyph-name="zero" horiz-adv-x="538" unicode="0" /><glyph d="M260 -9Q158 -9 95 79Q32 167 32 307Q32 447 95 535Q158 623 260 623Q362 623 425 535Q488 447 488 307Q488 167 425 79Q362 -9 260 -9ZM260 552Q185 552 146.5 483Q108 414 108 307Q108 200 146.5 131Q185 62 260 62Q334 62 372.5 131Q411 200 411 307Q411 414 372.5 483Q334 552 260 552Z" glyph-name="zero.lt" horiz-adv-x="520" /></font>
</defs>
</svg>
