<?xml version="1.0" standalone="no"?><!DOCTYPE svg PUBLIC "-//W3C//DTD SVG 1.1//EN" "http://www.w3.org/Graphics/SVG/1.1/DTD/svg11.dtd" ><svg version="1.1" xmlns="http://www.w3.org/2000/svg"><defs><font horiz-adv-x="0" id="font"><font-face ascent="750" bbox="-120 -236 977 923" cap-height="614" descent="-250" font-family="Copyright Klim Type Foundry" font-stretch="normal" font-style="normal" font-weight="700" units-per-em="1000" x-height="450" /><missing-glyph horiz-adv-x="608" /><glyph glyph-name=".null" horiz-adv-x="0" /><glyph d="M405 614 639 0H476L432 119H209L166 0H7L241 614ZM258 251H384L321 424Z" glyph-name="A" horiz-adv-x="646" unicode="A" /><glyph d="M864 614V476H603V380H839V245H603V139H864V0H445V119H243L177 0H7L352 614ZM316 251H445V484Z" glyph-name="AE" horiz-adv-x="898" unicode="&#198;" /><glyph d="M517 666 599 796H760L671 666ZM864 614V476H603V380H839V245H603V139H864V0H445V119H243L177 0H7L352 614ZM316 251H445V484Z" glyph-name="AEacute" horiz-adv-x="898" unicode="&#508;" /><glyph d="M405 614 639 0H476L432 119H209L166 0H7L241 614ZM258 251H384L321 424ZM242 666 324 796H485L396 666Z" glyph-name="Aacute" horiz-adv-x="646" unicode="&#193;" /><glyph d="M405 614 639 0H476L432 119H209L166 0H7L241 614ZM258 251H384L321 424ZM323 658Q260 658 219.5 695Q179 732 179 804H287Q287 783 296.5 772.5Q306 762 323 762Q359 762 359 804H467Q467 732 426.5 695Q386 658 323 658Z" glyph-name="Abreve" horiz-adv-x="646" unicode="&#258;" /><glyph d="M405 614 639 0H476L432 119H209L166 0H7L241 614ZM258 251H384L321 424ZM491 666H365L323 711L281 666H155L263 798H383Z" glyph-name="Acircumflex" horiz-adv-x="646" unicode="&#194;" /><glyph d="M405 614 639 0H476L432 119H209L166 0H7L241 614ZM258 251H384L321 424ZM154 734Q154 767 176.5 790Q199 813 232 813Q264 813 287.5 790Q311 767 311 734Q311 701 287.5 678Q264 655 232 655Q199 655 176.5 678Q154 701 154 734ZM335 734Q335 767 358 790Q381 813 413 813Q445 813 468.5 790Q492 767 492 734Q492 701 468.5 678Q445 655 413 655Q381 655 358 678Q335 701 335 734Z" glyph-name="Adieresis" horiz-adv-x="646" unicode="&#196;" /><glyph d="M405 614 639 0H476L432 119H209L166 0H7L241 614ZM258 251H384L321 424ZM252 666 163 796H324L406 666Z" glyph-name="Agrave" horiz-adv-x="646" unicode="&#192;" /><glyph d="M405 614 639 0H476L432 119H209L166 0H7L241 614ZM258 251H384L321 424ZM191 774H456V666H191Z" glyph-name="Amacron" horiz-adv-x="646" unicode="&#256;" /><glyph d="M405 614 639 0Q624 -18 614 -30Q604 -42 598 -49.5Q592 -57 589.5 -63Q587 -69 587 -75Q587 -94 607 -94Q615 -94 622.5 -90.5Q630 -87 642 -79V-166Q628 -174 612.5 -179.5Q597 -185 577 -185Q537 -185 511 -165Q485 -145 485 -106Q485 -77 501 -52Q517 -27 540 0H476L432 119H209L166 0H7L241 614ZM258 251H384L321 424Z" glyph-name="Aogonek" horiz-adv-x="646" unicode="&#260;" /><glyph d="M405 614 639 0H476L432 119H209L166 0H7L241 614ZM258 251H384L321 424ZM431 747Q431 725 422.5 706Q414 687 399.5 672.5Q385 658 365.5 650Q346 642 323 642Q300 642 280.5 650Q261 658 246.5 672.5Q232 687 223.5 706Q215 725 215 747Q215 769 223.5 788Q232 807 246.5 821.5Q261 836 280.5 844Q300 852 323 852Q346 852 365.5 844Q385 836 399.5 821.5Q414 807 422.5 788Q431 769 431 747ZM359 747Q359 762 349 772.5Q339 783 323 783Q308 783 297.5 772.5Q287 762 287 747Q287 732 297.5 721.5Q308 711 323 711Q339 711 349 721.5Q359 732 359 747Z" glyph-name="Aring" horiz-adv-x="646" unicode="&#197;" /><glyph d="M427 717Q427 699 419 683.5Q411 668 396.5 656.5Q382 645 362.5 638Q343 631 321 631Q298 631 279 638Q260 645 245.5 656.5Q231 668 223 683.5Q215 699 215 717Q215 753 245.5 778Q276 803 321 803Q366 803 396.5 778Q427 753 427 717ZM357 717Q357 730 347 738Q337 746 321 746Q305 746 294.5 738Q284 730 284 717Q284 705 294.5 696.5Q305 688 321 688Q337 688 347 696.5Q357 705 357 717ZM248 821 311 923H471L401 821ZM405 614 639 0H476L432 119H209L166 0H7L241 614ZM258 251H384L321 424Z" glyph-name="Aringacute" horiz-adv-x="646" unicode="&#506;" /><glyph d="M405 614 639 0H476L432 119H209L166 0H7L241 614ZM258 251H384L321 424ZM480 809Q480 779 475.5 751.5Q471 724 460.5 703.5Q450 683 433.5 671Q417 659 392 659Q374 659 358.5 664.5Q343 670 329 676.5Q315 683 302.5 688.5Q290 694 277 694Q253 694 251 663H166Q166 693 170.5 720Q175 747 185.5 768Q196 789 212.5 801Q229 813 254 813Q272 813 287.5 807.5Q303 802 317 795.5Q331 789 343.5 783.5Q356 778 369 778Q393 778 395 809Z" glyph-name="Atilde" horiz-adv-x="646" unicode="&#195;" /><glyph d="M432 317Q476 303 504 263.5Q532 224 532 172Q532 88 478.5 44Q425 0 328 0H46V614H309Q406 614 460 572Q514 530 514 447Q514 397 490 363Q466 329 432 317ZM291 371Q363 371 363 427Q363 482 291 482H199V371ZM199 132H307Q341 132 359 148.5Q377 165 377 191Q377 219 359 235Q341 251 307 251H199Z" glyph-name="B" horiz-adv-x="557" unicode="B" /><glyph d="M22 307Q22 379 45 437.5Q68 496 109.5 537.5Q151 579 209 601.5Q267 624 337 624Q386 624 425 613Q464 602 493 582V426Q428 476 350 476Q273 476 228 431.5Q183 387 183 307Q183 228 228 183.5Q273 139 350 139Q388 139 424 150.5Q460 162 493 188V32Q464 12 425 1Q386 -10 337 -10Q267 -10 209 12.5Q151 35 109.5 76.5Q68 118 45 176.5Q22 235 22 307Z" glyph-name="C" horiz-adv-x="529" unicode="C" /><glyph d="M22 307Q22 379 45 437.5Q68 496 109.5 537.5Q151 579 209 601.5Q267 624 337 624Q386 624 425 613Q464 602 493 582V426Q428 476 350 476Q273 476 228 431.5Q183 387 183 307Q183 228 228 183.5Q273 139 350 139Q388 139 424 150.5Q460 162 493 188V32Q464 12 425 1Q386 -10 337 -10Q267 -10 209 12.5Q151 35 109.5 76.5Q68 118 45 176.5Q22 235 22 307ZM254 666 336 796H497L408 666Z" glyph-name="Cacute" horiz-adv-x="529" unicode="&#262;" /><glyph d="M22 307Q22 379 45 437.5Q68 496 109.5 537.5Q151 579 209 601.5Q267 624 337 624Q386 624 425 613Q464 602 493 582V426Q428 476 350 476Q273 476 228 431.5Q183 387 183 307Q183 228 228 183.5Q273 139 350 139Q388 139 424 150.5Q460 162 493 188V32Q464 12 425 1Q386 -10 337 -10Q267 -10 209 12.5Q151 35 109.5 76.5Q68 118 45 176.5Q22 235 22 307ZM167 796H293L335 750L377 796H503L395 663H275Z" glyph-name="Ccaron" horiz-adv-x="529" unicode="&#268;" /><glyph d="M22 307Q22 379 45 437.5Q68 496 109.5 537.5Q151 579 209 601.5Q267 624 337 624Q386 624 425 613Q464 602 493 582V426Q428 476 350 476Q273 476 228 431.5Q183 387 183 307Q183 228 228 183.5Q273 139 350 139Q388 139 424 150.5Q460 162 493 188V32Q464 12 425 1Q386 -10 337 -10Q267 -10 209 12.5Q151 35 109.5 76.5Q68 118 45 176.5Q22 235 22 307ZM198 -181 267 -40H401L331 -181Z" glyph-name="Ccedilla" horiz-adv-x="529" unicode="&#199;" /><glyph d="M22 307Q22 379 45 437.5Q68 496 109.5 537.5Q151 579 209 601.5Q267 624 337 624Q386 624 425 613Q464 602 493 582V426Q428 476 350 476Q273 476 228 431.5Q183 387 183 307Q183 228 228 183.5Q273 139 350 139Q388 139 424 150.5Q460 162 493 188V32Q464 12 425 1Q386 -10 337 -10Q267 -10 209 12.5Q151 35 109.5 76.5Q68 118 45 176.5Q22 235 22 307ZM503 666H377L335 711L293 666H167L275 798H395Z" glyph-name="Ccircumflex" horiz-adv-x="529" unicode="&#264;" /><glyph d="M422 743Q422 704 395.5 681Q369 658 333 658Q297 658 270.5 681Q244 704 244 743Q244 781 270.5 804Q297 827 333 827Q369 827 395.5 804Q422 781 422 743ZM22 307Q22 379 45 437.5Q68 496 109.5 537.5Q151 579 209 601.5Q267 624 337 624Q386 624 425 613Q464 602 493 582V426Q428 476 350 476Q273 476 228 431.5Q183 387 183 307Q183 228 228 183.5Q273 139 350 139Q388 139 424 150.5Q460 162 493 188V32Q464 12 425 1Q386 -10 337 -10Q267 -10 209 12.5Q151 35 109.5 76.5Q68 118 45 176.5Q22 235 22 307Z" glyph-name="Cdotaccent" horiz-adv-x="529" unicode="&#266;" /><glyph d="M270 139Q347 139 388 184Q429 229 429 307Q429 385 388 430.5Q347 476 270 476H204V139ZM46 614H278Q350 614 407.5 592.5Q465 571 505 531Q545 491 566.5 434Q588 377 588 307Q588 237 566.5 180Q545 123 505 83Q465 43 407.5 21.5Q350 0 278 0H46Z" glyph-name="D" horiz-adv-x="609" unicode="D" /><glyph d="M104 796H230L272 750L314 796H440L332 663H212ZM270 139Q347 139 388 184Q429 229 429 307Q429 385 388 430.5Q347 476 270 476H204V139ZM46 614H278Q350 614 407.5 592.5Q465 571 505 531Q545 491 566.5 434Q588 377 588 307Q588 237 566.5 180Q545 123 505 83Q465 43 407.5 21.5Q350 0 278 0H46Z" glyph-name="Dcaron" horiz-adv-x="609" unicode="&#270;" /><glyph d="M17 375H63V614H295Q367 614 424.5 592.5Q482 571 522 531Q562 491 583.5 434Q605 377 605 307Q605 237 583.5 180Q562 123 522 83Q482 43 424.5 21.5Q367 0 295 0H63V251H17ZM287 139Q364 139 405 184Q446 229 446 307Q446 385 405 430.5Q364 476 287 476H221V375H308V251H221V139Z" glyph-name="Dcroat" horiz-adv-x="626" unicode="&#272;" /><glyph d="M485 614V476H204V380H461V245H204V139H485V0H46V614Z" glyph-name="E" horiz-adv-x="519" unicode="E" /><glyph d="M190 666 272 796H433L344 666ZM485 614V476H204V380H461V245H204V139H485V0H46V614Z" glyph-name="Eacute" horiz-adv-x="519" unicode="&#201;" /><glyph d="M271 658Q208 658 167.5 695Q127 732 127 804H235Q235 783 244.5 772.5Q254 762 271 762Q307 762 307 804H415Q415 732 374.5 695Q334 658 271 658ZM485 614V476H204V380H461V245H204V139H485V0H46V614Z" glyph-name="Ebreve" horiz-adv-x="519" unicode="&#276;" /><glyph d="M103 796H229L271 750L313 796H439L331 663H211ZM485 614V476H204V380H461V245H204V139H485V0H46V614Z" glyph-name="Ecaron" horiz-adv-x="519" unicode="&#282;" /><glyph d="M485 614V476H204V380H461V245H204V139H485V0H46V614ZM439 666H313L271 711L229 666H103L211 798H331Z" glyph-name="Ecircumflex" horiz-adv-x="519" unicode="&#202;" /><glyph d="M102 734Q102 767 124.5 790Q147 813 180 813Q212 813 235.5 790Q259 767 259 734Q259 701 235.5 678Q212 655 180 655Q147 655 124.5 678Q102 701 102 734ZM283 734Q283 767 306 790Q329 813 361 813Q393 813 416.5 790Q440 767 440 734Q440 701 416.5 678Q393 655 361 655Q329 655 306 678Q283 701 283 734ZM485 614V476H204V380H461V245H204V139H485V0H46V614Z" glyph-name="Edieresis" horiz-adv-x="519" unicode="&#203;" /><glyph d="M360 743Q360 704 333.5 681Q307 658 271 658Q235 658 208.5 681Q182 704 182 743Q182 781 208.5 804Q235 827 271 827Q307 827 333.5 804Q360 781 360 743ZM485 614V476H204V380H461V245H204V139H485V0H46V614Z" glyph-name="Edotaccent" horiz-adv-x="519" unicode="&#278;" /><glyph d="M201 666 112 796H273L355 666ZM485 614V476H204V380H461V245H204V139H485V0H46V614Z" glyph-name="Egrave" horiz-adv-x="519" unicode="&#200;" /><glyph d="M139 774H404V666H139ZM485 614V476H204V380H461V245H204V139H485V0H46V614Z" glyph-name="Emacron" horiz-adv-x="519" unicode="&#274;" /><glyph d="M280 -18Q296 -26 312.5 -30Q329 -34 348 -34Q386 -34 404 -16Q422 2 426 44L201 359V0H46V614H196L433 276V614H588V53Q588 -6 573 -49Q558 -92 530 -119.5Q502 -147 462 -160Q422 -173 372 -173Q346 -173 323 -168.5Q300 -164 280 -158Z" glyph-name="Eng" horiz-adv-x="634" unicode="&#330;" /><glyph d="M485 614V476H204V380H461V245H204V139H485V0H450Q421 -35 410.5 -49Q400 -63 400 -75Q400 -94 419 -94Q428 -94 435 -90.5Q442 -87 454 -79V-166Q440 -174 425 -179.5Q410 -185 389 -185Q349 -185 323 -165Q297 -145 297 -106Q297 -77 313.5 -51.5Q330 -26 353 0H46V614Z" glyph-name="Eogonek" horiz-adv-x="519" unicode="&#280;" /><glyph d="M17 376H63V614H295Q367 614 424.5 592.5Q482 571 522 531Q562 491 583.5 434Q605 377 605 307Q605 237 583.5 180Q562 123 522 83Q482 43 424.5 21.5Q367 0 295 0H63V252H17ZM287 139Q364 139 405 184Q446 229 446 307Q446 385 405 430.5Q364 476 287 476H221V376H308V252H221V139Z" glyph-name="Eth" horiz-adv-x="626" unicode="&#208;" /><glyph d="M20 286H64V307V330H20V407H76Q102 508 174.5 566Q247 624 351 624Q390 624 422 615.5Q454 607 479 591V445Q425 483 363 483Q318 483 286.5 462.5Q255 442 238 407H382L367 330H219Q218 324 218 318.5Q218 313 218 307Q218 302 218 296.5Q218 291 219 286H359L344 209H237Q254 172 286 151.5Q318 131 363 131Q425 131 479 169V23Q454 7 422 -1.5Q390 -10 351 -10Q246 -10 173 48.5Q100 107 75 209H20Z" glyph-name="Euro" horiz-adv-x="506" unicode="&#8364;" /><glyph d="M30 286H74V307V330H30V407H86Q112 508 184.5 566Q257 624 361 624Q400 624 432 615.5Q464 607 489 591V445Q435 483 373 483Q328 483 296.5 462.5Q265 442 248 407H392L377 330H229Q228 324 228 318.5Q228 313 228 307Q228 302 228 296.5Q228 291 229 286H369L354 209H247Q264 172 296 151.5Q328 131 373 131Q435 131 489 169V23Q464 7 432 -1.5Q400 -10 361 -10Q256 -10 183 48.5Q110 107 85 209H30Z" glyph-name="Euro.lt" horiz-adv-x="520" /><glyph d="M46 0V614H478V475H205V353H456V217H205V0Z" glyph-name="F" horiz-adv-x="507" unicode="F" /><glyph d="M339 133Q389 133 418 155V215H329V343H560V72Q513 29 455.5 9.5Q398 -10 334 -10Q262 -10 204 13Q146 36 105.5 78Q65 120 43.5 178Q22 236 22 305Q22 377 46 436Q70 495 113 537Q156 579 216.5 601.5Q277 624 350 624Q401 624 447.5 611Q494 598 528 576V420Q493 446 450 461Q407 476 350 476Q313 476 282.5 464Q252 452 230 430Q208 408 195.5 376.5Q183 345 183 305Q183 266 194.5 234Q206 202 226.5 179.5Q247 157 275.5 145Q304 133 339 133Z" glyph-name="G" horiz-adv-x="595" unicode="G" /><glyph d="M346 658Q283 658 242.5 695Q202 732 202 804H310Q310 783 319.5 772.5Q329 762 346 762Q382 762 382 804H490Q490 732 449.5 695Q409 658 346 658ZM339 133Q389 133 418 155V215H329V343H560V72Q513 29 455.5 9.5Q398 -10 334 -10Q262 -10 204 13Q146 36 105.5 78Q65 120 43.5 178Q22 236 22 305Q22 377 46 436Q70 495 113 537Q156 579 216.5 601.5Q277 624 350 624Q401 624 447.5 611Q494 598 528 576V420Q493 446 450 461Q407 476 350 476Q313 476 282.5 464Q252 452 230 430Q208 408 195.5 376.5Q183 345 183 305Q183 266 194.5 234Q206 202 226.5 179.5Q247 157 275.5 145Q304 133 339 133Z" glyph-name="Gbreve" horiz-adv-x="595" unicode="&#286;" /><glyph d="M339 133Q389 133 418 155V215H329V343H560V72Q513 29 455.5 9.5Q398 -10 334 -10Q262 -10 204 13Q146 36 105.5 78Q65 120 43.5 178Q22 236 22 305Q22 377 46 436Q70 495 113 537Q156 579 216.5 601.5Q277 624 350 624Q401 624 447.5 611Q494 598 528 576V420Q493 446 450 461Q407 476 350 476Q313 476 282.5 464Q252 452 230 430Q208 408 195.5 376.5Q183 345 183 305Q183 266 194.5 234Q206 202 226.5 179.5Q247 157 275.5 145Q304 133 339 133ZM514 666H388L346 711L304 666H178L286 798H406Z" glyph-name="Gcircumflex" horiz-adv-x="595" unicode="&#284;" /><glyph d="M309 -172Q289 -166 275 -148.5Q261 -131 261 -105Q261 -73 284 -53Q307 -33 342 -33Q374 -33 398.5 -53.5Q423 -74 423 -111Q423 -137 412 -157.5Q401 -178 384 -198L355 -236H260ZM339 133Q389 133 418 155V215H329V343H560V72Q513 29 455.5 9.5Q398 -10 334 -10Q262 -10 204 13Q146 36 105.5 78Q65 120 43.5 178Q22 236 22 305Q22 377 46 436Q70 495 113 537Q156 579 216.5 601.5Q277 624 350 624Q401 624 447.5 611Q494 598 528 576V420Q493 446 450 461Q407 476 350 476Q313 476 282.5 464Q252 452 230 430Q208 408 195.5 376.5Q183 345 183 305Q183 266 194.5 234Q206 202 226.5 179.5Q247 157 275.5 145Q304 133 339 133Z" glyph-name="Gcommaaccent" horiz-adv-x="595" unicode="&#290;" /><glyph d="M433 743Q433 704 406.5 681Q380 658 344 658Q308 658 281.5 681Q255 704 255 743Q255 781 281.5 804Q308 827 344 827Q380 827 406.5 804Q433 781 433 743ZM339 133Q389 133 418 155V215H329V343H560V72Q513 29 455.5 9.5Q398 -10 334 -10Q262 -10 204 13Q146 36 105.5 78Q65 120 43.5 178Q22 236 22 305Q22 377 46 436Q70 495 113 537Q156 579 216.5 601.5Q277 624 350 624Q401 624 447.5 611Q494 598 528 576V420Q493 446 450 461Q407 476 350 476Q313 476 282.5 464Q252 452 230 430Q208 408 195.5 376.5Q183 345 183 305Q183 266 194.5 234Q206 202 226.5 179.5Q247 157 275.5 145Q304 133 339 133Z" glyph-name="Gdotaccent" horiz-adv-x="595" unicode="&#288;" /><glyph d="M605 614V0H444V243H207V0H46V614H207V381H444V614Z" glyph-name="H" horiz-adv-x="650" unicode="H" /><glyph d="M17 534H62V614H223V534H460V614H621V534H666V411H621V0H460V198H223V0H62V411H17ZM460 321V411H223V321Z" glyph-name="Hbar" horiz-adv-x="683" unicode="&#294;" /><glyph d="M605 614V0H444V243H207V0H46V614H207V381H444V614ZM493 666H367L325 711L283 666H157L265 798H385Z" glyph-name="Hcircumflex" horiz-adv-x="650" unicode="&#292;" /><glyph d="M207 0H46V614H207Z" glyph-name="I" horiz-adv-x="253" unicode="I" /><glyph d="M207 0H46V614H207ZM264 177Q293 157 320.5 146Q348 135 382 135Q428 135 444.5 161Q461 187 461 245V614H622V216Q622 157 607 114Q592 71 563.5 43.5Q535 16 494.5 3Q454 -10 404 -10Q360 -10 322 1.5Q284 13 264 26Z" glyph-name="IJ" horiz-adv-x="653" unicode="&#306;" /><glyph d="M207 0H46V614H207ZM46 666 128 796H289L200 666Z" glyph-name="Iacute" horiz-adv-x="253" unicode="&#205;" /><glyph d="M207 0H46V614H207ZM128 658Q65 658 24.5 695Q-16 732 -16 804H92Q92 783 101.5 772.5Q111 762 128 762Q164 762 164 804H272Q272 732 231.5 695Q191 658 128 658Z" glyph-name="Ibreve" horiz-adv-x="253" unicode="&#300;" /><glyph d="M207 0H46V614H207ZM295 666H169L127 711L85 666H-41L67 798H187Z" glyph-name="Icircumflex" horiz-adv-x="253" unicode="&#206;" /><glyph d="M207 0H46V614H207ZM-41 734Q-41 767 -18.5 790Q4 813 37 813Q69 813 92.5 790Q116 767 116 734Q116 701 92.5 678Q69 655 37 655Q4 655 -18.5 678Q-41 701 -41 734ZM140 734Q140 767 163 790Q186 813 218 813Q250 813 273.5 790Q297 767 297 734Q297 701 273.5 678Q250 655 218 655Q186 655 163 678Q140 701 140 734Z" glyph-name="Idieresis" horiz-adv-x="253" unicode="&#207;" /><glyph d="M207 0H46V614H207ZM216 743Q216 704 189.5 681Q163 658 127 658Q91 658 64.5 681Q38 704 38 743Q38 781 64.5 804Q91 827 127 827Q163 827 189.5 804Q216 781 216 743Z" glyph-name="Idotaccent" horiz-adv-x="253" unicode="&#304;" /><glyph d="M207 0H46V614H207ZM56 666 -33 796H128L210 666Z" glyph-name="Igrave" horiz-adv-x="253" unicode="&#204;" /><glyph d="M207 0H46V614H207ZM-5 774H260V666H-5Z" glyph-name="Imacron" horiz-adv-x="253" unicode="&#298;" /><glyph d="M207 0Q192 -18 182 -30Q172 -42 166 -49.5Q160 -57 157.5 -63Q155 -69 155 -75Q155 -94 175 -94Q183 -94 190.5 -90.5Q198 -87 210 -79V-166Q196 -174 180.5 -179.5Q165 -185 145 -185Q105 -185 79 -165Q53 -145 53 -106Q53 -77 69 -52Q85 -27 108 0H46V614H207Z" glyph-name="Iogonek" horiz-adv-x="253" unicode="&#302;" /><glyph d="M207 0H46V614H207ZM284 809Q284 779 279.5 751.5Q275 724 264.5 703.5Q254 683 237.5 671Q221 659 196 659Q178 659 162.5 664.5Q147 670 133 676.5Q119 683 106.5 688.5Q94 694 81 694Q57 694 55 663H-30Q-30 693 -25.5 720Q-21 747 -10.5 768Q0 789 16.5 801Q33 813 58 813Q76 813 91.5 807.5Q107 802 121 795.5Q135 789 147.5 783.5Q160 778 173 778Q197 778 199 809Z" glyph-name="Itilde" horiz-adv-x="253" unicode="&#296;" /><glyph d="M22 177Q51 157 78.5 146Q106 135 140 135Q186 135 202.5 161Q219 187 219 245V614H380V216Q380 157 365 114Q350 71 321.5 43.5Q293 16 252.5 3Q212 -10 162 -10Q118 -10 80 1.5Q42 13 22 26Z" glyph-name="J" horiz-adv-x="418" unicode="J" /><glyph d="M22 177Q51 157 78.5 146Q106 135 140 135Q186 135 202.5 161Q219 187 219 245V614H380V216Q380 157 365 114Q350 71 321.5 43.5Q293 16 252.5 3Q212 -10 162 -10Q118 -10 80 1.5Q42 13 22 26ZM468 666H342L300 711L258 666H132L240 798H360Z" glyph-name="Jcircumflex" horiz-adv-x="418" unicode="&#308;" /><glyph d="M207 353 402 614H589L363 320L598 0H408L207 275V0H46V614H207Z" glyph-name="K" horiz-adv-x="604" unicode="K" /><glyph d="M262 -172Q242 -166 228 -148.5Q214 -131 214 -105Q214 -73 237 -53Q260 -33 295 -33Q327 -33 351.5 -53.5Q376 -74 376 -111Q376 -137 365 -157.5Q354 -178 337 -198L308 -236H213ZM207 353 402 614H589L363 320L598 0H408L207 275V0H46V614H207Z" glyph-name="Kcommaaccent" horiz-adv-x="604" unicode="&#310;" /><glyph d="M46 614H207V139H482V0H46Z" glyph-name="L" horiz-adv-x="510" unicode="L" /><glyph d="M57 666 139 796H300L211 666ZM46 614H207V139H482V0H46Z" glyph-name="Lacute" horiz-adv-x="510" unicode="&#313;" /><glyph d="M266 448 309 615H431L387 448ZM46 614H207V139H482V0H46Z" glyph-name="Lcaron" horiz-adv-x="510" unicode="&#317;" /><glyph d="M234 -172Q214 -166 200 -148.5Q186 -131 186 -105Q186 -73 209 -53Q232 -33 267 -33Q299 -33 323.5 -53.5Q348 -74 348 -111Q348 -137 337 -157.5Q326 -178 309 -198L280 -236H185ZM46 614H207V139H482V0H46Z" glyph-name="Lcommaaccent" horiz-adv-x="510" unicode="&#315;" /><glyph d="M46 614H207V139H482V0H46ZM463 347Q463 309 436.5 286Q410 263 374 263Q338 263 311.5 286Q285 309 285 347Q285 386 311.5 409Q338 432 374 432Q410 432 436.5 409Q463 386 463 347Z" glyph-name="Ldot" horiz-adv-x="510" unicode="&#319;" /><glyph d="M11 318 60 338V614H221V397L342 446V321L221 273V139H496V0H60V213L11 194Z" glyph-name="Lslash" horiz-adv-x="524" unicode="&#321;" /><glyph d="M361 132 203 352V0H46V614H195L363 364L532 614H680V0H522V352L365 132Z" glyph-name="M" horiz-adv-x="726" unicode="M" /><glyph d="M588 0H458L201 359V0H46V614H196L433 276V614H588Z" glyph-name="N" horiz-adv-x="634" unicode="N" /><glyph d="M236 666 318 796H479L390 666ZM588 0H458L201 359V0H46V614H196L433 276V614H588Z" glyph-name="Nacute" horiz-adv-x="634" unicode="&#323;" /><glyph d="M149 796H275L317 750L359 796H485L377 663H257ZM588 0H458L201 359V0H46V614H196L433 276V614H588Z" glyph-name="Ncaron" horiz-adv-x="634" unicode="&#327;" /><glyph d="M283 -172Q263 -166 249 -148.5Q235 -131 235 -105Q235 -73 258 -53Q281 -33 316 -33Q348 -33 372.5 -53.5Q397 -74 397 -111Q397 -137 386 -157.5Q375 -178 358 -198L329 -236H234ZM588 0H458L201 359V0H46V614H196L433 276V614H588Z" glyph-name="Ncommaaccent" horiz-adv-x="634" unicode="&#325;" /><glyph d="M474 809Q474 779 469.5 751.5Q465 724 454.5 703.5Q444 683 427.5 671Q411 659 386 659Q368 659 352.5 664.5Q337 670 323 676.5Q309 683 296.5 688.5Q284 694 271 694Q247 694 245 663H160Q160 693 164.5 720Q169 747 179.5 768Q190 789 206.5 801Q223 813 248 813Q266 813 281.5 807.5Q297 802 311 795.5Q325 789 337.5 783.5Q350 778 363 778Q387 778 389 809ZM588 0H458L201 359V0H46V614H196L433 276V614H588Z" glyph-name="Ntilde" horiz-adv-x="634" unicode="&#209;" /><glyph d="M622 307Q622 238 600 180Q578 122 538 80Q498 38 443 14Q388 -10 321 -10Q255 -10 200 14Q145 38 105.5 80Q66 122 44 180Q22 238 22 307Q22 376 44 434Q66 492 105.5 534.5Q145 577 200 600.5Q255 624 321 624Q388 624 443 600.5Q498 577 538 534.5Q578 492 600 434Q622 376 622 307ZM460 307Q460 387 422 435Q384 483 321 483Q258 483 221 435Q184 387 184 307Q184 227 221 179Q258 131 321 131Q384 131 422 179Q460 227 460 307Z" glyph-name="O" horiz-adv-x="643" unicode="O" /><glyph d="M813 476H551V380H788V245H551V139H813V0H331Q259 0 201.5 21.5Q144 43 104.5 83Q65 123 43.5 180Q22 237 22 307Q22 377 43.5 434Q65 491 104.5 531Q144 571 201.5 592.5Q259 614 331 614H813ZM393 139V476H339Q262 476 221.5 430.5Q181 385 181 307Q181 229 221.5 184Q262 139 339 139Z" glyph-name="OE" horiz-adv-x="846" unicode="&#338;" /><glyph d="M240 666 322 796H483L394 666ZM622 307Q622 238 600 180Q578 122 538 80Q498 38 443 14Q388 -10 321 -10Q255 -10 200 14Q145 38 105.5 80Q66 122 44 180Q22 238 22 307Q22 376 44 434Q66 492 105.5 534.5Q145 577 200 600.5Q255 624 321 624Q388 624 443 600.5Q498 577 538 534.5Q578 492 600 434Q622 376 622 307ZM460 307Q460 387 422 435Q384 483 321 483Q258 483 221 435Q184 387 184 307Q184 227 221 179Q258 131 321 131Q384 131 422 179Q460 227 460 307Z" glyph-name="Oacute" horiz-adv-x="643" unicode="&#211;" /><glyph d="M322 658Q259 658 218.5 695Q178 732 178 804H286Q286 783 295.5 772.5Q305 762 322 762Q358 762 358 804H466Q466 732 425.5 695Q385 658 322 658ZM622 307Q622 238 600 180Q578 122 538 80Q498 38 443 14Q388 -10 321 -10Q255 -10 200 14Q145 38 105.5 80Q66 122 44 180Q22 238 22 307Q22 376 44 434Q66 492 105.5 534.5Q145 577 200 600.5Q255 624 321 624Q388 624 443 600.5Q498 577 538 534.5Q578 492 600 434Q622 376 622 307ZM460 307Q460 387 422 435Q384 483 321 483Q258 483 221 435Q184 387 184 307Q184 227 221 179Q258 131 321 131Q384 131 422 179Q460 227 460 307Z" glyph-name="Obreve" horiz-adv-x="643" unicode="&#334;" /><glyph d="M622 307Q622 238 600 180Q578 122 538 80Q498 38 443 14Q388 -10 321 -10Q255 -10 200 14Q145 38 105.5 80Q66 122 44 180Q22 238 22 307Q22 376 44 434Q66 492 105.5 534.5Q145 577 200 600.5Q255 624 321 624Q388 624 443 600.5Q498 577 538 534.5Q578 492 600 434Q622 376 622 307ZM460 307Q460 387 422 435Q384 483 321 483Q258 483 221 435Q184 387 184 307Q184 227 221 179Q258 131 321 131Q384 131 422 179Q460 227 460 307ZM489 666H363L321 711L279 666H153L261 798H381Z" glyph-name="Ocircumflex" horiz-adv-x="643" unicode="&#212;" /><glyph d="M153 734Q153 767 175.5 790Q198 813 231 813Q263 813 286.5 790Q310 767 310 734Q310 701 286.5 678Q263 655 231 655Q198 655 175.5 678Q153 701 153 734ZM334 734Q334 767 357 790Q380 813 412 813Q444 813 467.5 790Q491 767 491 734Q491 701 467.5 678Q444 655 412 655Q380 655 357 678Q334 701 334 734ZM622 307Q622 238 600 180Q578 122 538 80Q498 38 443 14Q388 -10 321 -10Q255 -10 200 14Q145 38 105.5 80Q66 122 44 180Q22 238 22 307Q22 376 44 434Q66 492 105.5 534.5Q145 577 200 600.5Q255 624 321 624Q388 624 443 600.5Q498 577 538 534.5Q578 492 600 434Q622 376 622 307ZM460 307Q460 387 422 435Q384 483 321 483Q258 483 221 435Q184 387 184 307Q184 227 221 179Q258 131 321 131Q384 131 422 179Q460 227 460 307Z" glyph-name="Odieresis" horiz-adv-x="643" unicode="&#214;" /><glyph d="M250 666 161 796H322L404 666ZM622 307Q622 238 600 180Q578 122 538 80Q498 38 443 14Q388 -10 321 -10Q255 -10 200 14Q145 38 105.5 80Q66 122 44 180Q22 238 22 307Q22 376 44 434Q66 492 105.5 534.5Q145 577 200 600.5Q255 624 321 624Q388 624 443 600.5Q498 577 538 534.5Q578 492 600 434Q622 376 622 307ZM460 307Q460 387 422 435Q384 483 321 483Q258 483 221 435Q184 387 184 307Q184 227 221 179Q258 131 321 131Q384 131 422 179Q460 227 460 307Z" glyph-name="Ograve" horiz-adv-x="643" unicode="&#210;" /><glyph d="M622 307Q622 238 600 180Q578 122 538 80Q498 38 443 14Q388 -10 321 -10Q255 -10 200 14Q145 38 105.5 80Q66 122 44 180Q22 238 22 307Q22 376 44 434Q66 492 105.5 534.5Q145 577 200 600.5Q255 624 321 624Q388 624 443 600.5Q498 577 538 534.5Q578 492 600 434Q622 376 622 307ZM460 307Q460 387 422 435Q384 483 321 483Q258 483 221 435Q184 387 184 307Q184 227 221 179Q258 131 321 131Q384 131 422 179Q460 227 460 307ZM175 666 250 796H380L304 666ZM341 666 417 796H547L470 666Z" glyph-name="Ohungarumlaut" horiz-adv-x="643" unicode="&#336;" /><glyph d="M189 774H454V666H189ZM622 307Q622 238 600 180Q578 122 538 80Q498 38 443 14Q388 -10 321 -10Q255 -10 200 14Q145 38 105.5 80Q66 122 44 180Q22 238 22 307Q22 376 44 434Q66 492 105.5 534.5Q145 577 200 600.5Q255 624 321 624Q388 624 443 600.5Q498 577 538 534.5Q578 492 600 434Q622 376 622 307ZM460 307Q460 387 422 435Q384 483 321 483Q258 483 221 435Q184 387 184 307Q184 227 221 179Q258 131 321 131Q384 131 422 179Q460 227 460 307Z" glyph-name="Omacron" horiz-adv-x="643" unicode="&#332;" /><glyph d="M92 100Q60 142 43 194Q26 246 26 307Q26 376 48 434Q70 492 109.5 534.5Q149 577 204 600.5Q259 624 326 624Q380 624 425.5 608.5Q471 593 509 564L563 625L619 578L560 513Q592 472 609 420Q626 368 626 307Q626 238 604 180Q582 122 542.5 80Q503 38 447.5 14Q392 -10 326 -10Q272 -10 226 5Q180 20 143 49L90 -11L34 36ZM188 307Q188 283 191.5 262Q195 241 201 222L409 454Q375 483 326 483Q263 483 225.5 435Q188 387 188 307ZM464 307Q464 330 460.5 351.5Q457 373 451 391L243 159Q277 131 326 131Q388 131 426 179Q464 227 464 307Z" glyph-name="Oslash" horiz-adv-x="652" unicode="&#216;" /><glyph d="M92 100Q60 142 43 194Q26 246 26 307Q26 376 48 434Q70 492 109.5 534.5Q149 577 204 600.5Q259 624 326 624Q380 624 425.5 608.5Q471 593 509 564L563 625L619 578L560 513Q592 472 609 420Q626 368 626 307Q626 238 604 180Q582 122 542.5 80Q503 38 447.5 14Q392 -10 326 -10Q272 -10 226 5Q180 20 143 49L90 -11L34 36ZM188 307Q188 283 191.5 262Q195 241 201 222L409 454Q375 483 326 483Q263 483 225.5 435Q188 387 188 307ZM464 307Q464 330 460.5 351.5Q457 373 451 391L243 159Q277 131 326 131Q388 131 426 179Q464 227 464 307ZM245 666 327 796H488L399 666Z" glyph-name="Oslashacute" horiz-adv-x="652" unicode="&#510;" /><glyph d="M478 809Q478 779 473.5 751.5Q469 724 458.5 703.5Q448 683 431.5 671Q415 659 390 659Q372 659 356.5 664.5Q341 670 327 676.5Q313 683 300.5 688.5Q288 694 275 694Q251 694 249 663H164Q164 693 168.5 720Q173 747 183.5 768Q194 789 210.5 801Q227 813 252 813Q270 813 285.5 807.5Q301 802 315 795.5Q329 789 341.5 783.5Q354 778 367 778Q391 778 393 809ZM622 307Q622 238 600 180Q578 122 538 80Q498 38 443 14Q388 -10 321 -10Q255 -10 200 14Q145 38 105.5 80Q66 122 44 180Q22 238 22 307Q22 376 44 434Q66 492 105.5 534.5Q145 577 200 600.5Q255 624 321 624Q388 624 443 600.5Q498 577 538 534.5Q578 492 600 434Q622 376 622 307ZM460 307Q460 387 422 435Q384 483 321 483Q258 483 221 435Q184 387 184 307Q184 227 221 179Q258 131 321 131Q384 131 422 179Q460 227 460 307Z" glyph-name="Otilde" horiz-adv-x="643" unicode="&#213;" /><glyph d="M205 191V0H46V614H315Q365 614 406 600Q447 586 476.5 559Q506 532 522 492.5Q538 453 538 402Q538 351 522 311.5Q506 272 476.5 245.5Q447 219 406 205Q365 191 315 191ZM382 402Q382 437 362 458Q342 479 298 479H205V325H298Q342 325 362 346Q382 367 382 402Z" glyph-name="P" horiz-adv-x="561" unicode="P" /><glyph d="M440 15Q384 -10 321 -10Q255 -10 200 14Q145 38 105.5 80Q66 122 44 180Q22 238 22 307Q22 376 44 434Q66 492 105.5 534.5Q145 577 200 600.5Q255 624 321 624Q388 624 443 600.5Q498 577 538 534.5Q578 492 600 434Q622 376 622 307Q622 241 600.5 185.5Q579 130 541 88L586 33L489 -45ZM460 307Q460 387 422 435Q384 483 321 483Q258 483 221 435Q184 387 184 307Q184 267 193.5 233.5Q203 200 221 175.5Q239 151 264.5 137.5Q290 124 321 124Q336 124 350 127L301 188L398 264L444 207Q452 227 456 252Q460 277 460 307Z" glyph-name="Q" horiz-adv-x="643" unicode="Q" /><glyph d="M205 203V0H46V614H322Q371 614 412.5 600Q454 586 483 559.5Q512 533 528.5 494Q545 455 545 405Q545 335 512.5 288Q480 241 423 220L567 0H389L261 203ZM205 331H305Q348 331 368 351Q388 371 388 405Q388 439 368 459Q348 479 305 479H205Z" glyph-name="R" horiz-adv-x="574" unicode="R" /><glyph d="M205 203V0H46V614H322Q371 614 412.5 600Q454 586 483 559.5Q512 533 528.5 494Q545 455 545 405Q545 335 512.5 288Q480 241 423 220L567 0H389L261 203ZM205 331H305Q348 331 368 351Q388 371 388 405Q388 439 368 459Q348 479 305 479H205ZM202 666 284 796H445L356 666Z" glyph-name="Racute" horiz-adv-x="574" unicode="&#340;" /><glyph d="M115 796H241L283 750L325 796H451L343 663H223ZM205 203V0H46V614H322Q371 614 412.5 600Q454 586 483 559.5Q512 533 528.5 494Q545 455 545 405Q545 335 512.5 288Q480 241 423 220L567 0H389L261 203ZM205 331H305Q348 331 368 351Q388 371 388 405Q388 439 368 459Q348 479 305 479H205Z" glyph-name="Rcaron" horiz-adv-x="574" unicode="&#344;" /><glyph d="M249 -172Q229 -166 215 -148.5Q201 -131 201 -105Q201 -73 224 -53Q247 -33 282 -33Q314 -33 338.5 -53.5Q363 -74 363 -111Q363 -137 352 -157.5Q341 -178 324 -198L295 -236H200ZM205 203V0H46V614H322Q371 614 412.5 600Q454 586 483 559.5Q512 533 528.5 494Q545 455 545 405Q545 335 512.5 288Q480 241 423 220L567 0H389L261 203ZM205 331H305Q348 331 368 351Q388 371 388 405Q388 439 368 459Q348 479 305 479H205Z" glyph-name="Rcommaaccent" horiz-adv-x="574" unicode="&#342;" /><glyph d="M32 188Q72 161 124.5 142.5Q177 124 229 124Q267 124 295.5 134Q324 144 324 173Q324 196 310.5 206Q297 216 272 225L179 252Q101 275 60 316.5Q19 358 19 435Q19 481 37 516Q55 551 86.5 575Q118 599 160.5 611.5Q203 624 251 624Q314 624 360 611.5Q406 599 444 578V430Q402 459 356.5 475Q311 491 258 491Q223 491 200 480.5Q177 470 177 447Q177 426 190.5 416Q204 406 228 398L321 370Q406 344 445 298.5Q484 253 484 182Q484 132 464 96Q444 60 410 36.5Q376 13 330.5 1.5Q285 -10 233 -10Q171 -10 118.5 5Q66 20 32 40Z" glyph-name="S" horiz-adv-x="504" unicode="S" /><glyph d="M32 188Q72 161 124.5 142.5Q177 124 229 124Q267 124 295.5 134Q324 144 324 173Q324 196 310.5 206Q297 216 272 225L179 252Q101 275 60 316.5Q19 358 19 435Q19 481 37 516Q55 551 86.5 575Q118 599 160.5 611.5Q203 624 251 624Q314 624 360 611.5Q406 599 444 578V430Q402 459 356.5 475Q311 491 258 491Q223 491 200 480.5Q177 470 177 447Q177 426 190.5 416Q204 406 228 398L321 370Q406 344 445 298.5Q484 253 484 182Q484 132 464 96Q444 60 410 36.5Q376 13 330.5 1.5Q285 -10 233 -10Q171 -10 118.5 5Q66 20 32 40ZM178 666 260 796H421L332 666Z" glyph-name="Sacute" horiz-adv-x="504" unicode="&#346;" /><glyph d="M32 188Q72 161 124.5 142.5Q177 124 229 124Q267 124 295.5 134Q324 144 324 173Q324 196 310.5 206Q297 216 272 225L179 252Q101 275 60 316.5Q19 358 19 435Q19 481 37 516Q55 551 86.5 575Q118 599 160.5 611.5Q203 624 251 624Q314 624 360 611.5Q406 599 444 578V430Q402 459 356.5 475Q311 491 258 491Q223 491 200 480.5Q177 470 177 447Q177 426 190.5 416Q204 406 228 398L321 370Q406 344 445 298.5Q484 253 484 182Q484 132 464 96Q444 60 410 36.5Q376 13 330.5 1.5Q285 -10 233 -10Q171 -10 118.5 5Q66 20 32 40ZM91 796H217L259 750L301 796H427L319 663H199Z" glyph-name="Scaron" horiz-adv-x="504" unicode="&#352;" /><glyph d="M32 188Q72 161 124.5 142.5Q177 124 229 124Q267 124 295.5 134Q324 144 324 173Q324 196 310.5 206Q297 216 272 225L179 252Q101 275 60 316.5Q19 358 19 435Q19 481 37 516Q55 551 86.5 575Q118 599 160.5 611.5Q203 624 251 624Q314 624 360 611.5Q406 599 444 578V430Q402 459 356.5 475Q311 491 258 491Q223 491 200 480.5Q177 470 177 447Q177 426 190.5 416Q204 406 228 398L321 370Q406 344 445 298.5Q484 253 484 182Q484 132 464 96Q444 60 410 36.5Q376 13 330.5 1.5Q285 -10 233 -10Q171 -10 118.5 5Q66 20 32 40ZM99 -181 168 -40H302L232 -181Z" glyph-name="Scedilla" horiz-adv-x="504" unicode="&#350;" /><glyph d="M32 188Q72 161 124.5 142.5Q177 124 229 124Q267 124 295.5 134Q324 144 324 173Q324 196 310.5 206Q297 216 272 225L179 252Q101 275 60 316.5Q19 358 19 435Q19 481 37 516Q55 551 86.5 575Q118 599 160.5 611.5Q203 624 251 624Q314 624 360 611.5Q406 599 444 578V430Q402 459 356.5 475Q311 491 258 491Q223 491 200 480.5Q177 470 177 447Q177 426 190.5 416Q204 406 228 398L321 370Q406 344 445 298.5Q484 253 484 182Q484 132 464 96Q444 60 410 36.5Q376 13 330.5 1.5Q285 -10 233 -10Q171 -10 118.5 5Q66 20 32 40ZM427 666H301L259 711L217 666H91L199 798H319Z" glyph-name="Scircumflex" horiz-adv-x="504" unicode="&#348;" /><glyph d="M213 -172Q193 -166 179 -148.5Q165 -131 165 -105Q165 -73 188 -53Q211 -33 246 -33Q278 -33 302.5 -53.5Q327 -74 327 -111Q327 -137 316 -157.5Q305 -178 288 -198L259 -236H164ZM32 188Q72 161 124.5 142.5Q177 124 229 124Q267 124 295.5 134Q324 144 324 173Q324 196 310.5 206Q297 216 272 225L179 252Q101 275 60 316.5Q19 358 19 435Q19 481 37 516Q55 551 86.5 575Q118 599 160.5 611.5Q203 624 251 624Q314 624 360 611.5Q406 599 444 578V430Q402 459 356.5 475Q311 491 258 491Q223 491 200 480.5Q177 470 177 447Q177 426 190.5 416Q204 406 228 398L321 370Q406 344 445 298.5Q484 253 484 182Q484 132 464 96Q444 60 410 36.5Q376 13 330.5 1.5Q285 -10 233 -10Q171 -10 118.5 5Q66 20 32 40Z" glyph-name="Scommaaccent" horiz-adv-x="504" unicode="&#536;" /><glyph d="M20 614H560V476H370V0H209V476H20Z" glyph-name="T" horiz-adv-x="580" unicode="T" /><glyph d="M20 614H560V476H370V363H461V233H370V0H209V233H118V363H209V476H20Z" glyph-name="Tbar" horiz-adv-x="580" unicode="&#358;" /><glyph d="M122 796H248L290 750L332 796H458L350 663H230ZM20 614H560V476H370V0H209V476H20Z" glyph-name="Tcaron" horiz-adv-x="580" unicode="&#356;" /><glyph d="M256 -172Q236 -166 222 -148.5Q208 -131 208 -105Q208 -73 231 -53Q254 -33 289 -33Q321 -33 345.5 -53.5Q370 -74 370 -111Q370 -137 359 -157.5Q348 -178 331 -198L302 -236H207ZM20 614H560V476H370V0H209V476H20Z" glyph-name="Tcommaaccent" horiz-adv-x="580" unicode="&#354;" /><glyph d="M205 102V0H46V614H205V525H315Q365 525 406 511Q447 497 476.5 470Q506 443 522 403.5Q538 364 538 313Q538 262 522 222.5Q506 183 476.5 156.5Q447 130 406 116Q365 102 315 102ZM382 313Q382 348 362 369Q342 390 298 390H205V236H298Q342 236 362 257Q382 278 382 313Z" glyph-name="Thorn" horiz-adv-x="561" unicode="&#222;" /><glyph d="M307 -10Q246 -10 196.5 7Q147 24 112 57Q77 90 58 139Q39 188 39 251V614H199V265Q199 199 227.5 166Q256 133 307 133Q357 133 385.5 166Q414 199 414 265V614H574V250Q574 187 555 138.5Q536 90 501 57Q466 24 417 7Q368 -10 307 -10Z" glyph-name="U" horiz-adv-x="613" unicode="U" /><glyph d="M226 666 308 796H469L380 666ZM307 -10Q246 -10 196.5 7Q147 24 112 57Q77 90 58 139Q39 188 39 251V614H199V265Q199 199 227.5 166Q256 133 307 133Q357 133 385.5 166Q414 199 414 265V614H574V250Q574 187 555 138.5Q536 90 501 57Q466 24 417 7Q368 -10 307 -10Z" glyph-name="Uacute" horiz-adv-x="613" unicode="&#218;" /><glyph d="M307 658Q244 658 203.5 695Q163 732 163 804H271Q271 783 280.5 772.5Q290 762 307 762Q343 762 343 804H451Q451 732 410.5 695Q370 658 307 658ZM307 -10Q246 -10 196.5 7Q147 24 112 57Q77 90 58 139Q39 188 39 251V614H199V265Q199 199 227.5 166Q256 133 307 133Q357 133 385.5 166Q414 199 414 265V614H574V250Q574 187 555 138.5Q536 90 501 57Q466 24 417 7Q368 -10 307 -10Z" glyph-name="Ubreve" horiz-adv-x="613" unicode="&#364;" /><glyph d="M307 -10Q246 -10 196.5 7Q147 24 112 57Q77 90 58 139Q39 188 39 251V614H199V265Q199 199 227.5 166Q256 133 307 133Q357 133 385.5 166Q414 199 414 265V614H574V250Q574 187 555 138.5Q536 90 501 57Q466 24 417 7Q368 -10 307 -10ZM475 666H349L307 711L265 666H139L247 798H367Z" glyph-name="Ucircumflex" horiz-adv-x="613" unicode="&#219;" /><glyph d="M138 734Q138 767 160.5 790Q183 813 216 813Q248 813 271.5 790Q295 767 295 734Q295 701 271.5 678Q248 655 216 655Q183 655 160.5 678Q138 701 138 734ZM319 734Q319 767 342 790Q365 813 397 813Q429 813 452.5 790Q476 767 476 734Q476 701 452.5 678Q429 655 397 655Q365 655 342 678Q319 701 319 734ZM307 -10Q246 -10 196.5 7Q147 24 112 57Q77 90 58 139Q39 188 39 251V614H199V265Q199 199 227.5 166Q256 133 307 133Q357 133 385.5 166Q414 199 414 265V614H574V250Q574 187 555 138.5Q536 90 501 57Q466 24 417 7Q368 -10 307 -10Z" glyph-name="Udieresis" horiz-adv-x="613" unicode="&#220;" /><glyph d="M236 666 147 796H308L390 666ZM307 -10Q246 -10 196.5 7Q147 24 112 57Q77 90 58 139Q39 188 39 251V614H199V265Q199 199 227.5 166Q256 133 307 133Q357 133 385.5 166Q414 199 414 265V614H574V250Q574 187 555 138.5Q536 90 501 57Q466 24 417 7Q368 -10 307 -10Z" glyph-name="Ugrave" horiz-adv-x="613" unicode="&#217;" /><glyph d="M307 -10Q246 -10 196.5 7Q147 24 112 57Q77 90 58 139Q39 188 39 251V614H199V265Q199 199 227.5 166Q256 133 307 133Q357 133 385.5 166Q414 199 414 265V614H574V250Q574 187 555 138.5Q536 90 501 57Q466 24 417 7Q368 -10 307 -10ZM160 666 235 796H365L289 666ZM326 666 402 796H532L455 666Z" glyph-name="Uhungarumlaut" horiz-adv-x="613" unicode="&#368;" /><glyph d="M175 774H440V666H175ZM307 -10Q246 -10 196.5 7Q147 24 112 57Q77 90 58 139Q39 188 39 251V614H199V265Q199 199 227.5 166Q256 133 307 133Q357 133 385.5 166Q414 199 414 265V614H574V250Q574 187 555 138.5Q536 90 501 57Q466 24 417 7Q368 -10 307 -10Z" glyph-name="Umacron" horiz-adv-x="613" unicode="&#362;" /><glyph d="M307 -10Q246 -10 196.5 7Q147 24 112 57Q77 90 58 139Q39 188 39 251V614H199V265Q199 199 227.5 166Q256 133 307 133Q357 133 385.5 166Q414 199 414 265V614H574V250Q574 169 545 116Q516 63 459 25Q408 -8 389 -34Q370 -60 370 -75Q370 -94 390 -94Q398 -94 405.5 -90.5Q413 -87 425 -79V-166Q411 -174 395.5 -179.5Q380 -185 360 -185Q320 -185 294 -165Q268 -145 268 -106Q268 -80 281 -56.5Q294 -33 316 -10H307Z" glyph-name="Uogonek" horiz-adv-x="613" unicode="&#370;" /><glyph d="M307 -10Q246 -10 196.5 7Q147 24 112 57Q77 90 58 139Q39 188 39 251V614H199V265Q199 199 227.5 166Q256 133 307 133Q357 133 385.5 166Q414 199 414 265V614H574V250Q574 187 555 138.5Q536 90 501 57Q466 24 417 7Q368 -10 307 -10ZM415 747Q415 725 406.5 706Q398 687 383.5 672.5Q369 658 349.5 650Q330 642 307 642Q284 642 264.5 650Q245 658 230.5 672.5Q216 687 207.5 706Q199 725 199 747Q199 769 207.5 788Q216 807 230.5 821.5Q245 836 264.5 844Q284 852 307 852Q330 852 349.5 844Q369 836 383.5 821.5Q398 807 406.5 788Q415 769 415 747ZM343 747Q343 762 333 772.5Q323 783 307 783Q292 783 281.5 772.5Q271 762 271 747Q271 732 281.5 721.5Q292 711 307 711Q323 711 333 721.5Q343 732 343 747Z" glyph-name="Uring" horiz-adv-x="613" unicode="&#366;" /><glyph d="M464 809Q464 779 459.5 751.5Q455 724 444.5 703.5Q434 683 417.5 671Q401 659 376 659Q358 659 342.5 664.5Q327 670 313 676.5Q299 683 286.5 688.5Q274 694 261 694Q237 694 235 663H150Q150 693 154.5 720Q159 747 169.5 768Q180 789 196.5 801Q213 813 238 813Q256 813 271.5 807.5Q287 802 301 795.5Q315 789 327.5 783.5Q340 778 353 778Q377 778 379 809ZM307 -10Q246 -10 196.5 7Q147 24 112 57Q77 90 58 139Q39 188 39 251V614H199V265Q199 199 227.5 166Q256 133 307 133Q357 133 385.5 166Q414 199 414 265V614H574V250Q574 187 555 138.5Q536 90 501 57Q466 24 417 7Q368 -10 307 -10Z" glyph-name="Utilde" horiz-adv-x="613" unicode="&#360;" /><glyph d="M236 0 7 614H179L318 217L457 614H622L393 0Z" glyph-name="V" horiz-adv-x="629" unicode="V" /><glyph d="M473 614 567 253 652 614H814L652 0H505L410 360L314 0H167L6 614H170L256 253L351 614Z" glyph-name="W" horiz-adv-x="820" unicode="W" /><glyph d="M331 666 413 796H574L485 666ZM473 614 567 253 652 614H814L652 0H505L410 360L314 0H167L6 614H170L256 253L351 614Z" glyph-name="Wacute" horiz-adv-x="820" unicode="&#7810;" /><glyph d="M473 614 567 253 652 614H814L652 0H505L410 360L314 0H167L6 614H170L256 253L351 614ZM578 666H452L410 711L368 666H242L350 798H470Z" glyph-name="Wcircumflex" horiz-adv-x="820" unicode="&#372;" /><glyph d="M241 734Q241 767 263.5 790Q286 813 319 813Q351 813 374.5 790Q398 767 398 734Q398 701 374.5 678Q351 655 319 655Q286 655 263.5 678Q241 701 241 734ZM422 734Q422 767 445 790Q468 813 500 813Q532 813 555.5 790Q579 767 579 734Q579 701 555.5 678Q532 655 500 655Q468 655 445 678Q422 701 422 734ZM473 614 567 253 652 614H814L652 0H505L410 360L314 0H167L6 614H170L256 253L351 614Z" glyph-name="Wdieresis" horiz-adv-x="820" unicode="&#7812;" /><glyph d="M337 666 248 796H409L491 666ZM473 614 567 253 652 614H814L652 0H505L410 360L314 0H167L6 614H170L256 253L351 614Z" glyph-name="Wgrave" horiz-adv-x="820" unicode="&#7808;" /><glyph d="M394 314 601 0H422L300 189L178 0H3L210 314L13 614H192L303 439L417 614H591Z" glyph-name="X" horiz-adv-x="604" unicode="X" /><glyph d="M438 614H607L385 218V0H224V218L6 614H180L309 374Z" glyph-name="Y" horiz-adv-x="612" unicode="Y" /><glyph d="M438 614H607L385 218V0H224V218L6 614H180L309 374ZM225 666 307 796H468L379 666Z" glyph-name="Yacute" horiz-adv-x="612" unicode="&#221;" /><glyph d="M438 614H607L385 218V0H224V218L6 614H180L309 374ZM474 666H348L306 711L264 666H138L246 798H366Z" glyph-name="Ycircumflex" horiz-adv-x="612" unicode="&#374;" /><glyph d="M438 614H607L385 218V0H224V218L6 614H180L309 374ZM137 734Q137 767 159.5 790Q182 813 215 813Q247 813 270.5 790Q294 767 294 734Q294 701 270.5 678Q247 655 215 655Q182 655 159.5 678Q137 701 137 734ZM318 734Q318 767 341 790Q364 813 396 813Q428 813 451.5 790Q475 767 475 734Q475 701 451.5 678Q428 655 396 655Q364 655 341 678Q318 701 318 734Z" glyph-name="Ydieresis" horiz-adv-x="612" unicode="&#376;" /><glyph d="M438 614H607L385 218V0H224V218L6 614H180L309 374ZM235 666 146 796H307L389 666Z" glyph-name="Ygrave" horiz-adv-x="612" unicode="&#7922;" /><glyph d="M526 0H20V4L286 476H32V614H529V610L267 139H526Z" glyph-name="Z" horiz-adv-x="554" unicode="Z" /><glyph d="M526 0H20V4L286 476H32V614H529V610L267 139H526ZM198 666 280 796H441L352 666Z" glyph-name="Zacute" horiz-adv-x="554" unicode="&#377;" /><glyph d="M111 796H237L279 750L321 796H447L339 663H219ZM526 0H20V4L286 476H32V614H529V610L267 139H526Z" glyph-name="Zcaron" horiz-adv-x="554" unicode="&#381;" /><glyph d="M368 743Q368 704 341.5 681Q315 658 279 658Q243 658 216.5 681Q190 704 190 743Q190 781 216.5 804Q243 827 279 827Q315 827 341.5 804Q368 781 368 743ZM526 0H20V4L286 476H32V614H529V610L267 139H526Z" glyph-name="Zdotaccent" horiz-adv-x="554" unicode="&#379;" /><glyph d="M289 271Q289 297 265 314Q241 331 193 331Q161 331 129 323Q97 315 70 299V425Q98 440 140.5 450Q183 460 231 460Q331 460 385.5 414Q440 368 440 278V0H289V23Q278 12 248.5 2Q219 -8 183 -8Q150 -8 120 1.5Q90 11 67.5 29Q45 47 31.5 74Q18 101 18 137Q18 170 31.5 196Q45 222 68 241Q91 260 123 270Q155 280 191 280Q220 280 247.5 272.5Q275 265 289 255ZM289 152Q281 166 264 174.5Q247 183 226 183Q203 183 183.5 173Q164 163 164 140Q164 117 183.5 106.5Q203 96 226 96Q247 96 264 104Q281 112 289 126Z" glyph-name="a" horiz-adv-x="479" unicode="a" /><glyph d="M289 271Q289 297 265 314Q241 331 193 331Q161 331 129 323Q97 315 70 299V425Q98 440 140.5 450Q183 460 231 460Q331 460 385.5 414Q440 368 440 278V0H289V23Q278 12 248.5 2Q219 -8 183 -8Q150 -8 120 1.5Q90 11 67.5 29Q45 47 31.5 74Q18 101 18 137Q18 170 31.5 196Q45 222 68 241Q91 260 123 270Q155 280 191 280Q220 280 247.5 272.5Q275 265 289 255ZM289 152Q281 166 264 174.5Q247 183 226 183Q203 183 183.5 173Q164 163 164 140Q164 117 183.5 106.5Q203 96 226 96Q247 96 264 104Q281 112 289 126ZM168 500 250 650H399L312 500Z" glyph-name="aacute" horiz-adv-x="479" unicode="&#225;" /><glyph d="M289 271Q289 297 265 314Q241 331 193 331Q161 331 129 323Q97 315 70 299V425Q98 440 140.5 450Q183 460 231 460Q331 460 385.5 414Q440 368 440 278V0H289V23Q278 12 248.5 2Q219 -8 183 -8Q150 -8 120 1.5Q90 11 67.5 29Q45 47 31.5 74Q18 101 18 137Q18 170 31.5 196Q45 222 68 241Q91 260 123 270Q155 280 191 280Q220 280 247.5 272.5Q275 265 289 255ZM289 152Q281 166 264 174.5Q247 183 226 183Q203 183 183.5 173Q164 163 164 140Q164 117 183.5 106.5Q203 96 226 96Q247 96 264 104Q281 112 289 126ZM245 488Q183 488 142.5 526Q102 564 102 638H210Q210 591 245 591Q281 591 281 638H388Q388 564 347.5 526Q307 488 245 488Z" glyph-name="abreve" horiz-adv-x="479" unicode="&#259;" /><glyph d="M289 271Q289 297 265 314Q241 331 193 331Q161 331 129 323Q97 315 70 299V425Q98 440 140.5 450Q183 460 231 460Q331 460 385.5 414Q440 368 440 278V0H289V23Q278 12 248.5 2Q219 -8 183 -8Q150 -8 120 1.5Q90 11 67.5 29Q45 47 31.5 74Q18 101 18 137Q18 170 31.5 196Q45 222 68 241Q91 260 123 270Q155 280 191 280Q220 280 247.5 272.5Q275 265 289 255ZM289 152Q281 166 264 174.5Q247 183 226 183Q203 183 183.5 173Q164 163 164 140Q164 117 183.5 106.5Q203 96 226 96Q247 96 264 104Q281 112 289 126ZM401 498H285L245 553L205 498H89L185 649H305Z" glyph-name="acircumflex" horiz-adv-x="479" unicode="&#226;" /><glyph d="M134 500 216 650H365L278 500Z" glyph-name="acute" horiz-adv-x="500" unicode="&#180;" /><glyph d="M128 666 210 796H371L282 666Z" glyph-name="acute.cap" horiz-adv-x="500" /><glyph d="M289 271Q289 297 265 314Q241 331 193 331Q161 331 129 323Q97 315 70 299V425Q98 440 140.5 450Q183 460 231 460Q331 460 385.5 414Q440 368 440 278V0H289V23Q278 12 248.5 2Q219 -8 183 -8Q150 -8 120 1.5Q90 11 67.5 29Q45 47 31.5 74Q18 101 18 137Q18 170 31.5 196Q45 222 68 241Q91 260 123 270Q155 280 191 280Q220 280 247.5 272.5Q275 265 289 255ZM289 152Q281 166 264 174.5Q247 183 226 183Q203 183 183.5 173Q164 163 164 140Q164 117 183.5 106.5Q203 96 226 96Q247 96 264 104Q281 112 289 126ZM80 567Q80 599 102.5 621.5Q125 644 157 644Q189 644 211.5 621.5Q234 599 234 567Q234 535 211.5 513Q189 491 157 491Q125 491 102.5 513Q80 535 80 567ZM257 567Q257 599 279 621.5Q301 644 333 644Q349 644 363 638Q377 632 387.5 621.5Q398 611 404.5 597Q411 583 411 567Q411 535 388 513Q365 491 333 491Q301 491 279 513Q257 535 257 567Z" glyph-name="adieresis" horiz-adv-x="479" unicode="&#228;" /><glyph d="M517 -10Q413 -10 348 47Q317 22 279 6.5Q241 -9 185 -9Q152 -9 122 0.5Q92 10 69 27.5Q46 45 32.5 71Q19 97 19 130Q19 165 34 192.5Q49 220 74.5 238.5Q100 257 135 266.5Q170 276 209 276H286V281Q281 304 257.5 318.5Q234 333 191 333Q159 333 128.5 324Q98 315 72 299V425Q99 440 139.5 450Q180 460 226 460Q323 460 367 410Q390 433 424 446.5Q458 460 496 460Q547 460 586 443.5Q625 427 651 397Q677 367 690.5 325.5Q704 284 704 234V188H424Q435 148 467 130.5Q499 113 542 113Q578 113 607.5 121Q637 129 672 149V30Q645 10 605 0Q565 -10 517 -10ZM218 105Q243 105 261 114.5Q279 124 288 141V188H224Q200 188 181.5 178.5Q163 169 163 146Q163 125 179.5 115Q196 105 218 105ZM497 344Q470 344 450.5 326.5Q431 309 423 276H563Q561 305 544 324.5Q527 344 497 344Z" glyph-name="ae" horiz-adv-x="724" unicode="&#230;" /><glyph d="M308 500 390 650H539L452 500ZM517 -10Q413 -10 348 47Q317 22 279 6.5Q241 -9 185 -9Q152 -9 122 0.5Q92 10 69 27.5Q46 45 32.5 71Q19 97 19 130Q19 165 34 192.5Q49 220 74.5 238.5Q100 257 135 266.5Q170 276 209 276H286V281Q281 304 257.5 318.5Q234 333 191 333Q159 333 128.5 324Q98 315 72 299V425Q99 440 139.5 450Q180 460 226 460Q323 460 367 410Q390 433 424 446.5Q458 460 496 460Q547 460 586 443.5Q625 427 651 397Q677 367 690.5 325.5Q704 284 704 234V188H424Q435 148 467 130.5Q499 113 542 113Q578 113 607.5 121Q637 129 672 149V30Q645 10 605 0Q565 -10 517 -10ZM218 105Q243 105 261 114.5Q279 124 288 141V188H224Q200 188 181.5 178.5Q163 169 163 146Q163 125 179.5 115Q196 105 218 105ZM497 344Q470 344 450.5 326.5Q431 309 423 276H563Q561 305 544 324.5Q527 344 497 344Z" glyph-name="aeacute" horiz-adv-x="724" unicode="&#509;" /><glyph d="M289 271Q289 297 265 314Q241 331 193 331Q161 331 129 323Q97 315 70 299V425Q98 440 140.5 450Q183 460 231 460Q331 460 385.5 414Q440 368 440 278V0H289V23Q278 12 248.5 2Q219 -8 183 -8Q150 -8 120 1.5Q90 11 67.5 29Q45 47 31.5 74Q18 101 18 137Q18 170 31.5 196Q45 222 68 241Q91 260 123 270Q155 280 191 280Q220 280 247.5 272.5Q275 265 289 255ZM289 152Q281 166 264 174.5Q247 183 226 183Q203 183 183.5 173Q164 163 164 140Q164 117 183.5 106.5Q203 96 226 96Q247 96 264 104Q281 112 289 126ZM177 500 90 650H239L321 500Z" glyph-name="agrave" horiz-adv-x="479" unicode="&#224;" /><glyph d="M289 271Q289 297 265 314Q241 331 193 331Q161 331 129 323Q97 315 70 299V425Q98 440 140.5 450Q183 460 231 460Q331 460 385.5 414Q440 368 440 278V0H289V23Q278 12 248.5 2Q219 -8 183 -8Q150 -8 120 1.5Q90 11 67.5 29Q45 47 31.5 74Q18 101 18 137Q18 170 31.5 196Q45 222 68 241Q91 260 123 270Q155 280 191 280Q220 280 247.5 272.5Q275 265 289 255ZM289 152Q281 166 264 174.5Q247 183 226 183Q203 183 183.5 173Q164 163 164 140Q164 117 183.5 106.5Q203 96 226 96Q247 96 264 104Q281 112 289 126ZM119 612H372V504H119Z" glyph-name="amacron" horiz-adv-x="479" unicode="&#257;" /><glyph d="M306 497Q276 497 259.5 483.5Q243 470 243 447Q243 425 256 407Q269 389 285 371L403 234Q410 254 414 276.5Q418 299 419 325H557Q556 269 539.5 219.5Q523 170 494 128L605 0H429L397 35Q326 -10 245 -10Q196 -10 155.5 3.5Q115 17 86.5 42Q58 67 42.5 103.5Q27 140 27 185Q27 236 53.5 277.5Q80 319 123 344Q90 393 90 449Q90 489 105 521.5Q120 554 147 576.5Q174 599 211.5 611.5Q249 624 294 624Q336 624 374.5 612Q413 600 437 580V443Q411 465 377.5 481Q344 497 306 497ZM247 111Q280 111 314 127L203 250Q189 240 180 223Q171 206 171 185Q171 153 190.5 132Q210 111 247 111Z" glyph-name="ampersand" horiz-adv-x="609" unicode="&amp;" /><glyph d="M289 152Q281 166 264 174.5Q247 183 226 183Q203 183 183.5 173Q164 163 164 140Q164 117 183.5 106.5Q203 96 226 96Q247 96 264 104Q281 112 289 126ZM289 0V23Q278 12 248.5 2Q219 -8 183 -8Q150 -8 120 1.5Q90 11 67.5 29Q45 47 31.5 74Q18 101 18 137Q18 170 31.5 196Q45 222 68 241Q91 260 123 270Q155 280 191 280Q220 280 247.5 272.5Q275 265 289 255V271Q289 297 265 314Q241 331 193 331Q161 331 129 323Q97 315 70 299V425Q98 440 140.5 450Q183 460 231 460Q331 460 385.5 414Q440 368 440 278V0Q425 -18 415 -30Q405 -42 399 -49.5Q393 -57 390.5 -63Q388 -69 388 -75Q388 -94 408 -94Q417 -94 424 -90.5Q431 -87 443 -79V-166Q429 -174 414 -179.5Q399 -185 378 -185Q338 -185 312 -165Q286 -145 286 -106Q286 -77 302 -52Q318 -27 341 0Z" glyph-name="aogonek" horiz-adv-x="479" unicode="&#261;" /><glyph d="M61 420Q93 441 123.5 450.5Q154 460 182 460Q211 460 236 454Q261 448 285 440.5Q309 433 334 427Q359 421 388 421Q417 421 448 430Q479 439 513 462V353Q479 331 448 321.5Q417 312 388 312Q359 312 334 318Q309 324 285 331.5Q261 339 236 345.5Q211 352 182 352Q154 352 123.5 342.5Q93 333 61 311ZM61 246Q93 269 123.5 278.5Q154 288 182 288Q211 288 236 281.5Q261 275 285 267.5Q309 260 334 253.5Q359 247 388 247Q417 247 448 256.5Q479 266 513 289V180Q479 158 448 149Q417 140 388 140Q359 140 334 146Q309 152 285 159.5Q261 167 236 173Q211 179 182 179Q154 179 123.5 169.5Q93 160 61 139Z" glyph-name="approxequal" horiz-adv-x="574" unicode="&#8776;" /><glyph d="M33 420Q66 441 96.5 450.5Q127 460 155 460Q183 460 208 454Q233 448 257.5 440.5Q282 433 307 427Q332 421 361 421Q389 421 420 430Q451 439 486 462V353Q451 331 420 321.5Q389 312 361 312Q332 312 307 318Q282 324 257.5 331.5Q233 339 208 345.5Q183 352 155 352Q127 352 96.5 342.5Q66 333 33 311ZM33 246Q66 269 96.5 278.5Q127 288 155 288Q183 288 208 281.5Q233 275 257.5 267.5Q282 260 307 253.5Q332 247 361 247Q389 247 420 256.5Q451 266 486 289V180Q451 158 420 149Q389 140 361 140Q332 140 307 146Q282 152 257.5 159.5Q233 167 208 173Q183 179 155 179Q127 179 96.5 169.5Q66 160 33 139Z" glyph-name="approxequal.lt" horiz-adv-x="520" /><glyph d="M289 271Q289 297 265 314Q241 331 193 331Q161 331 129 323Q97 315 70 299V425Q98 440 140.5 450Q183 460 231 460Q331 460 385.5 414Q440 368 440 278V0H289V23Q278 12 248.5 2Q219 -8 183 -8Q150 -8 120 1.5Q90 11 67.5 29Q45 47 31.5 74Q18 101 18 137Q18 170 31.5 196Q45 222 68 241Q91 260 123 270Q155 280 191 280Q220 280 247.5 272.5Q275 265 289 255ZM289 152Q281 166 264 174.5Q247 183 226 183Q203 183 183.5 173Q164 163 164 140Q164 117 183.5 106.5Q203 96 226 96Q247 96 264 104Q281 112 289 126ZM353 589Q353 567 344.5 548Q336 529 321.5 515Q307 501 287.5 493Q268 485 245 485Q222 485 202.5 493Q183 501 168.5 515Q154 529 145.5 548Q137 567 137 589Q137 611 145.5 630.5Q154 650 168.5 664Q183 678 202.5 686.5Q222 695 245 695Q268 695 287.5 686.5Q307 678 321.5 664Q336 650 344.5 630.5Q353 611 353 589ZM281 589Q281 605 271 615.5Q261 626 245 626Q230 626 219.5 615.5Q209 605 209 589Q209 575 219.5 564.5Q230 554 245 554Q261 554 271 564.5Q281 575 281 589Z" glyph-name="aring" horiz-adv-x="479" unicode="&#229;" /><glyph d="M343 563Q343 545 335 529.5Q327 514 312.5 502.5Q298 491 278.5 484Q259 477 237 477Q214 477 194.5 484Q175 491 160.5 502.5Q146 514 138 529.5Q130 545 130 563Q130 599 160.5 624.5Q191 650 237 650Q282 650 312.5 624.5Q343 599 343 563ZM273 563Q273 576 263 584.5Q253 593 237 593Q220 593 210 584.5Q200 576 200 563Q200 551 210 542.5Q220 534 237 534Q253 534 263 542.5Q273 551 273 563ZM164 667 227 769H387L317 667ZM289 271Q289 297 265 314Q241 331 193 331Q161 331 129 323Q97 315 70 299V425Q98 440 140.5 450Q183 460 231 460Q331 460 385.5 414Q440 368 440 278V0H289V23Q278 12 248.5 2Q219 -8 183 -8Q150 -8 120 1.5Q90 11 67.5 29Q45 47 31.5 74Q18 101 18 137Q18 170 31.5 196Q45 222 68 241Q91 260 123 270Q155 280 191 280Q220 280 247.5 272.5Q275 265 289 255ZM289 152Q281 166 264 174.5Q247 183 226 183Q203 183 183.5 173Q164 163 164 140Q164 117 183.5 106.5Q203 96 226 96Q247 96 264 104Q281 112 289 126Z" glyph-name="aringacute" horiz-adv-x="479" unicode="&#507;" /><glyph d="M280 614 422 376H288L216 501L145 376H10L152 614Z" glyph-name="asciicircum" horiz-adv-x="432" unicode="^" /><glyph d="M396 355Q396 277 367.5 234.5Q339 192 286 192Q263 192 246 200.5Q229 209 215.5 219.5Q202 230 189.5 239Q177 248 164 248Q129 248 129 197H31Q31 274 59 317Q87 360 141 360Q164 360 181 351Q198 342 211.5 331.5Q225 321 237 312.5Q249 304 263 304Q280 304 289 316Q298 328 298 355Z" glyph-name="asciitilde" horiz-adv-x="426" unicode="~" /><glyph d="M24 543 61 607 135 564V650H210V564L283 607L321 543L246 500L321 457L283 393L210 436V350H135V436L61 393L24 457L98 500Z" glyph-name="asterisk" horiz-adv-x="344" unicode="*" /><glyph d="M538 148Q534 127 540 117Q546 107 564 107Q608 107 634.5 150Q661 193 661 274Q661 327 641.5 368Q622 409 587.5 437.5Q553 466 505.5 481Q458 496 403 496Q336 496 281 474Q226 452 186.5 411.5Q147 371 125 314.5Q103 258 103 190Q103 111 131 59Q159 7 203 -24Q247 -55 300 -67.5Q353 -80 404 -80Q474 -80 527 -66.5Q580 -53 628 -32V-107Q590 -126 531.5 -140Q473 -154 404 -154Q330 -154 261 -134Q192 -114 138.5 -72Q85 -30 52.5 35Q20 100 20 190Q20 269 47.5 338Q75 407 125.5 459Q176 511 246.5 541Q317 571 403 571Q478 571 539.5 548.5Q601 526 645.5 486Q690 446 714.5 391.5Q739 337 739 274Q739 212 722.5 166.5Q706 121 677.5 90Q649 59 611 44Q573 29 530 29Q495 29 464 41.5Q433 54 414 79Q398 55 371 43Q344 31 315 31Q282 31 256.5 43Q231 55 213.5 75.5Q196 96 187 124Q178 152 178 185Q178 227 191.5 266Q205 305 229 334.5Q253 364 287.5 381.5Q322 399 364 399Q392 399 415.5 388.5Q439 378 449 363L455 391H580ZM430 259Q426 273 413 281.5Q400 290 382 290Q350 290 329 262.5Q308 235 308 196Q308 171 320.5 155.5Q333 140 359 140Q379 140 393 149.5Q407 159 415 173Z" glyph-name="at" horiz-adv-x="759" unicode="@" /><glyph d="M538 240Q534 219 540 209Q546 199 564 199Q608 199 634.5 242Q661 285 661 366Q661 419 641.5 460Q622 501 587.5 529.5Q553 558 505.5 573Q458 588 403 588Q336 588 281 566Q226 544 186.5 503.5Q147 463 125 406.5Q103 350 103 282Q103 203 131 151Q159 99 203 68Q247 37 300 24.5Q353 12 404 12Q474 12 527 25.5Q580 39 628 60V-15Q590 -34 531.5 -48Q473 -62 404 -62Q330 -62 261 -42Q192 -22 138.5 20Q85 62 52.5 127Q20 192 20 282Q20 361 47.5 430Q75 499 125.5 551Q176 603 246.5 633Q317 663 403 663Q478 663 539.5 640.5Q601 618 645.5 578Q690 538 714.5 483.5Q739 429 739 366Q739 304 722.5 258.5Q706 213 677.5 182Q649 151 611 136Q573 121 530 121Q495 121 464 133.5Q433 146 414 171Q398 147 371 135Q344 123 315 123Q282 123 256.5 135Q231 147 213.5 167.5Q196 188 187 216Q178 244 178 277Q178 319 191.5 358Q205 397 229 426.5Q253 456 287.5 473.5Q322 491 364 491Q392 491 415.5 480.5Q439 470 449 455L455 483H580ZM430 351Q426 365 413 373.5Q400 382 382 382Q350 382 329 354.5Q308 327 308 288Q308 263 320.5 247.5Q333 232 359 232Q379 232 393 241.5Q407 251 415 265Z" glyph-name="at.cap" horiz-adv-x="759" /><glyph d="M289 271Q289 297 265 314Q241 331 193 331Q161 331 129 323Q97 315 70 299V425Q98 440 140.5 450Q183 460 231 460Q331 460 385.5 414Q440 368 440 278V0H289V23Q278 12 248.5 2Q219 -8 183 -8Q150 -8 120 1.5Q90 11 67.5 29Q45 47 31.5 74Q18 101 18 137Q18 170 31.5 196Q45 222 68 241Q91 260 123 270Q155 280 191 280Q220 280 247.5 272.5Q275 265 289 255ZM289 152Q281 166 264 174.5Q247 183 226 183Q203 183 183.5 173Q164 163 164 140Q164 117 183.5 106.5Q203 96 226 96Q247 96 264 104Q281 112 289 126ZM394 647Q394 617 389.5 589.5Q385 562 374.5 541.5Q364 521 347.5 509Q331 497 306 497Q289 497 275.5 502.5Q262 508 251 515Q240 522 229.5 527.5Q219 533 207 533Q195 533 188.5 524Q182 515 182 500H96Q96 530 100.5 557.5Q105 585 115.5 605.5Q126 626 142.5 638Q159 650 184 650Q201 650 214.5 644.5Q228 639 239 632Q250 625 260.5 619.5Q271 614 283 614Q294 614 301 623Q308 632 308 647Z" glyph-name="atilde" horiz-adv-x="479" unicode="&#227;" /><glyph d="M199 0H42V650H199V414Q215 432 245 446Q275 460 310 460Q359 460 396.5 441.5Q434 423 459.5 391Q485 359 498 316.5Q511 274 511 225Q511 176 498 133.5Q485 91 459.5 59Q434 27 396.5 8.5Q359 -10 310 -10Q275 -10 245 4Q215 18 199 36ZM199 166Q208 147 226.5 135.5Q245 124 268 124Q309 124 331.5 152.5Q354 181 354 225Q354 269 331.5 298Q309 327 268 327Q245 327 226.5 315Q208 303 199 285Z" glyph-name="b" horiz-adv-x="529" unicode="b" /><glyph d="M389 -84H253L5 650H141Z" glyph-name="backslash" horiz-adv-x="394" unicode="\" /><glyph d="M389 -64H253L5 670H141Z" glyph-name="backslash.cap" horiz-adv-x="394" /><glyph d="M46 650H177V-84H46Z" glyph-name="bar" horiz-adv-x="223" unicode="|" /><glyph d="M46 670H177V-64H46Z" glyph-name="bar.cap" horiz-adv-x="223" /><glyph d="M235 75Q235 46 264 46H346V-84H222Q165 -84 129 -48Q93 -12 93 46V189Q93 218 64 218H20V348H64Q93 348 93 377V520Q93 578 129 614Q165 650 222 650H346V520H264Q235 520 235 491V366Q235 334 221.5 314.5Q208 295 188 283Q208 271 221.5 251.5Q235 232 235 200Z" glyph-name="braceleft" horiz-adv-x="366" unicode="{" /><glyph d="M235 95Q235 66 264 66H346V-64H222Q165 -64 129 -28Q93 8 93 66V209Q93 238 64 238H20V368H64Q93 368 93 397V540Q93 598 129 634Q165 670 222 670H346V540H264Q235 540 235 511V386Q235 354 221.5 334.5Q208 315 188 303Q208 291 221.5 271.5Q235 252 235 220Z" glyph-name="braceleft.cap" horiz-adv-x="366" /><glyph d="M131 200Q131 232 144.5 251.5Q158 271 178 283Q158 295 144.5 314.5Q131 334 131 366V491Q131 520 102 520H20V650H144Q201 650 237 614Q273 578 273 520V377Q273 348 302 348H346V218H302Q273 218 273 189V46Q273 -12 237 -48Q201 -84 144 -84H20V46H102Q131 46 131 75Z" glyph-name="braceright" horiz-adv-x="366" unicode="}" /><glyph d="M131 220Q131 252 144.5 271.5Q158 291 178 303Q158 315 144.5 334.5Q131 354 131 386V511Q131 540 102 540H20V670H144Q201 670 237 634Q273 598 273 540V397Q273 368 302 368H346V238H302Q273 238 273 209V66Q273 8 237 -28Q201 -64 144 -64H20V66H102Q131 66 131 95Z" glyph-name="braceright.cap" horiz-adv-x="366" /><glyph d="M192 46H311V-84H46V650H311V520H192Z" glyph-name="bracketleft" horiz-adv-x="331" unicode="[" /><glyph d="M192 66H311V-64H46V670H311V540H192Z" glyph-name="bracketleft.cap" horiz-adv-x="331" /><glyph d="M139 520H20V650H285V-84H20V46H139Z" glyph-name="bracketright" horiz-adv-x="331" unicode="]" /><glyph d="M139 540H20V670H285V-64H20V66H139Z" glyph-name="bracketright.cap" horiz-adv-x="331" /><glyph d="M250 488Q188 488 147.5 526Q107 564 107 638H215Q215 591 250 591Q286 591 286 638H393Q393 564 352.5 526Q312 488 250 488Z" glyph-name="breve" horiz-adv-x="500" unicode="&#728;" /><glyph d="M250 658Q187 658 146.5 695Q106 732 106 804H214Q214 783 223.5 772.5Q233 762 250 762Q286 762 286 804H394Q394 732 353.5 695Q313 658 250 658Z" glyph-name="breve.cap" horiz-adv-x="500" /><glyph d="M357 261Q357 225 344 195Q331 165 308.5 143Q286 121 255.5 109Q225 97 191 97Q156 97 126 109Q96 121 73 143Q50 165 37 195Q24 225 24 261Q24 298 37 329Q50 360 73 382Q96 404 126 416Q156 428 191 428Q225 428 255.5 416Q286 404 308.5 382Q331 360 344 329Q357 298 357 261Z" glyph-name="bullet" horiz-adv-x="381" unicode="&#8226;" /><glyph d="M357 295Q357 259 344 228.5Q331 198 308.5 176.5Q286 155 255.5 143Q225 131 191 131Q156 131 126 143Q96 155 73 176.5Q50 198 37 228.5Q24 259 24 295Q24 332 37 363Q50 394 73 416Q96 438 126 450Q156 462 191 462Q225 462 255.5 450Q286 438 308.5 416Q331 394 344 363Q357 332 357 295Z" glyph-name="bullet.cap" horiz-adv-x="381" /><glyph d="M18 225Q18 279 35.5 322.5Q53 366 84.5 396.5Q116 427 159 443.5Q202 460 253 460Q288 460 319 452.5Q350 445 374 428V296Q330 328 277 328Q233 328 203 302Q173 276 173 225Q173 174 203 148Q233 122 277 122Q330 122 374 154V22Q350 5 319 -2.5Q288 -10 253 -10Q202 -10 159 6.5Q116 23 84.5 53.5Q53 84 35.5 127.5Q18 171 18 225Z" glyph-name="c" horiz-adv-x="400" unicode="c" /><glyph d="M170 500 252 650H401L314 500ZM18 225Q18 279 35.5 322.5Q53 366 84.5 396.5Q116 427 159 443.5Q202 460 253 460Q288 460 319 452.5Q350 445 374 428V296Q330 328 277 328Q233 328 203 302Q173 276 173 225Q173 174 203 148Q233 122 277 122Q330 122 374 154V22Q350 5 319 -2.5Q288 -10 253 -10Q202 -10 159 6.5Q116 23 84.5 53.5Q53 84 35.5 127.5Q18 171 18 225Z" glyph-name="cacute" horiz-adv-x="400" unicode="&#263;" /><glyph d="M310 498H190L94 649H210L250 593L290 649H406Z" glyph-name="caron" horiz-adv-x="500" unicode="&#711;" /><glyph d="M161 483 204 650H326L282 483Z" glyph-name="caron.Slovak" horiz-adv-x="500" /><glyph d="M82 796H208L250 750L292 796H418L310 663H190Z" glyph-name="caron.cap" horiz-adv-x="500" /><glyph d="M302 498H182L86 649H202L242 593L282 649H398ZM18 225Q18 279 35.5 322.5Q53 366 84.5 396.5Q116 427 159 443.5Q202 460 253 460Q288 460 319 452.5Q350 445 374 428V296Q330 328 277 328Q233 328 203 302Q173 276 173 225Q173 174 203 148Q233 122 277 122Q330 122 374 154V22Q350 5 319 -2.5Q288 -10 253 -10Q202 -10 159 6.5Q116 23 84.5 53.5Q53 84 35.5 127.5Q18 171 18 225Z" glyph-name="ccaron" horiz-adv-x="400" unicode="&#269;" /><glyph d="M18 225Q18 279 35.5 322.5Q53 366 84.5 396.5Q116 427 159 443.5Q202 460 253 460Q288 460 319 452.5Q350 445 374 428V296Q330 328 277 328Q233 328 203 302Q173 276 173 225Q173 174 203 148Q233 122 277 122Q330 122 374 154V22Q350 5 319 -2.5Q288 -10 253 -10Q202 -10 159 6.5Q116 23 84.5 53.5Q53 84 35.5 127.5Q18 171 18 225ZM113 -181 182 -40H316L246 -181Z" glyph-name="ccedilla" horiz-adv-x="400" unicode="&#231;" /><glyph d="M390 498H274L234 553L194 498H78L174 649H294ZM18 225Q18 279 35.5 322.5Q53 366 84.5 396.5Q116 427 159 443.5Q202 460 253 460Q288 460 319 452.5Q350 445 374 428V296Q330 328 277 328Q233 328 203 302Q173 276 173 225Q173 174 203 148Q233 122 277 122Q330 122 374 154V22Q350 5 319 -2.5Q288 -10 253 -10Q202 -10 159 6.5Q116 23 84.5 53.5Q53 84 35.5 127.5Q18 171 18 225Z" glyph-name="ccircumflex" horiz-adv-x="400" unicode="&#265;" /><glyph d="M18 225Q18 279 35.5 322.5Q53 366 84.5 396.5Q116 427 159 443.5Q202 460 253 460Q288 460 319 452.5Q350 445 374 428V296Q330 328 277 328Q233 328 203 302Q173 276 173 225Q173 174 203 148Q233 122 277 122Q330 122 374 154V22Q350 5 319 -2.5Q288 -10 253 -10Q202 -10 159 6.5Q116 23 84.5 53.5Q53 84 35.5 127.5Q18 171 18 225ZM325 579Q325 541 298.5 518Q272 495 236 495Q200 495 173.5 518Q147 541 147 579Q147 618 173.5 641Q200 664 236 664Q272 664 298.5 641Q325 618 325 579Z" glyph-name="cdotaccent" horiz-adv-x="400" unicode="&#267;" /><glyph d="M141 -181 210 -40H344L274 -181Z" glyph-name="cedilla" horiz-adv-x="500" unicode="&#184;" /><glyph d="M141 -181 210 -40H344L274 -181Z" glyph-name="cedilla.alt" horiz-adv-x="500" /><glyph d="M184 10Q112 30 68 88.5Q24 147 24 235Q24 323 68 381.5Q112 440 184 460V558H312V465Q332 462 351 455.5Q370 449 384 438V306Q340 338 282 338Q239 338 209 312Q179 286 179 235Q179 184 209 158Q239 132 282 132Q340 132 384 164V32Q355 10 312 4V-85H184Z" glyph-name="cent" horiz-adv-x="416" unicode="&#162;" /><glyph d="M230 10Q158 30 114 88.5Q70 147 70 235Q70 323 114 381.5Q158 440 230 460V558H358V465Q400 459 430 438V306Q386 338 328 338Q284 338 254.5 312Q225 286 225 235Q225 184 254.5 158Q284 132 328 132Q386 132 430 164V32Q415 21 396.5 14.5Q378 8 358 4V-85H230Z" glyph-name="cent.lt" horiz-adv-x="520" /><glyph d="M406 498H290L250 553L210 498H94L190 649H310Z" glyph-name="circumflex" horiz-adv-x="500" unicode="&#710;" /><glyph d="M418 666H292L250 711L208 666H82L190 798H310Z" glyph-name="circumflex.cap" horiz-adv-x="500" /><glyph d="M19 87Q19 107 26 124Q33 141 45.5 153.5Q58 166 75 173Q92 180 111 180Q150 180 177 153.5Q204 127 204 87Q204 47 177 20Q150 -7 111 -7Q92 -7 75 0Q58 7 45.5 20Q33 33 26 50Q19 67 19 87ZM19 352Q19 372 26 389Q33 406 45.5 418.5Q58 431 75 438Q92 445 111 445Q150 445 177 418.5Q204 392 204 352Q204 312 177 285Q150 258 111 258Q92 258 75 265Q58 272 45.5 285Q33 298 26 315Q19 332 19 352Z" glyph-name="colon" horiz-adv-x="223" unicode=":" /><glyph d="M37 87Q37 107 44 124Q51 141 63.5 153.5Q76 166 93 173Q110 180 129 180Q168 180 195 153.5Q222 127 222 87Q222 47 195 20Q168 -7 129 -7Q110 -7 93 0Q76 7 63.5 20Q51 33 44 50Q37 67 37 87ZM37 352Q37 372 44 389Q51 406 63.5 418.5Q76 431 93 438Q110 445 129 445Q168 445 195 418.5Q222 392 222 352Q222 312 195 285Q168 258 129 258Q110 258 93 265Q76 272 63.5 285Q51 298 44 315Q37 332 37 352Z" glyph-name="colon.tab" horiz-adv-x="260" /><glyph d="M87 10Q60 15 39.5 36Q19 57 19 92Q19 130 45.5 154.5Q72 179 112 179Q149 179 176.5 154.5Q204 130 204 82Q204 55 193 28.5Q182 2 166 -22L111 -105H12Z" glyph-name="comma" horiz-adv-x="223" unicode="," /><glyph d="M105 10Q78 15 57.5 36Q37 57 37 92Q37 130 63.5 154.5Q90 179 130 179Q167 179 194.5 154.5Q222 130 222 82Q222 55 211 28.5Q200 2 184 -22L129 -105H30Z" glyph-name="comma.tab" horiz-adv-x="260" /><glyph d="M219 -172Q199 -166 185 -148.5Q171 -131 171 -105Q171 -73 194 -53Q217 -33 252 -33Q284 -33 308.5 -53.5Q333 -74 333 -111Q333 -137 322 -157.5Q311 -178 294 -198L265 -236H170Z" glyph-name="commaaccent" horiz-adv-x="500" /><glyph d="M279 629Q299 623 313.5 605.5Q328 588 328 561Q328 529 304.5 508.5Q281 488 246 488Q214 488 189.5 508.5Q165 529 165 567Q165 593 176 614Q187 635 204 656L235 696H331Z" glyph-name="commaturn" horiz-adv-x="500" /><glyph d="M669 307Q669 238 644 180Q619 122 576 79.5Q533 37 475 13.5Q417 -10 352 -10Q287 -10 229 13.5Q171 37 128 79.5Q85 122 60 180Q35 238 35 307Q35 376 60 434Q85 492 128 534.5Q171 577 229 600.5Q287 624 352 624Q417 624 475 600.5Q533 577 576 534.5Q619 492 644 434Q669 376 669 307ZM622 307Q622 366 600.5 415.5Q579 465 542.5 501Q506 537 456.5 557.5Q407 578 352 578Q296 578 247 557.5Q198 537 161.5 501Q125 465 103.5 415.5Q82 366 82 307Q82 248 103.5 198.5Q125 149 161.5 113Q198 77 247 56.5Q296 36 352 36Q407 36 456.5 56.5Q506 77 542.5 113Q579 149 600.5 198.5Q622 248 622 307ZM165 309Q165 354 179.5 391Q194 428 220.5 454.5Q247 481 284.5 495Q322 509 368 509Q426 509 464 485V378Q444 391 422.5 398Q401 405 378 405Q332 405 305 380Q278 355 278 309Q278 264 305 239Q332 214 378 214Q423 214 464 240V133Q446 122 421.5 115.5Q397 109 368 109Q322 109 284.5 123Q247 137 220.5 163.5Q194 190 179.5 227Q165 264 165 309Z" glyph-name="copyright" horiz-adv-x="704" unicode="&#169;" /><glyph d="M330 36Q314 18 284 4Q254 -10 219 -10Q170 -10 132.5 8.5Q95 27 69.5 59Q44 91 31 133.5Q18 176 18 225Q18 274 31 316.5Q44 359 69.5 391Q95 423 132.5 441.5Q170 460 219 460Q254 460 284 446Q314 432 330 414V650H487V0H330ZM330 285Q321 303 302.5 315Q284 327 261 327Q220 327 197.5 298Q175 269 175 225Q175 181 197.5 152.5Q220 124 261 124Q284 124 302.5 135.5Q321 147 330 166Z" glyph-name="d" horiz-adv-x="529" unicode="d" /><glyph d="M24 558H123V650H222V558H321V461H222V276H123V461H24Z" glyph-name="dagger" horiz-adv-x="345" unicode="&#8224;" /><glyph d="M26 583H127V650H222V583H324V496H222V429H324V343H222V276H127V343H26V429H127V496H26Z" glyph-name="daggerdbl" horiz-adv-x="349" unicode="&#8225;" /><glyph d="M517 483 560 650H682L638 483ZM330 36Q314 18 284 4Q254 -10 219 -10Q170 -10 132.5 8.5Q95 27 69.5 59Q44 91 31 133.5Q18 176 18 225Q18 274 31 316.5Q44 359 69.5 391Q95 423 132.5 441.5Q170 460 219 460Q254 460 284 446Q314 432 330 414V650H487V0H330ZM330 285Q321 303 302.5 315Q284 327 261 327Q220 327 197.5 298Q175 269 175 225Q175 181 197.5 152.5Q220 124 261 124Q284 124 302.5 135.5Q321 147 330 166Z" glyph-name="dcaron" horiz-adv-x="529" unicode="&#271;" /><glyph d="M248 592H330V650H487V592H534V490H487V0H330V36Q314 18 284 4Q254 -10 219 -10Q170 -10 132.5 8.5Q95 27 69.5 59Q44 91 31 133.5Q18 176 18 225Q18 274 31 316.5Q44 359 69.5 391Q95 423 132.5 441.5Q170 460 219 460Q254 460 284 446Q314 432 330 414V490H248ZM330 285Q321 303 302.5 315Q284 327 261 327Q220 327 197.5 298Q175 269 175 225Q175 181 197.5 152.5Q220 124 261 124Q284 124 302.5 135.5Q321 147 330 166Z" glyph-name="dcroat" horiz-adv-x="529" unicode="&#273;" /><glyph d="M124 483Q124 458 141 441Q158 424 181 424Q204 424 220.5 441Q237 458 237 483Q237 507 220.5 524Q204 541 181 541Q158 541 141 524Q124 507 124 483ZM320 483Q320 453 309 427.5Q298 402 279 383Q260 364 234.5 353Q209 342 181 342Q152 342 127 353Q102 364 83 383Q64 402 53 427.5Q42 453 42 483Q42 512 53 538Q64 564 83 583Q102 602 127 613Q152 624 181 624Q209 624 234.5 613Q260 602 279 583Q298 564 309 538Q320 512 320 483Z" glyph-name="degree" horiz-adv-x="362" unicode="&#176;" /><glyph d="M84 567Q84 599 106.5 621.5Q129 644 161 644Q193 644 215.5 621.5Q238 599 238 567Q238 535 215.5 513Q193 491 161 491Q129 491 106.5 513Q84 535 84 567ZM261 567Q261 599 283 621.5Q305 644 337 644Q353 644 367 638Q381 632 391.5 621.5Q402 611 408.5 597Q415 583 415 567Q415 535 392 513Q369 491 337 491Q305 491 283 513Q261 535 261 567Z" glyph-name="dieresis" horiz-adv-x="500" unicode="&#168;" /><glyph d="M81 734Q81 767 103.5 790Q126 813 159 813Q191 813 214.5 790Q238 767 238 734Q238 701 214.5 678Q191 655 159 655Q126 655 103.5 678Q81 701 81 734ZM262 734Q262 767 285 790Q308 813 340 813Q372 813 395.5 790Q419 767 419 734Q419 701 395.5 678Q372 655 340 655Q308 655 285 678Q262 701 262 734Z" glyph-name="dieresis.cap" horiz-adv-x="500" /><glyph d="M51 357H505V241H51ZM198 479Q198 512 221.5 535Q245 558 278 558Q312 558 335.5 535Q359 512 359 479Q359 446 335.5 423Q312 400 278 400Q245 400 221.5 423Q198 446 198 479ZM198 119Q198 152 221.5 175Q245 198 278 198Q312 198 335.5 175Q359 152 359 119Q359 86 335.5 63Q312 40 278 40Q245 40 221.5 63Q198 86 198 119Z" glyph-name="divide" horiz-adv-x="556" unicode="&#247;" /><glyph d="M33 357H486V241H33ZM179 479Q179 512 203 535Q227 558 260 558Q293 558 317 535Q341 512 341 479Q341 446 317 423Q293 400 260 400Q227 400 203 423Q179 446 179 479ZM179 119Q179 152 203 175Q227 198 260 198Q293 198 317 175Q341 152 341 119Q341 86 317 63Q293 40 260 40Q227 40 203 63Q179 86 179 119Z" glyph-name="divide.lt" horiz-adv-x="520" /><glyph d="M183 6Q137 11 98.5 23.5Q60 36 34 52V194Q72 168 122 150Q172 132 222 132Q260 132 287 141.5Q314 151 314 179Q314 201 300.5 210.5Q287 220 263 229L175 254Q100 277 61 317Q22 357 22 429Q22 502 67 546Q112 590 183 604V696H311V605Q346 600 374 590Q402 580 428 566V424Q388 452 344.5 467.5Q301 483 251 483Q217 483 195 473Q173 463 173 441Q173 421 186 411Q199 401 222 395L310 367Q391 341 428.5 298Q466 255 466 188Q466 151 454.5 122Q443 93 422.5 71Q402 49 373.5 34.5Q345 20 311 13V-86H183Z" glyph-name="dollar" horiz-adv-x="494" unicode="$" /><glyph d="M199 6Q153 11 114.5 23.5Q76 36 49 52V194Q88 168 138 150Q188 132 238 132Q275 132 302 141.5Q329 151 329 179Q329 201 316 210.5Q303 220 279 229L191 254Q116 277 77 317Q38 357 38 429Q38 502 83 546Q128 590 199 604V696H326V605Q361 600 389.5 590Q418 580 444 566V424Q404 452 360.5 467.5Q317 483 267 483Q233 483 211 473Q189 463 189 441Q189 421 202 411Q215 401 238 395L326 367Q407 341 444.5 298Q482 255 482 188Q482 151 470.5 122Q459 93 438 71Q417 49 388.5 34.5Q360 20 326 13V-86H199Z" glyph-name="dollar.lt" horiz-adv-x="520" /><glyph d="M339 579Q339 541 312.5 518Q286 495 250 495Q214 495 187.5 518Q161 541 161 579Q161 618 187.5 641Q214 664 250 664Q286 664 312.5 641Q339 618 339 579Z" glyph-name="dotaccent" horiz-adv-x="500" unicode="&#729;" /><glyph d="M339 743Q339 704 312.5 681Q286 658 250 658Q214 658 187.5 681Q161 704 161 743Q161 781 187.5 804Q214 827 250 827Q286 827 312.5 804Q339 781 339 743Z" glyph-name="dotaccent.cap" horiz-adv-x="500" /><glyph d="M337 -114Q337 -152 311 -174.5Q285 -197 250 -197Q215 -197 189 -174.5Q163 -152 163 -114Q163 -77 189 -55Q215 -33 250 -33Q285 -33 311 -55Q337 -77 337 -114Z" glyph-name="dotbelow" horiz-adv-x="500" /><glyph d="M199 0H42V450H199Z" glyph-name="dotlessi" horiz-adv-x="242" unicode="&#305;" /><glyph d="M199 10Q199 -75 156 -122Q113 -169 28 -169Q-9 -169 -29 -162V-44Q-24 -45 -18.5 -45.5Q-13 -46 -6 -46Q18 -46 30 -35Q42 -24 42 4V450H199Z" glyph-name="dotlessj" horiz-adv-x="241" unicode="&#567;" /><glyph d="M170 189Q180 148 210.5 130.5Q241 113 285 113Q321 113 351 121Q381 129 415 149V30Q389 10 349 0Q309 -10 260 -10Q206 -10 161.5 6Q117 22 85 52Q53 82 35.5 125Q18 168 18 222Q18 275 34.5 318.5Q51 362 80.5 393.5Q110 425 149.5 442.5Q189 460 236 460Q288 460 328 443.5Q368 427 394 397.5Q420 368 433.5 326.5Q447 285 447 235V189ZM242 341Q189 341 172 277H307Q304 306 287.5 323.5Q271 341 242 341Z" glyph-name="e" horiz-adv-x="468" unicode="e" /><glyph d="M167 500 249 650H398L311 500ZM170 189Q180 148 210.5 130.5Q241 113 285 113Q321 113 351 121Q381 129 415 149V30Q389 10 349 0Q309 -10 260 -10Q206 -10 161.5 6Q117 22 85 52Q53 82 35.5 125Q18 168 18 222Q18 275 34.5 318.5Q51 362 80.5 393.5Q110 425 149.5 442.5Q189 460 236 460Q288 460 328 443.5Q368 427 394 397.5Q420 368 433.5 326.5Q447 285 447 235V189ZM242 341Q189 341 172 277H307Q304 306 287.5 323.5Q271 341 242 341Z" glyph-name="eacute" horiz-adv-x="468" unicode="&#233;" /><glyph d="M170 189Q180 148 210.5 130.5Q241 113 285 113Q321 113 351 121Q381 129 415 149V30Q389 10 349 0Q309 -10 260 -10Q206 -10 161.5 6Q117 22 85 52Q53 82 35.5 125Q18 168 18 222Q18 275 34.5 318.5Q51 362 80.5 393.5Q110 425 149.5 442.5Q189 460 236 460Q288 460 328 443.5Q368 427 394 397.5Q420 368 433.5 326.5Q447 285 447 235V189ZM242 341Q189 341 172 277H307Q304 306 287.5 323.5Q271 341 242 341ZM245 488Q183 488 142.5 526Q102 564 102 638H210Q210 591 245 591Q281 591 281 638H388Q388 564 347.5 526Q307 488 245 488Z" glyph-name="ebreve" horiz-adv-x="468" unicode="&#277;" /><glyph d="M305 498H185L89 649H205L245 593L285 649H401ZM170 189Q180 148 210.5 130.5Q241 113 285 113Q321 113 351 121Q381 129 415 149V30Q389 10 349 0Q309 -10 260 -10Q206 -10 161.5 6Q117 22 85 52Q53 82 35.5 125Q18 168 18 222Q18 275 34.5 318.5Q51 362 80.5 393.5Q110 425 149.5 442.5Q189 460 236 460Q288 460 328 443.5Q368 427 394 397.5Q420 368 433.5 326.5Q447 285 447 235V189ZM242 341Q189 341 172 277H307Q304 306 287.5 323.5Q271 341 242 341Z" glyph-name="ecaron" horiz-adv-x="468" unicode="&#283;" /><glyph d="M401 498H285L245 553L205 498H89L185 649H305ZM170 189Q180 148 210.5 130.5Q241 113 285 113Q321 113 351 121Q381 129 415 149V30Q389 10 349 0Q309 -10 260 -10Q206 -10 161.5 6Q117 22 85 52Q53 82 35.5 125Q18 168 18 222Q18 275 34.5 318.5Q51 362 80.5 393.5Q110 425 149.5 442.5Q189 460 236 460Q288 460 328 443.5Q368 427 394 397.5Q420 368 433.5 326.5Q447 285 447 235V189ZM242 341Q189 341 172 277H307Q304 306 287.5 323.5Q271 341 242 341Z" glyph-name="ecircumflex" horiz-adv-x="468" unicode="&#234;" /><glyph d="M80 567Q80 599 102.5 621.5Q125 644 157 644Q189 644 211.5 621.5Q234 599 234 567Q234 535 211.5 513Q189 491 157 491Q125 491 102.5 513Q80 535 80 567ZM257 567Q257 599 279 621.5Q301 644 333 644Q349 644 363 638Q377 632 387.5 621.5Q398 611 404.5 597Q411 583 411 567Q411 535 388 513Q365 491 333 491Q301 491 279 513Q257 535 257 567ZM170 189Q180 148 210.5 130.5Q241 113 285 113Q321 113 351 121Q381 129 415 149V30Q389 10 349 0Q309 -10 260 -10Q206 -10 161.5 6Q117 22 85 52Q53 82 35.5 125Q18 168 18 222Q18 275 34.5 318.5Q51 362 80.5 393.5Q110 425 149.5 442.5Q189 460 236 460Q288 460 328 443.5Q368 427 394 397.5Q420 368 433.5 326.5Q447 285 447 235V189ZM242 341Q189 341 172 277H307Q304 306 287.5 323.5Q271 341 242 341Z" glyph-name="edieresis" horiz-adv-x="468" unicode="&#235;" /><glyph d="M170 189Q180 148 210.5 130.5Q241 113 285 113Q321 113 351 121Q381 129 415 149V30Q389 10 349 0Q309 -10 260 -10Q206 -10 161.5 6Q117 22 85 52Q53 82 35.5 125Q18 168 18 222Q18 275 34.5 318.5Q51 362 80.5 393.5Q110 425 149.5 442.5Q189 460 236 460Q288 460 328 443.5Q368 427 394 397.5Q420 368 433.5 326.5Q447 285 447 235V189ZM242 341Q189 341 172 277H307Q304 306 287.5 323.5Q271 341 242 341ZM334 579Q334 541 307.5 518Q281 495 245 495Q209 495 182.5 518Q156 541 156 579Q156 618 182.5 641Q209 664 245 664Q281 664 307.5 641Q334 618 334 579Z" glyph-name="edotaccent" horiz-adv-x="468" unicode="&#279;" /><glyph d="M170 189Q180 148 210.5 130.5Q241 113 285 113Q321 113 351 121Q381 129 415 149V30Q389 10 349 0Q309 -10 260 -10Q206 -10 161.5 6Q117 22 85 52Q53 82 35.5 125Q18 168 18 222Q18 275 34.5 318.5Q51 362 80.5 393.5Q110 425 149.5 442.5Q189 460 236 460Q288 460 328 443.5Q368 427 394 397.5Q420 368 433.5 326.5Q447 285 447 235V189ZM242 341Q189 341 172 277H307Q304 306 287.5 323.5Q271 341 242 341ZM176 500 89 650H238L320 500Z" glyph-name="egrave" horiz-adv-x="468" unicode="&#232;" /><glyph d="M254 114Q288 114 310 132.5Q332 151 332 182Q332 214 310 232Q288 250 254 250Q221 250 199 232Q177 214 177 182Q177 151 199 132.5Q221 114 254 114ZM254 378Q283 378 303 395Q323 412 323 440Q323 469 303 486.5Q283 504 254 504Q225 504 205 486.5Q185 469 185 440Q185 412 205 395Q225 378 254 378ZM254 -10Q206 -10 164 2Q122 14 90.5 37.5Q59 61 41 94.5Q23 128 23 170Q23 224 51.5 261Q80 298 122 312Q84 330 63 365Q42 400 42 445Q42 488 59.5 521.5Q77 555 106 578Q135 601 173.5 612.5Q212 624 254 624Q296 624 334.5 612.5Q373 601 402.5 578Q432 555 449 521.5Q466 488 466 445Q466 400 445 365Q424 330 387 312Q429 298 457.5 261Q486 224 486 170Q486 128 467.5 94.5Q449 61 417.5 37.5Q386 14 344 2Q302 -10 254 -10Z" glyph-name="eight" horiz-adv-x="508" unicode="8" /><glyph d="M261 114Q295 114 317.5 132.5Q340 151 340 182Q340 214 317.5 232Q295 250 261 250Q227 250 204.5 232Q182 214 182 182Q182 151 204.5 132.5Q227 114 261 114ZM261 378Q290 378 310.5 395Q331 412 331 440Q331 469 310.5 486.5Q290 504 261 504Q232 504 211.5 486.5Q191 469 191 440Q191 412 211.5 395Q232 378 261 378ZM261 -10Q213 -10 170.5 2Q128 14 96.5 37.5Q65 61 46.5 94.5Q28 128 28 170Q28 224 57 261Q86 298 128 312Q90 330 69 365Q48 400 48 445Q48 488 65.5 521.5Q83 555 112 578Q141 601 180 612.5Q219 624 261 624Q303 624 342 612.5Q381 601 410 578Q439 555 456.5 521.5Q474 488 474 445Q474 400 452.5 365Q431 330 394 312Q436 298 464.5 261Q493 224 493 170Q493 128 475 94.5Q457 61 425.5 37.5Q394 14 351.5 2Q309 -10 261 -10Z" glyph-name="eight.lt" horiz-adv-x="520" /><glyph d="M156 75Q172 75 182 83.5Q192 92 192 106Q192 120 182 129Q172 138 156 138Q140 138 129.5 129Q119 120 119 106Q119 92 129.5 83.5Q140 75 156 75ZM156 218Q171 218 180.5 226.5Q190 235 190 248Q190 262 180.5 270Q171 278 156 278Q141 278 131.5 270Q122 262 122 248Q122 235 131.5 226.5Q141 218 156 218ZM156 -5Q127 -5 102 2Q77 9 58.5 22Q40 35 29 54Q18 73 18 97Q18 127 32.5 147Q47 167 70 176Q50 187 40 207Q30 227 30 250Q30 276 40.5 295.5Q51 315 68 328.5Q85 342 108 349Q131 356 156 356Q181 356 203.5 349Q226 342 243.5 328.5Q261 315 271.5 295.5Q282 276 282 250Q282 227 272 207Q262 187 241 176Q264 167 278.5 147Q293 127 293 97Q293 73 282.5 54Q272 35 253 22Q234 9 209 2Q184 -5 156 -5Z" glyph-name="eightinferior" horiz-adv-x="311" unicode="&#8328;" /><glyph d="M19 87Q19 107 26 124Q33 141 45.5 153.5Q58 166 75 173Q92 180 111 180Q150 180 177 153.5Q204 127 204 87Q204 47 177 20Q150 -7 111 -7Q92 -7 75 0Q58 7 45.5 20Q33 33 26 50Q19 67 19 87ZM263 87Q263 127 289.5 153.5Q316 180 355 180Q394 180 420.5 153.5Q447 127 447 87Q447 47 420.5 20Q394 -7 355 -7Q316 -7 289.5 20Q263 47 263 87ZM506 87Q506 107 513 124Q520 141 532.5 153.5Q545 166 562 173Q579 180 598 180Q637 180 664 153.5Q691 127 691 87Q691 47 664 20Q637 -7 598 -7Q579 -7 562 0Q545 7 532.5 20Q520 33 513 50Q506 67 506 87Z" glyph-name="ellipsis" horiz-adv-x="710" unicode="&#8230;" /><glyph d="M170 189Q180 148 210.5 130.5Q241 113 285 113Q321 113 351 121Q381 129 415 149V30Q389 10 349 0Q309 -10 260 -10Q206 -10 161.5 6Q117 22 85 52Q53 82 35.5 125Q18 168 18 222Q18 275 34.5 318.5Q51 362 80.5 393.5Q110 425 149.5 442.5Q189 460 236 460Q288 460 328 443.5Q368 427 394 397.5Q420 368 433.5 326.5Q447 285 447 235V189ZM242 341Q189 341 172 277H307Q304 306 287.5 323.5Q271 341 242 341ZM119 612H372V504H119Z" glyph-name="emacron" horiz-adv-x="468" unicode="&#275;" /><glyph d="M36 315H802V208H36Z" glyph-name="emdash" horiz-adv-x="837" unicode="&#8212;" /><glyph d="M36 348H802V242H36Z" glyph-name="emdash.cap" horiz-adv-x="837" /><glyph d="M36 315H431V208H36Z" glyph-name="endash" horiz-adv-x="466" unicode="&#8211;" /><glyph d="M36 348H431V242H36Z" glyph-name="endash.cap" horiz-adv-x="466" /><glyph d="M323 257Q323 285 308.5 303Q294 321 264 321Q241 321 223 308Q205 295 199 272V0H42V450H199V411Q218 432 249.5 446Q281 460 320 460Q395 460 437 415Q479 370 479 295V10Q479 -75 436 -122Q393 -169 308 -169Q271 -169 251 -162V-44Q256 -45 261.5 -45.5Q267 -46 274 -46Q298 -46 310.5 -35Q323 -24 323 4Z" glyph-name="eng" horiz-adv-x="519" unicode="&#331;" /><glyph d="M226 -105Q226 -79 238 -56.5Q250 -34 273 -10H260Q206 -10 161.5 6Q117 22 85 52Q53 82 35.5 125Q18 168 18 222Q18 275 34.5 318.5Q51 362 80.5 393.5Q110 425 149.5 442.5Q189 460 236 460Q288 460 328 443.5Q368 427 394 397.5Q420 368 433.5 326.5Q447 285 447 235V189H172Q181 148 211.5 130.5Q242 113 285 113Q321 113 351 121Q381 129 415 149V30Q407 24 397.5 17.5Q388 11 375 1Q355 -16 342 -35.5Q329 -55 329 -72Q329 -94 349 -94Q357 -94 364.5 -90.5Q372 -87 384 -79V-166Q370 -174 354.5 -179.5Q339 -185 318 -185Q280 -185 253 -165Q226 -145 226 -105ZM242 341Q216 341 197.5 325Q179 309 171 277H307Q304 306 287.5 323.5Q271 341 242 341Z" glyph-name="eogonek" horiz-adv-x="468" unicode="&#281;" /><glyph d="M61 261H513V158H61ZM61 445H513V340H61Z" glyph-name="equal" horiz-adv-x="574" unicode="=" /><glyph d="M33 261H486V158H33ZM33 445H486V340H33Z" glyph-name="equal.lt" horiz-adv-x="520" /><glyph d="M108 542 169 561Q143 582 115.5 603.5Q88 625 59 646V650H251Q266 639 279.5 627.5Q293 616 307 604L386 629L411 563L362 547Q478 411 478 242Q478 183 461.5 136.5Q445 90 414.5 57.5Q384 25 341.5 7.5Q299 -10 248 -10Q197 -10 154.5 7Q112 24 82 55Q52 86 35 129Q18 172 18 224Q18 276 35 318.5Q52 361 81.5 391Q111 421 151.5 437.5Q192 454 239 454Q253 454 265 450Q277 446 285 440H288Q279 454 265 470.5Q251 487 231 506L133 476ZM324 223Q324 270 304.5 298.5Q285 327 248 327Q212 327 192.5 298.5Q173 270 173 223Q173 177 192.5 148.5Q212 120 248 120Q285 120 304.5 148.5Q324 177 324 223Z" glyph-name="eth" horiz-adv-x="497" unicode="&#240;" /><glyph d="M26 82Q26 120 53.5 145Q81 170 120 170Q139 170 156 163.5Q173 157 185.5 145Q198 133 205.5 117Q213 101 213 82Q213 63 205.5 46.5Q198 30 185.5 18Q173 6 156 -0.5Q139 -7 120 -7Q81 -7 53.5 18.5Q26 44 26 82ZM24 614H215L180 206H59Z" glyph-name="exclam" horiz-adv-x="239" unicode="!" /><glyph d="M26 436Q26 474 53.5 499.5Q81 525 120 525Q139 525 156 518.5Q173 512 185.5 500Q198 488 205.5 471.5Q213 455 213 436Q213 417 205.5 401Q198 385 185.5 373Q173 361 156 354.5Q139 348 120 348Q81 348 53.5 373Q26 398 26 436ZM59 312H180L215 -96H24Z" glyph-name="exclamdown" horiz-adv-x="243" unicode="&#161;" /><glyph d="M26 532Q26 570 53.5 595.5Q81 621 120 621Q139 621 156 614.5Q173 608 185.5 596Q198 584 205.5 567.5Q213 551 213 532Q213 513 205.5 497Q198 481 185.5 469Q173 457 156 450.5Q139 444 120 444Q81 444 53.5 469Q26 494 26 532ZM59 408H180L215 0H24Z" glyph-name="exclamdown.cap" horiz-adv-x="239" /><glyph d="M328 519Q311 528 291 528Q265 528 250 514.5Q235 501 235 474V450H322V328H235V0H80V328H13V450H80V483Q80 564 126 611.5Q172 659 255 659Q278 659 296 655.5Q314 652 328 647Z" glyph-name="f" horiz-adv-x="338" unicode="f" /><glyph d="M629 519Q612 528 592 528Q566 528 551 514.5Q536 501 536 474V450H623V328H536V0H381V328H235V0H80V328H13V450H80V477Q80 558 126 605.5Q172 653 255 653Q278 653 296 649.5Q314 646 328 641V513Q311 522 291 522Q266 522 250.5 510Q235 498 235 472V450H381V483Q381 564 427 611.5Q473 659 556 659Q579 659 597 655.5Q615 652 629 647Z" glyph-name="f_f" horiz-adv-x="639" unicode="&#64256;" /><glyph d="M537 0H380V450H537ZM548 572Q548 534 521.5 511Q495 488 459 488Q423 488 396.5 511Q370 534 370 572Q370 611 396.5 634Q423 657 459 657Q495 657 521.5 634Q548 611 548 572ZM328 519Q311 528 291 528Q265 528 250 514.5Q235 501 235 474V450H322V328H235V0H80V328H13V450H80V483Q80 564 126 611.5Q172 659 255 659Q278 659 296 655.5Q314 652 328 647Z" glyph-name="fi" horiz-adv-x="580" unicode="&#64257;" /><glyph d="M217 403Q265 403 305.5 389Q346 375 376 348.5Q406 322 423 284Q440 246 440 198Q440 150 422 111.5Q404 73 372.5 46Q341 19 297.5 4.5Q254 -10 203 -10Q145 -10 101.5 4.5Q58 19 26 41V186Q57 157 100.5 138.5Q144 120 190 120Q232 120 262 138.5Q292 157 292 196Q292 236 262 255.5Q232 275 184 275Q148 275 111.5 268.5Q75 262 46 251V614H407V476H171V399Q180 401 191.5 402Q203 403 217 403Z" glyph-name="five" horiz-adv-x="461" unicode="5" /><glyph d="M246 403Q295 403 337.5 389Q380 375 411 348.5Q442 322 459.5 284Q477 246 477 198Q477 150 458.5 111.5Q440 73 407 46Q374 19 329 4.5Q284 -10 231 -10Q171 -10 126 4.5Q81 19 48 41V186Q80 157 125 138.5Q170 120 218 120Q240 120 260 124.5Q280 129 295 138.5Q310 148 319 162Q328 176 328 196Q328 236 295 255.5Q262 275 212 275Q175 275 136.5 268.5Q98 262 69 251V614H442V476H194V398Q203 400 217.5 401.5Q232 403 246 403Z" glyph-name="five.lt" horiz-adv-x="520" /><glyph d="M136 492Q191 492 227 462Q263 432 263 378Q263 351 252.5 329Q242 307 223.5 291Q205 275 180 266.5Q155 258 126 258Q90 258 64 266.5Q38 275 18 288V380Q35 364 61.5 353Q88 342 115 342Q135 342 149.5 350.5Q164 359 164 377Q164 395 149.5 404Q135 413 111 413Q91 413 67.5 409.5Q44 406 30 400V614H243V524H113V490Q123 492 136 492Z" glyph-name="fivesuperior" horiz-adv-x="283" unicode="&#8309;" /><glyph d="M537 0H380V650H537ZM328 519Q311 528 291 528Q265 528 250 514.5Q235 501 235 474V450H322V328H235V0H80V328H13V450H80V483Q80 564 126 611.5Q172 659 255 659Q278 659 296 655.5Q314 652 328 647Z" glyph-name="fl" horiz-adv-x="580" unicode="&#64258;" /><glyph d="M47 356H127L143 449Q173 624 331 624Q353 624 371.5 620.5Q390 617 404 612V484Q386 493 361 493Q312 493 301 440L286 356H365V234H265L226 12Q219 -29 206.5 -61Q194 -93 173 -116Q152 -139 121.5 -151Q91 -163 48 -163Q25 -163 5.5 -159.5Q-14 -156 -28 -151V-37Q-19 -42 -8 -44Q3 -46 14 -46Q39 -46 50 -32.5Q61 -19 66 7L105 234H47Z" glyph-name="florin" horiz-adv-x="420" unicode="&#402;" /><glyph d="M118 356H198L215 449Q245 624 403 624Q424 624 442.5 620.5Q461 617 475 612V484Q457 493 433 493Q382 493 373 440L358 356H436V234H337L298 12Q291 -29 278.5 -61Q266 -93 245 -116Q224 -139 193.5 -151Q163 -163 120 -163Q97 -163 77.5 -159.5Q58 -156 44 -151V-37Q53 -42 64 -44Q75 -46 86 -46Q110 -46 121 -32.5Q132 -19 137 7L177 234H118Z" glyph-name="florin.lt" horiz-adv-x="520" /><glyph d="M227 242H322V352H460V242H530V112H460V0H322V112H8V116L232 614H394Z" glyph-name="four" horiz-adv-x="544" unicode="4" /><glyph d="M206 238H296V352H432V238H501V108H432V0H296V108H9V112L196 614H342Z" glyph-name="four.lt" horiz-adv-x="520" /><glyph d="M134 145H180V196H270V145H314V58H270V0H180V58H14V117L126 350H228Z" glyph-name="fourinferior" horiz-adv-x="332" unicode="&#8324;" /><glyph d="M-33 0H-120L249 614H336Z" glyph-name="fraction" horiz-adv-x="216" unicode="&#8260;" /><glyph d="M-28 0H-120L300 614H392Z" glyph-name="fraction.alt" horiz-adv-x="272" /><glyph d="M323 61Q308 44 281 30.5Q254 17 217 17Q169 17 132 34Q95 51 69.5 81Q44 111 31 151.5Q18 192 18 239Q18 285 31 325.5Q44 366 69.5 396Q95 426 132 443Q169 460 217 460Q254 460 281 447Q308 434 323 416V450H478V65Q478 3 457.5 -41.5Q437 -86 401 -114.5Q365 -143 317.5 -156Q270 -169 216 -169Q168 -169 124.5 -158.5Q81 -148 54 -131V13Q89 -16 126.5 -29Q164 -42 211 -42Q233 -42 253.5 -37Q274 -32 289.5 -21.5Q305 -11 314 5.5Q323 22 323 46ZM323 298Q314 313 296.5 324.5Q279 336 256 336Q217 336 195 309Q173 282 173 239Q173 196 195 169Q217 142 256 142Q279 142 296.5 153Q314 164 323 179Z" glyph-name="g" horiz-adv-x="521" unicode="g" /><glyph d="M323 61Q308 44 281 30.5Q254 17 217 17Q169 17 132 34Q95 51 69.5 81Q44 111 31 151.5Q18 192 18 239Q18 285 31 325.5Q44 366 69.5 396Q95 426 132 443Q169 460 217 460Q254 460 281 447Q308 434 323 416V450H478V65Q478 3 457.5 -41.5Q437 -86 401 -114.5Q365 -143 317.5 -156Q270 -169 216 -169Q168 -169 124.5 -158.5Q81 -148 54 -131V13Q89 -16 126.5 -29Q164 -42 211 -42Q233 -42 253.5 -37Q274 -32 289.5 -21.5Q305 -11 314 5.5Q323 22 323 46ZM323 298Q314 313 296.5 324.5Q279 336 256 336Q217 336 195 309Q173 282 173 239Q173 196 195 169Q217 142 256 142Q279 142 296.5 153Q314 164 323 179ZM279 488Q217 488 176.5 526Q136 564 136 638H244Q244 591 279 591Q315 591 315 638H422Q422 564 381.5 526Q341 488 279 488Z" glyph-name="gbreve" horiz-adv-x="521" unicode="&#287;" /><glyph d="M435 498H319L279 553L239 498H123L219 649H339ZM323 61Q308 44 281 30.5Q254 17 217 17Q169 17 132 34Q95 51 69.5 81Q44 111 31 151.5Q18 192 18 239Q18 285 31 325.5Q44 366 69.5 396Q95 426 132 443Q169 460 217 460Q254 460 281 447Q308 434 323 416V450H478V65Q478 3 457.5 -41.5Q437 -86 401 -114.5Q365 -143 317.5 -156Q270 -169 216 -169Q168 -169 124.5 -158.5Q81 -148 54 -131V13Q89 -16 126.5 -29Q164 -42 211 -42Q233 -42 253.5 -37Q274 -32 289.5 -21.5Q305 -11 314 5.5Q323 22 323 46ZM323 298Q314 313 296.5 324.5Q279 336 256 336Q217 336 195 309Q173 282 173 239Q173 196 195 169Q217 142 256 142Q279 142 296.5 153Q314 164 323 179Z" glyph-name="gcircumflex" horiz-adv-x="521" unicode="&#285;" /><glyph d="M309 629Q329 623 343.5 605.5Q358 588 358 561Q358 529 334.5 508.5Q311 488 276 488Q244 488 219.5 508.5Q195 529 195 567Q195 593 206 614Q217 635 234 656L265 696H361ZM323 61Q308 44 281 30.5Q254 17 217 17Q169 17 132 34Q95 51 69.5 81Q44 111 31 151.5Q18 192 18 239Q18 285 31 325.5Q44 366 69.5 396Q95 426 132 443Q169 460 217 460Q254 460 281 447Q308 434 323 416V450H478V65Q478 3 457.5 -41.5Q437 -86 401 -114.5Q365 -143 317.5 -156Q270 -169 216 -169Q168 -169 124.5 -158.5Q81 -148 54 -131V13Q89 -16 126.5 -29Q164 -42 211 -42Q233 -42 253.5 -37Q274 -32 289.5 -21.5Q305 -11 314 5.5Q323 22 323 46ZM323 298Q314 313 296.5 324.5Q279 336 256 336Q217 336 195 309Q173 282 173 239Q173 196 195 169Q217 142 256 142Q279 142 296.5 153Q314 164 323 179Z" glyph-name="gcommaaccent" horiz-adv-x="521" unicode="&#291;" /><glyph d="M323 61Q308 44 281 30.5Q254 17 217 17Q169 17 132 34Q95 51 69.5 81Q44 111 31 151.5Q18 192 18 239Q18 285 31 325.5Q44 366 69.5 396Q95 426 132 443Q169 460 217 460Q254 460 281 447Q308 434 323 416V450H478V65Q478 3 457.5 -41.5Q437 -86 401 -114.5Q365 -143 317.5 -156Q270 -169 216 -169Q168 -169 124.5 -158.5Q81 -148 54 -131V13Q89 -16 126.5 -29Q164 -42 211 -42Q233 -42 253.5 -37Q274 -32 289.5 -21.5Q305 -11 314 5.5Q323 22 323 46ZM323 298Q314 313 296.5 324.5Q279 336 256 336Q217 336 195 309Q173 282 173 239Q173 196 195 169Q217 142 256 142Q279 142 296.5 153Q314 164 323 179ZM368 579Q368 541 341.5 518Q315 495 279 495Q243 495 216.5 518Q190 541 190 579Q190 618 216.5 641Q243 664 279 664Q315 664 341.5 641Q368 618 368 579Z" glyph-name="gdotaccent" horiz-adv-x="521" unicode="&#289;" /><glyph d="M42 476Q42 563 88 611Q134 659 217 659Q240 659 258.5 655.5Q277 652 291 647V519Q274 528 253 528Q227 528 212.5 514.5Q198 501 198 474V450H525V446L431 233Q470 210 496.5 167Q523 124 523 66Q523 7 501 -37Q479 -81 440.5 -110.5Q402 -140 350 -154.5Q298 -169 237 -169V-43Q301 -41 339 -15.5Q377 10 377 67Q377 108 346 135Q315 162 264 179V183L323 328H198V0H42Z" glyph-name="germandbls" horiz-adv-x="543" unicode="&#223;" /><glyph d="M221 500 134 650H283L365 500Z" glyph-name="grave" horiz-adv-x="500" unicode="`" /><glyph d="M217 666 128 796H289L371 666Z" glyph-name="grave.cap" horiz-adv-x="500" /><glyph d="M392 225 47 72V202L283 297L47 393V522L392 369Z" glyph-name="greater" horiz-adv-x="433" unicode="&gt;" /><glyph d="M433 225 87 72V202L323 297L87 393V522L433 369Z" glyph-name="greater.lt" horiz-adv-x="520" /><glyph d="M394 298 48 177V299L281 368L48 436V559L394 437ZM394 42H48V154H394Z" glyph-name="greaterequal" horiz-adv-x="442" unicode="&#8805;" /><glyph d="M433 298 87 177V299L320 368L87 436V559L433 437ZM433 42H87V154H433Z" glyph-name="greaterequal.lt" horiz-adv-x="520" /><glyph d="M117 58 25 222 117 386H245L153 222L245 58ZM298 58 206 222 298 386H426L334 222L426 58Z" glyph-name="guillemotleft" horiz-adv-x="451" unicode="&#171;" /><glyph d="M117 138 25 302 117 466H245L153 302L245 138ZM298 138 206 302 298 466H426L334 302L426 138Z" glyph-name="guillemotleft.cap" horiz-adv-x="451" /><glyph d="M206 58 298 222 206 386H334L426 222L334 58ZM25 58 117 222 25 386H153L245 222L153 58Z" glyph-name="guillemotright" horiz-adv-x="451" unicode="&#187;" /><glyph d="M206 138 298 302 206 466H334L426 302L334 138ZM25 138 117 302 25 466H153L245 302L153 138Z" glyph-name="guillemotright.cap" horiz-adv-x="451" /><glyph d="M117 58 25 222 117 386H253L161 222L253 58Z" glyph-name="guilsinglleft" horiz-adv-x="278" unicode="&#8249;" /><glyph d="M117 138 25 302 117 466H253L161 302L253 138Z" glyph-name="guilsinglleft.cap" horiz-adv-x="278" /><glyph d="M25 58 117 222 25 386H161L253 222L161 58Z" glyph-name="guilsinglright" horiz-adv-x="278" unicode="&#8250;" /><glyph d="M25 138 117 302 25 466H161L253 302L161 138Z" glyph-name="guilsinglright.cap" horiz-adv-x="278" /><glyph d="M42 650H199V411Q218 432 249.5 446Q281 460 320 460Q395 460 437 415Q479 370 479 295V0H323V257Q323 285 308.5 303Q294 321 264 321Q241 321 223 308Q205 295 199 272V0H42Z" glyph-name="h" horiz-adv-x="519" unicode="h" /><glyph d="M-5 592H42V650H199V592H281V490H199V411Q218 432 249.5 446Q281 460 320 460Q395 460 437 415Q479 370 479 295V0H323V257Q323 285 308.5 303Q294 321 264 321Q241 321 223 308Q205 295 199 272V0H42V490H-5Z" glyph-name="hbar" horiz-adv-x="519" unicode="&#295;" /><glyph d="M42 650H199V411Q218 432 249.5 446Q281 460 320 460Q395 460 437 415Q479 370 479 295V0H323V257Q323 285 308.5 303Q294 321 264 321Q241 321 223 308Q205 295 199 272V0H42ZM425 680H299L257 725L215 680H89L197 812H317Z" glyph-name="hcircumflex" horiz-adv-x="519" unicode="&#293;" /><glyph d="M71 500 147 650H270L193 500ZM230 500 306 650H428L351 500Z" glyph-name="hungarumlaut" horiz-adv-x="500" unicode="&#733;" /><glyph d="M64 666 139 796H269L193 666ZM230 666 306 796H436L359 666Z" glyph-name="hungarumlaut.cap" horiz-adv-x="500" /><glyph d="M36 328H277V196H36Z" glyph-name="hyphen" horiz-adv-x="312" unicode="-" /><glyph d="M36 361H277V230H36Z" glyph-name="hyphen.cap" horiz-adv-x="312" /><glyph d="M199 0H42V450H199ZM210 572Q210 534 183.5 511Q157 488 121 488Q85 488 58.5 511Q32 534 32 572Q32 611 58.5 634Q85 657 121 657Q157 657 183.5 634Q210 611 210 572Z" glyph-name="i" horiz-adv-x="242" unicode="i" /><glyph d="M45 500 127 650H276L189 500ZM199 0H42V450H199Z" glyph-name="iacute" horiz-adv-x="242" unicode="&#237;" /><glyph d="M120 488Q64 488 28.5 525.5Q-7 563 -7 638H91Q91 591 121 591Q138 591 144 603Q150 615 150 638H249Q249 563 213 525.5Q177 488 120 488ZM199 0H42V450H199Z" glyph-name="ibreve" horiz-adv-x="242" unicode="&#301;" /><glyph d="M260 498H148L121 558L93 498H-18L61 649H181ZM199 0H42V450H199Z" glyph-name="icircumflex" horiz-adv-x="242" unicode="&#238;" /><glyph d="M-41 567Q-41 599 -19 621.5Q3 644 35 644Q67 644 89.5 621.5Q112 599 112 567Q112 535 89.5 513Q67 491 35 491Q3 491 -19 513Q-41 535 -41 567ZM130 567Q130 599 152.5 621.5Q175 644 207 644Q239 644 261.5 621.5Q284 599 284 567Q284 535 261.5 513Q239 491 207 491Q175 491 152.5 513Q130 535 130 567ZM199 0H42V450H199Z" glyph-name="idieresis" horiz-adv-x="242" unicode="&#239;" /><glyph d="M199 0H42V450H199ZM211 579Q211 541 184.5 518Q158 495 122 495Q86 495 59.5 518Q33 541 33 579Q33 618 59.5 641Q86 664 122 664Q158 664 184.5 641Q211 618 211 579Z" glyph-name="idotaccent" horiz-adv-x="242" /><glyph d="M199 0H42V450H199ZM53 500 -34 650H115L197 500Z" glyph-name="igrave" horiz-adv-x="242" unicode="&#236;" /><glyph d="M199 0H42V450H199ZM210 572Q210 534 183.5 511Q157 488 121 488Q85 488 58.5 511Q32 534 32 572Q32 611 58.5 634Q85 657 121 657Q157 657 183.5 634Q210 611 210 572ZM441 10Q441 -75 398 -122Q355 -169 270 -169Q233 -169 213 -162V-44Q218 -45 223.5 -45.5Q229 -46 236 -46Q260 -46 272 -35Q284 -24 284 4V450H441ZM452 572Q452 534 425.5 511Q399 488 363 488Q327 488 300.5 511Q274 534 274 572Q274 611 300.5 634Q327 657 363 657Q399 657 425.5 634Q452 611 452 572Z" glyph-name="ij" horiz-adv-x="483" unicode="&#307;" /><glyph d="M199 0H42V450H199ZM10.0304 612H232.2393V504H10.0304Z" glyph-name="imacron" horiz-adv-x="242" unicode="&#299;" /><glyph d="M199 0Q184 -18 174 -30Q164 -42 158 -49.5Q152 -57 150 -63Q148 -69 148 -75Q148 -94 167 -94Q176 -94 183.5 -90.5Q191 -87 203 -79V-166Q189 -174 173.5 -179.5Q158 -185 137 -185Q98 -185 71.5 -165Q45 -145 45 -106Q45 -77 61 -52Q77 -27 100 0H42V450H199ZM210 572Q210 534 183.5 511Q157 488 121 488Q85 488 58.5 511Q32 534 32 572Q32 611 58.5 634Q85 657 121 657Q157 657 183.5 634Q210 611 210 572Z" glyph-name="iogonek" horiz-adv-x="242" unicode="&#303;" /><glyph d="M250 647Q250 617 246 589.5Q242 562 233 541.5Q224 521 209.5 509Q195 497 173 497Q158 497 147.5 502.5Q137 508 128 514.5Q119 521 111 526.5Q103 532 93 532Q73 532 71 500H-9Q-9 530 -5 557.5Q-1 585 8 605.5Q17 626 31.5 638Q46 650 68 650Q83 650 93.5 644.5Q104 639 113 632.5Q122 626 130 620.5Q138 615 148 615Q168 615 170 647ZM199 0H42V450H199Z" glyph-name="itilde" horiz-adv-x="242" unicode="&#297;" /><glyph d="M199 10Q199 -75 156 -122Q113 -169 28 -169Q-9 -169 -29 -162V-44Q-24 -45 -18.5 -45.5Q-13 -46 -6 -46Q18 -46 30 -35Q42 -24 42 4V450H199ZM210 572Q210 534 183.5 511Q157 488 121 488Q85 488 58.5 511Q32 534 32 572Q32 611 58.5 634Q85 657 121 657Q157 657 183.5 634Q210 611 210 572Z" glyph-name="j" horiz-adv-x="241" unicode="j" /><glyph d="M260 498H148L121 558L93 498H-18L61 649H181ZM199 10Q199 -75 156 -122Q113 -169 28 -169Q-9 -169 -29 -162V-44Q-24 -45 -18.5 -45.5Q-13 -46 -6 -46Q18 -46 30 -35Q42 -24 42 4V450H199Z" glyph-name="jcircumflex" horiz-adv-x="241" unicode="&#309;" /><glyph d="M511 0H335L199 197V0H42V650H199V280L327 450H507L340 242Z" glyph-name="k" horiz-adv-x="511" unicode="k" /><glyph d="M220 -172Q200 -166 186 -148.5Q172 -131 172 -105Q172 -73 195 -53Q218 -33 253 -33Q285 -33 309.5 -53.5Q334 -74 334 -111Q334 -137 323 -157.5Q312 -178 295 -198L266 -236H171ZM511 0H335L199 197V0H42V650H199V280L327 450H507L340 242Z" glyph-name="kcommaaccent" horiz-adv-x="511" unicode="&#311;" /><glyph d="M511 0H335L199 197V0H42V450H199V280L327 450H507L340 242Z" glyph-name="kgreenlandic" horiz-adv-x="511" unicode="&#312;" /><glyph d="M199 0H42V650H199Z" glyph-name="l" horiz-adv-x="242" unicode="l" /><glyph d="M43 685 125 815H286L197 685ZM199 0H42V650H199Z" glyph-name="lacute" horiz-adv-x="242" unicode="&#314;" /><glyph d="M230 483 273 650H395L351 483ZM199 0H42V650H199Z" glyph-name="lcaron" horiz-adv-x="242" unicode="&#318;" /><glyph d="M88 -172Q68 -166 54 -148.5Q40 -131 40 -105Q40 -73 63 -53Q86 -33 121 -33Q153 -33 177.5 -53.5Q202 -74 202 -111Q202 -137 191 -157.5Q180 -178 163 -198L134 -236H39ZM199 0H42V650H199Z" glyph-name="lcommaaccent" horiz-adv-x="242" unicode="&#316;" /><glyph d="M199 0H42V650H199ZM422 333Q422 295 395.5 272Q369 249 333 249Q297 249 270.5 272Q244 295 244 333Q244 372 270.5 395Q297 418 333 418Q369 418 395.5 395Q422 372 422 333Z" glyph-name="ldot" horiz-adv-x="426" unicode="&#320;" /><glyph d="M42 369 387 522V393L151 297L387 202V72L42 225Z" glyph-name="less" horiz-adv-x="433" unicode="&lt;" /><glyph d="M87 369 433 522V393L196 297L433 202V72L87 225Z" glyph-name="less.lt" horiz-adv-x="520" /><glyph d="M48 437 394 559V436L161 368L394 299V177L48 298ZM48 154H394V42H48Z" glyph-name="lessequal" horiz-adv-x="442" unicode="&#8804;" /><glyph d="M87 437 433 559V436L199 368L433 299V177L87 298ZM87 154H433V42H87Z" glyph-name="lessequal.lt" horiz-adv-x="520" /><glyph d="M224 428 276 459V344L224 313V0H67V235L17 206V321L67 350V650H224Z" glyph-name="lslash" horiz-adv-x="292" unicode="&#322;" /><glyph d="M439 406Q459 427 493.5 443.5Q528 460 578 460Q649 460 689.5 415.5Q730 371 730 295V0H573V257Q573 286 560.5 304Q548 322 522 322Q502 322 486 309.5Q470 297 464 274V0H308V257Q308 286 295.5 304Q283 322 257 322Q237 322 220.5 309.5Q204 297 199 274V0H42V450H199V413Q216 434 246.5 447Q277 460 315 460Q358 460 388.5 445Q419 430 439 406Z" glyph-name="m" horiz-adv-x="769" unicode="m" /><glyph d="M123 612H376V504H123Z" glyph-name="macron" horiz-adv-x="500" unicode="&#175;" /><glyph d="M117 774H382V666H117Z" glyph-name="macron.cap" horiz-adv-x="500" /><glyph d="M51 357H505V241H51Z" glyph-name="minus" horiz-adv-x="556" unicode="&#8722;" /><glyph d="M33 357H486V241H33Z" glyph-name="minus.lt" horiz-adv-x="520" /><glyph d="M45 418 127 499 247 379 367 499 449 418 328 298 449 178 367 97 247 217 127 97 45 178 166 298Z" glyph-name="multiply" horiz-adv-x="494" unicode="&#215;" /><glyph d="M58 418 139 499 260 379 380 499 461 418 341 298 461 178 380 97 260 217 139 97 58 178 179 298Z" glyph-name="multiply.lt" horiz-adv-x="520" /><glyph d="M42 450H199V411Q218 432 249.5 446Q281 460 320 460Q395 460 437 415Q479 370 479 295V0H323V257Q323 285 308.5 303Q294 321 264 321Q241 321 223 308Q205 295 199 272V0H42Z" glyph-name="n" horiz-adv-x="519" unicode="n" /><glyph d="M191 500 273 650H422L335 500ZM42 450H199V411Q218 432 249.5 446Q281 460 320 460Q395 460 437 415Q479 370 479 295V0H323V257Q323 285 308.5 303Q294 321 264 321Q241 321 223 308Q205 295 199 272V0H42Z" glyph-name="nacute" horiz-adv-x="519" unicode="&#324;" /><glyph d="M328 498H208L112 649H228L268 593L308 649H424ZM42 450H199V411Q218 432 249.5 446Q281 460 320 460Q395 460 437 415Q479 370 479 295V0H323V257Q323 285 308.5 303Q294 321 264 321Q241 321 223 308Q205 295 199 272V0H42Z" glyph-name="ncaron" horiz-adv-x="519" unicode="&#328;" /><glyph d="M230 -172Q210 -166 196 -148.5Q182 -131 182 -105Q182 -73 205 -53Q228 -33 263 -33Q295 -33 319.5 -53.5Q344 -74 344 -111Q344 -137 333 -157.5Q322 -178 305 -198L276 -236H181ZM42 450H199V411Q218 432 249.5 446Q281 460 320 460Q395 460 437 415Q479 370 479 295V0H323V257Q323 285 308.5 303Q294 321 264 321Q241 321 223 308Q205 295 199 272V0H42Z" glyph-name="ncommaaccent" horiz-adv-x="519" unicode="&#326;" /><glyph d="M254 624Q304 624 347 607Q390 590 421.5 559.5Q453 529 470.5 487Q488 445 488 396Q488 357 474.5 317.5Q461 278 429 223L300 0H129L234 185Q226 183 219 183Q174 186 137.5 204Q101 222 74.5 250.5Q48 279 34 316.5Q20 354 20 396Q20 445 37.5 487Q55 529 86.5 559.5Q118 590 160.5 607Q203 624 254 624ZM165 396Q165 358 190 332Q215 306 254 306Q292 306 317 332Q342 358 342 396Q342 434 317 459.5Q292 485 254 485Q215 485 190 459.5Q165 434 165 396Z" glyph-name="nine" horiz-adv-x="510" unicode="9" /><glyph d="M260 624Q310 624 353 607Q396 590 427.5 559.5Q459 529 476.5 487Q494 445 494 396Q494 357 480.5 317.5Q467 278 435 223L306 0H135L240 185Q232 183 225 183Q180 186 143.5 204Q107 222 80.5 250.5Q54 279 40 316.5Q26 354 26 396Q26 445 43.5 487Q61 529 92.5 559.5Q124 590 166.5 607Q209 624 260 624ZM171 396Q171 358 196 332Q221 306 260 306Q298 306 323 332Q348 358 348 396Q348 434 323 459.5Q298 485 260 485Q221 485 196 459.5Q171 434 171 396Z" glyph-name="nine.lt" horiz-adv-x="520" /><glyph glyph-name="nonmarkingreturn" horiz-adv-x="200" unicode="" /><glyph d="M61 444H330L390 537H486L426 444H513V340H360L309 261H513V158H243L184 65H88L147 158H61V261H213L264 340H61Z" glyph-name="notequal" horiz-adv-x="574" unicode="&#8800;" /><glyph d="M33 444H302L362 537H458L398 444H486V340H332L281 261H486V158H215L156 65H60L119 158H33V261H185L236 340H33Z" glyph-name="notequal.lt" horiz-adv-x="520" /><glyph d="M42 450H199V411Q218 432 249.5 446Q281 460 320 460Q395 460 437 415Q479 370 479 295V0H323V257Q323 285 308.5 303Q294 321 264 321Q241 321 223 308Q205 295 199 272V0H42ZM415 647Q415 617 410.5 589.5Q406 562 395.5 541.5Q385 521 368.5 509Q352 497 327 497Q310 497 296.5 502.5Q283 508 272 515Q261 522 250.5 527.5Q240 533 228 533Q216 533 209.5 524Q203 515 203 500H117Q117 530 121.5 557.5Q126 585 136.5 605.5Q147 626 163.5 638Q180 650 205 650Q222 650 235.5 644.5Q249 639 260 632Q271 625 281.5 619.5Q292 614 304 614Q315 614 322 623Q329 632 329 647Z" glyph-name="ntilde" horiz-adv-x="519" unicode="&#241;" /><glyph d="M548 156H446L409 0H296L333 156H229L192 0H80L117 156H20L43 255H140L165 359H65L87 458H189L226 614H339L301 458H405L443 614H555L518 458H615L592 359H494L469 255H570ZM253 255H357L382 359H278Z" glyph-name="numbersign" horiz-adv-x="635" unicode="#" /><glyph d="M478 225Q478 173 461.5 129.5Q445 86 414.5 55Q384 24 341.5 7Q299 -10 248 -10Q197 -10 154.5 7Q112 24 82 55Q52 86 35 129.5Q18 173 18 225Q18 277 35 320.5Q52 364 82 395Q112 426 154.5 443Q197 460 248 460Q299 460 341.5 443Q384 426 414.5 395Q445 364 461.5 320.5Q478 277 478 225ZM324 225Q324 272 304.5 301.5Q285 331 248 331Q212 331 192.5 301.5Q173 272 173 225Q173 178 192.5 149Q212 120 248 120Q285 120 304.5 149Q324 178 324 225Z" glyph-name="o" horiz-adv-x="497" unicode="o" /><glyph d="M172 500 254 650H403L316 500ZM478 225Q478 173 461.5 129.5Q445 86 414.5 55Q384 24 341.5 7Q299 -10 248 -10Q197 -10 154.5 7Q112 24 82 55Q52 86 35 129.5Q18 173 18 225Q18 277 35 320.5Q52 364 82 395Q112 426 154.5 443Q197 460 248 460Q299 460 341.5 443Q384 426 414.5 395Q445 364 461.5 320.5Q478 277 478 225ZM324 225Q324 272 304.5 301.5Q285 331 248 331Q212 331 192.5 301.5Q173 272 173 225Q173 178 192.5 149Q212 120 248 120Q285 120 304.5 149Q324 178 324 225Z" glyph-name="oacute" horiz-adv-x="497" unicode="&#243;" /><glyph d="M478 225Q478 173 461.5 129.5Q445 86 414.5 55Q384 24 341.5 7Q299 -10 248 -10Q197 -10 154.5 7Q112 24 82 55Q52 86 35 129.5Q18 173 18 225Q18 277 35 320.5Q52 364 82 395Q112 426 154.5 443Q197 460 248 460Q299 460 341.5 443Q384 426 414.5 395Q445 364 461.5 320.5Q478 277 478 225ZM324 225Q324 272 304.5 301.5Q285 331 248 331Q212 331 192.5 301.5Q173 272 173 225Q173 178 192.5 149Q212 120 248 120Q285 120 304.5 149Q324 178 324 225ZM249 488Q187 488 146.5 526Q106 564 106 638H214Q214 591 249 591Q285 591 285 638H392Q392 564 351.5 526Q311 488 249 488Z" glyph-name="obreve" horiz-adv-x="497" unicode="&#335;" /><glyph d="M405 498H289L249 553L209 498H93L189 649H309ZM478 225Q478 173 461.5 129.5Q445 86 414.5 55Q384 24 341.5 7Q299 -10 248 -10Q197 -10 154.5 7Q112 24 82 55Q52 86 35 129.5Q18 173 18 225Q18 277 35 320.5Q52 364 82 395Q112 426 154.5 443Q197 460 248 460Q299 460 341.5 443Q384 426 414.5 395Q445 364 461.5 320.5Q478 277 478 225ZM324 225Q324 272 304.5 301.5Q285 331 248 331Q212 331 192.5 301.5Q173 272 173 225Q173 178 192.5 149Q212 120 248 120Q285 120 304.5 149Q324 178 324 225Z" glyph-name="ocircumflex" horiz-adv-x="497" unicode="&#244;" /><glyph d="M84 567Q84 599 106.5 621.5Q129 644 161 644Q193 644 215.5 621.5Q238 599 238 567Q238 535 215.5 513Q193 491 161 491Q129 491 106.5 513Q84 535 84 567ZM261 567Q261 599 283 621.5Q305 644 337 644Q353 644 367 638Q381 632 391.5 621.5Q402 611 408.5 597Q415 583 415 567Q415 535 392 513Q369 491 337 491Q305 491 283 513Q261 535 261 567ZM478 225Q478 173 461.5 129.5Q445 86 414.5 55Q384 24 341.5 7Q299 -10 248 -10Q197 -10 154.5 7Q112 24 82 55Q52 86 35 129.5Q18 173 18 225Q18 277 35 320.5Q52 364 82 395Q112 426 154.5 443Q197 460 248 460Q299 460 341.5 443Q384 426 414.5 395Q445 364 461.5 320.5Q478 277 478 225ZM324 225Q324 272 304.5 301.5Q285 331 248 331Q212 331 192.5 301.5Q173 272 173 225Q173 178 192.5 149Q212 120 248 120Q285 120 304.5 149Q324 178 324 225Z" glyph-name="odieresis" horiz-adv-x="497" unicode="&#246;" /><glyph d="M248 460Q293 460 330 446Q367 432 396 406Q423 432 458 446Q493 460 533 460Q585 460 625 443.5Q665 427 691 397.5Q717 368 730.5 326.5Q744 285 744 235V189H467Q477 148 507.5 130.5Q538 113 582 113Q618 113 648 121Q678 129 713 149V30Q686 10 646 0Q606 -10 558 -10Q509 -10 468 4.5Q427 19 396 45Q367 19 330 4.5Q293 -10 248 -10Q197 -10 154.5 7Q112 24 82 55Q52 86 35 129.5Q18 173 18 225Q18 277 35 320.5Q52 364 82 395Q112 426 154.5 443Q197 460 248 460ZM324 225Q324 272 304.5 301.5Q285 331 248 331Q212 331 192.5 301.5Q173 272 173 225Q173 178 192.5 149Q212 120 248 120Q285 120 304.5 149Q324 178 324 225ZM539 341Q486 341 469 277H604Q601 306 584.5 323.5Q568 341 539 341Z" glyph-name="oe" horiz-adv-x="765" unicode="&#339;" /><glyph d="M326 8Q309 -12 298 -25Q287 -38 280.5 -47Q274 -56 271.5 -62.5Q269 -69 269 -75Q269 -94 288 -94Q297 -94 304 -90.5Q311 -87 323 -79V-166Q309 -174 294 -179.5Q279 -185 258 -185Q218 -185 192 -165Q166 -145 166 -106Q166 -74 184.5 -47.5Q203 -21 229 8Z" glyph-name="ogonek" horiz-adv-x="500" unicode="&#731;" /><glyph d="M478 225Q478 173 461.5 129.5Q445 86 414.5 55Q384 24 341.5 7Q299 -10 248 -10Q197 -10 154.5 7Q112 24 82 55Q52 86 35 129.5Q18 173 18 225Q18 277 35 320.5Q52 364 82 395Q112 426 154.5 443Q197 460 248 460Q299 460 341.5 443Q384 426 414.5 395Q445 364 461.5 320.5Q478 277 478 225ZM324 225Q324 272 304.5 301.5Q285 331 248 331Q212 331 192.5 301.5Q173 272 173 225Q173 178 192.5 149Q212 120 248 120Q285 120 304.5 149Q324 178 324 225ZM181 500 94 650H243L325 500Z" glyph-name="ograve" horiz-adv-x="497" unicode="&#242;" /><glyph d="M105 500 181 650H304L227 500ZM264 500 340 650H462L385 500ZM478 225Q478 173 461.5 129.5Q445 86 414.5 55Q384 24 341.5 7Q299 -10 248 -10Q197 -10 154.5 7Q112 24 82 55Q52 86 35 129.5Q18 173 18 225Q18 277 35 320.5Q52 364 82 395Q112 426 154.5 443Q197 460 248 460Q299 460 341.5 443Q384 426 414.5 395Q445 364 461.5 320.5Q478 277 478 225ZM324 225Q324 272 304.5 301.5Q285 331 248 331Q212 331 192.5 301.5Q173 272 173 225Q173 178 192.5 149Q212 120 248 120Q285 120 304.5 149Q324 178 324 225Z" glyph-name="ohungarumlaut" horiz-adv-x="497" unicode="&#337;" /><glyph d="M123 612H376V504H123ZM478 225Q478 173 461.5 129.5Q445 86 414.5 55Q384 24 341.5 7Q299 -10 248 -10Q197 -10 154.5 7Q112 24 82 55Q52 86 35 129.5Q18 173 18 225Q18 277 35 320.5Q52 364 82 395Q112 426 154.5 443Q197 460 248 460Q299 460 341.5 443Q384 426 414.5 395Q445 364 461.5 320.5Q478 277 478 225ZM324 225Q324 272 304.5 301.5Q285 331 248 331Q212 331 192.5 301.5Q173 272 173 225Q173 178 192.5 149Q212 120 248 120Q285 120 304.5 149Q324 178 324 225Z" glyph-name="omacron" horiz-adv-x="497" unicode="&#333;" /><glyph d="M312 0H156V440L13 371V523L204 614H312Z" glyph-name="one" horiz-adv-x="367" unicode="1" /><glyph d="M55 138H204V440L60 369V522L252 614H359V138H485V0H55Z" glyph-name="one.lt" horiz-adv-x="520" /><glyph d="M182 0H90L510 614H602ZM705 92V0H434V2L537 140Q561 172 571 188.5Q581 205 581 223Q581 238 571 247Q561 256 542 256Q517 256 490.5 241.5Q464 227 447 215V316Q467 332 500 343.5Q533 355 575 355Q629 355 660.5 326Q692 297 692 249Q692 217 675 188.5Q658 160 638 131L612 92ZM215 264H111V497L24 455V560L139 614H215Z" glyph-name="onehalf" horiz-adv-x="735" unicode="&#189;" /><glyph d="M182 0H90L510 614H602ZM510 145H556V196H646V145H690V58H646V0H556V58H390V117L502 350H604ZM215 264H111V497L24 455V560L139 614H215Z" glyph-name="onequarter" horiz-adv-x="719" unicode="&#188;" /><glyph d="M205 264H101V497L14 455V560L129 614H205Z" glyph-name="onesuperior" horiz-adv-x="242" unicode="&#185;" /><glyph d="M189 493Q189 508 173 519.5Q157 531 124 531Q104 531 82.5 525Q61 519 43 509V601Q63 611 92.5 617.5Q122 624 155 624Q298 624 298 497V311H189V326Q181 318 161.5 311.5Q142 305 117 305Q95 305 75 311.5Q55 318 40 330.5Q25 343 16 361.5Q7 380 7 404Q7 449 40.5 475Q74 501 123 501Q143 501 161 496Q179 491 189 484ZM189 414Q184 422 174 427Q164 432 150 432Q137 432 126 425.5Q115 419 115 406Q115 392 126 386Q137 380 150 380Q178 380 189 399Z" glyph-name="ordfeminine" horiz-adv-x="319" unicode="&#170;" /><glyph d="M328 464Q328 392 284 348Q240 304 168 304Q96 304 52 348Q8 392 8 464Q8 536 52 580Q96 624 168 624Q240 624 284 580Q328 536 328 464ZM212 464Q212 492 200.5 510Q189 528 168 528Q147 528 135.5 510Q124 492 124 464Q124 436 135.5 418.5Q147 401 168 401Q189 401 200.5 418.5Q212 436 212 464Z" glyph-name="ordmasculine" horiz-adv-x="335" unicode="&#186;" /><glyph d="M75 68Q50 99 36.5 138Q23 177 23 225Q23 277 40 320.5Q57 364 87 395Q117 426 159.5 443Q202 460 253 460Q292 460 326 450Q360 440 388 421L430 468L475 431L431 381Q456 351 469.5 311.5Q483 272 483 225Q483 173 466.5 129.5Q450 86 419.5 55Q389 24 346.5 7Q304 -10 253 -10Q213 -10 179.5 0Q146 10 118 29L75 -19L30 18ZM332 225Q332 244 327 264L209 132Q228 116 253 116Q290 116 311 147Q332 178 332 225ZM175 225Q175 202 179 186L297 318Q278 334 253 334Q217 334 196 303Q175 272 175 225Z" glyph-name="oslash" horiz-adv-x="507" unicode="&#248;" /><glyph d="M75 68Q50 99 36.5 138Q23 177 23 225Q23 277 40 320.5Q57 364 87 395Q117 426 159.5 443Q202 460 253 460Q292 460 326 450Q360 440 388 421L430 468L475 431L431 381Q456 351 469.5 311.5Q483 272 483 225Q483 173 466.5 129.5Q450 86 419.5 55Q389 24 346.5 7Q304 -10 253 -10Q213 -10 179.5 0Q146 10 118 29L75 -19L30 18ZM332 225Q332 244 327 264L209 132Q228 116 253 116Q290 116 311 147Q332 178 332 225ZM175 225Q175 202 179 186L297 318Q278 334 253 334Q217 334 196 303Q175 272 175 225ZM176 500 258 650H407L320 500Z" glyph-name="oslashacute" horiz-adv-x="507" unicode="&#511;" /><glyph d="M478 225Q478 173 461.5 129.5Q445 86 414.5 55Q384 24 341.5 7Q299 -10 248 -10Q197 -10 154.5 7Q112 24 82 55Q52 86 35 129.5Q18 173 18 225Q18 277 35 320.5Q52 364 82 395Q112 426 154.5 443Q197 460 248 460Q299 460 341.5 443Q384 426 414.5 395Q445 364 461.5 320.5Q478 277 478 225ZM324 225Q324 272 304.5 301.5Q285 331 248 331Q212 331 192.5 301.5Q173 272 173 225Q173 178 192.5 149Q212 120 248 120Q285 120 304.5 149Q324 178 324 225ZM398 647Q398 617 393.5 589.5Q389 562 378.5 541.5Q368 521 351.5 509Q335 497 310 497Q293 497 279.5 502.5Q266 508 255 515Q244 522 233.5 527.5Q223 533 211 533Q199 533 192.5 524Q186 515 186 500H100Q100 530 104.5 557.5Q109 585 119.5 605.5Q130 626 146.5 638Q163 650 188 650Q205 650 218.5 644.5Q232 639 243 632Q254 625 264.5 619.5Q275 614 287 614Q298 614 305 623Q312 632 312 647Z" glyph-name="otilde" horiz-adv-x="497" unicode="&#245;" /><glyph d="M199 -159H42V450H199V414Q215 432 245 446Q275 460 310 460Q359 460 396.5 441.5Q434 423 459.5 391Q485 359 498 316Q511 273 511 225Q511 177 498 134.5Q485 92 459.5 59.5Q434 27 396.5 8.5Q359 -10 310 -10Q275 -10 245 4Q215 18 199 36ZM199 166Q208 147 226.5 135.5Q245 124 268 124Q309 124 331.5 152.5Q354 181 354 225Q354 269 331.5 298Q309 327 268 327Q245 327 226.5 315Q208 303 199 285Z" glyph-name="p" horiz-adv-x="529" unicode="p" /><glyph d="M400 614H505V-90H400ZM242 247Q201 247 160 257.5Q119 268 86.5 290.5Q54 313 34 348Q14 383 14 431Q14 479 34 514Q54 549 86.5 571Q119 593 160 603.5Q201 614 242 614H346V-90H242Z" glyph-name="paragraph" horiz-adv-x="551" unicode="&#182;" /><glyph d="M30 283Q30 354 50 414.5Q70 475 106.5 522.5Q143 570 195.5 602.5Q248 635 314 650V503Q251 482 212 428.5Q173 375 173 283Q173 191 212 137.5Q251 84 314 63V-84Q248 -69 195.5 -36.5Q143 -4 106.5 43.5Q70 91 50 151.5Q30 212 30 283Z" glyph-name="parenleft" horiz-adv-x="334" unicode="(" /><glyph d="M30 303Q30 374 50 434.5Q70 495 106.5 542.5Q143 590 195.5 622.5Q248 655 314 670V523Q251 502 212 448.5Q173 395 173 303Q173 211 212 157.5Q251 104 314 83V-64Q248 -49 195.5 -16.5Q143 16 106.5 63.5Q70 111 50 171.5Q30 232 30 303Z" glyph-name="parenleft.cap" horiz-adv-x="334" /><glyph d="M304 283Q304 212 284 151.5Q264 91 227.5 43.5Q191 -4 138.5 -36.5Q86 -69 20 -84V63Q83 84 122 137.5Q161 191 161 283Q161 375 122 428.5Q83 482 20 503V650Q86 635 138.5 602.5Q191 570 227.5 522.5Q264 475 284 414.5Q304 354 304 283Z" glyph-name="parenright" horiz-adv-x="334" unicode=")" /><glyph d="M304 303Q304 232 284 171.5Q264 111 227.5 63.5Q191 16 138.5 -16.5Q86 -49 20 -64V83Q83 104 122 157.5Q161 211 161 303Q161 395 122 448.5Q83 502 20 523V670Q86 655 138.5 622.5Q191 590 227.5 542.5Q264 495 284 434.5Q304 374 304 303Z" glyph-name="parenright.cap" horiz-adv-x="334" /><glyph d="M117 476Q117 454 132.5 439Q148 424 169 424Q192 424 208 439Q224 454 224 476Q224 499 208 515Q192 531 169 531Q148 531 132.5 515Q117 499 117 476ZM492 614H582L188 0H98ZM657 138Q657 107 645.5 80Q634 53 614.5 33Q595 13 568 1.5Q541 -10 511 -10Q480 -10 453 1.5Q426 13 406 33Q386 53 374.5 80Q363 107 363 138Q363 168 374.5 194.5Q386 221 406 240.5Q426 260 453 271.5Q480 283 511 283Q541 283 568 271.5Q595 260 614.5 240.5Q634 221 645.5 194.5Q657 168 657 138ZM317 476Q317 446 305.5 419.5Q294 393 274 373.5Q254 354 227 342.5Q200 331 169 331Q139 331 112.5 342.5Q86 354 66.5 373.5Q47 393 35.5 419.5Q24 446 24 476Q24 507 35.5 534Q47 561 66.5 581Q86 601 112.5 612.5Q139 624 169 624Q200 624 227 612.5Q254 601 274 581Q294 561 305.5 534Q317 507 317 476ZM563 138Q563 160 548 175Q533 190 511 190Q488 190 472 175Q456 160 456 138Q456 115 472 99Q488 83 511 83Q533 83 548 99Q563 115 563 138Z" glyph-name="percent" horiz-adv-x="680" unicode="%" /><glyph d="M19 500Q19 526 28.5 548.5Q38 571 55 588Q72 605 94 614.5Q116 624 142 624Q167 624 190 614.5Q213 605 229.5 588Q246 571 256 548.5Q266 526 266 500Q266 474 256 452Q246 430 229.5 413.5Q213 397 190 387.5Q167 378 142 378Q116 378 94 387.5Q72 397 55 413.5Q38 430 28.5 452Q19 474 19 500ZM97 500Q97 481 110 468.5Q123 456 142 456Q161 456 174.5 468.5Q188 481 188 500Q188 519 174.5 532.5Q161 546 142 546Q123 546 110 532.5Q97 519 97 500ZM501 114Q501 88 491.5 65.5Q482 43 465 26Q448 9 425.5 -0.5Q403 -10 378 -10Q352 -10 329.5 -0.5Q307 9 290.5 26Q274 43 264 65.5Q254 88 254 114Q254 139 264 161.5Q274 184 290.5 200.5Q307 217 329.5 226.5Q352 236 378 236Q403 236 425.5 226.5Q448 217 465 200.5Q482 184 491.5 161.5Q501 139 501 114ZM423 114Q423 133 410 145.5Q397 158 378 158Q359 158 345.5 145.5Q332 133 332 114Q332 95 345.5 81.5Q359 68 378 68Q397 68 410 81.5Q423 95 423 114ZM407 614H495L113 0H25Z" glyph-name="percent.lt" horiz-adv-x="520" /><glyph d="M19 87Q19 107 26 124Q33 141 45.5 153.5Q58 166 75 173Q92 180 111 180Q150 180 177 153.5Q204 127 204 87Q204 47 177 20Q150 -7 111 -7Q92 -7 75 0Q58 7 45.5 20Q33 33 26 50Q19 67 19 87Z" glyph-name="period" horiz-adv-x="223" unicode="." /><glyph d="M37 87Q37 107 44 124Q51 141 63.5 153.5Q76 166 93 173Q110 180 129 180Q168 180 195 153.5Q222 127 222 87Q222 47 195 20Q168 -7 129 -7Q110 -7 93 0Q76 7 63.5 20Q51 33 44 50Q37 67 37 87Z" glyph-name="period.tab" horiz-adv-x="260" /><glyph d="M24 262Q24 282 31 299Q38 316 50.5 328.5Q63 341 80 348Q97 355 116 355Q155 355 182 328.5Q209 302 209 262Q209 222 182 195Q155 168 116 168Q97 168 80 175Q63 182 50.5 195Q38 208 31 225Q24 242 24 262Z" glyph-name="periodcentered" horiz-adv-x="233" unicode="&#183;" /><glyph d="M24 295Q24 315 31 332Q38 349 50.5 361.5Q63 374 80 381Q97 388 116 388Q155 388 182 361.5Q209 335 209 295Q209 255 182 228Q155 201 116 201Q97 201 80 208Q63 215 50.5 228Q38 241 31 258Q24 275 24 295Z" glyph-name="periodcentered.cap" horiz-adv-x="233" /><glyph d="M492 614H582L188 0H98ZM657 138Q657 107 645.5 80Q634 53 614.5 33Q595 13 568 1.5Q541 -10 511 -10Q480 -10 453 1.5Q426 13 406 33Q386 53 374.5 80Q363 107 363 138Q363 168 374.5 194.5Q386 221 406 240.5Q426 260 453 271.5Q480 283 511 283Q541 283 568 271.5Q595 260 614.5 240.5Q634 221 645.5 194.5Q657 168 657 138ZM24 476Q24 507 35.5 534Q47 561 66.5 581Q86 601 112.5 612.5Q139 624 169 624Q200 624 227 612.5Q254 601 274 581Q294 561 305.5 534Q317 507 317 476Q317 446 305.5 419.5Q294 393 274 373.5Q254 354 227 342.5Q200 331 169 331Q139 331 112.5 342.5Q86 354 66.5 373.5Q47 393 35.5 419.5Q24 446 24 476ZM563 138Q563 160 548 175Q533 190 511 190Q488 190 472 175Q456 160 456 138Q456 115 472 99Q488 83 511 83Q533 83 548 99Q563 115 563 138ZM977 138Q977 107 965.5 80Q954 53 934.5 33Q915 13 888.5 1.5Q862 -10 832 -10Q801 -10 774 1.5Q747 13 727 33Q707 53 695.5 80Q684 107 684 138Q684 168 695.5 194.5Q707 221 727 240.5Q747 260 774 271.5Q801 283 832 283Q862 283 888.5 271.5Q915 260 934.5 240.5Q954 221 965.5 194.5Q977 168 977 138ZM884 138Q884 160 868.5 175Q853 190 832 190Q809 190 793 175Q777 160 777 138Q777 115 793 99Q809 83 832 83Q853 83 868.5 99Q884 115 884 138ZM117 476Q117 454 132.5 439Q148 424 169 424Q192 424 208 439Q224 454 224 476Q224 499 208 515Q192 531 169 531Q148 531 132.5 515Q117 499 117 476Z" glyph-name="perthousand" horiz-adv-x="1001" unicode="&#8240;" /><glyph d="M33 500Q33 526 42.5 548.5Q52 571 68.5 588Q85 605 107.5 614.5Q130 624 155 624Q181 624 203.5 614.5Q226 605 243 588Q260 571 269.5 548.5Q279 526 279 500Q279 474 269.5 452Q260 430 243 413.5Q226 397 203.5 387.5Q181 378 155 378Q130 378 107.5 387.5Q85 397 68.5 413.5Q52 430 42.5 452Q33 474 33 500ZM111 500Q111 481 124 468.5Q137 456 155 456Q175 456 188 468.5Q201 481 201 500Q201 519 188 532.5Q175 546 155 546Q137 546 124 532.5Q111 519 111 500ZM514 114Q514 88 504.5 65.5Q495 43 478.5 26Q462 9 439.5 -0.5Q417 -10 392 -10Q366 -10 343.5 -0.5Q321 9 304 26Q287 43 277.5 65.5Q268 88 268 114Q268 139 277.5 161.5Q287 184 304 200.5Q321 217 343.5 226.5Q366 236 392 236Q417 236 439.5 226.5Q462 217 478.5 200.5Q495 184 504.5 161.5Q514 139 514 114ZM436 114Q436 133 423.5 145.5Q411 158 392 158Q373 158 359.5 145.5Q346 133 346 114Q346 95 359.5 81.5Q373 68 392 68Q411 68 423.5 81.5Q436 95 436 114ZM433 614H521L114 0H26ZM779 114Q779 88 769.5 65.5Q760 43 743.5 26Q727 9 704.5 -0.5Q682 -10 657 -10Q631 -10 608.5 -0.5Q586 9 569 26Q552 43 542.5 65.5Q533 88 533 114Q533 139 542.5 161.5Q552 184 569 200.5Q586 217 608.5 226.5Q631 236 657 236Q682 236 704.5 226.5Q727 217 743.5 200.5Q760 184 769.5 161.5Q779 139 779 114ZM701 114Q701 133 688 145.5Q675 158 657 158Q638 158 624.5 145.5Q611 133 611 114Q611 95 624.5 81.5Q638 68 657 68Q675 68 688 81.5Q701 95 701 114Z" glyph-name="perthousand.lt" horiz-adv-x="800" /><glyph d="M336 526V357H505V241H336V73H220V241H51V357H220V526Z" glyph-name="plus" horiz-adv-x="556" unicode="+" /><glyph d="M318 526V357H486V241H318V73H202V241H33V357H202V526Z" glyph-name="plus.lt" horiz-adv-x="520" /><glyph d="M336 561V433H502V329H336V201H231V329H66V433H231V561ZM66 153H502V48H66Z" glyph-name="plusminus" horiz-adv-x="567" unicode="&#177;" /><glyph d="M312 561V433H478V329H312V201H207V329H42V433H207V561ZM42 153H478V48H42Z" glyph-name="plusminus.lt" horiz-adv-x="520" /><glyph d="M669 307Q669 238 644 180Q619 122 576 79.5Q533 37 475 13.5Q417 -10 352 -10Q287 -10 229 13.5Q171 37 128 79.5Q85 122 60 180Q35 238 35 307Q35 376 60 434Q85 492 128 534.5Q171 577 229 600.5Q287 624 352 624Q417 624 475 600.5Q533 577 576 534.5Q619 492 644 434Q669 376 669 307ZM622 307Q622 366 600.5 415.5Q579 465 542.5 501Q506 537 456.5 557.5Q407 578 352 578Q296 578 247 557.5Q198 537 161.5 501Q125 465 103.5 415.5Q82 366 82 307Q82 248 103.5 198.5Q125 149 161.5 113Q198 77 247 56.5Q296 36 352 36Q407 36 456.5 56.5Q506 77 542.5 113Q579 149 600.5 198.5Q622 248 622 307ZM327 230V124H221V493H391Q452 493 490 459Q528 425 528 362Q528 297 490 263.5Q452 230 391 230ZM424 362Q424 380 413 391.5Q402 403 379 403H327V320H379Q402 320 413 331.5Q424 343 424 362Z" glyph-name="published" horiz-adv-x="704" /><glyph d="M330 36Q314 18 284 4Q254 -10 219 -10Q170 -10 132.5 8.5Q95 27 69.5 59.5Q44 92 31 134.5Q18 177 18 225Q18 273 31 316Q44 359 69.5 391Q95 423 132.5 441.5Q170 460 219 460Q254 460 284 446Q314 432 330 414V450H487V-159H330ZM330 285Q321 303 302.5 315Q284 327 261 327Q220 327 197.5 298Q175 269 175 225Q175 181 197.5 152.5Q220 124 261 124Q284 124 302.5 135.5Q321 147 330 166Z" glyph-name="q" horiz-adv-x="529" unicode="q" /><glyph d="M195 304Q219 334 237.5 355.5Q256 377 256 407Q256 471 182 471Q158 471 135 464.5Q112 458 91.5 447.5Q71 437 53 424.5Q35 412 20 400V553Q55 582 107 603Q159 624 225 624Q318 624 372 574Q426 524 426 440Q426 412 418 388Q410 364 397 343Q384 322 368 302.5Q352 283 336 264Q319 244 313 230.5Q307 217 307 206H151Q153 233 162 254Q171 275 195 304ZM133 82Q133 120 160 145Q187 170 226 170Q266 170 293.5 145Q321 120 321 82Q321 63 313.5 46.5Q306 30 293.5 18Q281 6 263.5 -0.5Q246 -7 226 -7Q187 -7 160 18.5Q133 44 133 82Z" glyph-name="question" horiz-adv-x="446" unicode="?" /><glyph d="M251 214Q227 184 208.5 162.5Q190 141 190 111Q190 47 264 47Q288 47 311 53.5Q334 60 354.5 70.5Q375 81 393 93.5Q411 106 426 118V-35Q391 -64 339 -85Q287 -106 221 -106Q128 -106 74 -56Q20 -6 20 78Q20 106 28 130Q36 154 49 175Q62 196 78 215Q94 234 110 254Q127 274 133 287.5Q139 301 139 312H295Q293 285 284 264Q275 243 251 214ZM313 436Q313 398 286 373Q259 348 220 348Q180 348 152.5 373Q125 398 125 436Q125 455 132.5 471.5Q140 488 152.5 500Q165 512 182.5 518.5Q200 525 220 525Q259 525 286 499.5Q313 474 313 436Z" glyph-name="questiondown" horiz-adv-x="446" unicode="&#191;" /><glyph d="M251 310Q227 280 208.5 258.5Q190 237 190 207Q190 143 264 143Q288 143 311 149.5Q334 156 354.5 166.5Q375 177 393 189.5Q411 202 426 214V61Q391 32 339 11Q287 -10 221 -10Q128 -10 74 40Q20 90 20 174Q20 202 28 226Q36 250 49 271Q62 292 78 311Q94 330 110 350Q127 370 133 383.5Q139 397 139 408H295Q293 381 284 360Q275 339 251 310ZM313 532Q313 494 286 469Q259 444 220 444Q180 444 152.5 469Q125 494 125 532Q125 551 132.5 567.5Q140 584 152.5 596Q165 608 182.5 614.5Q200 621 220 621Q259 621 286 595.5Q313 570 313 532Z" glyph-name="questiondown.cap" horiz-adv-x="446" /><glyph d="M36 614H157V355H36ZM200 614H321V355H200Z" glyph-name="quotedbl" horiz-adv-x="356" unicode="&quot;" /><glyph d="M88 1Q61 6 41 26.5Q21 47 21 82Q21 120 47.5 145Q74 170 113 170Q151 170 178 145Q205 120 205 72Q205 45 194 19Q183 -7 167 -31L114 -113H15ZM301 1Q274 6 254 26.5Q234 47 234 82Q234 120 260.5 145Q287 170 326 170Q364 170 391 145Q418 120 418 72Q418 45 407 19Q396 -7 380 -31L327 -113H228Z" glyph-name="quotedblbase" horiz-adv-x="435" unicode="&#8222;" /><glyph d="M134 500Q161 495 181 474.5Q201 454 201 419Q201 381 174.5 356Q148 331 109 331Q71 331 44 356Q17 381 17 429Q17 456 28 482Q39 508 55 532L108 614H207ZM347 500Q374 495 394 474.5Q414 454 414 419Q414 381 387.5 356Q361 331 322 331Q284 331 257 356Q230 381 230 429Q230 456 241 482Q252 508 268 532L321 614H420Z" glyph-name="quotedblleft" horiz-adv-x="435" unicode="&#8220;" /><glyph d="M88 455Q61 460 41 480.5Q21 501 21 536Q21 574 47.5 599Q74 624 113 624Q151 624 178 599Q205 574 205 526Q205 499 194 473Q183 447 167 423L114 341H15ZM301 455Q274 460 254 480.5Q234 501 234 536Q234 574 260.5 599Q287 624 326 624Q364 624 391 599Q418 574 418 526Q418 499 407 473Q396 447 380 423L327 341H228Z" glyph-name="quotedblright" horiz-adv-x="435" unicode="&#8221;" /><glyph d="M134 500Q161 495 181 474.5Q201 454 201 419Q201 381 174.5 356Q148 331 109 331Q71 331 44 356Q17 381 17 429Q17 456 28 482Q39 508 55 532L108 614H207Z" glyph-name="quoteleft" horiz-adv-x="222" unicode="&#8216;" /><glyph d="M88 455Q61 460 41 480.5Q21 501 21 536Q21 574 47.5 599Q74 624 113 624Q151 624 178 599Q205 574 205 526Q205 499 194 473Q183 447 167 423L114 341H15Z" glyph-name="quoteright" horiz-adv-x="222" unicode="&#8217;" /><glyph d="M88 1Q61 6 41 26.5Q21 47 21 82Q21 120 47.5 145Q74 170 113 170Q151 170 178 145Q205 120 205 72Q205 45 194 19Q183 -7 167 -31L114 -113H15Z" glyph-name="quotesinglbase" horiz-adv-x="222" unicode="&#8218;" /><glyph d="M36 614H164V355H36Z" glyph-name="quotesingle" horiz-adv-x="200" unicode="&apos;" /><glyph d="M344 301Q317 315 279 315Q247 315 226 301.5Q205 288 199 264V0H42V450H199V410Q216 433 241.5 446.5Q267 460 301 460Q316 460 327.5 457.5Q339 455 344 452Z" glyph-name="r" horiz-adv-x="365" unicode="r" /><glyph d="M121 500 203 650H352L265 500ZM344 301Q317 315 279 315Q247 315 226 301.5Q205 288 199 264V0H42V450H199V410Q216 433 241.5 446.5Q267 460 301 460Q316 460 327.5 457.5Q339 455 344 452Z" glyph-name="racute" horiz-adv-x="365" unicode="&#341;" /><glyph d="M258 498H138L42 649H158L198 593L238 649H354ZM344 301Q317 315 279 315Q247 315 226 301.5Q205 288 199 264V0H42V450H199V410Q216 433 241.5 446.5Q267 460 301 460Q316 460 327.5 457.5Q339 455 344 452Z" glyph-name="rcaron" horiz-adv-x="365" unicode="&#345;" /><glyph d="M86 -172Q66 -166 52 -148.5Q38 -131 38 -105Q38 -73 61 -53Q84 -33 119 -33Q151 -33 175.5 -53.5Q200 -74 200 -111Q200 -137 189 -157.5Q178 -178 161 -198L132 -236H37ZM344 301Q317 315 279 315Q247 315 226 301.5Q205 288 199 264V0H42V450H199V410Q216 433 241.5 446.5Q267 460 301 460Q316 460 327.5 457.5Q339 455 344 452Z" glyph-name="rcommaaccent" horiz-adv-x="365" unicode="&#343;" /><glyph d="M384 441Q384 401 369.5 367.5Q355 334 330.5 309.5Q306 285 273 271.5Q240 258 203 258Q166 258 133 271.5Q100 285 75.5 309.5Q51 334 36.5 367.5Q22 401 22 441Q22 481 36.5 514.5Q51 548 75.5 572.5Q100 597 133 610.5Q166 624 203 624Q240 624 273 610.5Q306 597 330.5 572.5Q355 548 369.5 514.5Q384 481 384 441ZM351 441Q351 474 339.5 502Q328 530 308 550.5Q288 571 261 582Q234 593 203 593Q172 593 145 582Q118 571 98 550.5Q78 530 66.5 502Q55 474 55 441Q55 408 66.5 380Q78 352 98 331.5Q118 311 145 300Q172 289 203 289Q234 289 261 300Q288 311 308 331.5Q328 352 339.5 380Q351 408 351 441ZM185 404V346H126V538H219Q251 538 271 520Q291 502 291 469Q291 448 281.5 433.5Q272 419 255 411L297 346H232L197 404ZM233 469Q233 489 210 489H185V451H210Q233 451 233 469Z" glyph-name="registered" horiz-adv-x="407" unicode="&#174;" /><glyph d="M358 589Q358 567 349.5 548Q341 529 326.5 515Q312 501 292.5 493Q273 485 250 485Q227 485 207.5 493Q188 501 173.5 515Q159 529 150.5 548Q142 567 142 589Q142 611 150.5 630.5Q159 650 173.5 664Q188 678 207.5 686.5Q227 695 250 695Q273 695 292.5 686.5Q312 678 326.5 664Q341 650 349.5 630.5Q358 611 358 589ZM286 589Q286 605 276 615.5Q266 626 250 626Q235 626 224.5 615.5Q214 605 214 589Q214 575 224.5 564.5Q235 554 250 554Q266 554 276 564.5Q286 575 286 589Z" glyph-name="ring" horiz-adv-x="500" unicode="&#730;" /><glyph d="M358 747Q358 725 349.5 706Q341 687 326.5 672.5Q312 658 292.5 650Q273 642 250 642Q227 642 207.5 650Q188 658 173.5 672.5Q159 687 150.5 706Q142 725 142 747Q142 769 150.5 788Q159 807 173.5 821.5Q188 836 207.5 844Q227 852 250 852Q273 852 292.5 844Q312 836 326.5 821.5Q341 807 349.5 788Q358 769 358 747ZM286 747Q286 762 276 772.5Q266 783 250 783Q235 783 224.5 772.5Q214 762 214 747Q214 732 224.5 721.5Q235 711 250 711Q266 711 276 721.5Q286 732 286 747Z" glyph-name="ring.cap" horiz-adv-x="500" /><glyph d="M26 165Q42 152 62.5 141.5Q83 131 104.5 123.5Q126 116 147 112Q168 108 185 108Q208 108 222 114Q236 120 236 135Q236 149 225.5 155Q215 161 195 166L160 175Q97 189 60.5 220.5Q24 252 24 313Q24 348 38 375.5Q52 403 76.5 421.5Q101 440 134.5 450Q168 460 208 460Q256 460 294 450Q332 440 365 420V291Q333 314 297 328.5Q261 343 223 343Q203 343 190.5 336.5Q178 330 178 316Q178 303 187 297.5Q196 292 213 287L254 275Q327 255 359 222.5Q391 190 391 133Q391 97 376.5 70Q362 43 336 25.5Q310 8 274.5 -1Q239 -10 197 -10Q149 -10 103.5 1Q58 12 26 33Z" glyph-name="s" horiz-adv-x="411" unicode="s" /><glyph d="M136 500 218 650H367L280 500ZM26 165Q42 152 62.5 141.5Q83 131 104.5 123.5Q126 116 147 112Q168 108 185 108Q208 108 222 114Q236 120 236 135Q236 149 225.5 155Q215 161 195 166L160 175Q97 189 60.5 220.5Q24 252 24 313Q24 348 38 375.5Q52 403 76.5 421.5Q101 440 134.5 450Q168 460 208 460Q256 460 294 450Q332 440 365 420V291Q333 314 297 328.5Q261 343 223 343Q203 343 190.5 336.5Q178 330 178 316Q178 303 187 297.5Q196 292 213 287L254 275Q327 255 359 222.5Q391 190 391 133Q391 97 376.5 70Q362 43 336 25.5Q310 8 274.5 -1Q239 -10 197 -10Q149 -10 103.5 1Q58 12 26 33Z" glyph-name="sacute" horiz-adv-x="411" unicode="&#347;" /><glyph d="M274 498H154L58 649H174L214 593L254 649H370ZM26 165Q42 152 62.5 141.5Q83 131 104.5 123.5Q126 116 147 112Q168 108 185 108Q208 108 222 114Q236 120 236 135Q236 149 225.5 155Q215 161 195 166L160 175Q97 189 60.5 220.5Q24 252 24 313Q24 348 38 375.5Q52 403 76.5 421.5Q101 440 134.5 450Q168 460 208 460Q256 460 294 450Q332 440 365 420V291Q333 314 297 328.5Q261 343 223 343Q203 343 190.5 336.5Q178 330 178 316Q178 303 187 297.5Q196 292 213 287L254 275Q327 255 359 222.5Q391 190 391 133Q391 97 376.5 70Q362 43 336 25.5Q310 8 274.5 -1Q239 -10 197 -10Q149 -10 103.5 1Q58 12 26 33Z" glyph-name="scaron" horiz-adv-x="411" unicode="&#353;" /><glyph d="M26 165Q42 152 62.5 141.5Q83 131 104.5 123.5Q126 116 147 112Q168 108 185 108Q208 108 222 114Q236 120 236 135Q236 149 225.5 155Q215 161 195 166L160 175Q97 189 60.5 220.5Q24 252 24 313Q24 348 38 375.5Q52 403 76.5 421.5Q101 440 134.5 450Q168 460 208 460Q256 460 294 450Q332 440 365 420V291Q333 314 297 328.5Q261 343 223 343Q203 343 190.5 336.5Q178 330 178 316Q178 303 187 297.5Q196 292 213 287L254 275Q327 255 359 222.5Q391 190 391 133Q391 97 376.5 70Q362 43 336 25.5Q310 8 274.5 -1Q239 -10 197 -10Q149 -10 103.5 1Q58 12 26 33ZM61 -181 130 -40H264L194 -181Z" glyph-name="scedilla" horiz-adv-x="411" unicode="&#351;" /><glyph d="M370 498H254L214 553L174 498H58L154 649H274ZM26 165Q42 152 62.5 141.5Q83 131 104.5 123.5Q126 116 147 112Q168 108 185 108Q208 108 222 114Q236 120 236 135Q236 149 225.5 155Q215 161 195 166L160 175Q97 189 60.5 220.5Q24 252 24 313Q24 348 38 375.5Q52 403 76.5 421.5Q101 440 134.5 450Q168 460 208 460Q256 460 294 450Q332 440 365 420V291Q333 314 297 328.5Q261 343 223 343Q203 343 190.5 336.5Q178 330 178 316Q178 303 187 297.5Q196 292 213 287L254 275Q327 255 359 222.5Q391 190 391 133Q391 97 376.5 70Q362 43 336 25.5Q310 8 274.5 -1Q239 -10 197 -10Q149 -10 103.5 1Q58 12 26 33Z" glyph-name="scircumflex" horiz-adv-x="411" unicode="&#349;" /><glyph d="M170 -172Q150 -166 136 -148.5Q122 -131 122 -105Q122 -73 145 -53Q168 -33 203 -33Q235 -33 259.5 -53.5Q284 -74 284 -111Q284 -137 273 -157.5Q262 -178 245 -198L216 -236H121ZM26 165Q42 152 62.5 141.5Q83 131 104.5 123.5Q126 116 147 112Q168 108 185 108Q208 108 222 114Q236 120 236 135Q236 149 225.5 155Q215 161 195 166L160 175Q97 189 60.5 220.5Q24 252 24 313Q24 348 38 375.5Q52 403 76.5 421.5Q101 440 134.5 450Q168 460 208 460Q256 460 294 450Q332 440 365 420V291Q333 314 297 328.5Q261 343 223 343Q203 343 190.5 336.5Q178 330 178 316Q178 303 187 297.5Q196 292 213 287L254 275Q327 255 359 222.5Q391 190 391 133Q391 97 376.5 70Q362 43 336 25.5Q310 8 274.5 -1Q239 -10 197 -10Q149 -10 103.5 1Q58 12 26 33Z" glyph-name="scommaaccent" horiz-adv-x="411" unicode="&#537;" /><glyph d="M189 334Q173 331 166.5 321Q160 311 160 299Q160 284 170.5 274Q181 264 197 253L293 190Q310 193 316.5 203Q323 213 323 225Q323 240 312.5 250Q302 260 286 271ZM97 406Q84 421 76.5 440Q69 459 69 485Q69 517 82.5 543Q96 569 120.5 587Q145 605 179 614.5Q213 624 253 624Q345 624 410 584V455Q378 478 341 492Q304 506 268 506Q246 506 233.5 498Q221 490 221 476Q221 464 229 456Q237 448 251 440L357 375Q405 346 434 315Q463 284 463 235Q463 197 442.5 166Q422 135 385 117Q399 103 406.5 84Q414 65 414 39Q414 7 400.5 -19Q387 -45 362.5 -63Q338 -81 304.5 -90.5Q271 -100 231 -100Q183 -100 144.5 -90Q106 -80 73 -60V69Q105 46 142 32Q179 18 215 18Q237 18 249.5 26Q262 34 262 48Q262 60 254 68Q246 76 232 84L126 149Q78 178 49 209Q20 240 20 289Q20 327 40 358Q60 389 97 406Z" glyph-name="section" horiz-adv-x="483" unicode="&#167;" /><glyph d="M87 10Q60 15 39.5 36Q19 57 19 92Q19 130 45.5 154.5Q72 179 112 179Q149 179 176.5 154.5Q204 130 204 82Q204 55 193 28.5Q182 2 166 -22L111 -105H12ZM19 352Q19 372 26 389Q33 406 45.5 418.5Q58 431 75 438Q92 445 111 445Q150 445 177 418.5Q204 392 204 352Q204 312 177 285Q150 258 111 258Q92 258 75 265Q58 272 45.5 285Q33 298 26 315Q19 332 19 352Z" glyph-name="semicolon" horiz-adv-x="223" unicode=";" /><glyph d="M105 10Q78 15 57.5 36Q37 57 37 92Q37 130 63.5 154.5Q90 179 130 179Q167 179 194.5 154.5Q222 130 222 82Q222 55 211 28.5Q200 2 184 -22L129 -105H30ZM37 352Q37 372 44 389Q51 406 63.5 418.5Q76 431 93 438Q110 445 129 445Q168 445 195 418.5Q222 392 222 352Q222 312 195 285Q168 258 129 258Q110 258 93 265Q76 272 63.5 285Q51 298 44 315Q37 332 37 352Z" glyph-name="semicolon.tab" horiz-adv-x="260" /><glyph d="M204 0H36L256 476H13V614H482V611Z" glyph-name="seven" horiz-adv-x="488" unicode="7" /><glyph d="M231 0H63L283 476H26V614H510V611Z" glyph-name="seven.lt" horiz-adv-x="520" /><glyph d="M136 264H27L147 524H14V614H295V612Z" glyph-name="sevensuperior" horiz-adv-x="313" unicode="&#8311;" /><glyph d="M256 -10Q206 -10 163 7Q120 24 88.5 54.5Q57 85 39.5 127Q22 169 22 218Q22 257 35.5 296.5Q49 336 81 391L210 614H381L276 429Q284 431 291 431Q336 428 372.5 410Q409 392 435.5 363.5Q462 335 476 297.5Q490 260 490 218Q490 169 472.5 127Q455 85 423.5 54.5Q392 24 349.5 7Q307 -10 256 -10ZM345 218Q345 256 320 282Q295 308 256 308Q218 308 193 282Q168 256 168 218Q168 180 193 154.5Q218 129 256 129Q295 129 320 154.5Q345 180 345 218Z" glyph-name="six" horiz-adv-x="510" unicode="6" /><glyph d="M260 -10Q210 -10 167 7Q124 24 92.5 54.5Q61 85 43.5 127Q26 169 26 218Q26 257 39.5 296.5Q53 336 85 391L214 614H385L280 429Q288 431 295 431Q340 428 376.5 410Q413 392 439.5 363.5Q466 335 480 297.5Q494 260 494 218Q494 169 476.5 127Q459 85 427.5 54.5Q396 24 353.5 7Q311 -10 260 -10ZM349 218Q349 256 324 282Q299 308 260 308Q222 308 197 282Q172 256 172 218Q172 180 197 154.5Q222 129 260 129Q299 129 324 154.5Q349 180 349 218Z" glyph-name="six.lt" horiz-adv-x="520" /><glyph d="M253 650H389L141 -84H5Z" glyph-name="slash" horiz-adv-x="394" unicode="/" /><glyph d="M253 670H389L141 -64H5Z" glyph-name="slash.cap" horiz-adv-x="394" /><glyph glyph-name="space" horiz-adv-x="200" unicode=" " /><glyph glyph-name="space.tab" horiz-adv-x="260" /><glyph d="M26 363H91V410Q91 459 107 498.5Q123 538 153 566Q183 594 225 609Q267 624 318 624Q358 624 392 615.5Q426 607 447 594V453Q426 467 398 475.5Q370 484 336 484Q293 484 268 459Q243 434 243 382V363H360V244H243V221Q243 195 238 170Q233 145 222 130H462V0H26V130H71Q81 147 86 167.5Q91 188 91 221V244H26Z" glyph-name="sterling" horiz-adv-x="480" unicode="&#163;" /><glyph d="M46 363H110V410Q110 459 126.5 498.5Q143 538 172.5 566Q202 594 244 609Q286 624 337 624Q377 624 411.5 615.5Q446 607 466 594V453Q445 467 417 475.5Q389 484 356 484Q312 484 287.5 459Q263 434 263 382V363H379V244H263V221Q263 195 258 170Q253 145 242 130H481V0H46V130H90Q100 147 105 167.5Q110 188 110 221V244H46Z" glyph-name="sterling.lt" horiz-adv-x="520" /><glyph d="M250 0H94V328H16V450H94V574H250V450H338V328H250Z" glyph-name="t" horiz-adv-x="354" unicode="t" /><glyph d="M250 269H307V158H250V0H94V158H41V269H94V328H16V450H94V574H250V450H338V328H250Z" glyph-name="tbar" horiz-adv-x="354" unicode="&#359;" /><glyph d="M282 487 325 654H447L403 487ZM250 0H94V328H16V450H94V574H250V450H338V328H250Z" glyph-name="tcaron" horiz-adv-x="354" unicode="&#357;" /><glyph d="M141 -172Q121 -166 107 -148.5Q93 -131 93 -105Q93 -73 116 -53Q139 -33 174 -33Q206 -33 230.5 -53.5Q255 -74 255 -111Q255 -137 244 -157.5Q233 -178 216 -198L187 -236H92ZM250 0H94V328H16V450H94V574H250V450H338V328H250Z" glyph-name="tcommaaccent" horiz-adv-x="354" unicode="&#355;" /><glyph d="M199 -159H42V650H199V414Q215 432 245 446Q275 460 310 460Q359 460 396.5 441.5Q434 423 459.5 391Q485 359 498 316Q511 273 511 225Q511 177 498 134.5Q485 92 459.5 59.5Q434 27 396.5 8.5Q359 -10 310 -10Q275 -10 245 4Q215 18 199 36ZM199 166Q208 147 226.5 135.5Q245 124 268 124Q309 124 331.5 152.5Q354 181 354 225Q354 269 331.5 298Q309 327 268 327Q245 327 226.5 315Q208 303 199 285Z" glyph-name="thorn" horiz-adv-x="529" unicode="&#254;" /><glyph d="M26 614H434V611L314 372Q371 348 402 304Q433 260 433 199Q433 149 415 110.5Q397 72 366 45Q335 18 293.5 4Q252 -10 206 -10Q142 -10 98.5 4.5Q55 19 23 42V189Q59 157 101.5 139Q144 121 189 121Q234 121 259 140.5Q284 160 284 198Q284 223 271.5 240.5Q259 258 238 268.5Q217 279 189.5 283Q162 287 131 285V288L226 476H26Z" glyph-name="three" horiz-adv-x="458" unicode="3" /><glyph d="M49 614H472V611L344 372Q404 350 438 305Q472 260 472 199Q472 149 453 110.5Q434 72 402 45Q370 18 327 4Q284 -10 236 -10Q170 -10 124.5 4.5Q79 19 45 42V189Q83 157 127.5 139Q172 121 218 121Q266 121 294 140.5Q322 160 322 198Q322 223 308.5 240.5Q295 258 272 268.5Q249 279 219.5 283Q190 287 158 285V288L260 476H49Z" glyph-name="three.lt" horiz-adv-x="520" /><glyph d="M21 350H266V348L199 214Q229 199 246.5 173.5Q264 148 264 116Q264 87 253.5 64Q243 41 224.5 25.5Q206 10 181 2Q156 -6 128 -6Q91 -6 65.5 2.5Q40 11 20 24V120Q65 81 116 81Q163 81 163 116Q163 141 138 150Q113 159 82 156V158L133 257H21Z" glyph-name="threeinferior" horiz-adv-x="284" unicode="&#8323;" /><glyph d="M195 0H103L523 614H615ZM523 145H569V196H659V145H703V58H659V0H569V58H403V117L515 350H617ZM37 614H281V612L214 478Q245 463 262 437.5Q279 412 279 380Q279 351 268.5 328Q258 305 239.5 289.5Q221 274 196.5 266Q172 258 144 258Q106 258 80.5 266.5Q55 275 35 288V383Q57 365 81.5 355Q106 345 131 345Q179 345 179 380Q179 405 153.5 414Q128 423 97 420V422L149 521H37Z" glyph-name="threequarters" horiz-adv-x="732" unicode="&#190;" /><glyph d="M22 614H266V612L199 478Q230 463 247 437.5Q264 412 264 380Q264 351 253.5 328Q243 305 224.5 289.5Q206 274 181.5 266Q157 258 129 258Q91 258 65.5 266.5Q40 275 20 288V383Q42 365 66.5 355Q91 345 116 345Q164 345 164 380Q164 405 138.5 414Q113 423 82 420V422L134 521H22Z" glyph-name="threesuperior" horiz-adv-x="284" unicode="&#179;" /><glyph d="M399 647Q399 617 394.5 589.5Q390 562 379.5 541.5Q369 521 352.5 509Q336 497 311 497Q294 497 280.5 502.5Q267 508 256 515Q245 522 234.5 527.5Q224 533 212 533Q200 533 193.5 524Q187 515 187 500H101Q101 530 105.5 557.5Q110 585 120.5 605.5Q131 626 147.5 638Q164 650 189 650Q206 650 219.5 644.5Q233 639 244 632Q255 625 265.5 619.5Q276 614 288 614Q299 614 306 623Q313 632 313 647Z" glyph-name="tilde" horiz-adv-x="500" unicode="&#732;" /><glyph d="M407 809Q407 779 402.5 751.5Q398 724 387.5 703.5Q377 683 360.5 671Q344 659 319 659Q301 659 285.5 664.5Q270 670 256 676.5Q242 683 229.5 688.5Q217 694 204 694Q180 694 178 663H93Q93 693 97.5 720Q102 747 112.5 768Q123 789 139.5 801Q156 813 181 813Q199 813 214.5 807.5Q230 802 244 795.5Q258 789 270.5 783.5Q283 778 296 778Q320 778 322 809Z" glyph-name="tilde.cap" horiz-adv-x="500" /><glyph d="M20 614H255V541H178V360H96V541H20ZM427 407 367 487V360H287V614H363L428 521L494 614H570V360H490V487L430 407Z" glyph-name="trademark" horiz-adv-x="604" unicode="&#8482;" /><glyph d="M461 138V0H12V4L192 244Q213 271 228.5 293Q244 315 255 333.5Q266 352 271.5 369.5Q277 387 277 407Q277 438 257 456Q237 474 200 474Q176 474 152.5 467Q129 460 107 448.5Q85 437 65.5 424Q46 411 31 399V553Q66 582 120.5 603Q175 624 242 624Q335 624 388.5 573.5Q442 523 442 439Q442 410 434 382.5Q426 355 412.5 328Q399 301 381.5 274.5Q364 248 344 220L284 138Z" glyph-name="two" horiz-adv-x="480" unicode="2" /><glyph d="M477 138V0H22V4L202 244Q223 271 238.5 293Q254 315 264.5 333.5Q275 352 280.5 369.5Q286 387 286 407Q286 438 266.5 456Q247 474 210 474Q186 474 162.5 467Q139 460 116.5 448.5Q94 437 75 424Q56 411 41 399V553Q76 582 130.5 603Q185 624 252 624Q298 624 335 610.5Q372 597 398 573Q424 549 438 515Q452 481 452 439Q452 410 444 382.5Q436 355 422.5 328Q409 301 391.5 274.5Q374 248 354 220L294 138Z" glyph-name="two.lt" horiz-adv-x="520" /><glyph d="M284 92V0H13V2L116 140Q140 172 150 188.5Q160 205 160 223Q160 238 150 247Q140 256 121 256Q96 256 69.5 241.5Q43 227 26 215V316Q46 332 79 343.5Q112 355 154 355Q208 355 239.5 326Q271 297 271 249Q271 217 254 188.5Q237 160 217 131L191 92Z" glyph-name="twoinferior" horiz-adv-x="300" unicode="&#8322;" /><glyph d="M284 356V264H13V266L116 404Q139 436 149.5 452.5Q160 469 160 487Q160 502 150 511Q140 520 121 520Q95 520 69 505.5Q43 491 26 479V580Q46 596 79 607.5Q112 619 154 619Q208 619 239 590Q270 561 270 513Q270 481 253.5 452Q237 423 217 394L190 356Z" glyph-name="twosuperior" horiz-adv-x="300" unicode="&#178;" /><glyph d="M475 0H318V39Q300 18 268 4Q236 -10 198 -10Q123 -10 81.5 35Q40 80 40 155V450H196V192Q196 163 210 145Q224 127 254 127Q276 127 294 140.5Q312 154 318 177V450H475Z" glyph-name="u" horiz-adv-x="517" unicode="u" /><glyph d="M182 500 264 650H413L326 500ZM475 0H318V39Q300 18 268 4Q236 -10 198 -10Q123 -10 81.5 35Q40 80 40 155V450H196V192Q196 163 210 145Q224 127 254 127Q276 127 294 140.5Q312 154 318 177V450H475Z" glyph-name="uacute" horiz-adv-x="517" unicode="&#250;" /><glyph d="M475 0H318V39Q300 18 268 4Q236 -10 198 -10Q123 -10 81.5 35Q40 80 40 155V450H196V192Q196 163 210 145Q224 127 254 127Q276 127 294 140.5Q312 154 318 177V450H475ZM258 488Q196 488 155.5 526Q115 564 115 638H223Q223 591 258 591Q294 591 294 638H401Q401 564 360.5 526Q320 488 258 488Z" glyph-name="ubreve" horiz-adv-x="517" unicode="&#365;" /><glyph d="M414 498H298L258 553L218 498H102L198 649H318ZM475 0H318V39Q300 18 268 4Q236 -10 198 -10Q123 -10 81.5 35Q40 80 40 155V450H196V192Q196 163 210 145Q224 127 254 127Q276 127 294 140.5Q312 154 318 177V450H475Z" glyph-name="ucircumflex" horiz-adv-x="517" unicode="&#251;" /><glyph d="M93 567Q93 599 115.5 621.5Q138 644 170 644Q202 644 224.5 621.5Q247 599 247 567Q247 535 224.5 513Q202 491 170 491Q138 491 115.5 513Q93 535 93 567ZM270 567Q270 599 292 621.5Q314 644 346 644Q362 644 376 638Q390 632 400.5 621.5Q411 611 417.5 597Q424 583 424 567Q424 535 401 513Q378 491 346 491Q314 491 292 513Q270 535 270 567ZM475 0H318V39Q300 18 268 4Q236 -10 198 -10Q123 -10 81.5 35Q40 80 40 155V450H196V192Q196 163 210 145Q224 127 254 127Q276 127 294 140.5Q312 154 318 177V450H475Z" glyph-name="udieresis" horiz-adv-x="517" unicode="&#252;" /><glyph d="M475 0H318V39Q300 18 268 4Q236 -10 198 -10Q123 -10 81.5 35Q40 80 40 155V450H196V192Q196 163 210 145Q224 127 254 127Q276 127 294 140.5Q312 154 318 177V450H475ZM191 500 104 650H253L335 500Z" glyph-name="ugrave" horiz-adv-x="517" unicode="&#249;" /><glyph d="M475 0H318V39Q300 18 268 4Q236 -10 198 -10Q123 -10 81.5 35Q40 80 40 155V450H196V192Q196 163 210 145Q224 127 254 127Q276 127 294 140.5Q312 154 318 177V450H475ZM115 500 191 650H314L237 500ZM274 500 350 650H472L395 500Z" glyph-name="uhungarumlaut" horiz-adv-x="517" unicode="&#369;" /><glyph d="M475 0H318V39Q300 18 268 4Q236 -10 198 -10Q123 -10 81.5 35Q40 80 40 155V450H196V192Q196 163 210 145Q224 127 254 127Q276 127 294 140.5Q312 154 318 177V450H475ZM132 612H385V504H132Z" glyph-name="umacron" horiz-adv-x="517" unicode="&#363;" /><glyph d="M20 -42H361V-161H20Z" glyph-name="underscore" horiz-adv-x="381" unicode="_" /><glyph d="M182 0H90L510 614H602ZM463 350H708V348L641 214Q671 199 688.5 173.5Q706 148 706 116Q706 87 695.5 64Q685 41 666.5 25.5Q648 10 623 2Q598 -6 570 -6Q533 -6 507.5 2.5Q482 11 462 24V120Q507 81 558 81Q605 81 605 116Q605 141 580 150Q555 159 524 156V158L575 257H463ZM215 264H111V497L24 455V560L139 614H215Z" glyph-name="uni2153" horiz-adv-x="740" unicode="&#8531;" /><glyph d="M246 0H154L574 614H666ZM527 350H772V348L705 214Q735 199 752.5 173.5Q770 148 770 116Q770 87 759.5 64Q749 41 730.5 25.5Q712 10 687 2Q662 -6 634 -6Q597 -6 571.5 2.5Q546 11 526 24V120Q571 81 622 81Q669 81 669 116Q669 141 644 150Q619 159 588 156V158L639 257H527ZM299 358V266H28V268L131 406Q154 438 164.5 454.5Q175 471 175 489Q175 504 165 513Q155 522 136 522Q110 522 84 507.5Q58 493 41 481V582Q61 598 94 609.5Q127 621 169 621Q223 621 254 592Q285 563 285 515Q285 483 268.5 454Q252 425 232 396L205 358Z" glyph-name="uni2154" horiz-adv-x="805" unicode="&#8532;" /><glyph d="M182 0H90L510 614H602ZM562 75Q578 75 588 83.5Q598 92 598 106Q598 120 588 129Q578 138 562 138Q546 138 535.5 129Q525 120 525 106Q525 92 535.5 83.5Q546 75 562 75ZM562 218Q577 218 586.5 226.5Q596 235 596 248Q596 262 586.5 270Q577 278 562 278Q547 278 537.5 270Q528 262 528 248Q528 235 537.5 226.5Q547 218 562 218ZM562 -5Q533 -5 508 2Q483 9 464.5 22Q446 35 435 54Q424 73 424 97Q424 127 438.5 147Q453 167 476 176Q456 187 446 207Q436 227 436 250Q436 276 446.5 295.5Q457 315 474 328.5Q491 342 514 349Q537 356 562 356Q587 356 609.5 349Q632 342 649.5 328.5Q667 315 677.5 295.5Q688 276 688 250Q688 227 678 207Q668 187 647 176Q670 167 684.5 147Q699 127 699 97Q699 73 688.5 54Q678 35 659 22Q640 9 615 2Q590 -5 562 -5ZM215 264H111V497L24 455V560L139 614H215Z" glyph-name="uni215B" horiz-adv-x="740" unicode="&#8539;" /><glyph d="M195 0H103L523 614H615ZM575 75Q591 75 601 83.5Q611 92 611 106Q611 120 601 129Q591 138 575 138Q559 138 548.5 129Q538 120 538 106Q538 92 548.5 83.5Q559 75 575 75ZM575 218Q590 218 599.5 226.5Q609 235 609 248Q609 262 599.5 270Q590 278 575 278Q560 278 550.5 270Q541 262 541 248Q541 235 550.5 226.5Q560 218 575 218ZM575 -5Q546 -5 521 2Q496 9 477.5 22Q459 35 448 54Q437 73 437 97Q437 127 451.5 147Q466 167 489 176Q469 187 459 207Q449 227 449 250Q449 276 459.5 295.5Q470 315 487 328.5Q504 342 527 349Q550 356 575 356Q600 356 622.5 349Q645 342 662.5 328.5Q680 315 690.5 295.5Q701 276 701 250Q701 227 691 207Q681 187 660 176Q683 167 697.5 147Q712 127 712 97Q712 73 701.5 54Q691 35 672 22Q653 9 628 2Q603 -5 575 -5ZM37 614H281V612L214 478Q245 463 262 437.5Q279 412 279 380Q279 351 268.5 328Q258 305 239.5 289.5Q221 274 196.5 266Q172 258 144 258Q106 258 80.5 266.5Q55 275 35 288V383Q57 365 81.5 355Q106 345 131 345Q179 345 179 380Q179 405 153.5 414Q128 423 97 420V422L149 521H37Z" glyph-name="uni215C" horiz-adv-x="753" unicode="&#8540;" /><glyph d="M197 0H105L525 614H617ZM577 75Q593 75 603 83.5Q613 92 613 106Q613 120 603 129Q593 138 577 138Q561 138 550.5 129Q540 120 540 106Q540 92 550.5 83.5Q561 75 577 75ZM577 218Q592 218 601.5 226.5Q611 235 611 248Q611 262 601.5 270Q592 278 577 278Q562 278 552.5 270Q543 262 543 248Q543 235 552.5 226.5Q562 218 577 218ZM577 -5Q548 -5 523 2Q498 9 479.5 22Q461 35 450 54Q439 73 439 97Q439 127 453.5 147Q468 167 491 176Q471 187 461 207Q451 227 451 250Q451 276 461.5 295.5Q472 315 489 328.5Q506 342 529 349Q552 356 577 356Q602 356 624.5 349Q647 342 664.5 328.5Q682 315 692.5 295.5Q703 276 703 250Q703 227 693 207Q683 187 662 176Q685 167 699.5 147Q714 127 714 97Q714 73 703.5 54Q693 35 674 22Q655 9 630 2Q605 -5 577 -5ZM153 492Q208 492 244 462Q280 432 280 378Q280 351 269.5 329Q259 307 240.5 291Q222 275 197 266.5Q172 258 143 258Q107 258 81 266.5Q55 275 35 288V380Q52 364 78.5 353Q105 342 132 342Q152 342 166.5 350.5Q181 359 181 377Q181 395 166.5 404Q152 413 128 413Q108 413 84.5 409.5Q61 406 47 400V614H260V524H130V490Q140 492 153 492Z" glyph-name="uni215D" horiz-adv-x="756" unicode="&#8541;" /><glyph d="M157 0H65L485 614H577ZM537 75Q553 75 563 83.5Q573 92 573 106Q573 120 563 129Q553 138 537 138Q521 138 510.5 129Q500 120 500 106Q500 92 510.5 83.5Q521 75 537 75ZM537 218Q552 218 561.5 226.5Q571 235 571 248Q571 262 561.5 270Q552 278 537 278Q522 278 512.5 270Q503 262 503 248Q503 235 512.5 226.5Q522 218 537 218ZM537 -5Q508 -5 483 2Q458 9 439.5 22Q421 35 410 54Q399 73 399 97Q399 127 413.5 147Q428 167 451 176Q431 187 421 207Q411 227 411 250Q411 276 421.5 295.5Q432 315 449 328.5Q466 342 489 349Q512 356 537 356Q562 356 584.5 349Q607 342 624.5 328.5Q642 315 652.5 295.5Q663 276 663 250Q663 227 653 207Q643 187 622 176Q645 167 659.5 147Q674 127 674 97Q674 73 663.5 54Q653 35 634 22Q615 9 590 2Q565 -5 537 -5ZM151 264H42L162 524H29V614H310V612Z" glyph-name="uni215E" horiz-adv-x="716" unicode="&#8542;" /><glyph d="M475 0Q459 -18 449 -30Q439 -42 433 -49.5Q427 -57 425 -63Q423 -69 423 -75Q423 -94 443 -94Q451 -94 458.5 -90.5Q466 -87 478 -79V-166Q464 -174 448.5 -179.5Q433 -185 413 -185Q373 -185 347 -165Q321 -145 321 -106Q321 -77 337 -52Q353 -27 376 0H318V39Q300 18 268 4Q236 -10 198 -10Q123 -10 81.5 35Q40 80 40 155V450H196V192Q196 163 210 145Q224 127 254 127Q276 127 294 140.5Q312 154 318 177V450H475Z" glyph-name="uogonek" horiz-adv-x="517" unicode="&#371;" /><glyph d="M366 589Q366 567 357.5 548Q349 529 334.5 515Q320 501 300.5 493Q281 485 258 485Q235 485 215.5 493Q196 501 181.5 515Q167 529 158.5 548Q150 567 150 589Q150 611 158.5 630.5Q167 650 181.5 664Q196 678 215.5 686.5Q235 695 258 695Q281 695 300.5 686.5Q320 678 334.5 664Q349 650 357.5 630.5Q366 611 366 589ZM294 589Q294 605 284 615.5Q274 626 258 626Q243 626 232.5 615.5Q222 605 222 589Q222 575 232.5 564.5Q243 554 258 554Q274 554 284 564.5Q294 575 294 589ZM475 0H318V39Q300 18 268 4Q236 -10 198 -10Q123 -10 81.5 35Q40 80 40 155V450H196V192Q196 163 210 145Q224 127 254 127Q276 127 294 140.5Q312 154 318 177V450H475Z" glyph-name="uring" horiz-adv-x="517" unicode="&#367;" /><glyph d="M475 0H318V39Q300 18 268 4Q236 -10 198 -10Q123 -10 81.5 35Q40 80 40 155V450H196V192Q196 163 210 145Q224 127 254 127Q276 127 294 140.5Q312 154 318 177V450H475ZM407 647Q407 617 402.5 589.5Q398 562 387.5 541.5Q377 521 360.5 509Q344 497 319 497Q302 497 288.5 502.5Q275 508 264 515Q253 522 242.5 527.5Q232 533 220 533Q208 533 201.5 524Q195 515 195 500H109Q109 530 113.5 557.5Q118 585 128.5 605.5Q139 626 155.5 638Q172 650 197 650Q214 650 227.5 644.5Q241 639 252 632Q263 625 273.5 619.5Q284 614 296 614Q307 614 314 623Q321 632 321 647Z" glyph-name="utilde" horiz-adv-x="517" unicode="&#361;" /><glyph d="M178 0 7 450H167L253 192L337 450H491L319 0Z" glyph-name="v" horiz-adv-x="497" unicode="v" /><glyph d="M469 206 541 450H691L546 0H413L349 228L285 0H152L7 450H163L234 206L302 450H402Z" glyph-name="w" horiz-adv-x="698" unicode="w" /><glyph d="M272 500 354 650H503L416 500ZM469 206 541 450H691L546 0H413L349 228L285 0H152L7 450H163L234 206L302 450H402Z" glyph-name="wacute" horiz-adv-x="698" unicode="&#7811;" /><glyph d="M505 498H389L349 553L309 498H193L289 649H409ZM469 206 541 450H691L546 0H413L349 228L285 0H152L7 450H163L234 206L302 450H402Z" glyph-name="wcircumflex" horiz-adv-x="698" unicode="&#373;" /><glyph d="M184 567Q184 599 206.5 621.5Q229 644 261 644Q293 644 315.5 621.5Q338 599 338 567Q338 535 315.5 513Q293 491 261 491Q229 491 206.5 513Q184 535 184 567ZM361 567Q361 599 383 621.5Q405 644 437 644Q453 644 467 638Q481 632 491.5 621.5Q502 611 508.5 597Q515 583 515 567Q515 535 492 513Q469 491 437 491Q405 491 383 513Q361 535 361 567ZM469 206 541 450H691L546 0H413L349 228L285 0H152L7 450H163L234 206L302 450H402Z" glyph-name="wdieresis" horiz-adv-x="698" unicode="&#7813;" /><glyph d="M469 206 541 450H691L546 0H413L349 228L285 0H152L7 450H163L234 206L302 450H402ZM280 500 193 650H342L424 500Z" glyph-name="wgrave" horiz-adv-x="698" unicode="&#7809;" /><glyph d="M332 230 490 0H320L243 117L166 0H4L161 229L11 450H180L250 342L321 450H483Z" glyph-name="x" horiz-adv-x="494" unicode="x" /><glyph d="M109 -159 175 11 7 450H170L256 194L340 450H496L264 -159Z" glyph-name="y" horiz-adv-x="502" unicode="y" /><glyph d="M109 -159 175 11 7 450H170L256 194L340 450H496L264 -159ZM180 500 262 650H411L324 500Z" glyph-name="yacute" horiz-adv-x="502" unicode="&#253;" /><glyph d="M109 -159 175 11 7 450H170L256 194L340 450H496L264 -159ZM412 498H296L256 553L216 498H100L196 649H316Z" glyph-name="ycircumflex" horiz-adv-x="502" unicode="&#375;" /><glyph d="M109 -159 175 11 7 450H170L256 194L340 450H496L264 -159ZM91 567Q91 599 113.5 621.5Q136 644 168 644Q200 644 222.5 621.5Q245 599 245 567Q245 535 222.5 513Q200 491 168 491Q136 491 113.5 513Q91 535 91 567ZM268 567Q268 599 290 621.5Q312 644 344 644Q360 644 374 638Q388 632 398.5 621.5Q409 611 415.5 597Q422 583 422 567Q422 535 399 513Q376 491 344 491Q312 491 290 513Q268 535 268 567Z" glyph-name="ydieresis" horiz-adv-x="502" unicode="&#255;" /><glyph d="M63 336H159L14 614H188L290 400L392 614H559L412 336H509V244H364V196H509V104H364V0H207V104H63V196H207V244H63Z" glyph-name="yen" horiz-adv-x="573" unicode="&#165;" /><glyph d="M42 336H137L10 614H178L263 411L348 614H510L380 336H476V244H337V196H476V104H337V0H180V104H42V196H180V244H42Z" glyph-name="yen.lt" horiz-adv-x="520" /><glyph d="M109 -159 175 11 7 450H170L256 194L340 450H496L264 -159ZM189 500 102 650H251L333 500Z" glyph-name="ygrave" horiz-adv-x="502" unicode="&#7923;" /><glyph d="M419 0H16V4L200 328H27V450H419V446L244 123H419Z" glyph-name="z" horiz-adv-x="444" unicode="z" /><glyph d="M148 500 230 650H379L292 500ZM419 0H16V4L200 328H27V450H419V446L244 123H419Z" glyph-name="zacute" horiz-adv-x="444" unicode="&#378;" /><glyph d="M285 498H165L69 649H185L225 593L265 649H381ZM419 0H16V4L200 328H27V450H419V446L244 123H419Z" glyph-name="zcaron" horiz-adv-x="444" unicode="&#382;" /><glyph d="M419 0H16V4L200 328H27V450H419V446L244 123H419ZM314 579Q314 541 287.5 518Q261 495 225 495Q189 495 162.5 518Q136 541 136 579Q136 618 162.5 641Q189 664 225 664Q261 664 287.5 641Q314 618 314 579Z" glyph-name="zdotaccent" horiz-adv-x="444" unicode="&#380;" /><glyph d="M279 -10Q222 -10 175.5 13Q129 36 95.5 78Q62 120 43.5 178.5Q25 237 25 307Q25 377 43.5 435.5Q62 494 95.5 536Q129 578 175.5 601Q222 624 279 624Q336 624 382.5 601Q429 578 463 536Q497 494 515.5 435.5Q534 377 534 307Q534 237 515.5 178.5Q497 120 463 78Q429 36 382.5 13Q336 -10 279 -10ZM279 483Q252 483 233.5 469Q215 455 203 431Q191 407 185.5 375Q180 343 180 307Q180 271 185.5 239Q191 207 203 183Q215 159 233.5 145Q252 131 279 131Q306 131 324.5 145Q343 159 355 183Q367 207 372.5 239Q378 271 378 307Q378 343 372.5 375Q367 407 355 431Q343 455 324.5 469Q306 483 279 483Z" glyph-name="zero" horiz-adv-x="559" unicode="0" /><glyph d="M260 -10Q203 -10 158.5 13Q114 36 83.5 78Q53 120 36.5 178.5Q20 237 20 307Q20 377 36.5 435.5Q53 494 83.5 536Q114 578 158.5 601Q203 624 260 624Q317 624 361.5 601Q406 578 436.5 536Q467 494 483.5 435.5Q500 377 500 307Q500 237 483.5 178.5Q467 120 436.5 78Q406 36 361.5 13Q317 -10 260 -10ZM260 483Q236 483 219.5 469Q203 455 193.5 431Q184 407 180 375Q176 343 176 307Q176 271 180 239Q184 207 193.5 183Q203 159 219.5 145Q236 131 260 131Q284 131 300 145Q316 159 326 183Q336 207 340 239Q344 271 344 307Q344 343 340 375Q336 407 326 431Q316 455 300 469Q284 483 260 483Z" glyph-name="zero.lt" horiz-adv-x="520" /></font>
</defs>
</svg>
